  0
SECTION
  2
HEADER
  9
$ACADVER
  1
AC1015
  9
$ACADMAINTVER
 70
     6
  9
$DWGCODEPAGE
  3
ANSI_949
  9
$INSBASE
 10
0.0
 20
0.0
 30
0.0
  9
$EXTMIN
 10
-50.31500794836212
 20
-49.97073246008785
 30
0.0
  9
$EXTMAX
 10
36.56270767443011
 20
28.61341044024269
 30
0.0
  9
$LIMMIN
 10
0.0
 20
0.0
  9
$LIMMAX
 10
420.0
 20
297.0
  9
$ORTHOMODE
 70
     0
  9
$REGENMODE
 70
     1
  9
$FILLMODE
 70
     1
  9
$QTEXTMODE
 70
     0
  9
$MIRRTEXT
 70
     1
  9
$LTSCALE
 40
1.0
  9
$ATTMODE
 70
     1
  9
$TEXTSIZE
 40
3.5
  9
$TRACEWID
 40
1.0
  9
$TEXTSTYLE
  7
Standard
  9
$CLAYER
  8
0
  9
$CELTYPE
  6
ByLayer
  9
$CECOLOR
 62
   256
  9
$CELTSCALE
 40
1.0
  9
$DISPSILH
 70
     0
  9
$DIMSCALE
 40
1.0
  9
$DIMASZ
 40
3.302
  9
$DIMEXO
 40
1.0
  9
$DIMDLI
 40
3.75
  9
$DIMRND
 40
0.0
  9
$DIMDLE
 40
0.0
  9
$DIMEXE
 40
1.0
  9
$DIMTP
 40
0.0
  9
$DIMTM
 40
0.0
  9
$DIMTXT
 40
3.5
  9
$DIMCEN
 40
2.5
  9
$DIMTSZ
 40
0.0
  9
$DIMTOL
 70
     0
  9
$DIMLIM
 70
     0
  9
$DIMTIH
 70
     1
  9
$DIMTOH
 70
     1
  9
$DIMSE1
 70
     0
  9
$DIMSE2
 70
     0
  9
$DIMTAD
 70
     1
  9
$DIMZIN
 70
     0
  9
$DIMBLK
  1

  9
$DIMASO
 70
     1
  9
$DIMSHO
 70
     1
  9
$DIMPOST
  1

  9
$DIMAPOST
  1

  9
$DIMALT
 70
     0
  9
$DIMALTD
 70
     3
  9
$DIMALTF
 40
0.0393700787401575
  9
$DIMLFAC
 40
1.0
  9
$DIMTOFL
 70
     1
  9
$DIMTVP
 40
0.0
  9
$DIMTIX
 70
     0
  9
$DIMSOXD
 70
     0
  9
$DIMSAH
 70
     0
  9
$DIMBLK1
  1

  9
$DIMBLK2
  1

  9
$DIMSTYLE
  2
ISO-25
  9
$DIMCLRD
 70
     0
  9
$DIMCLRE
 70
     0
  9
$DIMCLRT
 70
     0
  9
$DIMTFAC
 40
1.0
  9
$DIMGAP
 40
1.524
  9
$DIMJUST
 70
     0
  9
$DIMSD1
 70
     0
  9
$DIMSD2
 70
     0
  9
$DIMTOLJ
 70
     0
  9
$DIMTZIN
 70
     0
  9
$DIMALTZ
 70
     0
  9
$DIMALTTZ
 70
     0
  9
$DIMUPT
 70
     0
  9
$DIMDEC
 70
     2
  9
$DIMTDEC
 70
     2
  9
$DIMALTU
 70
     2
  9
$DIMALTTD
 70
     3
  9
$DIMTXSTY
  7
Standard
  9
$DIMAUNIT
 70
     0
  9
$DIMADEC
 70
     2
  9
$DIMALTRND
 40
0.0
  9
$DIMAZIN
 70
     0
  9
$DIMDSEP
 70
    44
  9
$DIMATFIT
 70
     3
  9
$DIMFRAC
 70
     0
  9
$DIMLDRBLK
  1

  9
$DIMLUNIT
 70
     2
  9
$DIMLWD
 70
    -2
  9
$DIMLWE
 70
    -2
  9
$DIMTMOVE
 70
     0
  9
$LUNITS
 70
     2
  9
$LUPREC
 70
     2
  9
$SKETCHINC
 40
1.0
  9
$FILLETRAD
 40
10.0
  9
$AUNITS
 70
     0
  9
$AUPREC
 70
     2
  9
$MENU
  1
.
  9
$ELEVATION
 40
0.0
  9
$PELEVATION
 40
0.0
  9
$THICKNESS
 40
0.0
  9
$LIMCHECK
 70
     0
  9
$CHAMFERA
 40
0.0
  9
$CHAMFERB
 40
0.0
  9
$CHAMFERC
 40
0.0
  9
$CHAMFERD
 40
0.0
  9
$SKPOLY
 70
     0
  9
$TDCREATE
 40
2458262.534596111
  9
$TDUCREATE
 40
2458262.159596111
  9
$TDUPDATE
 40
2458264.77171728
  9
$TDUUPDATE
 40
2458264.39671728
  9
$TDINDWG
 40
0.0033241435
  9
$TDUSRTIMER
 40
2458264.396500104
  9
$USRTIMER
 70
     1
  9
$ANGBASE
 50
0.0
  9
$ANGDIR
 70
     0
  9
$PDMODE
 70
     0
  9
$PDSIZE
 40
-1.0
  9
$PLINEWID
 40
0.0
  9
$SPLFRAME
 70
     0
  9
$SPLINETYPE
 70
     6
  9
$SPLINESEGS
 70
     8
  9
$HANDSEED
  5
189
  9
$SURFTAB1
 70
     6
  9
$SURFTAB2
 70
     6
  9
$SURFTYPE
 70
     6
  9
$SURFU
 70
     6
  9
$SURFV
 70
     6
  9
$UCSBASE
  2

  9
$UCSNAME
  2

  9
$UCSORG
 10
0.0
 20
0.0
 30
0.0
  9
$UCSXDIR
 10
1.0
 20
0.0
 30
0.0
  9
$UCSYDIR
 10
0.0
 20
1.0
 30
0.0
  9
$UCSORTHOREF
  2

  9
$UCSORTHOVIEW
 70
     0
  9
$UCSORGTOP
 10
0.0
 20
0.0
 30
0.0
  9
$UCSORGBOTTOM
 10
0.0
 20
0.0
 30
0.0
  9
$UCSORGLEFT
 10
0.0
 20
0.0
 30
0.0
  9
$UCSORGRIGHT
 10
0.0
 20
0.0
 30
0.0
  9
$UCSORGFRONT
 10
0.0
 20
0.0
 30
0.0
  9
$UCSORGBACK
 10
0.0
 20
0.0
 30
0.0
  9
$PUCSBASE
  2

  9
$PUCSNAME
  2

  9
$PUCSORG
 10
0.0
 20
0.0
 30
0.0
  9
$PUCSXDIR
 10
1.0
 20
0.0
 30
0.0
  9
$PUCSYDIR
 10
0.0
 20
1.0
 30
0.0
  9
$PUCSORTHOREF
  2

  9
$PUCSORTHOVIEW
 70
     0
  9
$PUCSORGTOP
 10
0.0
 20
0.0
 30
0.0
  9
$PUCSORGBOTTOM
 10
0.0
 20
0.0
 30
0.0
  9
$PUCSORGLEFT
 10
0.0
 20
0.0
 30
0.0
  9
$PUCSORGRIGHT
 10
0.0
 20
0.0
 30
0.0
  9
$PUCSORGFRONT
 10
0.0
 20
0.0
 30
0.0
  9
$PUCSORGBACK
 10
0.0
 20
0.0
 30
0.0
  9
$USERI1
 70
     0
  9
$USERI2
 70
     0
  9
$USERI3
 70
     0
  9
$USERI4
 70
     0
  9
$USERI5
 70
     0
  9
$USERR1
 40
0.0
  9
$USERR2
 40
0.0
  9
$USERR3
 40
0.0
  9
$USERR4
 40
0.0
  9
$USERR5
 40
0.0
  9
$WORLDVIEW
 70
     1
  9
$SHADEDGE
 70
     3
  9
$SHADEDIF
 70
    70
  9
$TILEMODE
 70
     1
  9
$MAXACTVP
 70
    64
  9
$PINSBASE
 10
0.0
 20
0.0
 30
0.0
  9
$PLIMCHECK
 70
     0
  9
$PEXTMIN
 10
1.000000000000000E+20
 20
1.000000000000000E+20
 30
1.000000000000000E+20
  9
$PEXTMAX
 10
-1.000000000000000E+20
 20
-1.000000000000000E+20
 30
-1.000000000000000E+20
  9
$PLIMMIN
 10
0.0
 20
0.0
  9
$PLIMMAX
 10
0.0
 20
0.0
  9
$UNITMODE
 70
     0
  9
$VISRETAIN
 70
     1
  9
$PLINEGEN
 70
     0
  9
$PSLTSCALE
 70
     1
  9
$TREEDEPTH
 70
  3020
  9
$CMLSTYLE
  2
Standard
  9
$CMLJUST
 70
     0
  9
$CMLSCALE
 40
20.0
  9
$PROXYGRAPHICS
 70
     1
  9
$MEASUREMENT
 70
     1
  9
$CELWEIGHT
370
    -1
  9
$ENDCAPS
280
     0
  9
$JOINSTYLE
280
     0
  9
$LWDISPLAY
290
     1
  9
$INSUNITS
 70
     4
  9
$HYPERLINKBASE
  1

  9
$STYLESHEET
  1

  9
$XEDIT
290
     1
  9
$CEPSNTYPE
380
     0
  9
$PSTYLEMODE
290
     1
  9
$FINGERPRINTGUID
  2
{BC0F7C00-8CFA-4628-B3AB-F5DEE6D6248E}
  9
$VERSIONGUID
  2
{FAEB1C32-E019-11D5-929B-00C0DF256EC4}
  9
$EXTNAMES
290
     1
  9
$PSVPSCALE
 40
0.0
  9
$OLESTARTUP
290
     0
  0
ENDSEC
  0
SECTION
  2
CLASSES
  0
CLASS
  1
ACDBDICTIONARYWDFLT
  2
AcDbDictionaryWithDefault
  3
ObjectDBX Classes
 90
        0
280
     0
281
     0
  0
CLASS
  1
VISUALSTYLE
  2
AcDbVisualStyle
  3
ObjectDBX Classes
 90
     4095
280
     0
281
     0
  0
CLASS
  1
MATERIAL
  2
AcDbMaterial
  3
ObjectDBX Classes
 90
     1153
280
     0
281
     0
  0
CLASS
  1
SCALE
  2
AcDbScale
  3
ObjectDBX Classes
 90
     1153
280
     0
281
     0
  0
CLASS
  1
SUN
  2
AcDbSun
  3
SCENEOE
 90
     1153
280
     0
281
     0
  0
CLASS
  1
ACDBPLACEHOLDER
  2
AcDbPlaceHolder
  3
ObjectDBX Classes
 90
        0
280
     0
281
     0
  0
CLASS
  1
LAYOUT
  2
AcDbLayout
  3
ObjectDBX Classes
 90
        0
280
     0
281
     0
  0
CLASS
  1
TABLESTYLE
  2
AcDbTableStyle
  3
ObjectDBX Classes
 90
     4095
280
     0
281
     0
  0
CLASS
  1
MLEADERSTYLE
  2
AcDbMLeaderStyle
  3
ACDB_MLEADERSTYLE_CLASS
 90
     4095
280
     0
281
     0
  0
CLASS
  1
RASTERVARIABLES
  2
AcDbRasterVariables
  3
ISM
 90
        0
280
     0
281
     0
  0
ENDSEC
  0
SECTION
  2
TABLES
  0
TABLE
  2
VPORT
  5
8
330
0
100
AcDbSymbolTable
 70
     1
  0
VPORT
  5
29
330
8
100
AcDbSymbolTableRecord
100
AcDbViewportTableRecord
  2
*Active
 70
     0
 10
0.0
 20
0.0
 11
1.0
 21
1.0
 12
-6.876150136966018
 22
-10.67866100992259
 13
0.0
 23
0.0
 14
10.0
 24
10.0
 15
10.0
 25
10.0
 16
0.0
 26
0.0
 36
1.0
 17
0.0
 27
0.0
 37
0.0
 40
80.15582575833714
 41
1.293966623876765
 42
50.0
 43
0.0
 44
0.0
 50
0.0
 51
0.0
 71
    16
 72
  2000
 73
     1
 74
     3
 75
     0
 76
     0
 77
     0
 78
     0
281
     0
 65
     1
110
0.0
120
0.0
130
0.0
111
1.0
121
0.0
131
0.0
112
0.0
122
1.0
132
0.0
 79
     0
146
0.0
  0
ENDTAB
  0
TABLE
  2
LTYPE
  5
5
330
0
100
AcDbSymbolTable
 70
     6
  0
LTYPE
  5
14
330
5
100
AcDbSymbolTableRecord
100
AcDbLinetypeTableRecord
  2
ByBlock
 70
     0
  3

 72
    65
 73
     0
 40
0.0
  0
LTYPE
  5
15
330
5
100
AcDbSymbolTableRecord
100
AcDbLinetypeTableRecord
  2
ByLayer
 70
     0
  3

 72
    65
 73
     0
 40
0.0
  0
LTYPE
  5
16
330
5
100
AcDbSymbolTableRecord
100
AcDbLinetypeTableRecord
  2
Continuous
 70
     0
  3
Solid line
 72
    65
 73
     0
 40
0.0
  0
LTYPE
  5
6A
330
5
100
AcDbSymbolTableRecord
100
AcDbLinetypeTableRecord
  2
HIDDEN
 70
     0
  3
Hidden __ __ __ __ __ __ __ __ __ __ __ __ __ __
 72
    65
 73
     2
 40
1.905
 49
1.27
 74
     0
 49
-0.635
 74
     0
  0
LTYPE
  5
6B
330
5
100
AcDbSymbolTableRecord
100
AcDbLinetypeTableRecord
  2
PHANTOM
 70
     0
  3
Phantom ______  __  __  ______  __  __  ______
 72
    65
 73
     6
 40
12.7
 49
6.35
 74
     0
 49
-1.27
 74
     0
 49
1.27
 74
     0
 49
-1.27
 74
     0
 49
1.27
 74
     0
 49
-1.27
 74
     0
  0
LTYPE
  5
6C
330
5
100
AcDbSymbolTableRecord
100
AcDbLinetypeTableRecord
  2
CENTER
 70
     0
  3
Center ____ _ ____ _ ____ _ ____ _ ____ _ ____
 72
    65
 73
     4
 40
10.16
 49
6.35
 74
     0
 49
-1.27
 74
     0
 49
1.27
 74
     0
 49
-1.27
 74
     0
  0
LTYPE
  5
6D
330
5
100
AcDbSymbolTableRecord
100
AcDbLinetypeTableRecord
  2
CENTERX2
 70
     0
  3
Center (2x) ________  __  ________  __  _____
 72
    65
 73
     4
 40
20.32
 49
12.7
 74
     0
 49
-2.54
 74
     0
 49
2.54
 74
     0
 49
-2.54
 74
     0
  0
LTYPE
  5
6E
330
5
100
AcDbSymbolTableRecord
100
AcDbLinetypeTableRecord
  2
DOT2
 70
     0
  3
Dot (.5x) ........................................
 72
    65
 73
     2
 40
0.635
 49
0.0
 74
     0
 49
-0.635
 74
     0
  0
ENDTAB
  0
TABLE
  2
LAYER
  5
2
330
0
100
AcDbSymbolTable
 70
    17
  0
LAYER
  5
10
330
2
100
AcDbSymbolTableRecord
100
AcDbLayerTableRecord
  2
0
 70
     0
 62
     7
  6
Continuous
370
    -3
390
F
  0
LAYER
  5
6F
330
2
100
AcDbSymbolTableRecord
100
AcDbLayerTableRecord
  2
FORMAT
 70
     0
 62
     2
  6
Continuous
370
    -3
390
F
  0
LAYER
  5
70
330
2
100
AcDbSymbolTableRecord
100
AcDbLayerTableRecord
  2
외형선
 70
     0
 62
   100
  6
Continuous
370
    30
390
F
  0
LAYER
  5
71
330
2
100
AcDbSymbolTableRecord
100
AcDbLayerTableRecord
  2
숨은선
 70
     0
 62
     2
  6
HIDDEN
370
    15
390
F
  0
LAYER
  5
72
330
2
100
AcDbSymbolTableRecord
100
AcDbLayerTableRecord
  2
중심선
 70
     0
 62
     1
  6
CENTERX2
370
    -3
390
F
  0
LAYER
  5
73
330
2
100
AcDbSymbolTableRecord
100
AcDbLayerTableRecord
  2
파단선
 70
     0
 62
     4
  6
Continuous
370
    -3
390
F
  0
LAYER
  5
74
330
2
100
AcDbSymbolTableRecord
100
AcDbLayerTableRecord
  2
해칭선
 70
     0
 62
     4
  6
Continuous
370
    -3
390
F
  0
LAYER
  5
75
330
2
100
AcDbSymbolTableRecord
100
AcDbLayerTableRecord
  2
가는실선
 70
     0
 62
     4
  6
Continuous
370
    -3
390
F
  0
LAYER
  5
76
330
2
100
AcDbSymbolTableRecord
100
AcDbLayerTableRecord
  2
치수_보조선
 70
     0
 62
     4
  6
Continuous
370
    -3
390
F
  0
LAYER
  5
77
330
2
100
AcDbSymbolTableRecord
100
AcDbLayerTableRecord
  2
치수문자_일반주서
 70
     0
 62
     7
  6
Continuous
370
    15
390
F
  0
LAYER
  5
78
330
2
100
AcDbSymbolTableRecord
100
AcDbLayerTableRecord
  2
개별주서
 70
     0
 62
   100
  6
Continuous
370
    30
390
F
  0
LAYER
  5
79
330
2
100
AcDbSymbolTableRecord
100
AcDbLayerTableRecord
  2
중간선
 70
     0
 62
     2
  6
Continuous
370
    15
390
F
  0
LAYER
  5
7A
330
2
100
AcDbSymbolTableRecord
100
AcDbLayerTableRecord
  2
윤곽선
 70
     0
 62
     3
  6
Continuous
370
    40
390
F
  0
LAYER
  5
7B
330
2
100
AcDbSymbolTableRecord
100
AcDbLayerTableRecord
  2
중심마크
 70
     0
 62
   100
  6
Continuous
370
    30
390
F
  0
LAYER
  5
7C
330
2
100
AcDbSymbolTableRecord
100
AcDbLayerTableRecord
  2
가상선
 70
     0
 62
     4
  6
PHANTOM
370
    -3
390
F
  0
LAYER
  5
7D
330
2
100
AcDbSymbolTableRecord
100
AcDbLayerTableRecord
  2
특수지정선
 70
     0
 62
     5
  6
CENTERX2
370
    60
390
F
  0
LAYER
  5
156
330
2
100
AcDbSymbolTableRecord
100
AcDbLayerTableRecord
  2
Defpoints
 70
     0
 62
     7
  6
Continuous
290
     0
370
    -3
390
F
  0
ENDTAB
  0
TABLE
  2
STYLE
  5
3
330
0
100
AcDbSymbolTable
 70
     2
  0
STYLE
  5
11
330
3
100
AcDbSymbolTableRecord
100
AcDbTextStyleTableRecord
  2
Standard
 70
     0
 40
0.0
 41
1.0
 50
0.0
 71
     0
 42
3.5
  3
txt
  4

  0
STYLE
  5
93
330
3
100
AcDbSymbolTableRecord
100
AcDbTextStyleTableRecord
  2
SLDTEXTSTYLE0
 70
     0
 40
0.0
 41
0.75
 50
0.0
 71
     0
 42
3.5
  3
TXT
  4

  0
ENDTAB
  0
TABLE
  2
VIEW
  5
6
330
0
100
AcDbSymbolTable
 70
     0
  0
ENDTAB
  0
TABLE
  2
UCS
  5
7
330
0
100
AcDbSymbolTable
 70
     0
  0
ENDTAB
  0
TABLE
  2
APPID
  5
9
330
0
100
AcDbSymbolTable
 70
     1
  0
APPID
  5
12
330
9
100
AcDbSymbolTableRecord
100
AcDbRegAppTableRecord
  2
ACAD
 70
     0
  0
ENDTAB
  0
TABLE
  2
DIMSTYLE
  5
A
330
0
100
AcDbSymbolTable
 70
     4
100
AcDbDimStyleTable
  0
DIMSTYLE
105
27
330
A
100
AcDbSymbolTableRecord
100
AcDbDimStyleTableRecord
  2
ISO-25
 70
     0
 41
2.5
 42
0.625
 43
3.75
 44
1.25
 73
     0
 74
     0
 77
     1
 78
     8
140
2.5
141
2.5
143
0.03937007874016
147
0.625
171
     3
172
     1
178
     0
271
     2
272
     2
274
     3
278
    44
283
     0
284
     8
340
11
  0
DIMSTYLE
105
F9
102
{ACAD_REACTORS
330
F8
102
}
330
A
100
AcDbSymbolTableRecord
100
AcDbDimStyleTableRecord
  2
SLDDIMSTYLE0
 70
     0
 41
3.302
 44
0.0
 45
0.000000001
 73
     0
 74
     0
 77
     1
 78
     4
 79
     1
140
3.5
147
0.875
172
     1
173
     1
178
     0
271
     2
272
     2
276
     2
284
    12
289
     0
340
93
  0
DIMSTYLE
105
107
102
{ACAD_REACTORS
330
106
102
}
330
A
100
AcDbSymbolTableRecord
100
AcDbDimStyleTableRecord
  2
SLDDIMSTYLE1
 70
     0
 41
3.302
 44
0.0
 45
0.000000001
 73
     0
 74
     0
 77
     1
 78
    12
 79
     3
140
3.5
147
0.875
173
     1
178
     0
271
     2
272
     2
276
     2
284
    12
340
93
  0
DIMSTYLE
105
112
102
{ACAD_REACTORS
330
111
330
11E
102
}
330
A
100
AcDbSymbolTableRecord
100
AcDbDimStyleTableRecord
  2
SLDDIMSTYLE2
 70
     0
 41
3.302
 44
0.0
 45
0.000000001
 73
     0
 74
     0
 77
     1
 78
    12
 79
     3
140
3.5
147
0.875
172
     1
173
     1
178
     0
271
     2
272
     2
276
     2
284
    12
289
     0
340
93
  0
ENDTAB
  0
TABLE
  2
BLOCK_RECORD
  5
1
330
0
100
AcDbSymbolTable
 70
     7
  0
BLOCK_RECORD
  5
1F
330
1
100
AcDbSymbolTableRecord
100
AcDbBlockTableRecord
  2
*Model_Space
340
22
  0
BLOCK_RECORD
  5
1B
330
1
100
AcDbSymbolTableRecord
100
AcDbBlockTableRecord
  2
*Paper_Space
340
1E
  0
BLOCK_RECORD
  5
23
330
1
100
AcDbSymbolTableRecord
100
AcDbBlockTableRecord
  2
*Paper_Space0
340
26
  0
BLOCK_RECORD
  5
7E
330
1
100
AcDbSymbolTableRecord
100
AcDbBlockTableRecord
  2
블럭10
340
0
102
{BLKREFS
331
F1
102
}
  0
BLOCK_RECORD
  5
FA
330
1
100
AcDbSymbolTableRecord
100
AcDbBlockTableRecord
  2
_D
340
0
  0
BLOCK_RECORD
  5
108
330
1
100
AcDbSymbolTableRecord
100
AcDbBlockTableRecord
  2
_D_1
340
0
  0
BLOCK_RECORD
  5
113
330
1
100
AcDbSymbolTableRecord
100
AcDbBlockTableRecord
  2
_D_2
340
0
  0
BLOCK_RECORD
  5
11F
330
1
100
AcDbSymbolTableRecord
100
AcDbBlockTableRecord
  2
_D_3
340
0
  0
BLOCK_RECORD
  5
12B
330
1
100
AcDbSymbolTableRecord
100
AcDbBlockTableRecord
  2
SW_DOWELSYMBOL_0
340
0
102
{BLKREFS
331
131
102
}
  0
ENDTAB
  0
ENDSEC
  0
SECTION
  2
BLOCKS
  0
BLOCK
  5
20
330
1F
100
AcDbEntity
  8
0
100
AcDbBlockBegin
  2
*Model_Space
 70
     0
 10
0.0
 20
0.0
 30
0.0
  3
*Model_Space
  1

  0
ENDBLK
  5
21
330
1F
100
AcDbEntity
  8
0
100
AcDbBlockEnd
  0
BLOCK
  5
1C
330
1B
100
AcDbEntity
 67
     1
  8
0
100
AcDbBlockBegin
  2
*Paper_Space
 70
     0
 10
0.0
 20
0.0
 30
0.0
  3
*Paper_Space
  1

  0
ENDBLK
  5
1D
330
1B
100
AcDbEntity
 67
     1
  8
0
100
AcDbBlockEnd
  0
BLOCK
  5
24
330
23
100
AcDbEntity
  8
0
100
AcDbBlockBegin
  2
*Paper_Space0
 70
     0
 10
0.0
 20
0.0
 30
0.0
  3
*Paper_Space0
  1

  0
ENDBLK
  5
25
330
23
100
AcDbEntity
  8
0
100
AcDbBlockEnd
  0
BLOCK
  5
7F
330
7E
100
AcDbEntity
  8
0
100
AcDbBlockBegin
  2
블럭10
 70
     2
 10
0.0
 20
0.0
 30
0.0
  3
블럭10
  1

  0
ELLIPSE
  5
81
330
7E
100
AcDbEntity
  8
중심선
100
AcDbEllipse
 10
20.54032771741204
 20
12.0471743016438
 30
0.0
 11
6.600054785286829
 21
-1.261213355974178E-13
 31
0.0
210
0.0
220
0.0
230
1.0
 40
0.636358354079598
 41
0.9219305317359503
 42
6.513795318482858
  0
ELLIPSE
  5
82
330
7E
100
AcDbEntity
  8
중심선
100
AcDbEllipse
 10
20.54032771746488
 20
12.04717430159265
 30
0.0
 11
3.960054785062283
 21
1.540847449632565E-10
 31
0.0
210
0.0
220
0.0
230
1.0
 40
0.3939339440162632
 41
1.131841032648279
 42
5.62031148352944
  0
LINE
  5
83
330
7E
100
AcDbEntity
  8
중심선
100
AcDbLine
 10
2.268634060543552
 20
16.24717430164393
 30
0.0
 11
5.714909304380834
 21
16.24717430164393
 31
0.0
  0
LINE
  5
84
330
7E
100
AcDbEntity
  8
중심선
100
AcDbLine
 10
5.245725140726316
 20
7.84717430164391
 30
0.0
 11
8.692000384563599
 21
7.84717430164391
 31
0.0
  0
LINE
  5
85
330
7E
100
AcDbEntity
  8
중심선
100
AcDbLine
 10
15.74043728645272
 20
16.24717430164393
 30
0.0
 11
8.692000384563599
 21
7.84717430164391
 31
0.0
  0
LINE
  5
86
330
7E
100
AcDbEntity
  8
중심선
100
AcDbLine
 10
0.1404042013395286
 20
13.71084872107135
 30
0.0
 11
3.58671253028996
 21
13.71088815037384
 31
0.0
  0
LINE
  5
87
330
7E
100
AcDbEntity
  8
중심선
100
AcDbLine
 10
2.750260043222114
 20
10.84717430164391
 30
0.0
 11
6.196535287059397
 21
10.84717430164391
 31
0.0
  0
LINE
  5
88
330
7E
100
AcDbEntity
  8
중심선
100
AcDbLine
 10
12.29416204261559
 20
16.24717430164393
 30
0.0
 11
5.245725140726316
 21
7.84717430164391
 31
0.0
  0
LINE
  5
89
330
7E
100
AcDbEntity
  8
중심선
100
AcDbLine
 10
10.72767329541681
 20
16.24717430164393
 30
0.0
 11
6.196535287059397
 21
10.84717430164391
 31
0.0
  0
LINE
  5
8A
330
7E
100
AcDbEntity
  8
중심선
100
AcDbLine
 10
7.28139805157953
 20
16.24717430164393
 30
0.0
 11
2.750260043222114
 21
10.84717430164391
 31
0.0
  0
LINE
  5
8B
330
7E
100
AcDbEntity
  8
중심선
100
AcDbLine
 10
5.714909304380834
 20
16.24717430164393
 30
0.0
 11
3.58671253028996
 21
13.71088815037384
 31
0.0
  0
LINE
  5
8C
330
7E
100
AcDbEntity
  8
중심선
100
AcDbLine
 10
2.268634060543552
 20
16.24717430164393
 30
0.0
 11
0.1404042013395286
 21
13.71084872107135
 31
0.0
  0
LINE
  5
8D
330
7E
100
AcDbEntity
  8
중심선
100
AcDbLine
 10
7.28139805157953
 20
16.24717430164393
 30
0.0
 11
10.72767329541681
 21
16.24717430164393
 31
0.0
  0
LINE
  5
8E
330
7E
100
AcDbEntity
  8
중심선
100
AcDbLine
 10
12.29416204261559
 20
16.24717430164393
 30
0.0
 11
15.74043728645272
 21
16.24717430164393
 31
0.0
  0
LINE
  5
8F
330
7E
100
AcDbEntity
  8
중심선
100
AcDbLine
 10
19.22036997980202
 20
11.08717430171403
 30
0.0
 11
23.66174974927406
 21
11.08717430171406
 31
0.0
  0
LINE
  5
90
330
7E
100
AcDbEntity
  8
중심선
100
AcDbLine
 10
19.22039502424796
 20
13.00717430171391
 30
0.0
 11
19.22036997980202
 21
11.08717430171403
 31
0.0
  0
LINE
  5
91
330
7E
100
AcDbEntity
  8
중심선
100
AcDbLine
 10
19.22039502424796
 20
13.00717430171391
 30
0.0
 11
26.96566020931264
 21
13.00717430171391
 31
0.0
  0
LINE
  5
92
330
7E
100
AcDbEntity
  8
중심선
100
AcDbLine
 10
22.22332737316547
 20
13.45928029700563
 30
0.0
 11
24.52862924686651
 21
15.39360700705356
 31
0.0
  0
ATTDEF
  5
94
330
7E
100
AcDbEntity
  8
FORMAT
 62
     2
100
AcDbText
 10
-16.11926103943555
 20
2.075366912832191
 30
0.0
 40
4.233333333333333
  1
SEME7001512E [ 2 FLUTE ]
 41
0.75
  7
SLDTEXTSTYLE0
 11
-16.11926103943555
 21
-0.0412997538344756
 31
0.0
100
AcDbAttributeDefinition
  3

  2
AUTOATTR0
 70
     0
 74
     1
  0
ENDBLK
  5
80
330
7E
100
AcDbEntity
  8
0
100
AcDbBlockEnd
  0
BLOCK
  5
FB
330
FA
100
AcDbEntity
  8
0
100
AcDbBlockBegin
  2
_D
 70
     0
 10
0.0
 20
0.0
 30
0.0
  3
_D
  1

  0
LINE
  5
FD
330
FA
100
AcDbEntity
  8
치수문자_일반주서
 62
     0
370
    -2
100
AcDbLine
 10
23.45961431702996
 20
-0.7493661114222342
 30
0.0
 11
36.01237434109676
 21
-0.7493661114221872
 31
0.0
  0
LINE
  5
FE
330
FA
100
AcDbEntity
  8
치수문자_일반주서
 62
     0
370
    -2
100
AcDbLine
 10
23.45961431702996
 20
0.7493661114222366
 30
0.0
 11
36.01237434109675
 21
0.7493661114222849
 31
0.0
  0
LINE
  5
FF
330
FA
100
AcDbEntity
  8
치수문자_일반주서
 62
     0
370
    -2
100
AcDbLine
 10
36.01237434109676
 20
-0.7493661114221872
 30
0.0
 11
36.01237434109667
 21
18.29086611142228
 31
0.0
  0
LINE
  5
100
330
FA
100
AcDbEntity
  8
치수문자_일반주서
 62
     0
370
    -2
100
AcDbLine
 10
36.01237434109676
 20
-0.7493661114221872
 30
0.0
 11
36.01237434109675
 21
0.7493661114222849
 31
0.0
  0
LINE
  5
101
330
FA
100
AcDbEntity
  8
치수문자_일반주서
 62
     0
370
    -2
100
AcDbLine
 10
36.01237434109677
 20
-4.051366111422187
 30
0.0
 11
36.01237434109679
 21
-7.353366111422186
 31
0.0
  0
LINE
  5
102
330
FA
100
AcDbEntity
  8
치수문자_일반주서
 62
     0
370
    -2
100
AcDbLine
 10
36.01237434109674
 20
4.051366111422285
 30
0.0
 11
36.01237434109672
 21
7.353366111422284
 31
0.0
  0
SOLID
  5
103
330
FA
100
AcDbEntity
  8
치수문자_일반주서
 62
     0
100
AcDbTrace
 10
36.56270767443011
 20
-4.051366111422184
 30
0.0
 11
35.46204100776344
 21
-4.051366111422189
 31
0.0
 12
36.01237434109676
 22
-0.7493661114221872
 32
0.0
 13
36.01237434109676
 23
-0.7493661114221872
 33
0.0
  0
SOLID
  5
104
330
FA
100
AcDbEntity
  8
치수문자_일반주서
 62
     0
100
AcDbTrace
 10
35.4620410077634
 20
4.051366111422282
 30
0.0
 11
36.56270767443007
 21
4.051366111422287
 31
0.0
 12
36.01237434109675
 22
0.7493661114222849
 32
0.0
 13
36.01237434109675
 23
0.7493661114222849
 33
0.0
  0
MTEXT
  5
105
330
FA
100
AcDbEntity
  8
치수문자_일반주서
 62
     0
100
AcDbMText
 10
31.6373743410967
 20
12.82211611142226
 30
0.0
 40
3.5
 41
0.0
 71
     2
 72
     1
  1
\A1;%%c1.50
  7
SLDTEXTSTYLE0
 11
-4.740958557703846E-15
 21
1.0
 31
0.0
 73
     1
 44
1.0
  0
POINT
  5
158
330
FA
100
AcDbEntity
  8
Defpoints
 62
     0
100
AcDbPoint
 10
23.39711431702996
 20
-0.7493661114222344
 30
0.0
  0
POINT
  5
159
330
FA
100
AcDbEntity
  8
Defpoints
 62
     0
100
AcDbPoint
 10
23.39711431702996
 20
0.7493661114222364
 30
0.0
  0
POINT
  5
15A
330
FA
100
AcDbEntity
  8
Defpoints
 62
     0
100
AcDbPoint
 10
36.01237434109675
 20
0.7493661114222836
 30
0.0
  0
ENDBLK
  5
FC
330
FA
100
AcDbEntity
  8
0
100
AcDbBlockEnd
  0
BLOCK
  5
109
330
108
100
AcDbEntity
  8
0
100
AcDbBlockBegin
  2
_D_1
 70
     0
 10
0.0
 20
0.0
 30
0.0
  3
_D_1
  1

  0
LINE
  5
10B
330
108
100
AcDbEntity
  8
치수문자_일반주서
 62
     0
370
    -2
100
AcDbLine
 10
-36.60288568297004
 20
2.512499999999994
 30
0.0
 11
-36.60288568297004
 21
24.23841044024269
 31
0.0
  0
LINE
  5
10C
330
108
100
AcDbEntity
  8
치수문자_일반주서
 62
     0
370
    -2
100
AcDbLine
 10
23.39711431702995
 20
0.7742056519239269
 30
0.0
 11
23.39711431702995
 21
24.23841044024269
 31
0.0
  0
LINE
  5
10D
330
108
100
AcDbEntity
  8
치수문자_일반주서
 62
     0
370
    -2
100
AcDbLine
 10
-33.30088568297004
 20
24.23841044024269
 30
0.0
 11
20.09511431702995
 21
24.23841044024269
 31
0.0
  0
SOLID
  5
10E
330
108
100
AcDbEntity
  8
치수문자_일반주서
 62
     0
100
AcDbTrace
 10
-33.30088568297004
 20
24.78874377357602
 30
0.0
 11
-33.30088568297004
 21
23.68807710690935
 31
0.0
 12
-36.60288568297004
 22
24.23841044024269
 32
0.0
 13
-36.60288568297004
 23
24.23841044024269
 33
0.0
  0
SOLID
  5
10F
330
108
100
AcDbEntity
  8
치수문자_일반주서
 62
     0
100
AcDbTrace
 10
20.09511431702995
 20
23.68807710690935
 30
0.0
 11
20.09511431702995
 21
24.78874377357602
 31
0.0
 12
23.39711431702995
 22
24.23841044024269
 32
0.0
 13
23.39711431702995
 23
24.23841044024269
 33
0.0
  0
MTEXT
  5
110
330
108
100
AcDbEntity
  8
치수문자_일반주서
 62
     0
100
AcDbMText
 10
-6.602885682970042
 20
28.61341044024269
 30
0.0
 40
3.5
 41
0.0
 71
     2
 72
     1
  1
\A1;60
  7
SLDTEXTSTYLE0
 73
     1
 44
1.0
  0
POINT
  5
162
330
108
100
AcDbEntity
  8
Defpoints
 62
     0
100
AcDbPoint
 10
-36.60288568297004
 20
2.449999999999994
 30
0.0
  0
POINT
  5
163
330
108
100
AcDbEntity
  8
Defpoints
 62
     0
100
AcDbPoint
 10
23.39711431702995
 20
0.7117056519239269
 30
0.0
  0
POINT
  5
164
330
108
100
AcDbEntity
  8
Defpoints
 62
     0
100
AcDbPoint
 10
23.39711431702995
 20
24.23841044024268
 30
0.0
  0
ENDBLK
  5
10A
330
108
100
AcDbEntity
  8
0
100
AcDbBlockEnd
  0
BLOCK
  5
114
330
113
100
AcDbEntity
  8
0
100
AcDbBlockBegin
  2
_D_2
 70
     0
 10
0.0
 20
0.0
 30
0.0
  3
_D_2
  1

  0
LINE
  5
116
330
113
100
AcDbEntity
  8
치수문자_일반주서
 62
     0
370
    -2
100
AcDbLine
 10
11.39711431702995
 20
0.804481372046537
 30
0.0
 11
11.39711431702995
 21
14.08897917821406
 31
0.0
  0
LINE
  5
117
330
113
100
AcDbEntity
  8
치수문자_일반주서
 62
     0
370
    -2
100
AcDbLine
 10
23.39711431702996
 20
0.8118661114222364
 30
0.0
 11
23.39711431702996
 21
14.08897917821406
 31
0.0
  0
LINE
  5
118
330
113
100
AcDbEntity
  8
치수문자_일반주서
 62
     0
370
    -2
100
AcDbLine
 10
14.69911431702995
 20
14.08897917821406
 30
0.0
 11
20.09511431702996
 21
14.08897917821406
 31
0.0
  0
SOLID
  5
119
330
113
100
AcDbEntity
  8
치수문자_일반주서
 62
     0
100
AcDbTrace
 10
14.69911431702995
 20
14.63931251154739
 30
0.0
 11
14.69911431702995
 21
13.53864584488073
 31
0.0
 12
11.39711431702995
 22
14.08897917821406
 32
0.0
 13
11.39711431702995
 23
14.08897917821406
 33
0.0
  0
SOLID
  5
11A
330
113
100
AcDbEntity
  8
치수문자_일반주서
 62
     0
100
AcDbTrace
 10
20.09511431702996
 20
13.53864584488073
 30
0.0
 11
20.09511431702996
 21
14.63931251154739
 31
0.0
 12
23.39711431702996
 22
14.08897917821406
 32
0.0
 13
23.39711431702996
 23
14.08897917821406
 33
0.0
  0
MTEXT
  5
11B
330
113
100
AcDbEntity
  8
치수문자_일반주서
 62
     0
100
AcDbMText
 10
17.39711431702996
 20
18.46397917821406
 30
0.0
 40
3.5
 41
0.0
 71
     2
 72
     1
  1
\A1;12
  7
SLDTEXTSTYLE0
 73
     1
 44
1.0
  0
POINT
  5
11C
330
113
100
AcDbEntity
  8
Defpoints
 62
     0
100
AcDbPoint
 10
11.39711431702995
 20
0.741981372046537
 30
0.0
  0
POINT
  5
11D
330
113
100
AcDbEntity
  8
Defpoints
 62
     0
100
AcDbPoint
 10
23.39711431702996
 20
0.7493661114222364
 30
0.0
  0
POINT
  5
157
330
113
100
AcDbEntity
  8
Defpoints
 62
     0
100
AcDbPoint
 10
23.39711431702996
 20
14.08897917821406
 30
0.0
  0
ENDBLK
  5
115
330
113
100
AcDbEntity
  8
0
100
AcDbBlockEnd
  0
BLOCK
  5
120
330
11F
100
AcDbEntity
  8
0
100
AcDbBlockBegin
  2
_D_3
 70
     0
 10
0.0
 20
0.0
 30
0.0
  3
_D_3
  1

  0
LINE
  5
122
330
11F
100
AcDbEntity
  8
치수문자_일반주서
 62
     0
370
    -2
100
AcDbLine
 10
-36.11538568297004
 20
2.999999999999994
 30
0.0
 11
-45.94000794836208
 21
2.999999999999957
 31
0.0
  0
LINE
  5
123
330
11F
100
AcDbEntity
  8
치수문자_일반주서
 62
     0
370
    -2
100
AcDbLine
 10
-36.11538568297004
 20
-3.0
 30
0.0
 11
-45.94000794836206
 21
-3.000000000000037
 31
0.0
  0
LINE
  5
124
330
11F
100
AcDbEntity
  8
치수문자_일반주서
 62
     0
370
    -2
100
AcDbLine
 10
-45.94000794836208
 20
2.999999999999957
 30
0.0
 11
-45.94000794836213
 21
15.72899999999996
 31
0.0
  0
LINE
  5
125
330
11F
100
AcDbEntity
  8
치수문자_일반주서
 62
     0
370
    -2
100
AcDbLine
 10
-45.94000794836208
 20
2.999999999999957
 30
0.0
 11
-45.94000794836206
 21
-3.000000000000037
 31
0.0
  0
LINE
  5
126
330
11F
100
AcDbEntity
  8
치수문자_일반주서
 62
     0
370
    -2
100
AcDbLine
 10
-45.94000794836209
 20
6.301999999999957
 30
0.0
 11
-45.94000794836211
 21
9.603999999999957
 31
0.0
  0
LINE
  5
127
330
11F
100
AcDbEntity
  8
치수문자_일반주서
 62
     0
370
    -2
100
AcDbLine
 10
-45.94000794836204
 20
-6.302000000000037
 30
0.0
 11
-45.94000794836203
 21
-9.604000000000037
 31
0.0
  0
SOLID
  5
128
330
11F
100
AcDbEntity
  8
치수문자_일반주서
 62
     0
100
AcDbTrace
 10
-46.49034128169543
 20
6.301999999999955
 30
0.0
 11
-45.38967461502876
 21
6.301999999999959
 31
0.0
 12
-45.94000794836208
 22
2.999999999999957
 32
0.0
 13
-45.94000794836208
 23
2.999999999999957
 33
0.0
  0
SOLID
  5
129
330
11F
100
AcDbEntity
  8
치수문자_일반주서
 62
     0
100
AcDbTrace
 10
-45.38967461502871
 20
-6.302000000000035
 30
0.0
 11
-46.49034128169538
 21
-6.302000000000039
 31
0.0
 12
-45.94000794836206
 22
-3.000000000000037
 32
0.0
 13
-45.94000794836206
 23
-3.000000000000037
 33
0.0
  0
MTEXT
  5
12A
330
11F
100
AcDbEntity
  8
치수문자_일반주서
 62
     0
100
AcDbMText
 10
-50.31500794836212
 20
12.66649999999994
 30
0.0
 40
3.5
 41
0.0
 71
     2
 72
     1
  1
\A1;%%c6
  7
SLDTEXTSTYLE0
 11
-3.552713678800505E-15
 21
1.0
 31
0.0
 73
     1
 44
1.0
  0
POINT
  5
15B
330
11F
100
AcDbEntity
  8
Defpoints
 62
     0
100
AcDbPoint
 10
-36.05288568297004
 20
2.999999999999994
 30
0.0
  0
POINT
  5
15C
330
11F
100
AcDbEntity
  8
Defpoints
 62
     0
100
AcDbPoint
 10
-36.05288568297004
 20
-3.0
 30
0.0
  0
POINT
  5
15D
330
11F
100
AcDbEntity
  8
Defpoints
 62
     0
100
AcDbPoint
 10
-45.94000794836206
 20
-3.000000000000037
 30
0.0
  0
ENDBLK
  5
121
330
11F
100
AcDbEntity
  8
0
100
AcDbBlockEnd
  0
BLOCK
  5
12C
330
12B
100
AcDbEntity
  8
0
100
AcDbBlockBegin
  2
SW_DOWELSYMBOL_0
 70
     0
 10
0.0
 20
0.0
 30
0.0
  3
SW_DOWELSYMBOL_0
  1

  0
CIRCLE
  5
12E
330
12B
100
AcDbEntity
  8
외형선
 62
     0
100
AcDbCircle
 10
0.0
 20
0.0
 30
0.0
 40
3.000000000000004
  0
HATCH
  5
12F
330
12B
100
AcDbEntity
  8
0
  6
Continuous
 62
     0
370
    30
100
AcDbHatch
 10
0.0
 20
0.0
 30
0.0
210
0.0
220
0.0
230
1.0
  2
SOLID
 70
     1
 71
     0
 91
        1
 92
        0
 93
        3
 72
     2
 10
0.0000000000000104
 20
0.0
 40
3.000000000000004
 50
0.0
 51
90.0
 73
     1
 72
     1
 10
0.0000000000000104
 20
3.000000000000004
 11
0.0000000000000104
 21
0.0
 72
     1
 10
0.0000000000000104
 20
0.0
 11
3.000000000000015
 21
0.0
 97
        0
 75
     0
 76
     1
 98
        1
 10
0.0
 20
0.0
  0
HATCH
  5
130
330
12B
100
AcDbEntity
  8
0
  6
Continuous
 62
     0
370
    30
100
AcDbHatch
 10
0.0
 20
0.0
 30
0.0
210
0.0
220
0.0
230
1.0
  2
SOLID
 70
     1
 71
     0
 91
        1
 92
        0
 93
        3
 72
     2
 10
0.0000000000000104
 20
0.0
 40
3.000000000000004
 50
180.0
 51
270.0000000000007
 73
     1
 72
     1
 10
0.0000000000000104
 20
-3.000000000000004
 11
0.0000000000000104
 21
0.0
 72
     1
 10
0.0000000000000104
 20
0.0
 11
-2.999999999999994
 21
0.0
 97
        0
 75
     0
 76
     1
 98
        1
 10
0.0
 20
0.0
  0
ENDBLK
  5
12D
330
12B
100
AcDbEntity
  8
0
100
AcDbBlockEnd
  0
ENDSEC
  0
SECTION
  2
ENTITIES
  0
SPLINE
  5
95
330
1F
100
AcDbEntity
  8
0
  6
Continuous
 62
     1
370
    15
100
AcDbSpline
210
0.0
220
0.0
230
1.0
 70
     8
 71
     3
 72
     9
 73
     5
 74
     0
 42
0.000000001
 43
0.00000001
 40
0.0
 40
0.0
 40
0.0
 40
0.0
 40
0.5000409425874383
 40
1.0
 40
1.0
 40
1.0
 40
1.0
 10
21.45440613121657
 20
0.1923521236844063
 30
0.0
 10
21.41960142656752
 20
0.2088229885600957
 30
0.0
 10
21.34999771678135
 20
0.2417620210930353
 30
0.0
 10
21.28043966347003
 20
0.2779253234552165
 30
0.0
 10
21.24566348470105
 20
0.2960054940171381
 30
0.0
  0
LINE
  5
96
330
1F
100
AcDbEntity
  8
0
  6
Continuous
 62
     1
370
    15
100
AcDbLine
 10
13.10395822006731
 20
0.2855794017383417
 30
0.0
 11
13.08208189141219
 21
0.2967890385965939
 31
0.0
  0
SPLINE
  5
97
330
1F
100
AcDbEntity
  8
0
  6
Continuous
 62
     1
370
    15
100
AcDbSpline
210
0.0
220
0.0
230
1.0
 70
     8
 71
     3
 72
     9
 73
     5
 74
     0
 42
0.000000001
 43
0.00000001
 40
0.0
 40
0.0
 40
0.0
 40
0.0
 40
0.5579304985062072
 40
1.0
 40
1.0
 40
1.0
 40
1.0
 10
13.29288143040157
 20
0.1920857694552039
 30
0.0
 10
13.25773088108146
 20
0.2086850937732021
 30
0.0
 10
13.19472921794559
 20
0.2384366925161296
 30
0.0
 10
13.13178426433257
 20
0.2711277030210869
 30
0.0
 10
13.10395822006731
 20
0.2855794017383417
 30
0.0
  0
LINE
  5
98
330
1F
100
AcDbEntity
  8
0
  6
Continuous
 62
     1
370
    15
100
AcDbLine
 10
17.18736721002009
 20
0.2843622551986641
 30
0.0
 11
17.1637847240189
 21
0.2964437345206026
 31
0.0
  0
SPLINE
  5
99
330
1F
100
AcDbEntity
  8
0
  6
Continuous
 62
     1
370
    15
100
AcDbSpline
210
0.0
220
0.0
230
1.0
 70
     8
 71
     3
 72
     9
 73
     5
 74
     0
 42
0.000000001
 43
0.00000001
 40
0.0
 40
0.0
 40
0.0
 40
0.0
 40
0.5634535192836003
 40
1.0
 40
1.0
 40
1.0
 40
1.0
 10
17.37335554792754
 20
0.1923530606027457
 30
0.0
 10
17.33841086229594
 20
0.2088566926405657
 30
0.0
 10
17.27639210753507
 20
0.2381468318854204
 30
0.0
 10
17.2144206372694
 20
0.270318031309609
 30
0.0
 10
17.18736721002009
 20
0.2843622551986641
 30
0.0
  0
LINE
  5
9A
330
1F
100
AcDbEntity
  8
0
  6
Continuous
 62
     1
370
    15
100
AcDbLine
 10
19.36904930885839
 20
-0.7500000000000009
 30
0.0
 11
19.73275420951817
 21
-0.7500000000000009
 31
0.0
  0
LINE
  5
9C
330
1F
100
AcDbEntity
  8
0
  6
Continuous
 62
     1
370
    15
100
AcDbLine
 10
15.65093443134498
 20
0.7500000000000013
 30
0.0
 11
15.28787656998667
 21
0.7500000000000013
 31
0.0
  0
LINE
  5
9D
330
1F
100
AcDbEntity
  8
0
  6
Continuous
 62
     1
370
    15
100
AcDbLine
 10
15.28782762268619
 20
-0.7500000000000009
 30
0.0
 11
15.65093443134498
 21
-0.7500000000000009
 31
0.0
  0
LINE
  5
9E
330
1F
100
AcDbEntity
  8
0
  6
Continuous
 62
     1
370
    15
100
AcDbLine
 10
11.57023602410799
 20
0.7500000000000013
 30
0.0
 11
11.39711431702995
 21
0.7500000000000013
 31
0.0
  0
LINE
  5
9F
330
1F
100
AcDbEntity
  8
0
  6
Continuous
 62
     1
370
    15
100
AcDbLine
 10
19.73275420951817
 20
0.7500000000000013
 30
0.0
 11
19.36992921785555
 21
0.7500000000000013
 31
0.0
  0
SPLINE
  5
A0
330
1F
100
AcDbEntity
  8
0
  6
Continuous
 62
     1
370
    15
100
AcDbSpline
210
0.0
220
0.0
230
1.0
 70
     8
 71
     3
 72
    10
 73
     6
 74
     0
 42
0.000000001
 43
0.00000001
 40
0.0
 40
0.0
 40
0.0
 40
0.0
 40
0.4518026937580596
 40
0.6366218158865378
 40
1.0
 40
1.0
 40
1.0
 40
1.0
 10
15.99897023494685
 20
-0.6165730413047446
 30
0.0
 10
16.16613813130386
 20
-0.6100483298496997
 30
0.0
 10
16.40539190489171
 20
-0.5902579017614598
 30
0.0
 10
16.78147199491899
 20
-0.5831959310775442
 30
0.0
 10
16.9874828084049
 20
-0.5908803246333998
 30
0.0
 10
17.12403918046268
 20
-0.595974003395673
 30
0.0
  0
SPLINE
  5
A1
330
1F
100
AcDbEntity
  8
0
  6
Continuous
 62
     1
370
    15
100
AcDbSpline
210
0.0
220
0.0
230
1.0
 70
     8
 71
     3
 72
    10
 73
     6
 74
     0
 42
0.000000001
 43
0.00000001
 40
0.0
 40
0.0
 40
0.0
 40
0.0
 40
0.6241333937872303
 40
0.9012596012305012
 40
1.0
 40
1.0
 40
1.0
 40
1.0
 10
21.20526126575948
 20
0.595983251132547
 30
0.0
 10
21.07021831047884
 20
0.5914303574371003
 30
0.0
 10
20.87521390719463
 20
0.5848558988401903
 30
0.0
 10
20.65874946850782
 20
0.5854922740682449
 30
0.0
 10
20.57742723015722
 20
0.5912926286555036
 30
0.0
 10
20.58289484739189
 20
0.5962292499876987
 30
0.0
  0
SPLINE
  5
A2
330
1F
100
AcDbEntity
  8
0
  6
Continuous
 62
     1
370
    15
100
AcDbSpline
210
0.0
220
0.0
230
1.0
 70
     8
 71
     3
 72
     9
 73
     5
 74
     0
 42
0.000000001
 43
0.00000001
 40
0.0
 40
0.0
 40
0.0
 40
0.0
 40
0.4440600245649523
 40
1.0
 40
1.0
 40
1.0
 40
1.0
 10
13.04266426726971
 20
0.595956581408774
 30
0.0
 10
12.94773821319229
 20
0.5917903796082831
 30
0.0
 10
12.73396969356385
 20
0.5824083105860316
 30
0.0
 10
12.52014149654058
 20
0.5876847989756088
 30
0.0
 10
12.40126585394014
 20
0.5906182098012936
 30
0.0
  0
SPLINE
  5
A3
330
1F
100
AcDbEntity
  8
0
  6
Continuous
 62
     1
370
    15
100
AcDbSpline
210
0.0
220
0.0
230
1.0
 70
     8
 71
     3
 72
    11
 73
     7
 74
     0
 42
0.000000001
 43
0.00000001
 40
0.0
 40
0.0
 40
0.0
 40
0.0
 40
0.4355448770991243
 40
0.6272418795985915
 40
0.7513907214754221
 40
1.0
 40
1.0
 40
1.0
 40
1.0
 10
11.89504398574404
 20
-0.6260373909124873
 30
0.0
 10
12.06224560936902
 20
-0.6116708669103071
 30
0.0
 10
12.30303792765543
 20
-0.5909811837289919
 30
0.0
 10
12.58993618471269
 20
-0.5854341309062175
 30
0.0
 10
12.80536611866521
 20
-0.585768891901074
 30
0.0
 10
12.94772120842601
 20
-0.591880483849231
 30
0.0
 10
13.04266426726971
 20
-0.5959565814087738
 30
0.0
  0
SPLINE
  5
A4
330
1F
100
AcDbEntity
  8
0
  6
Continuous
 62
     1
370
    15
100
AcDbSpline
210
0.0
220
0.0
230
1.0
 70
     8
 71
     3
 72
    10
 73
     6
 74
     0
 42
0.000000001
 43
0.00000001
 40
0.0
 40
0.0
 40
0.0
 40
0.0
 40
0.4812283491158241
 40
0.6407442310463275
 40
1.0
 40
1.0
 40
1.0
 40
1.0
 10
20.07970197318608
 20
-0.6177996787645004
 30
0.0
 10
20.25835195999289
 20
-0.6092876838431517
 30
0.0
 10
20.49917699047213
 20
-0.5895862344797177
 30
0.0
 10
20.87520469184991
 20
-0.5835589920791427
 30
0.0
 10
21.07021453990666
 20
-0.5908997120094346
 30
0.0
 10
21.20526126575948
 20
-0.5959832511325454
 30
0.0
  0
SPLINE
  5
A5
330
1F
100
AcDbEntity
  8
0
  6
Continuous
 62
     1
370
    15
100
AcDbSpline
210
0.0
220
0.0
230
1.0
 70
     8
 71
     3
 72
     9
 73
     5
 74
     0
 42
0.000000001
 43
0.00000001
 40
0.0
 40
0.0
 40
0.0
 40
0.0
 40
0.6641463809839422
 40
0.9999999999999999
 40
0.9999999999999999
 40
0.9999999999999999
 40
0.9999999999999999
 10
17.12403918046268
 20
0.5959740033956741
 30
0.0
 10
16.98747978905993
 20
0.5905965011556867
 30
0.0
 10
16.78186338383244
 20
0.5824996381839718
 30
0.0
 10
16.57611283619251
 20
0.5878441845593058
 30
0.0
 10
16.5070107701531
 20
0.5896391698014607
 30
0.0
  0
LINE
  5
A6
330
1F
100
AcDbEntity
  8
0
  6
Continuous
 62
     1
370
    15
100
AcDbLine
 10
13.64852523299484
 20
-0.5575018033545999
 30
0.0
 11
14.22180570774206
 21
-0.5037457716762389
 31
0.0
  0
SPLINE
  5
A7
330
1F
100
AcDbEntity
  8
0
  6
Continuous
 62
     1
370
    15
100
AcDbSpline
210
0.0
220
0.0
230
1.0
 70
     8
 71
     3
 72
     9
 73
     5
 74
     0
 42
0.000000001
 43
0.00000001
 40
0.0
 40
0.0
 40
0.0
 40
0.0
 40
0.7768336538223328
 40
1.0
 40
1.0
 40
1.0
 40
1.0
 10
21.80668196804564
 20
-0.5642051235743301
 30
0.0
 10
21.95539978576528
 20
-0.5429205458798336
 30
0.0
 10
22.14684079374411
 20
-0.5155214011726397
 30
0.0
 10
22.33775928125439
 20
-0.5051437861553443
 30
0.0
 10
22.38036586252982
 20
-0.5028278517298959
 30
0.0
  0
SPLINE
  5
A8
330
1F
100
AcDbEntity
  8
0
  6
Continuous
 62
     1
370
    15
100
AcDbSpline
210
0.0
220
0.0
230
1.0
 70
     8
 71
     3
 72
    10
 73
     6
 74
     0
 42
0.000000001
 43
0.00000001
 40
0.0
 40
0.0
 40
0.0
 40
0.0
 40
0.2473105853550457
 40
0.5187344825811306
 40
1.0
 40
1.0
 40
1.0
 40
1.0
 10
19.03799803721087
 20
0.5130084058460811
 30
0.0
 10
18.92977247655786
 20
0.5056758601064943
 30
0.0
 10
18.70276913124294
 20
0.4902958297096296
 30
0.0
 10
18.26583746389562
 20
0.4946820098093718
 30
0.0
 10
17.93653388735553
 20
0.5370567780072556
 30
0.0
 10
17.72597897178494
 20
0.5641509742925572
 30
0.0
  0
LINE
  5
A9
330
1F
100
AcDbEntity
  8
0
  6
Continuous
 62
     1
370
    15
100
AcDbLine
 10
17.72597897178494
 20
-0.5641509742925559
 30
0.0
 11
18.29232127032709
 21
-0.5055800173990496
 31
0.0
  0
SPLINE
  5
AA
330
1F
100
AcDbEntity
  8
0
  6
Continuous
 62
     1
370
    15
100
AcDbSpline
210
0.0
220
0.0
230
1.0
 70
     8
 71
     3
 72
    11
 73
     7
 74
     0
 42
0.000000001
 43
0.00000001
 40
0.0
 40
0.0
 40
0.0
 40
0.0
 40
0.3238740860387433
 40
0.4875213323316006
 40
0.6519102138897186
 40
1.0
 40
1.0
 40
1.0
 40
1.0
 10
23.08049826479494
 20
0.5095036117287206
 30
0.0
 10
22.94511600421178
 20
0.50175081018095
 30
0.0
 10
22.74132773309438
 20
0.4900806695219675
 30
0.0
 10
22.46214623231237
 20
0.4966096120344722
 30
0.0
 10
22.17445260928664
 20
0.513368884623498
 30
0.0
 10
21.95544085327447
 20
0.5436424647116381
 30
0.0
 10
21.80668196804564
 20
0.5642051235743318
 30
0.0
  0
SPLINE
  5
AB
330
1F
100
AcDbEntity
  8
0
  6
Continuous
 62
     1
370
    15
100
AcDbSpline
210
0.0
220
0.0
230
1.0
 70
     8
 71
     3
 72
    10
 73
     6
 74
     0
 42
0.000000001
 43
0.00000001
 40
0.0
 40
0.0
 40
0.0
 40
0.0
 40
0.2425753882301524
 40
0.5293573705078177
 40
1.0
 40
1.0
 40
1.0
 40
1.0
 10
14.95654892237589
 20
0.5129742672972659
 30
0.0
 10
14.85042443970106
 20
0.5057642838155874
 30
0.0
 10
14.61883549943333
 20
0.4900303797080321
 30
0.0
 10
14.18223560400517
 20
0.494734913306902
 30
0.0
 10
13.85104044409539
 20
0.5375176474963065
 30
0.0
 10
13.64524496489807
 20
0.5641016509771505
 30
0.0
  0
LINE
  5
AC
330
1F
100
AcDbEntity
  8
0
  6
Continuous
 62
   131
370
    15
100
AcDbLine
 10
2.0
 20
-2.999999999999999
 30
0.0
 11
10.39711431702995
 21
-0.7499999999999998
 31
0.0
  0
LINE
  5
AD
330
1F
100
AcDbEntity
  8
0
  6
Continuous
 62
   131
370
    15
100
AcDbLine
 10
10.39711431702995
 20
0.7500000000000002
 30
0.0
 11
2.0
 21
2.999999999999999
 31
0.0
  0
LINE
  5
AE
330
1F
100
AcDbEntity
  8
0
  6
Continuous
 62
   131
370
    15
100
AcDbLine
 10
2.0
 20
2.999999999999998
 30
0.0
 11
-36.05288568297004
 21
2.999999999999995
 31
0.0
  0
LINE
  5
AF
330
1F
100
AcDbEntity
  8
0
  6
Continuous
 62
   131
370
    15
100
AcDbLine
 10
-36.05288568297004
 20
-3.000000000000001
 30
0.0
 11
2.0
 21
-2.999999999999998
 31
0.0
  0
LINE
  5
B0
330
1F
100
AcDbEntity
  8
0
  6
Continuous
 62
   131
370
    15
100
AcDbLine
 10
-36.05288568297004
 20
2.999999999999994
 30
0.0
 11
-36.60288568297004
 21
2.449999999999994
 31
0.0
  0
LINE
  5
B1
330
1F
100
AcDbEntity
  8
0
  6
Continuous
 62
   131
370
    15
100
AcDbLine
 10
-36.60288568297004
 20
-2.45
 30
0.0
 11
-36.05288568297004
 21
-3.0
 31
0.0
  0
LINE
  5
B2
330
1F
100
AcDbEntity
  8
0
  6
Continuous
 62
   131
370
    15
100
AcDbLine
 10
10.5970417003505
 20
0.7500000000000002
 30
0.0
 11
10.39711431702995
 21
0.7500000000000002
 31
0.0
  0
LINE
  5
B3
330
1F
100
AcDbEntity
  8
0
  6
Continuous
 62
   131
370
    15
100
AcDbLine
 10
11.39711431702995
 20
0.7500000000000003
 30
0.0
 11
11.20682210149161
 21
0.7500000000000002
 31
0.0
  0
LINE
  5
B4
330
1F
100
AcDbEntity
  8
0
  6
Continuous
 62
   131
370
    15
100
AcDbLine
 10
11.20682210149161
 20
-0.7499999999999998
 30
0.0
 11
11.39711431702995
 21
-0.7499999999999997
 31
0.0
  0
LINE
  5
B5
330
1F
100
AcDbEntity
  8
0
  6
Continuous
 62
   131
370
    15
100
AcDbLine
 10
10.39711431702995
 20
-0.7499999999999998
 30
0.0
 11
10.5970417003505
 21
-0.7499999999999998
 31
0.0
  0
SPLINE
  5
B6
330
1F
100
AcDbEntity
  8
0
  6
Continuous
 62
   131
370
    15
100
AcDbSpline
210
0.0
220
0.0
230
1.0
 70
     8
 71
     3
 72
     9
 73
     5
 74
     0
 42
0.000000001
 43
0.00000001
 40
0.0
 40
0.0
 40
0.0
 40
0.0
 40
0.5027044430298148
 40
1.0
 40
1.0
 40
1.0
 40
1.0
 10
10.86515290674414
 20
0.5120757660983699
 30
0.0
 10
10.8192508224823
 20
0.5085357213394893
 30
0.0
 10
10.72794054086793
 20
0.5014937211981247
 30
0.0
 10
10.63736833768016
 20
0.4979568268035804
 30
0.0
 10
10.59232718344989
 20
0.4961979449357005
 30
0.0
  0
SPLINE
  5
B7
330
1F
100
AcDbEntity
  8
0
  6
Continuous
 62
     1
370
    15
100
AcDbSpline
210
0.0
220
0.0
230
1.0
 70
     8
 71
     3
 72
    16
 73
    12
 74
     0
 42
0.000000001
 43
0.00000001
 40
0.0
 40
0.0
 40
0.0
 40
0.0
 40
0.1206631982561299
 40
0.2316269348116438
 40
0.3425995965832076
 40
0.4535666178414353
 40
0.5645318692869575
 40
0.6754962495886367
 40
0.7864671127687156
 40
0.8974339499243404
 40
1.0
 40
1.0
 40
1.0
 40
1.0
 10
11.39711431702995
 20
0.741981372046538
 30
0.0
 10
11.55355384715751
 20
0.7193401244921646
 30
0.0
 10
11.85385757994855
 20
0.6758776367815447
 30
0.0
 10
12.2986467852206
 20
0.5089978460123664
 30
0.0
 10
12.73055868483512
 20
0.2972120276265571
 30
0.0
 10
13.1619346403937
 20
0.0502418997604457
 30
0.0
 10
13.59335792278986
 20
-0.2015429118770654
 30
0.0
 10
14.02573840065344
 20
-0.4303556642612156
 30
0.0
 10
14.45748053229488
 20
-0.611408751734761
 30
0.0
 10
14.87791982287587
 20
-0.7296392575274572
 30
0.0
 10
15.15482298723902
 20
-0.7414471611949776
 30
0.0
 10
15.28782762268619
 20
-0.7471188404128942
 30
0.0
  0
SPLINE
  5
B8
330
1F
100
AcDbEntity
  8
0
  6
Continuous
 62
     1
370
    15
100
AcDbSpline
210
0.0
220
0.0
230
1.0
 70
     8
 71
     3
 72
    20
 73
    16
 74
     0
 42
0.000000001
 43
0.00000001
 40
0.0
 40
0.0
 40
0.0
 40
0.0
 40
0.0094276787400156
 40
0.0940384782934078
 40
0.1786533506052138
 40
0.2632671282038049
 40
0.3478795779446279
 40
0.4324901484754159
 40
0.5171070997628284
 40
0.6017205395978887
 40
0.6863327665621375
 40
0.7708742459175026
 40
0.8554118487593948
 40
0.9269871138677729
 40
0.9999999999999999
 40
0.9999999999999999
 40
0.9999999999999999
 40
0.9999999999999999
 10
18.29464965484983
 20
0.5053392165444016
 30
0.0
 10
18.31067363733098
 20
0.5129753233211075
 30
0.0
 10
18.47050841429797
 20
0.5891433686236569
 30
0.0
 10
18.77440861540755
 20
0.6820945813378507
 30
0.0
 10
19.20677111002146
 20
0.7586561012305231
 30
0.0
 10
19.63820044770613
 20
0.7475551329277484
 30
0.0
 10
20.06957115680006
 20
0.6553715475216871
 30
0.0
 10
20.50147991146683
 20
0.4914598629560101
 30
0.0
 10
20.9337331636914
 20
0.2746915094228843
 30
0.0
 10
21.36512000065077
 20
0.0264196921061541
 30
0.0
 10
21.79638793100967
 20
-0.2246070364133534
 30
0.0
 10
22.22818852412808
 20
-0.4501412646576439
 30
0.0
 10
22.63800821928617
 20
-0.6163460265192192
 30
0.0
 10
23.02677094251798
 20
-0.7230231749843189
 30
0.0
 10
23.27285094512909
 20
-0.7405271194681887
 30
0.0
 10
23.39711431702992
 20
-0.7493661114222318
 30
0.0
  0
SPLINE
  5
B9
330
1F
100
AcDbEntity
  8
0
  6
Continuous
 62
     1
370
    15
100
AcDbSpline
210
0.0
220
0.0
230
1.0
 70
     8
 71
     3
 72
    14
 73
    10
 74
     0
 42
0.000000001
 43
0.00000001
 40
0.0
 40
0.0
 40
0.0
 40
0.0
 40
0.0548212612224951
 40
0.2147508942939478
 40
0.3758520957137246
 40
0.5354756861668984
 40
0.695172226575713
 40
0.8563026712922897
 40
1.0
 40
1.0
 40
1.0
 40
1.0
 10
21.53454394397
 20
-0.0707920496590193
 30
0.0
 10
21.48892935463133
 20
-0.0527466039053865
 30
0.0
 10
21.31024368350872
 20
0.0179426784479968
 30
0.0
 10
20.99749900335171
 20
0.1465098387741598
 30
0.0
 10
20.59692140543806
 20
0.2936525293173866
 30
0.0
 10
20.1972713909055
 20
0.4155811072536569
 30
0.0
 10
19.79756605549094
 20
0.4966132721069799
 30
0.0
 10
19.41041132415378
 20
0.5337782920573114
 30
0.0
 10
19.15678641074863
 20
0.5181256979960142
 30
0.0
 10
19.03722636495412
 20
0.5107469872942703
 30
0.0
  0
SPLINE
  5
BA
330
1F
100
AcDbEntity
  8
0
  6
Continuous
 62
     1
370
    15
100
AcDbSpline
210
0.0
220
0.0
230
1.0
 70
     8
 71
     3
 72
    12
 73
     8
 74
     0
 42
0.000000001
 43
0.00000001
 40
0.0
 40
0.0
 40
0.0
 40
0.0
 40
0.1908697601610367
 40
0.3927146566197792
 40
0.5943668151266829
 40
0.7978708487811473
 40
1.0
 40
1.0
 40
1.0
 40
1.0
 10
13.3736409767164
 20
-0.0717957300955641
 30
0.0
 10
13.24779461090383
 20
-0.021169836794583
 30
0.0
 10
12.98886563076978
 20
0.0829929718503818
 30
0.0
 10
12.59747735079636
 20
0.2367625882907982
 30
0.0
 10
12.19788620732458
 20
0.370116363602267
 30
0.0
 10
11.79735403386458
 20
0.4712042577448995
 30
0.0
 10
11.53022574800154
 20
0.5009688814082496
 30
0.0
 10
11.39711431702997
 20
0.5158007500565224
 30
0.0
  0
SPLINE
  5
BB
330
1F
100
AcDbEntity
  8
0
  6
Continuous
 62
   131
370
    15
100
AcDbSpline
210
0.0
220
0.0
230
1.0
 70
    24
 71
     3
 72
     8
 73
     4
 74
     0
 42
0.000000001
 43
0.00000001
 40
0.0
 40
0.0
 40
0.0
 40
0.0
 40
1.0
 40
1.0
 40
1.0
 40
1.0
 10
11.39711431703313
 20
0.7419813720369952
 30
0.0
 10
11.39711431703313
 20
0.6717581755999172
 30
0.0
 10
11.39711431703313
 20
0.5851828687584351
 30
0.0
 10
11.39711431703313
 20
0.5158007500562861
 30
0.0
  0
SPLINE
  5
BC
330
1F
100
AcDbEntity
  8
0
  6
Continuous
 62
     1
370
    15
100
AcDbSpline
210
0.0
220
0.0
230
1.0
 70
     8
 71
     3
 72
    32
 73
    28
 74
     0
 42
0.000000001
 43
0.00000001
 40
0.0
 40
0.0
 40
0.0
 40
0.0
 40
0.0060884098691658
 40
0.0480704373128227
 40
0.0897624456059709
 40
0.1317420552200622
 40
0.1734327741978821
 40
0.2154121849971102
 40
0.2571037402152673
 40
0.2990813834769456
 40
0.3407736312714822
 40
0.3827549407198374
 40
0.4244466645421741
 40
0.466426398583577
 40
0.5081171047330243
 40
0.5500960660711169
 40
0.5917879305243158
 40
0.6337665298351521
 40
0.6754588032048141
 40
0.717439523356956
 40
0.759130959719608
 40
0.801110859606356
 40
0.8428015983232315
 40
0.8847800253050462
 40
0.9264722502163549
 40
0.9684522434624824
 40
1.0
 40
1.0
 40
1.0
 40
1.0
 10
14.2090359158362
 20
0.5050825467316595
 30
0.0
 10
14.2194874763348
 20
0.5098377970530789
 30
0.0
 10
14.30200673744988
 20
0.547382405151858
 30
0.0
 10
14.4572153204361
 20
0.6029096173900994
 30
0.0
 10
14.67268603146785
 20
0.6708617361930842
 30
0.0
 10
14.88822697016705
 20
0.7180363153329004
 30
0.0
 10
15.10513217360201
 20
0.7458326161531466
 30
0.0
 10
15.31974892772099
 20
0.7532620797472358
 30
0.0
 10
15.53637958132461
 20
0.739707864420067
 30
0.0
 10
15.75236330419925
 20
0.7063069423662116
 30
0.0
 10
15.96754326550581
 20
0.6522126086293129
 30
0.0
 10
16.18404836834007
 20
0.5818339716965012
 30
0.0
 10
16.39983486226114
 20
0.4941913367801263
 30
0.0
 10
16.6150866586526
 20
0.3927831919230431
 30
0.0
 10
16.83208660096667
 20
0.2823491093376087
 30
0.0
 10
17.04678476666553
 20
0.1614907087752237
 30
0.0
 10
17.26323794017974
 20
0.0379597020813816
 30
0.0
 10
17.47939987879412
 20
-0.0859691339209675
 30
0.0
 10
17.69450381933848
 20
-0.2104351835981345
 30
0.0
 10
17.91091271602389
 20
-0.3258177960435255
 30
0.0
 10
18.12696699118151
 20
-0.4339884136285632
 30
0.0
 10
18.34196585343635
 20
-0.5305084766267729
 30
0.0
 10
18.55901475898106
 20
-0.610800335929311
 30
0.0
 10
18.77384981290399
 20
-0.6761151062633032
 30
0.0
 10
18.990109837609
 20
-0.7211610433676611
 30
0.0
 10
19.18886612549049
 20
-0.7467462994345597
 30
0.0
 10
19.31495130447979
 20
-0.747682116650841
 30
0.0
 10
19.36904930885839
 20
-0.7480836376247554
 30
0.0
  0
SPLINE
  5
BD
330
1F
100
AcDbEntity
  8
0
  6
Continuous
 62
     1
370
    15
100
AcDbSpline
210
0.0
220
0.0
230
1.0
 70
     8
 71
     3
 72
    13
 73
     9
 74
     0
 42
0.000000001
 43
0.00000001
 40
0.0
 40
0.0
 40
0.0
 40
0.0
 40
0.0717510276107336
 40
0.2823290930905343
 40
0.4595224055620531
 40
0.6375937755103155
 40
0.8183345600287104
 40
1.0
 40
1.0
 40
1.0
 40
1.0
 10
22.36930858604216
 20
0.5035020808040394
 30
0.0
 10
22.39385802010809
 20
0.5144473892225924
 30
0.0
 10
22.49045621091484
 20
0.557515469253045
 30
0.0
 10
22.64863848622978
 20
0.6128276503239135
 30
0.0
 10
22.84177237631339
 20
0.6717811847520891
 30
0.0
 10
23.02531634461705
 20
0.7125100388678743
 30
0.0
 10
23.21109033758318
 20
0.7403659252112355
 30
0.0
 10
23.3350009406517
 20
0.7463609507152091
 30
0.0
 10
23.39711431702996
 20
0.7493661114222364
 30
0.0
  0
SPLINE
  5
BE
330
1F
100
AcDbEntity
  8
0
  6
Continuous
 62
     1
370
    15
100
AcDbSpline
210
0.0
220
0.0
230
1.0
 70
    24
 71
     3
 72
     8
 73
     4
 74
     0
 42
0.000000001
 43
0.00000001
 40
0.0
 40
0.0
 40
0.0
 40
0.0
 40
1.0
 40
1.0
 40
1.0
 40
1.0
 10
23.39711431702995
 20
0.5250000000000016
 30
0.0
 10
23.39711431702995
 20
0.5886483852109727
 30
0.0
 10
23.39711431702996
 20
0.6742440422799787
 30
0.0
 10
23.39711431702996
 20
0.7493661114222364
 30
0.0
  0
LINE
  5
BF
330
1F
100
AcDbEntity
  8
0
  6
Continuous
 62
     1
370
    15
100
AcDbLine
 10
23.39711431702995
 20
0.5250000000000017
 30
0.0
 11
23.07946630360994
 21
0.5054113658664778
 31
0.0
  0
SPLINE
  5
C0
330
1F
100
AcDbEntity
  8
0
  6
Continuous
 62
     1
370
    15
100
AcDbSpline
210
0.0
220
0.0
230
1.0
 70
     8
 71
     3
 72
    15
 73
    11
 74
     0
 42
0.000000001
 43
0.00000001
 40
0.0
 40
0.0
 40
0.0
 40
0.0
 40
0.0209387188890207
 40
0.1818554921897156
 40
0.342474216933901
 40
0.5020549970231855
 40
0.6625949799123566
 40
0.8235817253007324
 40
0.9832045171010186
 40
1.0
 40
1.0
 40
1.0
 40
1.0
 10
17.45083674371113
 20
-0.0697722947313927
 30
0.0
 10
17.43343476069966
 20
-0.0629728736569999
 30
0.0
 10
17.28229627880874
 20
-0.003919018803578
 30
0.0
 10
16.9972637270882
 20
0.1137783590533387
 30
0.0
 10
16.59709782173789
 20
0.265529233006273
 30
0.0
 10
16.19768735940768
 20
0.3936622119983822
 30
0.0
 10
15.7975546309561
 20
0.4849928854927651
 30
0.0
 10
15.39712355740179
 20
0.5260783533391693
 30
0.0
 10
15.11687237878418
 20
0.5328887875932957
 30
0.0
 10
14.97018223498036
 20
0.5126175977987407
 30
0.0
 10
14.95621694818733
 20
0.510687727312722
 30
0.0
  0
SPLINE
  5
C1
330
1F
100
AcDbEntity
  8
0
  6
Continuous
 62
     1
370
    15
100
AcDbSpline
210
0.0
220
0.0
230
1.0
 70
     8
 71
     3
 72
    14
 73
    10
 74
     0
 42
0.000000001
 43
0.00000001
 40
0.0
 40
0.0
 40
0.0
 40
0.0
 40
0.1457527552532301
 40
0.2913856960798437
 40
0.4369224727020139
 40
0.5823873969213706
 40
0.7278052792672759
 40
0.8732012588276474
 40
1.0
 40
1.0
 40
1.0
 40
1.0
 10
23.39711431702995
 20
-0.7117056519239241
 30
0.0
 10
23.21902027053199
 20
-0.6676077695579835
 30
0.0
 10
22.86297857776038
 20
-0.5794482549983991
 30
0.0
 10
22.3292216194767
 20
-0.3190423206457325
 30
0.0
 10
21.79587912283341
 20
-0.0143899754843154
 30
0.0
 10
21.26285408494889
 20
0.2957172088524732
 30
0.0
 10
20.73003458676258
 20
0.5528643786981494
 30
0.0
 10
20.22002892553542
 20
0.722657358166866
 30
0.0
 10
19.88760842768279
 20
0.7365481848453824
 30
0.0
 10
19.73275420951817
 20
0.7500000000000013
 30
0.0
  0
SPLINE
  5
C2
330
1F
100
AcDbEntity
  8
0
  6
Continuous
 62
     1
370
    15
100
AcDbSpline
210
0.0
220
0.0
230
1.0
 70
     8
 71
     3
 72
    18
 73
    14
 74
     0
 42
0.000000001
 43
0.00000001
 40
0.0
 40
0.0
 40
0.0
 40
0.0
 40
0.0089269808503277
 40
0.1169949381196688
 40
0.2249963121802191
 40
0.3329492585138767
 40
0.4408722693881164
 40
0.5487840464066586
 40
0.6567033699580035
 40
0.764648967491964
 40
0.8726393825839838
 40
0.9541219345409917
 40
1.0
 40
1.0
 40
1.0
 40
1.0
 10
16.5070107701531
 20
-0.5896391698014597
 30
0.0
 10
16.49231532902838
 20
-0.5959418969701163
 30
0.0
 10
16.29972029002764
 20
-0.6785439757070805
 30
0.0
 10
15.92941599787293
 20
-0.7476933968246106
 30
0.0
 10
15.39616268681452
 20
-0.7581775035986481
 30
0.0
 10
14.86320500472476
 20
-0.6332747913935286
 30
0.0
 10
14.33042280003819
 20
-0.4057382203392852
 30
0.0
 10
13.79770422917301
 20
-0.1100558713473401
 30
0.0
 10
13.26495391651681
 20
0.2033909364140419
 30
0.0
 10
12.73199937324716
 20
0.4844107730086684
 30
0.0
 10
12.2426774550479
 20
0.6641359212730789
 30
0.0
 10
11.85499735492794
 20
0.745688425161123
 30
0.0
 10
11.6456481593121
 20
0.7424606109784913
 30
0.0
 10
11.57023602410799
 20
0.7500000000000013
 30
0.0
  0
SPLINE
  5
C3
330
1F
100
AcDbEntity
  8
0
  6
Continuous
 62
     1
370
    15
100
AcDbSpline
210
0.0
220
0.0
230
1.0
 70
     8
 71
     3
 72
    12
 73
     8
 74
     0
 42
0.000000001
 43
0.00000001
 40
0.0
 40
0.0
 40
0.0
 40
0.0
 40
0.2045438276202442
 40
0.4076432560691867
 40
0.611738008840372
 40
0.8166809108171353
 40
1.0
 40
1.0
 40
1.0
 40
1.0
 10
23.39711431702996
 20
-0.5917291982761603
 30
0.0
 10
23.26334864239085
 20
-0.5619863187752124
 30
0.0
 10
22.9967618878816
 20
-0.5027105909974464
 30
0.0
 10
22.59746167841265
 20
-0.3505156749089113
 30
0.0
 10
22.19739275333653
 20
-0.1702761913484432
 30
0.0
 10
21.8097931699956
 20
0.0212311898068599
 30
0.0
 10
21.55630167610119
 20
0.142525647587486
 30
0.0
 10
21.43661489028541
 20
0.1997951976066945
 30
0.0
  0
SPLINE
  5
C4
330
1F
100
AcDbEntity
  8
0
  6
Continuous
 62
     1
370
    15
100
AcDbSpline
210
0.0
220
0.0
230
1.0
 70
     8
 71
     3
 72
    15
 73
    11
 74
     0
 42
0.000000001
 43
0.00000001
 40
0.0
 40
0.0
 40
0.0
 40
0.0
 40
0.0739494398189781
 40
0.2216198208382515
 40
0.3680881210768315
 40
0.5150760666254575
 40
0.6629548238208782
 40
0.809521049519877
 40
0.9562799563430394
 40
1.0
 40
1.0
 40
1.0
 40
1.0
 10
15.99897023494685
 20
-0.6165730413047446
 30
0.0
 10
15.93194139423115
 20
-0.624713369873074
 30
0.0
 10
15.73106198653349
 20
-0.6491092025297363
 30
0.0
 10
15.39701756377688
 20
-0.6247548737864452
 30
0.0
 10
14.99767663050195
 20
-0.5477072770133564
 30
0.0
 10
14.59775490597644
 20
-0.416147896653608
 30
0.0
 10
14.19705909156807
 20
-0.2471387799745113
 30
0.0
 10
13.79755888134159
 20
-0.0545228638740476
 30
0.0
 10
13.49229933313831
 20
0.1007296740586556
 30
0.0
 10
13.31948307580517
 20
0.1780556175896683
 30
0.0
 10
13.27981709541105
 20
0.195804001956918
 30
0.0
  0
LINE
  5
C5
330
1F
100
AcDbEntity
  8
0
  6
Continuous
 62
     1
370
    15
100
AcDbLine
 10
23.39711431702995
 20
-0.7117056519239249
 30
0.0
 11
23.39711431702995
 21
-0.5917291982761602
 31
0.0
  0
SPLINE
  5
C6
330
1F
100
AcDbEntity
  8
0
  6
Continuous
 62
     1
370
    15
100
AcDbSpline
210
0.0
220
0.0
230
1.0
 70
     8
 71
     3
 72
    17
 73
    13
 74
     0
 42
0.000000001
 43
0.00000001
 40
0.0
 40
0.0
 40
0.0
 40
0.0
 40
0.0731540098248279
 40
0.1817809042273652
 40
0.2904292093250315
 40
0.3991176533197163
 40
0.5078646844628658
 40
0.6166883452124388
 40
0.7255985026504508
 40
0.8344637333066036
 40
0.943244128940534
 40
1.0
 40
1.0
 40
1.0
 40
1.0
 10
20.55606382593126
 20
-0.5928163855295729
 30
0.0
 10
20.43648107734667
 20
-0.6338317775033679
 30
0.0
 10
20.13932907953065
 20
-0.7357512082781088
 30
0.0
 10
19.66457452350762
 20
-0.7677967578291764
 30
0.0
 10
19.13171052669549
 20
-0.6906421950736471
 30
0.0
 10
18.59861174150934
 20
-0.4948862635378173
 30
0.0
 10
18.06516600546834
 20
-0.2177494060431179
 30
0.0
 10
17.53129297530064
 20
0.0955224257881418
 30
0.0
 10
16.99709718966874
 20
0.3943951193927986
 30
0.0
 10
16.46305032513192
 20
0.6216000488597772
 30
0.0
 10
16.01436222325605
 20
0.7450774973897375
 30
0.0
 10
15.7437252115572
 20
0.7370420125818979
 30
0.0
 10
15.65093443134498
 20
0.7500000000000013
 30
0.0
  0
SPLINE
  5
C7
330
1F
100
AcDbEntity
  8
0
  6
Continuous
 62
     1
370
    15
100
AcDbSpline
210
0.0
220
0.0
230
1.0
 70
     8
 71
     3
 72
    10
 73
     6
 74
     0
 42
0.000000001
 43
0.00000001
 40
0.0
 40
0.0
 40
0.0
 40
0.0
 40
0.2015606136905562
 40
0.602024720906001
 40
1.0
 40
1.0
 40
1.0
 40
1.0
 10
12.40141838455886
 20
-0.5905626701045664
 30
0.0
 10
12.33393405303779
 20
-0.6168130291880262
 30
0.0
 10
12.13237068653666
 20
-0.6952180549097882
 30
0.0
 10
11.79721621478535
 20
-0.7509897137884212
 30
0.0
 10
11.53020418046097
 20
-0.7458784296346139
 30
0.0
 10
11.39711431702995
 20
-0.7499999999999997
 30
0.0
  0
SPLINE
  5
C8
330
1F
100
AcDbEntity
  8
0
  6
Continuous
 62
   131
370
    15
100
AcDbSpline
210
0.0
220
0.0
230
1.0
 70
    24
 71
     3
 72
     8
 73
     4
 74
     0
 42
0.000000001
 43
0.00000001
 40
0.0
 40
0.0
 40
0.0
 40
0.0
 40
1.0
 40
1.0
 40
1.0
 40
1.0
 10
11.39711431702995
 20
-0.6255697658289181
 30
0.0
 10
11.39711431702995
 20
-0.665221884171361
 30
0.0
 10
11.39711431702995
 20
-0.7047295993969191
 30
0.0
 10
11.39711431702995
 20
-0.7433307537900989
 30
0.0
  0
SPLINE
  5
C9
330
1F
100
AcDbEntity
  8
0
  6
Continuous
 62
     1
370
    15
100
AcDbSpline
210
0.0
220
0.0
230
1.0
 70
     8
 71
     3
 72
    15
 73
    11
 74
     0
 42
0.000000001
 43
0.00000001
 40
0.0
 40
0.0
 40
0.0
 40
0.0
 40
0.103319963432024
 40
0.2511373296597352
 40
0.3978085205878381
 40
0.5442166502748995
 40
0.6919285194767013
 40
0.83884136992347
 40
0.9851647587239935
 40
1.0
 40
1.0
 40
1.0
 40
1.0
 10
20.07970197318608
 20
-0.6177996787645004
 30
0.0
 10
19.98604239593835
 20
-0.6268400658417314
 30
0.0
 10
19.75838633271753
 20
-0.6488143154857496
 30
0.0
 10
19.39687186062031
 20
-0.6138450703658302
 30
0.0
 10
18.99714223053218
 20
-0.5250559913369514
 30
0.0
 10
18.59767703118075
 20
-0.3842680126397767
 30
0.0
 10
18.19701821031127
 20
-0.2088279506253298
 30
0.0
 10
17.79701064997068
 20
-0.0150706274090403
 30
0.0
 10
17.51796332119676
 20
0.1283152959049295
 30
0.0
 10
17.3716774554596
 20
0.1924619797796651
 30
0.0
 10
17.35821130653261
 20
0.1983669166228582
 30
0.0
  0
SPLINE
  5
CA
330
1F
100
AcDbEntity
  8
0
  6
Continuous
 62
     1
370
    15
100
AcDbSpline
210
0.0
220
0.0
230
1.0
 70
     8
 71
     3
 72
     9
 73
     5
 74
     0
 42
0.000000001
 43
0.00000001
 40
0.0
 40
0.0
 40
0.0
 40
0.0
 40
0.2003958109519101
 40
1.0
 40
1.0
 40
1.0
 40
1.0
 10
11.89672749271865
 20
-0.620440140335618
 30
0.0
 10
11.86332515119132
 20
-0.6252454097444823
 30
0.0
 10
11.6966433160339
 20
-0.649224301249442
 30
0.0
 10
11.53020171691627
 20
-0.6360800023172218
 30
0.0
 10
11.39711431702996
 20
-0.6255697658289184
 30
0.0
  0
LINE
  5
CB
330
1F
100
AcDbEntity
  8
0
  6
Continuous
 62
   131
370
    15
100
AcDbLine
 10
11.39711431702995
 20
-0.7500000000000009
 30
0.0
 11
11.39711431702995
 21
-0.743330753791443
 31
0.0
  0
LINE
  5
CC
330
1F
100
AcDbEntity
  8
0
  6
Continuous
 62
   131
370
    15
100
AcDbLine
 10
11.39711431702995
 20
0.7419813720518188
 30
0.0
 11
11.39711431702995
 21
0.7500000000000013
 31
0.0
  0
LINE
  5
CD
330
1F
100
AcDbEntity
  8
0
  6
Continuous
 62
     1
370
    15
100
AcDbLine
 10
23.39711431702996
 20
-0.7493661114222344
 30
0.0
 11
23.39711431702995
 21
-0.7117056519239265
 31
0.0
  0
SPLINE
  5
CE
330
1F
100
AcDbEntity
  8
0
  6
Continuous
 62
     1
370
    15
100
AcDbSpline
210
0.0
220
0.0
230
1.0
 70
     8
 71
     3
 72
     8
 73
     4
 74
     0
 42
0.000000001
 43
0.00000001
 40
0.0
 40
0.0
 40
0.0
 40
0.0
 40
1.0
 40
1.0
 40
1.0
 40
1.0
 10
22.9336930626345
 20
0.2091243521614105
 30
0.0
 10
22.8998604951198
 20
0.2491581138994827
 30
0.0
 10
22.87044788964088
 20
0.287465643682092
 30
0.0
 10
22.84726799057117
 20
0.3230588479328899
 30
0.0
  0
LINE
  5
CF
330
1F
100
AcDbEntity
  8
0
  6
Continuous
 62
     1
370
    15
100
AcDbLine
 10
22.84726799057116
 20
0.323058847932888
 30
0.0
 11
23.39711431702995
 21
0.0000000000000018
 31
0.0
  0
LINE
  5
D0
330
1F
100
AcDbEntity
  8
0
  6
Continuous
 62
     1
370
    15
100
AcDbLine
 10
23.39711431702995
 20
0.0000000000000018
 30
0.0
 11
23.39711431702995
 21
-0.2004322095222318
 31
0.0
  0
SPLINE
  5
D1
330
1F
100
AcDbEntity
  8
0
  6
Continuous
 62
     1
370
    15
100
AcDbSpline
210
0.0
220
0.0
230
1.0
 70
     8
 71
     3
 72
    10
 73
     6
 74
     0
 42
0.000000001
 43
0.00000001
 40
0.0
 40
0.0
 40
0.0
 40
0.0
 40
0.5
 40
0.5
 40
1.0
 40
1.0
 40
1.0
 40
1.0
 10
23.39711431702995
 20
-0.2004322095222318
 30
0.0
 10
23.31690526043669
 20
-0.1373715394669073
 30
0.0
 10
23.23803532198719
 20
-0.0717255156068367
 30
0.0
 10
23.08302977800458
 20
0.0648455420662262
 30
0.0
 10
23.00616674524158
 20
0.1364836568451762
 30
0.0
 10
22.93369306263399
 20
0.2091243521597778
 30
0.0
  0
SPLINE
  5
D2
330
1F
100
AcDbEntity
  8
0
  6
Continuous
 62
     1
370
    15
100
AcDbSpline
210
0.0
220
0.0
230
1.0
 70
     8
 71
     3
 72
    12
 73
     8
 74
     0
 42
0.000000001
 43
0.00000001
 40
0.0
 40
0.0
 40
0.0
 40
0.0
 40
0.1914491304184346
 40
0.4194430368483986
 40
0.6483975408132121
 40
0.8753596920159312
 40
1.0
 40
1.0
 40
1.0
 40
1.0
 10
22.93369306263382
 20
0.2091243521617104
 30
0.0
 10
22.82182759929943
 20
0.2564046938755504
 30
0.0
 10
22.57674322854842
 20
0.3599904874925764
 30
0.0
 10
22.19738084444522
 20
0.4867196025613144
 30
0.0
 10
21.79681263063666
 20
0.5729759745745383
 30
0.0
 10
21.4575838291532
 20
0.6091486792278067
 30
0.0
 10
21.25190408789969
 20
0.5930903218626183
 30
0.0
 10
21.20526126575948
 20
0.595983251132547
 30
0.0
  0
SPLINE
  5
D3
330
1F
100
AcDbEntity
  8
0
  6
Continuous
 62
     1
370
    15
100
AcDbSpline
210
0.0
220
0.0
230
1.0
 70
     8
 71
     3
 72
    19
 73
    15
 74
     0
 42
0.000000001
 43
0.00000001
 40
0.0
 40
0.0
 40
0.0
 40
0.0
 40
0.0703083253155335
 40
0.1559765136350082
 40
0.2414901723787248
 40
0.3264655940162431
 40
0.4119383737510234
 40
0.4976428897798094
 40
0.5826400990857525
 40
0.6679432536314976
 40
0.7537704270261044
 40
0.838825233316563
 40
0.9239935892992872
 40
1.0
 40
1.0
 40
1.0
 40
1.0
 10
17.72784726577193
 20
-0.5600717709454963
 30
0.0
 10
17.6181343247982
 20
-0.5754635156754764
 30
0.0
 10
17.37474007586782
 20
-0.6096095527339344
 30
0.0
 10
16.99726622203957
 20
-0.5946503947398927
 30
0.0
 10
16.59704613199965
 20
-0.5288617708893586
 30
0.0
 10
16.1977253078399
 20
-0.4110504142171224
 30
0.0
 10
15.79756303998477
 20
-0.2555466898060907
 30
0.0
 10
15.39708487874937
 20
-0.0766126572312867
 30
0.0
 10
14.99768428141092
 20
0.1111209639973699
 30
0.0
 10
14.59776021612244
 20
0.2876095450672563
 30
0.0
 10
14.19711355065977
 20
0.4364722134485908
 30
0.0
 10
13.7975974287537
 20
0.5442727903676952
 30
0.0
 10
13.41323650547211
 20
0.6031438584877917
 30
0.0
 10
13.16126181884162
 20
0.5962747181292068
 30
0.0
 10
13.04243619922191
 20
0.5930353853601955
 30
0.0
  0
SPLINE
  5
D4
330
1F
100
AcDbEntity
  8
0
  6
Continuous
 62
     1
370
    15
100
AcDbSpline
210
0.0
220
0.0
230
1.0
 70
    24
 71
     3
 72
     8
 73
     4
 74
     0
 42
0.000000001
 43
0.00000001
 40
0.0
 40
0.0
 40
0.0
 40
0.0
 40
1.0
 40
1.0
 40
1.0
 40
1.0
 10
23.39711431702995
 20
-0.5917291982761599
 30
0.0
 10
23.39711431702995
 20
-0.5010078852295434
 30
0.0
 10
23.39711431702996
 20
-0.3595289550547052
 30
0.0
 10
23.39711431702996
 20
-0.2004322095222557
 30
0.0
  0
SPLINE
  5
D5
330
1F
100
AcDbEntity
  8
0
  6
Continuous
 62
   131
370
    15
100
AcDbSpline
210
0.0
220
0.0
230
1.0
 70
    24
 71
     3
 72
    10
 73
     6
 74
     0
 42
0.000000001
 43
0.00000001
 40
0.0
 40
0.0
 40
0.0
 40
0.0
 40
0.5
 40
0.5
 40
1.0
 40
1.0
 40
1.0
 40
1.0
 10
11.39711431702995
 20
-0.1118283596822722
 30
0.0
 10
11.39711431702995
 20
-0.2222303589834428
 30
0.0
 10
11.39711431702995
 20
-0.3303822418897794
 30
0.0
 10
11.39711431702995
 20
-0.5099603205287423
 30
0.0
 10
11.39711431702995
 20
-0.5806135420089081
 30
0.0
 10
11.39711431702995
 20
-0.6255697658289177
 30
0.0
  0
SPLINE
  5
D6
330
1F
100
AcDbEntity
  8
0
  6
Continuous
 62
     1
370
    15
100
AcDbSpline
210
0.0
220
0.0
230
1.0
 70
     8
 71
     3
 72
    20
 73
    16
 74
     0
 42
0.000000001
 43
0.00000001
 40
0.0
 40
0.0
 40
0.0
 40
0.0
 40
0.0023875678514242
 40
0.0874447075436751
 40
0.1727324289045631
 40
0.2586286776495658
 40
0.343757468284585
 40
0.428924133591285
 40
0.5148355685436166
 40
0.6000715468723589
 40
0.6851525710611613
 40
0.7710018774525982
 40
0.8563802358425331
 40
0.9414113094913419
 40
1.0
 40
1.0
 40
1.0
 40
1.0
 10
21.80699298315226
 20
-0.5634622602212496
 30
0.0
 10
21.8032636271796
 20
-0.564277459193551
 30
0.0
 10
21.66667591003428
 20
-0.5941341334992799
 30
0.0
 10
21.39741191210981
 20
-0.6055794244456333
 30
0.0
 10
20.99753108393623
 20
-0.5872049529083914
 30
0.0
 10
20.59686155667223
 20
-0.5084171543036418
 30
0.0
 10
20.197272275376
 20
-0.3825859562933184
 30
0.0
 10
19.79762164926393
 20
-0.220028054521432
 30
0.0
 10
19.39692071689248
 20
-0.0386728333264443
 30
0.0
 10
18.99715841953176
 20
0.1480109124357473
 30
0.0
 10
18.59766130612399
 20
0.3207841994466736
 30
0.0
 10
18.19704575149126
 20
0.4624858530985183
 30
0.0
 10
17.79706742046369
 20
0.5596570590203099
 30
0.0
 10
17.43999931609018
 20
0.6063395510755085
 30
0.0
 10
17.21564712684033
 20
0.594581871888994
 30
0.0
 10
17.12403918046268
 20
0.5959740033956741
 30
0.0
  0
SPLINE
  5
D7
330
1F
100
AcDbEntity
  8
0
  6
Continuous
 62
     1
370
    15
100
AcDbSpline
210
0.0
220
0.0
230
1.0
 70
     8
 71
     3
 72
    13
 73
     9
 74
     0
 42
0.000000001
 43
0.00000001
 40
0.0
 40
0.0
 40
0.0
 40
0.0
 40
0.1109488436658019
 40
0.2896671290850774
 40
0.4668772214401553
 40
0.6439224598446215
 40
0.8225490359119952
 40
0.9999999999999999
 40
0.9999999999999999
 40
0.9999999999999999
 40
0.9999999999999999
 10
13.64852523299484
 20
-0.5575018033545999
 30
0.0
 10
13.5653162952867
 20
-0.5711260601785421
 30
0.0
 10
13.34807298473232
 20
-0.606696501741653
 30
0.0
 10
12.99715116570219
 20
-0.6012023176158658
 30
0.0
 10
12.59747494970965
 20
-0.5468228321841996
 30
0.0
 10
12.19794168868432
 20
-0.4379747308549401
 30
0.0
 10
11.79730263547772
 20
-0.2907661768718556
 30
0.0
 10
11.53021648937972
 20
-0.1713428709399702
 30
0.0
 10
11.39711431702996
 20
-0.1118283596822747
 30
0.0
  0
SPLINE
  5
D8
330
1F
100
AcDbEntity
  8
0
  6
Continuous
 62
   131
370
    15
100
AcDbSpline
210
0.0
220
0.0
230
1.0
 70
    24
 71
     3
 72
    10
 73
     6
 74
     0
 42
0.000000001
 43
0.00000001
 40
0.0
 40
0.0
 40
0.0
 40
0.0
 40
0.5
 40
0.5
 40
1.0
 40
1.0
 40
1.0
 40
1.0
 10
11.39711431702995
 20
0.5158007500565239
 30
0.0
 10
11.39711431702995
 20
0.4638096894793303
 30
0.0
 10
11.39711431702995
 20
0.3768640622132293
 30
0.0
 10
11.39711431702995
 20
0.1537684861241492
 30
0.0
 10
11.39711431702995
 20
0.0193471010673098
 30
0.0
 10
11.39711431702995
 20
-0.1118283596822721
 30
0.0
  0
SPLINE
  5
D9
330
1F
100
AcDbEntity
  8
0
  6
Continuous
 62
     1
370
    15
100
AcDbSpline
210
0.0
220
0.0
230
1.0
 70
     8
 71
     3
 72
    26
 73
    22
 74
     0
 42
0.000000001
 43
0.00000001
 40
0.0
 40
0.0
 40
0.0
 40
0.0
 40
0.0001949793456027
 40
0.0001949793456027
 40
0.0001949793456027
 40
0.0002924510485669
 40
0.0002924510485669
 40
0.0002924510485669
 40
0.0003899235983167
 40
0.0003899235983167
 40
0.0003899235983167
 40
0.0004873972771802
 40
0.0004873972771802
 40
0.0004873972771802
 40
0.0005848724890655
 40
0.0005848724890655
 40
0.0005848724890655
 40
0.0006823498292752
 40
0.0006823498292752
 40
0.0006823498292752
 40
0.000746282324225
 40
0.000746282324225
 40
0.000746282324225
 40
0.000746282324225
 10
23.39711431702995
 20
0.5250000000000017
 30
0.0
 10
23.34837649698846
 20
0.511723842339434
 30
0.0
 10
23.2997874472313
 20
0.4974718917867301
 30
0.0
 10
23.25140195392306
 20
0.4821562529125691
 30
0.0
 10
23.22721133578219
 20
0.4744991072216466
 30
0.0
 10
23.20306931581745
 20
0.466574770814929
 30
0.0
 10
23.17898463786796
 20
0.4583682436368221
 30
0.0
 10
23.15489983663447
 20
0.450161674451368
 30
0.0
 10
23.13087038939175
 20
0.4416722965990241
 30
0.0
 10
23.10690685258968
 20
0.4328815776107941
 30
0.0
 10
23.08294315239015
 20
0.4240907986822838
 30
0.0
 10
23.05904307196903
 20
0.4149979195339231
 30
0.0
 10
23.03521960952573
 20
0.4055799658794872
 30
0.0
 10
23.01139592680608
 20
0.3961619251448236
 30
0.0
 10
22.98764616261972
 20
0.3864178564238686
 30
0.0
 10
22.96398666421554
 20
0.3763191163097102
 30
0.0
 10
22.94032686256507
 20
0.3662202467589302
 30
0.0
 10
22.91675406348172
 20
0.355765475824794
 30
0.0
 10
22.89328930905149
 20
0.3449188027816786
 30
0.0
 10
22.87790117760798
 20
0.3378055797983116
 30
0.0
 10
22.8625582561798
 20
0.3305230450938682
 30
0.0
 10
22.84726799057115
 20
0.3230588479328967
 30
0.0
  0
LINE
  5
DA
330
1F
100
AcDbEntity
  8
0
  6
Continuous
 62
     1
370
    15
100
AcDbLine
 10
23.39711431702995
 20
0.0000000000000018
 30
0.0
 11
23.39711431702995
 21
0.5250000000000017
 31
0.0
  0
LINE
  5
DB
330
1F
100
AcDbEntity
  8
0
  6
Continuous
 62
   131
370
    15
100
AcDbLine
 10
10.39711431702995
 20
0.7500000000000002
 30
0.0
 11
10.39711431702995
 21
-0.75
 31
0.0
  0
LINE
  5
DC
330
1F
100
AcDbEntity
  8
0
  6
Continuous
 62
   131
370
    15
100
AcDbLine
 10
2.0
 20
2.999999999999999
 30
0.0
 11
2.0
 21
-2.999999999999999
 31
0.0
  0
LINE
  5
DD
330
1F
100
AcDbEntity
  8
0
  6
Continuous
 62
   131
370
    15
100
AcDbLine
 10
-36.05288568297004
 20
2.999999999999994
 30
0.0
 11
-36.05288568297004
 21
-3.000000000000001
 31
0.0
  0
LINE
  5
DE
330
1F
100
AcDbEntity
  8
0
  6
Continuous
 62
   131
370
    15
100
AcDbLine
 10
-36.60288568297004
 20
2.449999999999994
 30
0.0
 11
-36.60288568297004
 21
-2.450000000000002
 31
0.0
  0
ELLIPSE
  5
DF
330
1F
100
AcDbEntity
  8
0
  6
Continuous
 62
   131
370
    15
100
AcDbEllipse
 10
10.59704299239098
 20
0.0000000000000002
 30
0.0
 11
-1.292040481715163E-6
 21
0.7500000000000001
 31
0.0
210
0.0
220
0.0
230
1.0
 40
0.0000515131421774
 41
5.813315845296106
 42
8.67534470286918
  0
SPLINE
  5
E0
330
1F
100
AcDbEntity
  8
0
  6
Continuous
 62
   131
370
    15
100
AcDbSpline
210
0.0
220
0.0
230
1.0
 70
     8
 71
     3
 72
    10
 73
     6
 74
     0
 42
0.000000001
 43
0.00000001
 40
0.0
 40
0.0
 40
0.0
 40
0.0
 40
0.3676104471930692
 40
0.7529743596918569
 40
1.0
 40
1.0
 40
1.0
 40
1.0
 10
10.59705933334601
 20
0.6687568763944656
 30
0.0
 10
10.59705904328756
 20
0.6445813390897928
 30
0.0
 10
10.59705844916251
 20
0.5950627254018853
 30
0.0
 10
10.59705670445739
 20
0.5352666093794763
 30
0.0
 10
10.59705506135677
 20
0.5073265857680481
 30
0.0
 10
10.59705441952455
 20
0.4964125815878668
 30
0.0
  0
SPLINE
  5
E1
330
1F
100
AcDbEntity
  8
0
  6
Continuous
 62
   131
370
    15
100
AcDbSpline
210
0.0
220
0.0
230
1.0
 70
     8
 71
     3
 72
    11
 73
     7
 74
     0
 42
0.000000001
 43
0.00000001
 40
0.0
 40
0.0
 40
0.0
 40
0.0
 40
0.0492847793724389
 40
0.3656029748274361
 40
0.683755033209761
 40
1.0
 40
1.0
 40
1.0
 40
1.0
 10
10.59704435222681
 20
0.4934035427001686
 30
0.0
 10
10.59704379891674
 20
0.4945424323607027
 30
0.0
 10
10.59703969436744
 20
0.5029909118546458
 30
0.0
 10
10.59703210561156
 20
0.4661451109133531
 30
0.0
 10
10.5970222554085
 20
0.388154829717013
 30
0.0
 10
10.59701704556367
 20
0.2954662876242275
 30
0.0
 10
10.59701444847203
 20
0.2492613343333521
 30
0.0
  0
SPLINE
  5
E2
330
1F
100
AcDbEntity
  8
0
  6
Continuous
 62
   131
370
    15
100
AcDbSpline
210
0.0
220
0.0
230
1.0
 70
    24
 71
     3
 72
    10
 73
     6
 74
     0
 42
0.000000001
 43
0.00000001
 40
0.0
 40
0.0
 40
0.0
 40
0.0
 40
0.5
 40
0.5
 40
1.0
 40
1.0
 40
1.0
 40
1.0
 10
10.59703844001508
 20
0.249264358935915
 30
0.0
 10
10.59703844001508
 20
0.1391877626820788
 30
0.0
 10
10.59703844001508
 20
0.0159094134500257
 30
0.0
 10
10.59703844001508
 20
-0.2249203191150921
 30
0.0
 10
10.59703844001508
 20
-0.3414350771322454
 30
0.0
 10
10.59703844001508
 20
-0.4397072927692378
 30
0.0
  0
SPLINE
  5
E3
330
1F
100
AcDbEntity
  8
0
  6
Continuous
 62
   131
370
    15
100
AcDbSpline
210
0.0
220
0.0
230
1.0
 70
    24
 71
     3
 72
     8
 73
     4
 74
     0
 42
0.000000001
 43
0.00000001
 40
0.0
 40
0.0
 40
0.0
 40
0.0
 40
1.0
 40
1.0
 40
1.0
 40
1.0
 10
10.5970022217683
 20
-0.4396942605275383
 30
0.0
 10
10.5970022217683
 20
-0.4746451865420029
 30
0.0
 10
10.5970022217683
 20
-0.5113321144525427
 30
0.0
 10
10.5970022217683
 20
-0.5490722229585862
 30
0.0
  0
SPLINE
  5
E4
330
1F
100
AcDbEntity
  8
0
  6
Continuous
 62
   131
370
    15
100
AcDbSpline
210
0.0
220
0.0
230
1.0
 70
     8
 71
     3
 72
    10
 73
     6
 74
     0
 42
0.000000001
 43
0.00000001
 40
0.0
 40
0.0
 40
0.0
 40
0.0
 40
0.4999999999999999
 40
0.4999999999999999
 40
1.0
 40
1.0
 40
1.0
 40
1.0
 10
10.59705935449557
 20
0.6688365236992797
 30
0.0
 10
10.72792454203694
 20
0.7034542851386059
 30
0.0
 10
10.86508053876718
 20
0.7279233562235725
 30
0.0
 10
11.13295128161227
 20
0.7526562208706198
 30
0.0
 10
11.26221555248838
 20
0.7532523850201949
 30
0.0
 10
11.39711431703056
 20
0.7419813720421308
 30
0.0
  0
SPLINE
  5
E5
330
1F
100
AcDbEntity
  8
0
  6
Continuous
 62
   131
370
    15
100
AcDbSpline
210
0.0
220
0.0
230
1.0
 70
     8
 71
     3
 72
    10
 73
     6
 74
     0
 42
0.000000001
 43
0.00000001
 40
0.0
 40
0.0
 40
0.0
 40
0.0
 40
0.4999999999999999
 40
0.4999999999999999
 40
1.0
 40
1.0
 40
1.0
 40
1.0
 10
11.39711431702995
 20
-0.7433307537902958
 30
0.0
 10
11.2622057368046
 20
-0.7330463481694841
 30
0.0
 10
11.13293226245492
 20
-0.7111736037420817
 30
0.0
 10
10.86504108431934
 20
-0.6453588532065033
 30
0.0
 10
10.72787512878176
 20
-0.6011992584466357
 30
0.0
 10
10.5970022217683
 20
-0.5490781930584064
 30
0.0
  0
SPLINE
  5
E6
330
1F
100
AcDbEntity
  8
0
  6
Continuous
 62
   131
370
    15
100
AcDbSpline
210
0.0
220
0.0
230
1.0
 70
     8
 71
     3
 72
    10
 73
     6
 74
     0
 42
0.000000001
 43
0.00000001
 40
0.0
 40
0.0
 40
0.0
 40
0.0
 40
0.3834443838465141
 40
0.7700302293913682
 40
1.0
 40
1.0
 40
1.0
 40
1.0
 10
10.59705935449497
 20
-0.6688365237038535
 30
0.0
 10
10.67496696367745
 20
-0.6870061928649901
 30
0.0
 10
10.83142045914482
 20
-0.7234943906363664
 30
0.0
 10
11.0353670826774
 20
-0.7469182119002795
 30
0.0
 10
11.16024408745565
 20
-0.7485944634508783
 30
0.0
 10
11.20682210149161
 20
-0.7492196903963054
 30
0.0
  0
ELLIPSE
  5
E7
330
1F
100
AcDbEntity
  8
0
  6
Continuous
 62
   131
370
    15
100
AcDbEllipse
 10
10.59704299239098
 20
0.0000000000000002
 30
0.0
 11
1.292040481715162E-6
 21
0.7499999999999999
 31
0.0
210
0.0
220
0.0
230
1.0
 40
0.0000515131421774
 41
3.141592653949493
 42
3.611462115906233
  0
SPLINE
  5
E8
330
1F
100
AcDbEntity
  8
0
  6
Continuous
 62
   131
370
    15
100
AcDbSpline
210
0.0
220
0.0
230
1.0
 70
     8
 71
     3
 72
    10
 73
     6
 74
     0
 42
0.000000001
 43
0.00000001
 40
0.0
 40
0.0
 40
0.0
 40
0.0
 40
0.5
 40
0.5
 40
1.0
 40
1.0
 40
1.0
 40
1.0
 10
11.3971143170307
 20
-0.6255697658289877
 30
0.0
 10
11.26220573680522
 20
-0.6129194615702005
 30
0.0
 10
11.13293226245541
 20
-0.5905726275749915
 30
0.0
 10
10.86504108431959
 20
-0.5275869762737423
 30
0.0
 10
10.72787512878189
 20
-0.4867864150375469
 30
0.0
 10
10.5970022217683
 20
-0.4396942605275382
 30
0.0
  0
SPLINE
  5
E9
330
1F
100
AcDbEntity
  8
0
  6
Continuous
 62
   131
370
    15
100
AcDbSpline
210
0.0
220
0.0
230
1.0
 70
     8
 71
     3
 72
    10
 73
     6
 74
     0
 42
0.000000001
 43
0.00000001
 40
0.0
 40
0.0
 40
0.0
 40
0.0
 40
0.5
 40
0.5
 40
1.0
 40
1.0
 40
1.0
 40
1.0
 10
11.39711431702996
 20
-0.111828359682276
 30
0.0
 10
11.26221195929306
 20
-0.0510824973254461
 30
0.0
 10
11.13294431934733
 20
0.010577632648083
 30
0.0
 10
10.8650660958157
 20
0.1330545515675448
 30
0.0
 10
10.72790645347133
 20
0.193587500353785
 30
0.0
 10
10.59703844001508
 20
0.2492643589359138
 30
0.0
  0
SPLINE
  5
EA
330
1F
100
AcDbEntity
  8
0
  6
Continuous
 62
   131
370
    15
100
AcDbSpline
210
0.0
220
0.0
230
1.0
 70
    24
 71
     3
 72
    10
 73
     6
 74
     0
 42
0.000000001
 43
0.00000001
 40
0.0
 40
0.0
 40
0.0
 40
0.0
 40
0.4999999999999999
 40
0.4999999999999999
 40
1.0
 40
1.0
 40
1.0
 40
1.0
 10
11.39711431702995
 20
-0.1118283596822731
 30
0.0
 10
11.39711431702995
 20
-0.2222303589834436
 30
0.0
 10
11.39711431702996
 20
-0.3303822418897803
 30
0.0
 10
11.39711431702996
 20
-0.5099603205287431
 30
0.0
 10
11.39711431702995
 20
-0.5806135420089085
 30
0.0
 10
11.39711431702995
 20
-0.6255697658289179
 30
0.0
  0
SPLINE
  5
EB
330
1F
100
AcDbEntity
  8
0
  6
Continuous
 62
   131
370
    15
100
AcDbSpline
210
0.0
220
0.0
230
1.0
 70
     8
 71
     3
 72
    10
 73
     6
 74
     0
 42
0.000000001
 43
0.00000001
 40
0.0
 40
0.0
 40
0.0
 40
0.0
 40
0.000208235084094
 40
0.74691772129403
 40
1.0
 40
1.0
 40
1.0
 40
1.0
 10
11.39711431702997
 20
0.5158007500565224
 30
0.0
 10
11.39707727939692
 20
0.5158035179242061
 30
0.0
 10
11.26422711821367
 20
0.5257315731900576
 30
0.0
 10
11.08679383341555
 20
0.5339419046734781
 30
0.0
 10
10.90894169216674
 20
0.5120836683399701
 30
0.0
 10
10.86392109211832
 20
0.5065505838978883
 30
0.0
  0
SPLINE
  5
EC
330
1F
100
AcDbEntity
  8
0
  6
Continuous
 62
   131
370
    15
100
AcDbSpline
210
0.0
220
0.0
230
1.0
 70
    24
 71
     3
 72
    10
 73
     6
 74
     0
 42
0.000000001
 43
0.00000001
 40
0.0
 40
0.0
 40
0.0
 40
0.0
 40
0.5
 40
0.5
 40
1.0
 40
1.0
 40
1.0
 40
1.0
 10
11.39711431702995
 20
0.5158007500565238
 30
0.0
 10
11.39711431702995
 20
0.4638096894793303
 30
0.0
 10
11.39711431702995
 20
0.3768640622132296
 30
0.0
 10
11.39711431702995
 20
0.1537684861241498
 30
0.0
 10
11.39711431702995
 20
0.0193471010673106
 30
0.0
 10
11.39711431702995
 20
-0.1118283596822712
 30
0.0
  0
SPLINE
  5
ED
330
1F
100
AcDbEntity
  8
0
  6
Continuous
 62
   131
370
    15
100
AcDbSpline
210
0.0
220
0.0
230
1.0
 70
    24
 71
     3
 72
     8
 73
     4
 74
     0
 42
0.000000001
 43
0.00000001
 40
0.0
 40
0.0
 40
0.0
 40
0.0
 40
1.0
 40
1.0
 40
1.0
 40
1.0
 10
11.39711431702995
 20
-0.6255697658289183
 30
0.0
 10
11.39711431702995
 20
-0.6652218841713607
 30
0.0
 10
11.39711431702995
 20
-0.7047295993969185
 30
0.0
 10
11.39711431702995
 20
-0.7433307537900978
 30
0.0
  0
SPLINE
  5
EE
330
1F
100
AcDbEntity
  8
0
  6
Continuous
 62
   131
370
    15
100
AcDbSpline
210
0.0
220
0.0
230
1.0
 70
    24
 71
     3
 72
     8
 73
     4
 74
     0
 42
0.000000001
 43
0.00000001
 40
0.0
 40
0.0
 40
0.0
 40
0.0
 40
1.0
 40
1.0
 40
1.0
 40
1.0
 10
11.39711431703313
 20
0.741981372036994
 30
0.0
 10
11.39711431703313
 20
0.6717581755999164
 30
0.0
 10
11.39711431703313
 20
0.5851828687584347
 30
0.0
 10
11.39711431703313
 20
0.5158007500562861
 30
0.0
  0
LINE
  5
EF
330
1F
100
AcDbEntity
  8
중심선
 62
     1
100
AcDbLine
 10
-39.61709216693895
 20
0.0142064839689116
 30
0.0
 11
24.88290783306104
 21
0.0142064839689116
 31
0.0
  0
CIRCLE
  5
F0
330
1F
100
AcDbEntity
  8
외형선
100
AcDbCircle
 10
0.0000000000000104
 20
0.0
 30
0.0
 40
3.000000000000005
  0
INSERT
  5
F1
330
1F
100
AcDbEntity
  8
0
  6
Continuous
 62
     7
100
AcDbBlockReference
 66
     1
  2
블럭10
 10
-22.93944368806589
 20
-52.04609937292004
 30
0.0
  0
ATTRIB
  5
F2
330
F1
100
AcDbEntity
  8
FORMAT
 62
     2
100
AcDbText
 10
-39.05870472750145
 20
-49.97073246008785
 30
0.0
 40
4.233333333333333
  1
SEME7001512E [ 2 FLUTE ]
 41
0.75
  7
SLDTEXTSTYLE0
 11
-39.05870472750145
 21
-52.08739912675452
 31
0.0
100
AcDbAttribute
  2
AUTOATTR0
 70
     0
 74
     1
  0
SEQEND
  5
F3
330
F1
100
AcDbEntity
  8
0
  6
Continuous
 62
     7
  0
HATCH
  5
F4
330
1F
100
AcDbEntity
  8
중심선
100
AcDbHatch
 10
0.0
 20
0.0
 30
0.0
210
0.0
220
0.0
230
1.0
  2
SOLID
 70
     1
 71
     0
 91
        1
 92
        0
 93
        4
 72
     1
 10
-17.22453438368504
 20
-35.7989250712761
 11
-20.67080962752232
 21
-35.7989250712761
 72
     1
 10
-20.67080962752232
 20
-35.7989250712761
 11
-22.79903948672635
 21
-38.3352506518487
 72
     1
 10
-22.79903948672635
 20
-38.3352506518487
 11
-19.35273115777591
 21
-38.33521122254621
 72
     1
 10
-19.35273115777591
 20
-38.33521122254621
 11
-17.22453438368504
 21
-35.7989250712761
 97
        0
 75
     0
 76
     1
 98
        1
 10
0.0
 20
0.0
  0
HATCH
  5
F5
330
1F
100
AcDbEntity
  8
중심선
100
AcDbHatch
 10
0.0
 20
0.0
 30
0.0
210
0.0
220
0.0
230
1.0
  2
SOLID
 70
     1
 71
     0
 91
        1
 92
        0
 93
        4
 72
     1
 10
-12.21177039264909
 20
-35.7989250712761
 11
-15.65804563648637
 21
-35.7989250712761
 72
     1
 10
-15.65804563648637
 20
-35.7989250712761
 11
-20.18918364484376
 21
-41.19892507127612
 72
     1
 10
-20.18918364484376
 20
-41.19892507127612
 11
-16.74290840100648
 21
-41.19892507127612
 72
     1
 10
-16.74290840100648
 20
-41.19892507127612
 11
-12.21177039264909
 21
-35.7989250712761
 97
        0
 75
     0
 76
     1
 98
        1
 10
0.0
 20
0.0
  0
HATCH
  5
F6
330
1F
100
AcDbEntity
  8
중심선
100
AcDbHatch
 10
0.0
 20
0.0
 30
0.0
210
0.0
220
0.0
230
1.0
  2
SOLID
 70
     1
 71
     0
 91
        1
 92
        0
 93
        4
 72
     1
 10
-7.199006401613195
 20
-35.79892507127613
 11
-10.64528164545031
 21
-35.7989250712761
 72
     1
 10
-10.64528164545031
 20
-35.7989250712761
 11
-17.69371854733956
 21
-44.19892507127612
 72
     1
 10
-17.69371854733956
 20
-44.19892507127612
 11
-14.24744330350228
 21
-44.19892507127612
 72
     1
 10
-14.24744330350228
 20
-44.19892507127612
 11
-7.199006401613195
 21
-35.79892507127613
 97
        0
 75
     0
 76
     1
 98
        1
 10
0.0
 20
0.0
  0
HATCH
  5
F7
330
1F
100
AcDbEntity
  8
중심선
100
AcDbHatch
 10
0.0
 20
0.0
 30
0.0
210
0.0
220
0.0
230
1.0
  2
SOLID
 70
     1
 71
     0
 91
        1
 92
        0
 93
        6
 72
     3
 10
-2.399115970600996
 20
-39.99892507132738
 11
3.960054785062284
 21
1.540850780301639E-10
 40
0.3939339440162633
 50
17.09539180608433
 51
320.0019657685079
 73
     0
 72
     1
 10
-0.7161163149004002
 20
-38.58681907591441
 11
1.589185558800638
 21
-36.65249236586649
 72
     3
 10
-2.399115970653842
 20
-39.99892507127625
 11
6.600054785286829
 21
-1.249000902703301E-13
 40
0.6363583540795982
 50
39.99873849337408
 51
368.4976242363724
 73
     1
 72
     1
 10
4.026216521246767
 20
-39.03892507120613
 11
-3.71904866381792
 21
-39.0389250712061
 72
     1
 10
-3.71904866381792
 20
-39.0389250712061
 11
-3.719073708263854
 21
-40.95892507120602
 72
     1
 10
-3.719073708263854
 20
-40.95892507120602
 11
0.7223060612081835
 21
-40.95892507120599
 97
        0
 75
     0
 76
     1
 98
        1
 10
0.0
 20
0.0
  0
DIMENSION
  5
F8
330
1F
100
AcDbEntity
  8
치수문자_일반주서
100
AcDbDimension
  2
_D
 10
36.01237434109675
 20
0.7493661114222849
 30
0.0
 11
36.0123743410967
 21
12.82211611142228
 31
0.0
 70
   160
  1
%%c<>
 71
     2
 42
1.498732222844471
 52
-270.0
  3
SLDDIMSTYLE0
100
AcDbAlignedDimension
 13
23.39711431702996
 23
-0.7493661114222344
 33
0.0
 14
23.39711431702996
 24
0.7493661114222364
 34
0.0
 50
90.0000000000002
100
AcDbRotatedDimension
  0
DIMENSION
  5
106
330
1F
100
AcDbEntity
  8
치수문자_일반주서
100
AcDbDimension
  2
_D_1
 10
23.39711431702995
 20
24.23841044024269
 30
0.0
 11
-6.602885682970042
 21
24.23841044024269
 31
0.0
 70
   160
  1
<>
 71
     2
 42
59.99999999999999
  3
SLDDIMSTYLE1
100
AcDbAlignedDimension
 13
-36.60288568297004
 23
2.449999999999994
 33
0.0
 14
23.39711431702995
 24
0.7117056519239269
 34
0.0
 50
-0.0000000000000068
100
AcDbRotatedDimension
  0
DIMENSION
  5
111
330
1F
100
AcDbEntity
  8
치수문자_일반주서
100
AcDbDimension
  2
_D_2
 10
23.39711431702996
 20
14.08897917821406
 30
0.0
 11
17.39711431702996
 21
14.08897917821406
 31
0.0
 70
   160
  1
<>
 71
     2
 42
12.0
  3
SLDDIMSTYLE2
100
AcDbAlignedDimension
 13
11.39711431702995
 23
0.741981372046537
 33
0.0
 14
23.39711431702996
 24
0.7493661114222364
 34
0.0
100
AcDbRotatedDimension
  0
DIMENSION
  5
11E
330
1F
100
AcDbEntity
  8
치수문자_일반주서
100
AcDbDimension
  2
_D_3
 10
-45.94000794836206
 20
-3.000000000000037
 30
0.0
 11
-45.94000794836212
 21
12.66649999999996
 31
0.0
 70
   160
  1
%%c<>
 71
     2
 42
5.999999999999995
 52
-270.0
  3
SLDDIMSTYLE2
100
AcDbAlignedDimension
 13
-36.05288568297004
 23
2.999999999999994
 33
0.0
 14
-36.05288568297004
 24
-3.0
 34
0.0
 50
90.0000000000002
100
AcDbRotatedDimension
  0
INSERT
  5
131
330
1F
100
AcDbEntity
  8
외형선
100
AcDbBlockReference
  2
SW_DOWELSYMBOL_0
 10
0.0000000000000104
 20
0.0
 30
0.0
  0
ENDSEC
  0
SECTION
  2
OBJECTS
  0
DICTIONARY
  5
C
330
0
100
AcDbDictionary
281
     1
  3
ACAD_GROUP
350
D
  3
ACAD_IMAGE_VARS
350
155
  3
ACAD_LAYOUT
350
1A
  3
ACAD_MLINESTYLE
350
17
  3
ACAD_PLOTSETTINGS
350
19
  3
ACAD_PLOTSTYLENAME
350
E
  3
ACAD_SCALELIST
350
47
  3
APPDATA
350
153
  3
DWGPROPS
350
188
  0
DICTIONARY
  5
D
102
{ACAD_REACTORS
330
C
102
}
330
C
100
AcDbDictionary
281
     1
  0
RASTERVARIABLES
  5
155
102
{ACAD_REACTORS
330
C
102
}
330
C
100
AcDbRasterVariables
 90
        0
 70
     1
 71
     1
 72
     1
  0
DICTIONARY
  5
1A
102
{ACAD_REACTORS
330
C
102
}
330
C
100
AcDbDictionary
281
     1
  3
Layout1
350
1E
  3
Layout2
350
26
  3
Model
350
22
  0
DICTIONARY
  5
17
102
{ACAD_REACTORS
330
C
102
}
330
C
100
AcDbDictionary
281
     1
  3
Standard
350
18
  0
DICTIONARY
  5
19
102
{ACAD_REACTORS
330
C
102
}
330
C
100
AcDbDictionary
281
     1
  0
ACDBDICTIONARYWDFLT
  5
E
102
{ACAD_REACTORS
330
C
102
}
330
C
100
AcDbDictionary
281
     1
  3
Normal
350
F
100
AcDbDictionaryWithDefault
340
F
  0
DICTIONARY
  5
47
102
{ACAD_REACTORS
330
C
102
}
330
C
100
AcDbDictionary
281
     1
  3
A0
350
48
  3
A1
350
49
  3
A2
350
4A
  3
A3
350
4B
  3
A4
350
4C
  3
A5
350
4D
  3
A6
350
4E
  3
A7
350
4F
  3
A8
350
50
  3
A9
350
51
  3
B0
350
52
  3
B1
350
53
  3
B2
350
54
  3
B3
350
55
  3
B4
350
56
  3
B5
350
57
  3
B6
350
58
  3
B7
350
59
  3
B8
350
5A
  3
B9
350
5B
  3
C0
350
5C
  3
C1
350
5D
  3
C2
350
5E
  3
C3
350
5F
  3
C4
350
60
  3
C5
350
61
  3
C6
350
62
  3
C7
350
63
  3
C8
350
64
  3
C9
350
65
  3
D0
350
66
  3
D1
350
67
  3
D2
350
68
  0
DICTIONARY
  5
153
102
{ACAD_REACTORS
330
C
102
}
330
C
100
AcDbDictionary
281
     1
  0
XRECORD
  5
188
102
{ACAD_REACTORS
330
C
102
}
330
C
100
AcDbXrecord
280
     1
  1
DWGPROPS COOKIE
  2

  3

  4

  6

  7

  8
12014102
  9

300
=
301
=
302
=
303
=
304
=
305
=
306
=
307
=
308
=
309
=
 40
0.0
 41
2458262.159596111
 42
2458264.39671728
  1

 90
        0
  0
LAYOUT
  5
1E
102
{ACAD_REACTORS
330
1A
102
}
330
1A
100
AcDbPlotSettings
  1

  2
none_device
  4

  6

 40
0.0
 41
0.0
 42
0.0
 43
0.0
 44
0.0
 45
0.0
 46
0.0
 47
0.0
 48
0.0
 49
0.0
140
0.0
141
0.0
142
1.0
143
1.0
 70
   688
 72
     1
 73
     0
 74
     5
  7

 75
    16
147
1.0
148
0.0
149
0.0
100
AcDbLayout
  1
Layout1
 70
     1
 71
     1
 10
0.0
 20
0.0
 11
420.0
 21
297.0
 12
0.0
 22
0.0
 32
0.0
 14
1.000000000000000E+20
 24
1.000000000000000E+20
 34
1.000000000000000E+20
 15
-1.000000000000000E+20
 25
-1.000000000000000E+20
 35
-1.000000000000000E+20
146
0.0
 13
0.0
 23
0.0
 33
0.0
 16
1.0
 26
0.0
 36
0.0
 17
0.0
 27
1.0
 37
0.0
 76
     0
330
1B
  0
LAYOUT
  5
26
102
{ACAD_REACTORS
330
1A
102
}
330
1A
100
AcDbPlotSettings
  1

  2
none_device
  4

  6

 40
0.0
 41
0.0
 42
0.0
 43
0.0
 44
0.0
 45
0.0
 46
0.0
 47
0.0
 48
0.0
 49
0.0
140
0.0
141
0.0
142
1.0
143
1.0
 70
   688
 72
     1
 73
     0
 74
     5
  7

 75
    16
147
1.0
148
0.0
149
0.0
100
AcDbLayout
  1
Layout2
 70
     1
 71
     2
 10
0.0
 20
0.0
 11
0.0
 21
0.0
 12
0.0
 22
0.0
 32
0.0
 14
0.0
 24
0.0
 34
0.0
 15
0.0
 25
0.0
 35
0.0
146
0.0
 13
0.0
 23
0.0
 33
0.0
 16
1.0
 26
0.0
 36
0.0
 17
0.0
 27
1.0
 37
0.0
 76
     0
330
23
  0
LAYOUT
  5
22
102
{ACAD_REACTORS
330
1A
102
}
330
1A
100
AcDbPlotSettings
  1

  2
none_device
  4
ANSI_A_(11.00_x_8.50_Inches)
  6

 40
6.35
 41
19.05
 42
6.35000508
 43
19.05000254
 44
279.4
 45
215.9
 46
143.0752957099583
 47
118.4377884955873
 48
0.0
 49
0.0
140
0.0
141
0.0
142
0.1058944507156154
143
1.0
 70
  1696
 72
     0
 73
     0
 74
     0
  7

 75
     0
147
0.0235690232323232
148
0.0
149
0.0
100
AcDbLayout
  1
Model
 70
     1
 71
     0
 10
0.0
 20
0.0
 11
420.0
 21
297.0
 12
0.0
 22
0.0
 32
0.0
 14
-50.31500794836212
 24
-49.97073246008785
 34
0.0
 15
36.56270767443011
 25
28.61341044024269
 35
0.0
146
0.0
 13
0.0
 23
0.0
 33
0.0
 16
1.0
 26
0.0
 36
0.0
 17
0.0
 27
1.0
 37
0.0
 76
     0
330
1F
331
29
  0
MLINESTYLE
  5
18
102
{ACAD_REACTORS
330
17
102
}
330
17
100
AcDbMlineStyle
  2
Standard
 70
     0
  3

 62
   256
 51
90.0
 52
90.0
 71
     2
 49
0.5
 62
   256
  6
BYLAYER
 49
-0.5
 62
   256
  6
BYLAYER
  0
ACDBPLACEHOLDER
  5
F
102
{ACAD_REACTORS
330
E
102
}
330
E
  0
SCALE
  5
48
102
{ACAD_REACTORS
330
47
102
}
330
47
100
AcDbScale
 70
     0
300
1:1
140
1.0
141
1.0
290
     1
  0
SCALE
  5
49
102
{ACAD_REACTORS
330
47
102
}
330
47
100
AcDbScale
 70
     0
300
1:2
140
1.0
141
2.0
290
     0
  0
SCALE
  5
4A
102
{ACAD_REACTORS
330
47
102
}
330
47
100
AcDbScale
 70
     0
300
1:4
140
1.0
141
4.0
290
     0
  0
SCALE
  5
4B
102
{ACAD_REACTORS
330
47
102
}
330
47
100
AcDbScale
 70
     0
300
1:5
140
1.0
141
5.0
290
     0
  0
SCALE
  5
4C
102
{ACAD_REACTORS
330
47
102
}
330
47
100
AcDbScale
 70
     0
300
1:8
140
1.0
141
8.0
290
     0
  0
SCALE
  5
4D
102
{ACAD_REACTORS
330
47
102
}
330
47
100
AcDbScale
 70
     0
300
1:10
140
1.0
141
10.0
290
     0
  0
SCALE
  5
4E
102
{ACAD_REACTORS
330
47
102
}
330
47
100
AcDbScale
 70
     0
300
1:16
140
1.0
141
16.0
290
     0
  0
SCALE
  5
4F
102
{ACAD_REACTORS
330
47
102
}
330
47
100
AcDbScale
 70
     0
300
1:20
140
1.0
141
20.0
290
     0
  0
SCALE
  5
50
102
{ACAD_REACTORS
330
47
102
}
330
47
100
AcDbScale
 70
     0
300
1:30
140
1.0
141
30.0
290
     0
  0
SCALE
  5
51
102
{ACAD_REACTORS
330
47
102
}
330
47
100
AcDbScale
 70
     0
300
1:40
140
1.0
141
40.0
290
     0
  0
SCALE
  5
52
102
{ACAD_REACTORS
330
47
102
}
330
47
100
AcDbScale
 70
     0
300
1:50
140
1.0
141
50.0
290
     0
  0
SCALE
  5
53
102
{ACAD_REACTORS
330
47
102
}
330
47
100
AcDbScale
 70
     0
300
1:100
140
1.0
141
100.0
290
     0
  0
SCALE
  5
54
102
{ACAD_REACTORS
330
47
102
}
330
47
100
AcDbScale
 70
     0
300
2:1
140
2.0
141
1.0
290
     0
  0
SCALE
  5
55
102
{ACAD_REACTORS
330
47
102
}
330
47
100
AcDbScale
 70
     0
300
4:1
140
4.0
141
1.0
290
     0
  0
SCALE
  5
56
102
{ACAD_REACTORS
330
47
102
}
330
47
100
AcDbScale
 70
     0
300
8:1
140
8.0
141
1.0
290
     0
  0
SCALE
  5
57
102
{ACAD_REACTORS
330
47
102
}
330
47
100
AcDbScale
 70
     0
300
10:1
140
10.0
141
1.0
290
     0
  0
SCALE
  5
58
102
{ACAD_REACTORS
330
47
102
}
330
47
100
AcDbScale
 70
     0
300
100:1
140
100.0
141
1.0
290
     0
  0
SCALE
  5
59
102
{ACAD_REACTORS
330
47
102
}
330
47
100
AcDbScale
 70
     0
300
1/128" = 1'-0"
140
0.0078125
141
12.0
290
     0
  0
SCALE
  5
5A
102
{ACAD_REACTORS
330
47
102
}
330
47
100
AcDbScale
 70
     0
300
1/64" = 1'-0"
140
0.015625
141
12.0
290
     0
  0
SCALE
  5
5B
102
{ACAD_REACTORS
330
47
102
}
330
47
100
AcDbScale
 70
     0
300
1/32" = 1'-0"
140
0.03125
141
12.0
290
     0
  0
SCALE
  5
5C
102
{ACAD_REACTORS
330
47
102
}
330
47
100
AcDbScale
 70
     0
300
1/16" = 1'-0"
140
0.0625
141
12.0
290
     0
  0
SCALE
  5
5D
102
{ACAD_REACTORS
330
47
102
}
330
47
100
AcDbScale
 70
     0
300
3/32" = 1'-0"
140
0.09375
141
12.0
290
     0
  0
SCALE
  5
5E
102
{ACAD_REACTORS
330
47
102
}
330
47
100
AcDbScale
 70
     0
300
1/8" = 1'-0"
140
0.125
141
12.0
290
     0
  0
SCALE
  5
5F
102
{ACAD_REACTORS
330
47
102
}
330
47
100
AcDbScale
 70
     0
300
3/16" = 1'-0"
140
0.1875
141
12.0
290
     0
  0
SCALE
  5
60
102
{ACAD_REACTORS
330
47
102
}
330
47
100
AcDbScale
 70
     0
300
1/4" = 1'-0"
140
0.25
141
12.0
290
     0
  0
SCALE
  5
61
102
{ACAD_REACTORS
330
47
102
}
330
47
100
AcDbScale
 70
     0
300
3/8" = 1'-0"
140
0.375
141
12.0
290
     0
  0
SCALE
  5
62
102
{ACAD_REACTORS
330
47
102
}
330
47
100
AcDbScale
 70
     0
300
1/2" = 1'-0"
140
0.5
141
12.0
290
     0
  0
SCALE
  5
63
102
{ACAD_REACTORS
330
47
102
}
330
47
100
AcDbScale
 70
     0
300
3/4" = 1'-0"
140
0.75
141
12.0
290
     0
  0
SCALE
  5
64
102
{ACAD_REACTORS
330
47
102
}
330
47
100
AcDbScale
 70
     0
300
1" = 1'-0"
140
1.0
141
12.0
290
     0
  0
SCALE
  5
65
102
{ACAD_REACTORS
330
47
102
}
330
47
100
AcDbScale
 70
     0
300
1-1/2" = 1'-0"
140
1.5
141
12.0
290
     0
  0
SCALE
  5
66
102
{ACAD_REACTORS
330
47
102
}
330
47
100
AcDbScale
 70
     0
300
3" = 1'-0"
140
3.0
141
12.0
290
     0
  0
SCALE
  5
67
102
{ACAD_REACTORS
330
47
102
}
330
47
100
AcDbScale
 70
     0
300
6" = 1'-0"
140
6.0
141
12.0
290
     0
  0
SCALE
  5
68
102
{ACAD_REACTORS
330
47
102
}
330
47
100
AcDbScale
 70
     0
300
1'-0" = 1'-0"
140
12.0
141
12.0
290
     0
  0
ENDSEC
  0
EOF
