  0
SECTION
  2
HEADER
  9
$ACADVER
  1
AC1015
  9
$ACADMAINTVER
 70
     6
  9
$DWGCODEPAGE
  3
ANSI_949
  9
$INSBASE
 10
0.0
 20
0.0
 30
0.0
  9
$EXTMIN
 10
-48.83643616358487
 20
-49.97073246008785
 30
0.0
  9
$EXTMAX
 10
38.23015497000892
 20
28.61341044024269
 30
0.0
  9
$LIMMIN
 10
0.0
 20
0.0
  9
$LIMMAX
 10
420.0
 20
297.0
  9
$ORTHOMODE
 70
     0
  9
$REGENMODE
 70
     1
  9
$FILLMODE
 70
     1
  9
$QTEXTMODE
 70
     0
  9
$MIRRTEXT
 70
     1
  9
$LTSCALE
 40
1.0
  9
$ATTMODE
 70
     1
  9
$TEXTSIZE
 40
3.5
  9
$TRACEWID
 40
1.0
  9
$TEXTSTYLE
  7
Standard
  9
$CLAYER
  8
0
  9
$CELTYPE
  6
ByLayer
  9
$CECOLOR
 62
   256
  9
$CELTSCALE
 40
1.0
  9
$DISPSILH
 70
     0
  9
$DIMSCALE
 40
1.0
  9
$DIMASZ
 40
3.302
  9
$DIMEXO
 40
1.0
  9
$DIMDLI
 40
3.75
  9
$DIMRND
 40
0.0
  9
$DIMDLE
 40
0.0
  9
$DIMEXE
 40
1.0
  9
$DIMTP
 40
0.0
  9
$DIMTM
 40
0.0
  9
$DIMTXT
 40
3.5
  9
$DIMCEN
 40
2.5
  9
$DIMTSZ
 40
0.0
  9
$DIMTOL
 70
     0
  9
$DIMLIM
 70
     0
  9
$DIMTIH
 70
     1
  9
$DIMTOH
 70
     1
  9
$DIMSE1
 70
     0
  9
$DIMSE2
 70
     0
  9
$DIMTAD
 70
     1
  9
$DIMZIN
 70
     0
  9
$DIMBLK
  1

  9
$DIMASO
 70
     1
  9
$DIMSHO
 70
     1
  9
$DIMPOST
  1

  9
$DIMAPOST
  1

  9
$DIMALT
 70
     0
  9
$DIMALTD
 70
     3
  9
$DIMALTF
 40
0.0393700787401575
  9
$DIMLFAC
 40
1.0
  9
$DIMTOFL
 70
     1
  9
$DIMTVP
 40
0.0
  9
$DIMTIX
 70
     0
  9
$DIMSOXD
 70
     0
  9
$DIMSAH
 70
     0
  9
$DIMBLK1
  1

  9
$DIMBLK2
  1

  9
$DIMSTYLE
  2
ISO-25
  9
$DIMCLRD
 70
     0
  9
$DIMCLRE
 70
     0
  9
$DIMCLRT
 70
     0
  9
$DIMTFAC
 40
1.0
  9
$DIMGAP
 40
1.524
  9
$DIMJUST
 70
     0
  9
$DIMSD1
 70
     0
  9
$DIMSD2
 70
     0
  9
$DIMTOLJ
 70
     0
  9
$DIMTZIN
 70
     0
  9
$DIMALTZ
 70
     0
  9
$DIMALTTZ
 70
     0
  9
$DIMUPT
 70
     0
  9
$DIMDEC
 70
     2
  9
$DIMTDEC
 70
     2
  9
$DIMALTU
 70
     2
  9
$DIMALTTD
 70
     3
  9
$DIMTXSTY
  7
Standard
  9
$DIMAUNIT
 70
     0
  9
$DIMADEC
 70
     2
  9
$DIMALTRND
 40
0.0
  9
$DIMAZIN
 70
     0
  9
$DIMDSEP
 70
    44
  9
$DIMATFIT
 70
     3
  9
$DIMFRAC
 70
     0
  9
$DIMLDRBLK
  1

  9
$DIMLUNIT
 70
     2
  9
$DIMLWD
 70
    -2
  9
$DIMLWE
 70
    -2
  9
$DIMTMOVE
 70
     0
  9
$LUNITS
 70
     2
  9
$LUPREC
 70
     2
  9
$SKETCHINC
 40
1.0
  9
$FILLETRAD
 40
10.0
  9
$AUNITS
 70
     0
  9
$AUPREC
 70
     2
  9
$MENU
  1
.
  9
$ELEVATION
 40
0.0
  9
$PELEVATION
 40
0.0
  9
$THICKNESS
 40
0.0
  9
$LIMCHECK
 70
     0
  9
$CHAMFERA
 40
0.0
  9
$CHAMFERB
 40
0.0
  9
$CHAMFERC
 40
0.0
  9
$CHAMFERD
 40
0.0
  9
$SKPOLY
 70
     0
  9
$TDCREATE
 40
2458262.534784202
  9
$TDUCREATE
 40
2458262.159784202
  9
$TDUPDATE
 40
2458264.77205235
  9
$TDUUPDATE
 40
2458264.39705235
  9
$TDINDWG
 40
0.0036964699
  9
$TDUSRTIMER
 40
2458264.396826424
  9
$USRTIMER
 70
     1
  9
$ANGBASE
 50
0.0
  9
$ANGDIR
 70
     0
  9
$PDMODE
 70
     0
  9
$PDSIZE
 40
-1.0
  9
$PLINEWID
 40
0.0
  9
$SPLFRAME
 70
     0
  9
$SPLINETYPE
 70
     6
  9
$SPLINESEGS
 70
     8
  9
$HANDSEED
  5
183
  9
$SURFTAB1
 70
     6
  9
$SURFTAB2
 70
     6
  9
$SURFTYPE
 70
     6
  9
$SURFU
 70
     6
  9
$SURFV
 70
     6
  9
$UCSBASE
  2

  9
$UCSNAME
  2

  9
$UCSORG
 10
0.0
 20
0.0
 30
0.0
  9
$UCSXDIR
 10
1.0
 20
0.0
 30
0.0
  9
$UCSYDIR
 10
0.0
 20
1.0
 30
0.0
  9
$UCSORTHOREF
  2

  9
$UCSORTHOVIEW
 70
     0
  9
$UCSORGTOP
 10
0.0
 20
0.0
 30
0.0
  9
$UCSORGBOTTOM
 10
0.0
 20
0.0
 30
0.0
  9
$UCSORGLEFT
 10
0.0
 20
0.0
 30
0.0
  9
$UCSORGRIGHT
 10
0.0
 20
0.0
 30
0.0
  9
$UCSORGFRONT
 10
0.0
 20
0.0
 30
0.0
  9
$UCSORGBACK
 10
0.0
 20
0.0
 30
0.0
  9
$PUCSBASE
  2

  9
$PUCSNAME
  2

  9
$PUCSORG
 10
0.0
 20
0.0
 30
0.0
  9
$PUCSXDIR
 10
1.0
 20
0.0
 30
0.0
  9
$PUCSYDIR
 10
0.0
 20
1.0
 30
0.0
  9
$PUCSORTHOREF
  2

  9
$PUCSORTHOVIEW
 70
     0
  9
$PUCSORGTOP
 10
0.0
 20
0.0
 30
0.0
  9
$PUCSORGBOTTOM
 10
0.0
 20
0.0
 30
0.0
  9
$PUCSORGLEFT
 10
0.0
 20
0.0
 30
0.0
  9
$PUCSORGRIGHT
 10
0.0
 20
0.0
 30
0.0
  9
$PUCSORGFRONT
 10
0.0
 20
0.0
 30
0.0
  9
$PUCSORGBACK
 10
0.0
 20
0.0
 30
0.0
  9
$USERI1
 70
     0
  9
$USERI2
 70
     0
  9
$USERI3
 70
     0
  9
$USERI4
 70
     0
  9
$USERI5
 70
     0
  9
$USERR1
 40
0.0
  9
$USERR2
 40
0.0
  9
$USERR3
 40
0.0
  9
$USERR4
 40
0.0
  9
$USERR5
 40
0.0
  9
$WORLDVIEW
 70
     1
  9
$SHADEDGE
 70
     3
  9
$SHADEDIF
 70
    70
  9
$TILEMODE
 70
     1
  9
$MAXACTVP
 70
    64
  9
$PINSBASE
 10
0.0
 20
0.0
 30
0.0
  9
$PLIMCHECK
 70
     0
  9
$PEXTMIN
 10
1.000000000000000E+20
 20
1.000000000000000E+20
 30
1.000000000000000E+20
  9
$PEXTMAX
 10
-1.000000000000000E+20
 20
-1.000000000000000E+20
 30
-1.000000000000000E+20
  9
$PLIMMIN
 10
0.0
 20
0.0
  9
$PLIMMAX
 10
0.0
 20
0.0
  9
$UNITMODE
 70
     0
  9
$VISRETAIN
 70
     1
  9
$PLINEGEN
 70
     0
  9
$PSLTSCALE
 70
     1
  9
$TREEDEPTH
 70
  3020
  9
$CMLSTYLE
  2
Standard
  9
$CMLJUST
 70
     0
  9
$CMLSCALE
 40
20.0
  9
$PROXYGRAPHICS
 70
     1
  9
$MEASUREMENT
 70
     1
  9
$CELWEIGHT
370
    -1
  9
$ENDCAPS
280
     0
  9
$JOINSTYLE
280
     0
  9
$LWDISPLAY
290
     1
  9
$INSUNITS
 70
     4
  9
$HYPERLINKBASE
  1

  9
$STYLESHEET
  1

  9
$XEDIT
290
     1
  9
$CEPSNTYPE
380
     0
  9
$PSTYLEMODE
290
     1
  9
$FINGERPRINTGUID
  2
{8D9B20CE-EBB7-42B3-9FA3-0646E627EABC}
  9
$VERSIONGUID
  2
{FAEB1C32-E019-11D5-929B-00C0DF256EC4}
  9
$EXTNAMES
290
     1
  9
$PSVPSCALE
 40
0.0
  9
$OLESTARTUP
290
     0
  0
ENDSEC
  0
SECTION
  2
CLASSES
  0
CLASS
  1
ACDBDICTIONARYWDFLT
  2
AcDbDictionaryWithDefault
  3
ObjectDBX Classes
 90
        0
280
     0
281
     0
  0
CLASS
  1
VISUALSTYLE
  2
AcDbVisualStyle
  3
ObjectDBX Classes
 90
     4095
280
     0
281
     0
  0
CLASS
  1
MATERIAL
  2
AcDbMaterial
  3
ObjectDBX Classes
 90
     1153
280
     0
281
     0
  0
CLASS
  1
SCALE
  2
AcDbScale
  3
ObjectDBX Classes
 90
     1153
280
     0
281
     0
  0
CLASS
  1
SUN
  2
AcDbSun
  3
SCENEOE
 90
     1153
280
     0
281
     0
  0
CLASS
  1
ACDBPLACEHOLDER
  2
AcDbPlaceHolder
  3
ObjectDBX Classes
 90
        0
280
     0
281
     0
  0
CLASS
  1
LAYOUT
  2
AcDbLayout
  3
ObjectDBX Classes
 90
        0
280
     0
281
     0
  0
CLASS
  1
TABLESTYLE
  2
AcDbTableStyle
  3
ObjectDBX Classes
 90
     4095
280
     0
281
     0
  0
CLASS
  1
MLEADERSTYLE
  2
AcDbMLeaderStyle
  3
ACDB_MLEADERSTYLE_CLASS
 90
     4095
280
     0
281
     0
  0
CLASS
  1
RASTERVARIABLES
  2
AcDbRasterVariables
  3
ISM
 90
        0
280
     0
281
     0
  0
ENDSEC
  0
SECTION
  2
TABLES
  0
TABLE
  2
VPORT
  5
8
330
0
100
AcDbSymbolTable
 70
     1
  0
VPORT
  5
29
330
8
100
AcDbSymbolTableRecord
100
AcDbViewportTableRecord
  2
*Active
 70
     0
 10
0.0
 20
0.0
 11
1.0
 21
1.0
 12
-5.303140596787976
 22
-10.67866100992258
 13
0.0
 23
0.0
 14
10.0
 24
10.0
 15
10.0
 25
10.0
 16
0.0
 26
0.0
 36
1.0
 17
0.0
 27
0.0
 37
0.0
 40
80.15582575833714
 41
1.268292682926829
 42
50.0
 43
0.0
 44
0.0
 50
0.0
 51
0.0
 71
    16
 72
  2000
 73
     1
 74
     3
 75
     0
 76
     0
 77
     0
 78
     0
281
     0
 65
     1
110
0.0
120
0.0
130
0.0
111
1.0
121
0.0
131
0.0
112
0.0
122
1.0
132
0.0
 79
     0
146
0.0
  0
ENDTAB
  0
TABLE
  2
LTYPE
  5
5
330
0
100
AcDbSymbolTable
 70
     6
  0
LTYPE
  5
14
330
5
100
AcDbSymbolTableRecord
100
AcDbLinetypeTableRecord
  2
ByBlock
 70
     0
  3

 72
    65
 73
     0
 40
0.0
  0
LTYPE
  5
15
330
5
100
AcDbSymbolTableRecord
100
AcDbLinetypeTableRecord
  2
ByLayer
 70
     0
  3

 72
    65
 73
     0
 40
0.0
  0
LTYPE
  5
16
330
5
100
AcDbSymbolTableRecord
100
AcDbLinetypeTableRecord
  2
Continuous
 70
     0
  3
Solid line
 72
    65
 73
     0
 40
0.0
  0
LTYPE
  5
6A
330
5
100
AcDbSymbolTableRecord
100
AcDbLinetypeTableRecord
  2
HIDDEN
 70
     0
  3
Hidden __ __ __ __ __ __ __ __ __ __ __ __ __ __
 72
    65
 73
     2
 40
1.905
 49
1.27
 74
     0
 49
-0.635
 74
     0
  0
LTYPE
  5
6B
330
5
100
AcDbSymbolTableRecord
100
AcDbLinetypeTableRecord
  2
PHANTOM
 70
     0
  3
Phantom ______  __  __  ______  __  __  ______
 72
    65
 73
     6
 40
12.7
 49
6.35
 74
     0
 49
-1.27
 74
     0
 49
1.27
 74
     0
 49
-1.27
 74
     0
 49
1.27
 74
     0
 49
-1.27
 74
     0
  0
LTYPE
  5
6C
330
5
100
AcDbSymbolTableRecord
100
AcDbLinetypeTableRecord
  2
CENTER
 70
     0
  3
Center ____ _ ____ _ ____ _ ____ _ ____ _ ____
 72
    65
 73
     4
 40
10.16
 49
6.35
 74
     0
 49
-1.27
 74
     0
 49
1.27
 74
     0
 49
-1.27
 74
     0
  0
LTYPE
  5
6D
330
5
100
AcDbSymbolTableRecord
100
AcDbLinetypeTableRecord
  2
CENTERX2
 70
     0
  3
Center (2x) ________  __  ________  __  _____
 72
    65
 73
     4
 40
20.32
 49
12.7
 74
     0
 49
-2.54
 74
     0
 49
2.54
 74
     0
 49
-2.54
 74
     0
  0
LTYPE
  5
6E
330
5
100
AcDbSymbolTableRecord
100
AcDbLinetypeTableRecord
  2
DOT2
 70
     0
  3
Dot (.5x) ........................................
 72
    65
 73
     2
 40
0.635
 49
0.0
 74
     0
 49
-0.635
 74
     0
  0
ENDTAB
  0
TABLE
  2
LAYER
  5
2
330
0
100
AcDbSymbolTable
 70
    17
  0
LAYER
  5
10
330
2
100
AcDbSymbolTableRecord
100
AcDbLayerTableRecord
  2
0
 70
     0
 62
     7
  6
Continuous
370
    -3
390
F
  0
LAYER
  5
6F
330
2
100
AcDbSymbolTableRecord
100
AcDbLayerTableRecord
  2
FORMAT
 70
     0
 62
     2
  6
Continuous
370
    -3
390
F
  0
LAYER
  5
70
330
2
100
AcDbSymbolTableRecord
100
AcDbLayerTableRecord
  2
외형선
 70
     0
 62
   100
  6
Continuous
370
    30
390
F
  0
LAYER
  5
71
330
2
100
AcDbSymbolTableRecord
100
AcDbLayerTableRecord
  2
숨은선
 70
     0
 62
     2
  6
HIDDEN
370
    15
390
F
  0
LAYER
  5
72
330
2
100
AcDbSymbolTableRecord
100
AcDbLayerTableRecord
  2
중심선
 70
     0
 62
     1
  6
CENTERX2
370
    -3
390
F
  0
LAYER
  5
73
330
2
100
AcDbSymbolTableRecord
100
AcDbLayerTableRecord
  2
파단선
 70
     0
 62
     4
  6
Continuous
370
    -3
390
F
  0
LAYER
  5
74
330
2
100
AcDbSymbolTableRecord
100
AcDbLayerTableRecord
  2
해칭선
 70
     0
 62
     4
  6
Continuous
370
    -3
390
F
  0
LAYER
  5
75
330
2
100
AcDbSymbolTableRecord
100
AcDbLayerTableRecord
  2
가는실선
 70
     0
 62
     4
  6
Continuous
370
    -3
390
F
  0
LAYER
  5
76
330
2
100
AcDbSymbolTableRecord
100
AcDbLayerTableRecord
  2
치수_보조선
 70
     0
 62
     4
  6
Continuous
370
    -3
390
F
  0
LAYER
  5
77
330
2
100
AcDbSymbolTableRecord
100
AcDbLayerTableRecord
  2
치수문자_일반주서
 70
     0
 62
     7
  6
Continuous
370
    15
390
F
  0
LAYER
  5
78
330
2
100
AcDbSymbolTableRecord
100
AcDbLayerTableRecord
  2
개별주서
 70
     0
 62
   100
  6
Continuous
370
    30
390
F
  0
LAYER
  5
79
330
2
100
AcDbSymbolTableRecord
100
AcDbLayerTableRecord
  2
중간선
 70
     0
 62
     2
  6
Continuous
370
    15
390
F
  0
LAYER
  5
7A
330
2
100
AcDbSymbolTableRecord
100
AcDbLayerTableRecord
  2
윤곽선
 70
     0
 62
     3
  6
Continuous
370
    40
390
F
  0
LAYER
  5
7B
330
2
100
AcDbSymbolTableRecord
100
AcDbLayerTableRecord
  2
중심마크
 70
     0
 62
   100
  6
Continuous
370
    30
390
F
  0
LAYER
  5
7C
330
2
100
AcDbSymbolTableRecord
100
AcDbLayerTableRecord
  2
가상선
 70
     0
 62
     4
  6
PHANTOM
370
    -3
390
F
  0
LAYER
  5
7D
330
2
100
AcDbSymbolTableRecord
100
AcDbLayerTableRecord
  2
특수지정선
 70
     0
 62
     5
  6
CENTERX2
370
    60
390
F
  0
LAYER
  5
153
330
2
100
AcDbSymbolTableRecord
100
AcDbLayerTableRecord
  2
Defpoints
 70
     0
 62
     7
  6
Continuous
290
     0
370
    -3
390
F
  0
ENDTAB
  0
TABLE
  2
STYLE
  5
3
330
0
100
AcDbSymbolTable
 70
     2
  0
STYLE
  5
11
330
3
100
AcDbSymbolTableRecord
100
AcDbTextStyleTableRecord
  2
Standard
 70
     0
 40
0.0
 41
1.0
 50
0.0
 71
     0
 42
3.5
  3
txt
  4

  0
STYLE
  5
93
330
3
100
AcDbSymbolTableRecord
100
AcDbTextStyleTableRecord
  2
SLDTEXTSTYLE0
 70
     0
 40
0.0
 41
0.75
 50
0.0
 71
     0
 42
3.5
  3
TXT
  4

  0
ENDTAB
  0
TABLE
  2
VIEW
  5
6
330
0
100
AcDbSymbolTable
 70
     0
  0
ENDTAB
  0
TABLE
  2
UCS
  5
7
330
0
100
AcDbSymbolTable
 70
     0
  0
ENDTAB
  0
TABLE
  2
APPID
  5
9
330
0
100
AcDbSymbolTable
 70
     1
  0
APPID
  5
12
330
9
100
AcDbSymbolTableRecord
100
AcDbRegAppTableRecord
  2
ACAD
 70
     0
  0
ENDTAB
  0
TABLE
  2
DIMSTYLE
  5
A
330
0
100
AcDbSymbolTable
 70
     4
100
AcDbDimStyleTable
  0
DIMSTYLE
105
27
330
A
100
AcDbSymbolTableRecord
100
AcDbDimStyleTableRecord
  2
ISO-25
 70
     0
 41
2.5
 42
0.625
 43
3.75
 44
1.25
 73
     0
 74
     0
 77
     1
 78
     8
140
2.5
141
2.5
143
0.03937007874016
147
0.625
171
     3
172
     1
178
     0
271
     2
272
     2
274
     3
278
    44
283
     0
284
     8
340
11
  0
DIMSTYLE
105
F6
102
{ACAD_REACTORS
330
F5
102
}
330
A
100
AcDbSymbolTableRecord
100
AcDbDimStyleTableRecord
  2
SLDDIMSTYLE0
 70
     0
 41
3.302
 44
0.0
 45
0.000000001
 73
     0
 74
     0
 77
     1
 78
     4
 79
     1
140
3.5
147
0.875
172
     1
173
     1
178
     0
271
     2
272
     2
276
     2
284
    12
289
     0
340
93
  0
DIMSTYLE
105
104
102
{ACAD_REACTORS
330
103
102
}
330
A
100
AcDbSymbolTableRecord
100
AcDbDimStyleTableRecord
  2
SLDDIMSTYLE1
 70
     0
 41
3.302
 44
0.0
 45
0.000000001
 73
     0
 74
     0
 77
     1
 78
    12
 79
     3
140
3.5
147
0.875
173
     1
178
     0
271
     2
272
     2
276
     2
284
    12
340
93
  0
DIMSTYLE
105
10F
102
{ACAD_REACTORS
330
10E
330
11B
102
}
330
A
100
AcDbSymbolTableRecord
100
AcDbDimStyleTableRecord
  2
SLDDIMSTYLE2
 70
     0
 41
3.302
 44
0.0
 45
0.000000001
 73
     0
 74
     0
 77
     1
 78
    12
 79
     3
140
3.5
147
0.875
172
     1
173
     1
178
     0
271
     2
272
     2
276
     2
284
    12
289
     0
340
93
  0
ENDTAB
  0
TABLE
  2
BLOCK_RECORD
  5
1
330
0
100
AcDbSymbolTable
 70
     7
  0
BLOCK_RECORD
  5
1F
330
1
100
AcDbSymbolTableRecord
100
AcDbBlockTableRecord
  2
*Model_Space
340
22
  0
BLOCK_RECORD
  5
1B
330
1
100
AcDbSymbolTableRecord
100
AcDbBlockTableRecord
  2
*Paper_Space
340
1E
  0
BLOCK_RECORD
  5
23
330
1
100
AcDbSymbolTableRecord
100
AcDbBlockTableRecord
  2
*Paper_Space0
340
26
  0
BLOCK_RECORD
  5
7E
330
1
100
AcDbSymbolTableRecord
100
AcDbBlockTableRecord
  2
블럭10
340
0
102
{BLKREFS
331
EE
102
}
  0
BLOCK_RECORD
  5
F7
330
1
100
AcDbSymbolTableRecord
100
AcDbBlockTableRecord
  2
_D
340
0
  0
BLOCK_RECORD
  5
105
330
1
100
AcDbSymbolTableRecord
100
AcDbBlockTableRecord
  2
_D_1
340
0
  0
BLOCK_RECORD
  5
110
330
1
100
AcDbSymbolTableRecord
100
AcDbBlockTableRecord
  2
_D_2
340
0
  0
BLOCK_RECORD
  5
11C
330
1
100
AcDbSymbolTableRecord
100
AcDbBlockTableRecord
  2
_D_3
340
0
  0
BLOCK_RECORD
  5
128
330
1
100
AcDbSymbolTableRecord
100
AcDbBlockTableRecord
  2
SW_DOWELSYMBOL_0
340
0
102
{BLKREFS
331
12E
102
}
  0
ENDTAB
  0
ENDSEC
  0
SECTION
  2
BLOCKS
  0
BLOCK
  5
20
330
1F
100
AcDbEntity
  8
0
100
AcDbBlockBegin
  2
*Model_Space
 70
     0
 10
0.0
 20
0.0
 30
0.0
  3
*Model_Space
  1

  0
ENDBLK
  5
21
330
1F
100
AcDbEntity
  8
0
100
AcDbBlockEnd
  0
BLOCK
  5
1C
330
1B
100
AcDbEntity
 67
     1
  8
0
100
AcDbBlockBegin
  2
*Paper_Space
 70
     0
 10
0.0
 20
0.0
 30
0.0
  3
*Paper_Space
  1

  0
ENDBLK
  5
1D
330
1B
100
AcDbEntity
 67
     1
  8
0
100
AcDbBlockEnd
  0
BLOCK
  5
24
330
23
100
AcDbEntity
  8
0
100
AcDbBlockBegin
  2
*Paper_Space0
 70
     0
 10
0.0
 20
0.0
 30
0.0
  3
*Paper_Space0
  1

  0
ENDBLK
  5
25
330
23
100
AcDbEntity
  8
0
100
AcDbBlockEnd
  0
BLOCK
  5
7F
330
7E
100
AcDbEntity
  8
0
100
AcDbBlockBegin
  2
블럭10
 70
     2
 10
0.0
 20
0.0
 30
0.0
  3
블럭10
  1

  0
ELLIPSE
  5
81
330
7E
100
AcDbEntity
  8
중심선
100
AcDbEllipse
 10
20.54032771741204
 20
12.0471743016438
 30
0.0
 11
6.600054785286829
 21
-1.261213355974178E-13
 31
0.0
210
0.0
220
0.0
230
1.0
 40
0.636358354079598
 41
0.9219305317359503
 42
6.513795318482858
  0
ELLIPSE
  5
82
330
7E
100
AcDbEntity
  8
중심선
100
AcDbEllipse
 10
20.54032771746488
 20
12.04717430159265
 30
0.0
 11
3.960054785062283
 21
1.540847449632565E-10
 31
0.0
210
0.0
220
0.0
230
1.0
 40
0.3939339440162632
 41
1.131841032648279
 42
5.62031148352944
  0
LINE
  5
83
330
7E
100
AcDbEntity
  8
중심선
100
AcDbLine
 10
2.268634060543552
 20
16.24717430164393
 30
0.0
 11
5.714909304380834
 21
16.24717430164393
 31
0.0
  0
LINE
  5
84
330
7E
100
AcDbEntity
  8
중심선
100
AcDbLine
 10
5.245725140726316
 20
7.84717430164391
 30
0.0
 11
8.692000384563599
 21
7.84717430164391
 31
0.0
  0
LINE
  5
85
330
7E
100
AcDbEntity
  8
중심선
100
AcDbLine
 10
15.74043728645272
 20
16.24717430164393
 30
0.0
 11
8.692000384563599
 21
7.84717430164391
 31
0.0
  0
LINE
  5
86
330
7E
100
AcDbEntity
  8
중심선
100
AcDbLine
 10
0.1404042013395286
 20
13.71084872107135
 30
0.0
 11
3.58671253028996
 21
13.71088815037384
 31
0.0
  0
LINE
  5
87
330
7E
100
AcDbEntity
  8
중심선
100
AcDbLine
 10
2.750260043222114
 20
10.84717430164391
 30
0.0
 11
6.196535287059397
 21
10.84717430164391
 31
0.0
  0
LINE
  5
88
330
7E
100
AcDbEntity
  8
중심선
100
AcDbLine
 10
12.29416204261559
 20
16.24717430164393
 30
0.0
 11
5.245725140726316
 21
7.84717430164391
 31
0.0
  0
LINE
  5
89
330
7E
100
AcDbEntity
  8
중심선
100
AcDbLine
 10
10.72767329541681
 20
16.24717430164393
 30
0.0
 11
6.196535287059397
 21
10.84717430164391
 31
0.0
  0
LINE
  5
8A
330
7E
100
AcDbEntity
  8
중심선
100
AcDbLine
 10
7.28139805157953
 20
16.24717430164393
 30
0.0
 11
2.750260043222114
 21
10.84717430164391
 31
0.0
  0
LINE
  5
8B
330
7E
100
AcDbEntity
  8
중심선
100
AcDbLine
 10
5.714909304380834
 20
16.24717430164393
 30
0.0
 11
3.58671253028996
 21
13.71088815037384
 31
0.0
  0
LINE
  5
8C
330
7E
100
AcDbEntity
  8
중심선
100
AcDbLine
 10
2.268634060543552
 20
16.24717430164393
 30
0.0
 11
0.1404042013395286
 21
13.71084872107135
 31
0.0
  0
LINE
  5
8D
330
7E
100
AcDbEntity
  8
중심선
100
AcDbLine
 10
7.28139805157953
 20
16.24717430164393
 30
0.0
 11
10.72767329541681
 21
16.24717430164393
 31
0.0
  0
LINE
  5
8E
330
7E
100
AcDbEntity
  8
중심선
100
AcDbLine
 10
12.29416204261559
 20
16.24717430164393
 30
0.0
 11
15.74043728645272
 21
16.24717430164393
 31
0.0
  0
LINE
  5
8F
330
7E
100
AcDbEntity
  8
중심선
100
AcDbLine
 10
19.22036997980202
 20
11.08717430171403
 30
0.0
 11
23.66174974927406
 21
11.08717430171406
 31
0.0
  0
LINE
  5
90
330
7E
100
AcDbEntity
  8
중심선
100
AcDbLine
 10
19.22039502424796
 20
13.00717430171391
 30
0.0
 11
19.22036997980202
 21
11.08717430171403
 31
0.0
  0
LINE
  5
91
330
7E
100
AcDbEntity
  8
중심선
100
AcDbLine
 10
19.22039502424796
 20
13.00717430171391
 30
0.0
 11
26.96566020931264
 21
13.00717430171391
 31
0.0
  0
LINE
  5
92
330
7E
100
AcDbEntity
  8
중심선
100
AcDbLine
 10
22.22332737316547
 20
13.45928029700563
 30
0.0
 11
24.52862924686651
 21
15.39360700705356
 31
0.0
  0
ATTDEF
  5
94
330
7E
100
AcDbEntity
  8
FORMAT
 62
     2
100
AcDbText
 10
-16.11926103943555
 20
2.075366912832191
 30
0.0
 40
4.233333333333333
  1
SEME7001514E [ 2 FLUTE ]
 41
0.75
  7
SLDTEXTSTYLE0
 11
-16.11926103943555
 21
-0.0412997538344756
 31
0.0
100
AcDbAttributeDefinition
  3

  2
AUTOATTR0
 70
     0
 74
     1
  0
ENDBLK
  5
80
330
7E
100
AcDbEntity
  8
0
100
AcDbBlockEnd
  0
BLOCK
  5
F8
330
F7
100
AcDbEntity
  8
0
100
AcDbBlockBegin
  2
_D
 70
     0
 10
0.0
 20
0.0
 30
0.0
  3
_D
  1

  0
LINE
  5
FA
330
F7
100
AcDbEntity
  8
치수문자_일반주서
 62
     0
370
    -2
100
AcDbLine
 10
25.45961431702995
 20
-0.7493661114222346
 30
0.0
 11
37.67982163667556
 21
-0.749366111422189
 31
0.0
  0
LINE
  5
FB
330
F7
100
AcDbEntity
  8
치수문자_일반주서
 62
     0
370
    -2
100
AcDbLine
 10
25.45961431702995
 20
0.7493661114222371
 30
0.0
 11
37.67982163667556
 21
0.7493661114222832
 31
0.0
  0
LINE
  5
FC
330
F7
100
AcDbEntity
  8
치수문자_일반주서
 62
     0
370
    -2
100
AcDbLine
 10
37.67982163667556
 20
-0.749366111422189
 30
0.0
 11
37.67982163667547
 21
18.29086611142228
 31
0.0
  0
LINE
  5
FD
330
F7
100
AcDbEntity
  8
치수문자_일반주서
 62
     0
370
    -2
100
AcDbLine
 10
37.67982163667556
 20
-0.749366111422189
 30
0.0
 11
37.67982163667556
 21
0.7493661114222832
 31
0.0
  0
LINE
  5
FE
330
F7
100
AcDbEntity
  8
치수문자_일반주서
 62
     0
370
    -2
100
AcDbLine
 10
37.67982163667558
 20
-4.051366111422189
 30
0.0
 11
37.67982163667559
 21
-7.353366111422188
 31
0.0
  0
LINE
  5
FF
330
F7
100
AcDbEntity
  8
치수문자_일반주서
 62
     0
370
    -2
100
AcDbLine
 10
37.67982163667554
 20
4.051366111422283
 30
0.0
 11
37.67982163667553
 21
7.353366111422282
 31
0.0
  0
SOLID
  5
100
330
F7
100
AcDbEntity
  8
치수문자_일반주서
 62
     0
100
AcDbTrace
 10
38.23015497000891
 20
-4.051366111422186
 30
0.0
 11
37.12948830334224
 21
-4.051366111422191
 31
0.0
 12
37.67982163667556
 22
-0.749366111422189
 32
0.0
 13
37.67982163667556
 23
-0.749366111422189
 33
0.0
  0
SOLID
  5
101
330
F7
100
AcDbEntity
  8
치수문자_일반주서
 62
     0
100
AcDbTrace
 10
37.12948830334221
 20
4.05136611142228
 30
0.0
 11
38.23015497000888
 21
4.051366111422285
 31
0.0
 12
37.67982163667556
 22
0.7493661114222832
 32
0.0
 13
37.67982163667556
 23
0.7493661114222832
 33
0.0
  0
MTEXT
  5
102
330
F7
100
AcDbEntity
  8
치수문자_일반주서
 62
     0
100
AcDbMText
 10
33.3048216366755
 20
12.82211611142226
 30
0.0
 40
3.5
 41
0.0
 71
     2
 72
     1
  1
\A1;%%c1.50
  7
SLDTEXTSTYLE0
 11
-4.740958557703844E-15
 21
1.0
 31
0.0
 73
     1
 44
1.0
  0
POINT
  5
154
330
F7
100
AcDbEntity
  8
Defpoints
 62
     0
100
AcDbPoint
 10
25.39711431702995
 20
-0.7493661114222349
 30
0.0
  0
POINT
  5
155
330
F7
100
AcDbEntity
  8
Defpoints
 62
     0
100
AcDbPoint
 10
25.39711431702995
 20
0.7493661114222369
 30
0.0
  0
POINT
  5
156
330
F7
100
AcDbEntity
  8
Defpoints
 62
     0
100
AcDbPoint
 10
37.67982163667556
 20
0.7493661114222827
 30
0.0
  0
ENDBLK
  5
F9
330
F7
100
AcDbEntity
  8
0
100
AcDbBlockEnd
  0
BLOCK
  5
106
330
105
100
AcDbEntity
  8
0
100
AcDbBlockBegin
  2
_D_1
 70
     0
 10
0.0
 20
0.0
 30
0.0
  3
_D_1
  1

  0
LINE
  5
108
330
105
100
AcDbEntity
  8
치수문자_일반주서
 62
     0
370
    -2
100
AcDbLine
 10
-34.60288568297005
 20
2.512499999999995
 30
0.0
 11
-34.60288568297005
 21
24.23841044024269
 31
0.0
  0
LINE
  5
109
330
105
100
AcDbEntity
  8
치수문자_일반주서
 62
     0
370
    -2
100
AcDbLine
 10
25.39711431702995
 20
0.8118661114222354
 30
0.0
 11
25.39711431702995
 21
24.23841044024269
 31
0.0
  0
LINE
  5
10A
330
105
100
AcDbEntity
  8
치수문자_일반주서
 62
     0
370
    -2
100
AcDbLine
 10
-31.30088568297005
 20
24.23841044024269
 30
0.0
 11
22.09511431702995
 21
24.23841044024269
 31
0.0
  0
SOLID
  5
10B
330
105
100
AcDbEntity
  8
치수문자_일반주서
 62
     0
100
AcDbTrace
 10
-31.30088568297005
 20
24.78874377357602
 30
0.0
 11
-31.30088568297005
 21
23.68807710690935
 31
0.0
 12
-34.60288568297005
 22
24.23841044024269
 32
0.0
 13
-34.60288568297005
 23
24.23841044024269
 33
0.0
  0
SOLID
  5
10C
330
105
100
AcDbEntity
  8
치수문자_일반주서
 62
     0
100
AcDbTrace
 10
22.09511431702995
 20
23.68807710690935
 30
0.0
 11
22.09511431702995
 21
24.78874377357602
 31
0.0
 12
25.39711431702995
 22
24.23841044024269
 32
0.0
 13
25.39711431702995
 23
24.23841044024269
 33
0.0
  0
MTEXT
  5
10D
330
105
100
AcDbEntity
  8
치수문자_일반주서
 62
     0
100
AcDbMText
 10
-4.602885682970046
 20
28.61341044024269
 30
0.0
 40
3.5
 41
0.0
 71
     2
 72
     1
  1
\A1;60
  7
SLDTEXTSTYLE0
 73
     1
 44
1.0
  0
POINT
  5
159
330
105
100
AcDbEntity
  8
Defpoints
 62
     0
100
AcDbPoint
 10
-34.60288568297005
 20
2.449999999999995
 30
0.0
  0
POINT
  5
15A
330
105
100
AcDbEntity
  8
Defpoints
 62
     0
100
AcDbPoint
 10
25.39711431702995
 20
0.7493661114222354
 30
0.0
  0
POINT
  5
15B
330
105
100
AcDbEntity
  8
Defpoints
 62
     0
100
AcDbPoint
 10
25.39711431702995
 20
24.23841044024269
 30
0.0
  0
ENDBLK
  5
107
330
105
100
AcDbEntity
  8
0
100
AcDbBlockEnd
  0
BLOCK
  5
111
330
110
100
AcDbEntity
  8
0
100
AcDbBlockBegin
  2
_D_2
 70
     0
 10
0.0
 20
0.0
 30
0.0
  3
_D_2
  1

  0
LINE
  5
113
330
110
100
AcDbEntity
  8
치수문자_일반주서
 62
     0
370
    -2
100
AcDbLine
 10
11.39711431702923
 20
0.6482640879187459
 30
0.0
 11
11.39711431702923
 21
13.93276189408627
 31
0.0
  0
LINE
  5
114
330
110
100
AcDbEntity
  8
치수문자_일반주서
 62
     0
370
    -2
100
AcDbLine
 10
25.39711431702995
 20
0.8118661114222354
 30
0.0
 11
25.39711431702995
 21
13.93276189408627
 31
0.0
  0
LINE
  5
115
330
110
100
AcDbEntity
  8
치수문자_일반주서
 62
     0
370
    -2
100
AcDbLine
 10
14.69911431702923
 20
13.93276189408627
 30
0.0
 11
22.09511431702995
 21
13.93276189408627
 31
0.0
  0
SOLID
  5
116
330
110
100
AcDbEntity
  8
치수문자_일반주서
 62
     0
100
AcDbTrace
 10
14.69911431702923
 20
14.4830952274196
 30
0.0
 11
14.69911431702923
 21
13.38242856075294
 31
0.0
 12
11.39711431702923
 22
13.93276189408627
 32
0.0
 13
11.39711431702923
 23
13.93276189408627
 33
0.0
  0
SOLID
  5
117
330
110
100
AcDbEntity
  8
치수문자_일반주서
 62
     0
100
AcDbTrace
 10
22.09511431702995
 20
13.38242856075294
 30
0.0
 11
22.09511431702995
 21
14.4830952274196
 31
0.0
 12
25.39711431702995
 22
13.93276189408627
 32
0.0
 13
25.39711431702995
 23
13.93276189408627
 33
0.0
  0
MTEXT
  5
118
330
110
100
AcDbEntity
  8
치수문자_일반주서
 62
     0
100
AcDbMText
 10
18.39711431702959
 20
18.30776189408627
 30
0.0
 40
3.5
 41
0.0
 71
     2
 72
     1
  1
\A1;14
  7
SLDTEXTSTYLE0
 73
     1
 44
1.0
  0
POINT
  5
119
330
110
100
AcDbEntity
  8
Defpoints
 62
     0
100
AcDbPoint
 10
11.39711431702923
 20
0.5857640879187459
 30
0.0
  0
POINT
  5
11A
330
110
100
AcDbEntity
  8
Defpoints
 62
     0
100
AcDbPoint
 10
25.39711431702995
 20
0.7493661114222354
 30
0.0
  0
POINT
  5
158
330
110
100
AcDbEntity
  8
Defpoints
 62
     0
100
AcDbPoint
 10
25.39711431702995
 20
13.93276189408627
 30
0.0
  0
ENDBLK
  5
112
330
110
100
AcDbEntity
  8
0
100
AcDbBlockEnd
  0
BLOCK
  5
11D
330
11C
100
AcDbEntity
  8
0
100
AcDbBlockBegin
  2
_D_3
 70
     0
 10
0.0
 20
0.0
 30
0.0
  3
_D_3
  1

  0
LINE
  5
11F
330
11C
100
AcDbEntity
  8
치수문자_일반주서
 62
     0
370
    -2
100
AcDbLine
 10
-34.11538568297004
 20
2.999999999999995
 30
0.0
 11
-44.46143616358483
 21
2.999999999999956
 31
0.0
  0
LINE
  5
120
330
11C
100
AcDbEntity
  8
치수문자_일반주서
 62
     0
370
    -2
100
AcDbLine
 10
-34.11538568297004
 20
-3.000000000000001
 30
0.0
 11
-44.46143616358481
 21
-3.000000000000039
 31
0.0
  0
LINE
  5
121
330
11C
100
AcDbEntity
  8
치수문자_일반주서
 62
     0
370
    -2
100
AcDbLine
 10
-44.46143616358483
 20
2.999999999999956
 30
0.0
 11
-44.46143616358488
 21
15.72899999999996
 31
0.0
  0
LINE
  5
122
330
11C
100
AcDbEntity
  8
치수문자_일반주서
 62
     0
370
    -2
100
AcDbLine
 10
-44.46143616358483
 20
2.999999999999956
 30
0.0
 11
-44.46143616358481
 21
-3.000000000000039
 31
0.0
  0
LINE
  5
123
330
11C
100
AcDbEntity
  8
치수문자_일반주서
 62
     0
370
    -2
100
AcDbLine
 10
-44.46143616358484
 20
6.301999999999955
 30
0.0
 11
-44.46143616358486
 21
9.603999999999955
 31
0.0
  0
LINE
  5
124
330
11C
100
AcDbEntity
  8
치수문자_일반주서
 62
     0
370
    -2
100
AcDbLine
 10
-44.46143616358479
 20
-6.302000000000039
 30
0.0
 11
-44.46143616358478
 21
-9.604000000000038
 31
0.0
  0
SOLID
  5
125
330
11C
100
AcDbEntity
  8
치수문자_일반주서
 62
     0
100
AcDbTrace
 10
-45.01176949691818
 20
6.301999999999953
 30
0.0
 11
-43.91110283025151
 21
6.301999999999957
 31
0.0
 12
-44.46143616358483
 22
2.999999999999956
 32
0.0
 13
-44.46143616358483
 23
2.999999999999956
 33
0.0
  0
SOLID
  5
126
330
11C
100
AcDbEntity
  8
치수문자_일반주서
 62
     0
100
AcDbTrace
 10
-43.91110283025146
 20
-6.302000000000037
 30
0.0
 11
-45.01176949691813
 21
-6.30200000000004
 31
0.0
 12
-44.46143616358481
 22
-3.000000000000039
 32
0.0
 13
-44.46143616358481
 23
-3.000000000000039
 33
0.0
  0
MTEXT
  5
127
330
11C
100
AcDbEntity
  8
치수문자_일반주서
 62
     0
100
AcDbMText
 10
-48.83643616358486
 20
12.66649999999994
 30
0.0
 40
3.5
 41
0.0
 71
     2
 72
     1
  1
\A1;%%c6
  7
SLDTEXTSTYLE0
 11
-3.552713678800503E-15
 21
1.0
 31
0.0
 73
     1
 44
1.0
  0
POINT
  5
15C
330
11C
100
AcDbEntity
  8
Defpoints
 62
     0
100
AcDbPoint
 10
-34.05288568297004
 20
2.999999999999996
 30
0.0
  0
POINT
  5
15D
330
11C
100
AcDbEntity
  8
Defpoints
 62
     0
100
AcDbPoint
 10
-34.05288568297004
 20
-3.0
 30
0.0
  0
POINT
  5
15E
330
11C
100
AcDbEntity
  8
Defpoints
 62
     0
100
AcDbPoint
 10
-44.46143616358481
 20
-3.00000000000004
 30
0.0
  0
ENDBLK
  5
11E
330
11C
100
AcDbEntity
  8
0
100
AcDbBlockEnd
  0
BLOCK
  5
129
330
128
100
AcDbEntity
  8
0
100
AcDbBlockBegin
  2
SW_DOWELSYMBOL_0
 70
     0
 10
0.0
 20
0.0
 30
0.0
  3
SW_DOWELSYMBOL_0
  1

  0
CIRCLE
  5
12B
330
128
100
AcDbEntity
  8
외형선
 62
     0
100
AcDbCircle
 10
0.0
 20
0.0
 30
0.0
 40
3.000000000000004
  0
HATCH
  5
12C
330
128
100
AcDbEntity
  8
0
  6
Continuous
 62
     0
370
    30
100
AcDbHatch
 10
0.0
 20
0.0
 30
0.0
210
0.0
220
0.0
230
1.0
  2
SOLID
 70
     1
 71
     0
 91
        1
 92
        0
 93
        3
 72
     2
 10
0.0000000000000104
 20
0.0
 40
3.000000000000004
 50
0.0
 51
90.0
 73
     1
 72
     1
 10
0.0000000000000104
 20
3.000000000000004
 11
0.0000000000000104
 21
0.0
 72
     1
 10
0.0000000000000104
 20
0.0
 11
3.000000000000015
 21
0.0
 97
        0
 75
     0
 76
     1
 98
        1
 10
0.0
 20
0.0
  0
HATCH
  5
12D
330
128
100
AcDbEntity
  8
0
  6
Continuous
 62
     0
370
    30
100
AcDbHatch
 10
0.0
 20
0.0
 30
0.0
210
0.0
220
0.0
230
1.0
  2
SOLID
 70
     1
 71
     0
 91
        1
 92
        0
 93
        3
 72
     2
 10
0.0000000000000104
 20
0.0
 40
3.000000000000004
 50
180.0
 51
270.0000000000007
 73
     1
 72
     1
 10
0.0000000000000104
 20
-3.000000000000004
 11
0.0000000000000104
 21
0.0
 72
     1
 10
0.0000000000000104
 20
0.0
 11
-2.999999999999994
 21
0.0
 97
        0
 75
     0
 76
     1
 98
        1
 10
0.0
 20
0.0
  0
ENDBLK
  5
12A
330
128
100
AcDbEntity
  8
0
100
AcDbBlockEnd
  0
ENDSEC
  0
SECTION
  2
ENTITIES
  0
LINE
  5
95
330
1F
100
AcDbEntity
  8
0
  6
Continuous
 62
     1
370
    15
100
AcDbLine
 10
21.36985835646551
 20
-0.7500000000000011
 30
0.0
 11
21.73329144029093
 21
-0.7500000000000011
 31
0.0
  0
LINE
  5
96
330
1F
100
AcDbEntity
  8
0
  6
Continuous
 62
     1
370
    15
100
AcDbLine
 10
13.20746388969762
 20
-0.7500000000000011
 30
0.0
 11
13.5699861033605
 21
-0.7500000000000011
 31
0.0
  0
LINE
  5
97
330
1F
100
AcDbEntity
  8
0
  6
Continuous
 62
     1
370
    15
100
AcDbLine
 10
17.65131206166825
 20
0.7500000000000016
 30
0.0
 11
17.28884752815431
 21
0.7500000000000016
 31
0.0
  0
LINE
  5
98
330
1F
100
AcDbEntity
  8
0
  6
Continuous
 62
     1
370
    15
100
AcDbLine
 10
17.28884752815432
 20
-0.7500000000000011
 30
0.0
 11
17.65131206166825
 21
-0.7500000000000011
 31
0.0
  0
LINE
  5
99
330
1F
100
AcDbEntity
  8
0
  6
Continuous
 62
     1
370
    15
100
AcDbLine
 10
13.56998610336049
 20
0.7500000000000016
 30
0.0
 11
13.20746388969762
 21
0.7500000000000016
 31
0.0
  0
LINE
  5
9A
330
1F
100
AcDbEntity
  8
0
  6
Continuous
 62
     1
370
    15
100
AcDbLine
 10
21.73329144029095
 20
0.7500000000000016
 30
0.0
 11
21.36985835646552
 21
0.7500000000000016
 31
0.0
  0
SPLINE
  5
9B
330
1F
100
AcDbEntity
  8
0
  6
Continuous
 62
     1
370
    15
100
AcDbSpline
210
0.0
220
0.0
230
1.0
 70
     8
 71
     3
 72
     9
 73
     5
 74
     0
 42
0.000000001
 43
0.00000001
 40
0.0
 40
0.0
 40
0.0
 40
0.0
 40
0.5000134763988139
 40
1.0
 40
1.0
 40
1.0
 40
1.0
 10
23.45541721867463
 20
0.1918816360453147
 30
0.0
 10
23.42043392588658
 20
0.2084278928906279
 30
0.0
 10
23.35046922605488
 20
0.2415195146694692
 30
0.0
 10
23.28055767371373
 20
0.2778651717583121
 30
0.0
 10
23.24560283969912
 20
0.2960375104941635
 30
0.0
  0
SPLINE
  5
9C
330
1F
100
AcDbEntity
  8
0
  6
Continuous
 62
     1
370
    15
100
AcDbSpline
210
0.0
220
0.0
230
1.0
 70
     8
 71
     3
 72
     9
 73
     5
 74
     0
 42
0.000000001
 43
0.00000001
 40
0.0
 40
0.0
 40
0.0
 40
0.0
 40
0.50003275084187
 40
1.0
 40
1.0
 40
1.0
 40
1.0
 10
15.2922121601727
 20
0.1923971748756285
 30
0.0
 10
15.25722576433155
 20
0.2089564442194363
 30
0.0
 10
15.18725755568473
 20
0.2420728137290895
 30
0.0
 10
15.1173451577009
 20
0.2784422486429091
 30
0.0
 10
15.08239124839888
 20
0.2966257749702071
 30
0.0
  0
LINE
  5
9D
330
1F
100
AcDbEntity
  8
0
  6
Continuous
 62
     1
370
    15
100
AcDbLine
 10
19.18232237097581
 20
0.2869590901305054
 30
0.0
 11
19.16287964260547
 21
0.2969213985656292
 31
0.0
  0
SPLINE
  5
9E
330
1F
100
AcDbEntity
  8
0
  6
Continuous
 62
     1
370
    15
100
AcDbSpline
210
0.0
220
0.0
230
1.0
 70
     8
 71
     3
 72
     9
 73
     5
 74
     0
 42
0.000000001
 43
0.00000001
 40
0.0
 40
0.0
 40
0.0
 40
0.0
 40
0.5504862264424245
 40
1.0
 40
1.0
 40
1.0
 40
1.0
 10
19.37488556996076
 20
0.1916410430920169
 30
0.0
 10
19.33953366427475
 20
0.2083311183314319
 30
0.0
 10
19.27531424517231
 20
0.2386499064095213
 30
0.0
 10
19.21116040552423
 20
0.2719777606198457
 30
0.0
 10
19.18232237097581
 20
0.2869590901305054
 30
0.0
  0
SPLINE
  5
9F
330
1F
100
AcDbEntity
  8
0
  6
Continuous
 62
     1
370
    15
100
AcDbSpline
210
0.0
220
0.0
230
1.0
 70
     8
 71
     3
 72
     9
 73
     5
 74
     0
 42
0.000000001
 43
0.00000001
 40
0.0
 40
0.0
 40
0.0
 40
0.0
 40
0.4993194699450754
 40
1.0
 40
1.0
 40
1.0
 40
1.0
 10
17.99647048911505
 20
-0.6240806131882537
 30
0.0
 10
18.18398718712178
 20
-0.6084365860007996
 30
0.0
 10
18.5595317218209
 20
-0.5771058886635321
 30
0.0
 10
18.93510326818119
 20
-0.5896470442884174
 30
0.0
 10
19.12314462908641
 20
-0.5959261567341863
 30
0.0
  0
SPLINE
  5
A0
330
1F
100
AcDbEntity
  8
0
  6
Continuous
 62
     1
370
    15
100
AcDbSpline
210
0.0
220
0.0
230
1.0
 70
     8
 71
     3
 72
     9
 73
     5
 74
     0
 42
0.000000001
 43
0.00000001
 40
0.0
 40
0.0
 40
0.0
 40
0.0
 40
0.999344347046375
 40
1.0
 40
1.0
 40
1.0
 40
1.0
 10
23.2051675159985
 20
0.5959782559573635
 30
0.0
 10
23.00054647453172
 20
0.5858667050326873
 30
0.0
 10
22.79579118465436
 20
0.5757485200901684
 30
0.0
 10
22.59112094646029
 20
0.5895297989430871
 30
0.0
 10
22.5909867538141
 20
0.5895388346792719
 30
0.0
  0
SPLINE
  5
A1
330
1F
100
AcDbEntity
  8
0
  6
Continuous
 62
     1
370
    15
100
AcDbSpline
210
0.0
220
0.0
230
1.0
 70
     8
 71
     3
 72
    10
 73
     6
 74
     0
 42
0.000000001
 43
0.00000001
 40
0.0
 40
0.0
 40
0.0
 40
0.0
 40
0.5672781547562934
 40
0.7975075312090935
 40
1.0
 40
1.0
 40
1.0
 40
1.0
 10
15.04280892989767
 20
0.5959643089694153
 30
0.0
 10
14.92395559055585
 20
0.5912928542901317
 30
0.0
 10
14.75686572037537
 20
0.584725493539159
 30
0.0
 10
14.54733948232957
 20
0.5859083674332033
 30
0.0
 10
14.45670810857695
 20
0.5892095454152533
 30
0.0
 10
14.41429709831067
 20
0.5907543337980236
 30
0.0
  0
SPLINE
  5
A2
330
1F
100
AcDbEntity
  8
0
  6
Continuous
 62
     1
370
    15
100
AcDbSpline
210
0.0
220
0.0
230
1.0
 70
     8
 71
     3
 72
    10
 73
     6
 74
     0
 42
0.000000001
 43
0.00000001
 40
0.0
 40
0.0
 40
0.0
 40
0.0
 40
0.4562837025834643
 40
0.6448270823963604
 40
1.0
 40
1.0
 40
1.0
 40
1.0
 10
13.91429174189605
 20
-0.6241930567302659
 30
0.0
 10
14.08598126487015
 20
-0.6100077923296258
 30
0.0
 10
14.32861551533884
 20
-0.5899609604908039
 30
0.0
 10
14.70468230672795
 20
-0.5832616306794259
 30
0.0
 10
14.90920690501638
 20
-0.5909451728687166
 30
0.0
 10
15.04280892989767
 20
-0.5959643089694143
 30
0.0
  0
SPLINE
  5
A3
330
1F
100
AcDbEntity
  8
0
  6
Continuous
 62
     1
370
    15
100
AcDbSpline
210
0.0
220
0.0
230
1.0
 70
     8
 71
     3
 72
     9
 73
     5
 74
     0
 42
0.000000001
 43
0.00000001
 40
0.0
 40
0.0
 40
0.0
 40
0.0
 40
0.456053154151476
 40
1.0
 40
1.0
 40
1.0
 40
1.0
 10
22.07693106498981
 20
-0.6241391711565175
 30
0.0
 10
22.24840632085988
 20
-0.6095526100884067
 30
0.0
 10
22.62440471996998
 20
-0.5775682658615796
 30
0.0
 10
23.00055937684183
 20
-0.5894922450745195
 30
0.0
 10
23.2051675159985
 20
-0.5959782559573615
 30
0.0
  0
SPLINE
  5
A4
330
1F
100
AcDbEntity
  8
0
  6
Continuous
 62
     1
370
    15
100
AcDbSpline
210
0.0
220
0.0
230
1.0
 70
     8
 71
     3
 72
     9
 73
     5
 74
     0
 42
0.000000001
 43
0.00000001
 40
0.0
 40
0.0
 40
0.0
 40
0.0
 40
0.9088919807053802
 40
1.0
 40
1.0
 40
1.0
 40
1.0
 10
19.12314462908641
 20
0.5959261567341878
 30
0.0
 10
18.93510142793501
 20
0.5866581496290807
 30
0.0
 10
18.72820863413408
 20
0.5764611104848756
 30
0.0
 10
18.5213307202233
 20
0.5904317205904017
 30
0.0
 10
18.50248248325109
 20
0.5917045552054538
 30
0.0
  0
SPLINE
  5
A5
330
1F
100
AcDbEntity
  8
0
  6
Continuous
 62
     1
370
    15
100
AcDbSpline
210
0.0
220
0.0
230
1.0
 70
     8
 71
     3
 72
     9
 73
     5
 74
     0
 42
0.000000001
 43
0.00000001
 40
0.0
 40
0.0
 40
0.0
 40
0.0
 40
0.5377654505095387
 40
1.0
 40
1.0
 40
1.0
 40
1.0
 10
15.64425401330535
 20
-0.5642569246369741
 30
0.0
 10
15.7475180613464
 20
-0.5488952239984191
 30
0.0
 10
15.93954238708768
 20
-0.5203294233803253
 30
0.0
 10
16.13084347943099
 20
-0.5102340519547827
 30
0.0
 10
16.21926945366733
 20
-0.505567622491958
 30
0.0
  0
SPLINE
  5
A6
330
1F
100
AcDbEntity
  8
0
  6
Continuous
 62
     1
370
    15
100
AcDbSpline
210
0.0
220
0.0
230
1.0
 70
     8
 71
     3
 72
     9
 73
     5
 74
     0
 42
0.000000001
 43
0.00000001
 40
0.0
 40
0.0
 40
0.0
 40
0.0
 40
0.9979054369257815
 40
1.0
 40
1.0
 40
1.0
 40
1.0
 10
23.81158577938041
 20
-0.5549037792470318
 30
0.0
 10
23.99568584826653
 20
-0.5363388089011559
 30
0.0
 10
24.18471857400868
 20
-0.5084716476445005
 30
0.0
 10
24.3738864290363
 20
-0.5021830743433559
 30
0.0
 10
24.37428265304027
 20
-0.5021699025299299
 30
0.0
  0
SPLINE
  5
A7
330
1F
100
AcDbEntity
  8
0
  6
Continuous
 62
     1
370
    15
100
AcDbSpline
210
0.0
220
0.0
230
1.0
 70
     8
 71
     3
 72
     9
 73
     5
 74
     0
 42
0.000000001
 43
0.00000001
 40
0.0
 40
0.0
 40
0.0
 40
0.0
 40
0.5011637414214639
 40
1.0
 40
1.0
 40
1.0
 40
1.0
 10
21.03763868374539
 20
0.5129777802932054
 30
0.0
 10
20.81854415210607
 20
0.5011177078380268
 30
0.0
 10
20.38137259811876
 20
0.4774526429601497
 30
0.0
 10
19.94439516177026
 20
0.5352507897749924
 30
0.0
 10
19.72641497233894
 20
0.5640826010848814
 30
0.0
  0
SPLINE
  5
A8
330
1F
100
AcDbEntity
  8
0
  6
Continuous
 62
     1
370
    15
100
AcDbSpline
210
0.0
220
0.0
230
1.0
 70
     8
 71
     3
 72
    11
 73
     7
 74
     0
 42
0.000000001
 43
0.00000001
 40
0.0
 40
0.0
 40
0.0
 40
0.0
 40
0.3473978963525209
 40
0.4888035483448554
 40
0.660125532873918
 40
1.0
 40
1.0
 40
1.0
 40
1.0
 10
12.87610432815756
 20
0.513025725896118
 30
0.0
 10
12.73588171247341
 20
0.5039272717986428
 30
0.0
 10
12.53858255544264
 20
0.4911253616719746
 30
0.0
 10
12.27188439482624
 20
0.4949216117302334
 30
0.0
 10
12.00966486903755
 20
0.5073125596374382
 30
0.0
 10
11.81598030690755
 20
0.5283908126454805
 30
0.0
 10
11.68720703954361
 20
0.5424049161977681
 30
0.0
  0
SPLINE
  5
A9
330
1F
100
AcDbEntity
  8
0
  6
Continuous
 62
     1
370
    15
100
AcDbSpline
210
0.0
220
0.0
230
1.0
 70
     8
 71
     3
 72
    10
 73
     6
 74
     0
 42
0.000000001
 43
0.00000001
 40
0.0
 40
0.0
 40
0.0
 40
0.0
 40
0.4828220536606809
 40
0.7763510036783285
 40
1.0
 40
1.0
 40
1.0
 40
1.0
 10
11.68947222211348
 20
-0.5340260829171007
 30
0.0
 10
11.75703211754623
 20
-0.5351043586272458
 30
0.0
 10
11.86930695871857
 20
-0.5233654681720287
 30
0.0
 10
12.02162807197723
 20
-0.5088656277946494
 30
0.0
 10
12.10664994282116
 20
-0.5036979169885203
 30
0.0
 10
12.14341689356651
 20
-0.5014631864798975
 30
0.0
  0
LINE
  5
AA
330
1F
100
AcDbEntity
  8
0
  6
Continuous
 62
     1
370
    15
100
AcDbLine
 10
19.72963816899989
 20
-0.5568660051817654
 30
0.0
 11
20.29357036111113
 21
-0.5066512239690747
 31
0.0
  0
SPLINE
  5
AB
330
1F
100
AcDbEntity
  8
0
  6
Continuous
 62
     1
370
    15
100
AcDbSpline
210
0.0
220
0.0
230
1.0
 70
     8
 71
     3
 72
    10
 73
     6
 74
     0
 42
0.000000001
 43
0.00000001
 40
0.0
 40
0.0
 40
0.0
 40
0.0
 40
0.2251858848647917
 40
0.5496579738581193
 40
1.0
 40
1.0
 40
1.0
 40
1.0
 10
25.05242084068464
 20
0.5066716993423048
 30
0.0
 10
24.96167456409649
 20
0.5017792663614824
 30
0.0
 10
24.74017127336154
 20
0.4898372887322446
 30
0.0
 10
24.32000749059767
 20
0.4964215274235696
 30
0.0
 10
23.99560195859332
 20
0.5392528986388263
 30
0.0
 10
23.80704906349153
 20
0.5641476006308618
 30
0.0
  0
SPLINE
  5
AC
330
1F
100
AcDbEntity
  8
0
  6
Continuous
 62
     1
370
    15
100
AcDbSpline
210
0.0
220
0.0
230
1.0
 70
     8
 71
     3
 72
    11
 73
     7
 74
     0
 42
0.000000001
 43
0.00000001
 40
0.0
 40
0.0
 40
0.0
 40
0.0
 40
0.448239499472511
 40
0.6334972509994449
 40
0.7643085979017478
 40
1.0
 40
1.0
 40
1.0
 40
1.0
 10
16.95567839248973
 20
0.5128999068438904
 30
0.0
 10
16.75980504728436
 20
0.5019800772433115
 30
0.0
 10
16.48297708839701
 20
0.4865470731428477
 30
0.0
 10
16.14855246228379
 20
0.5049907691562969
 30
0.0
 10
15.90831749553056
 20
0.5264916215778513
 30
0.0
 10
15.74760522031233
 20
0.5494760483823171
 30
0.0
 10
15.64425401330535
 20
0.5642569246369751
 30
0.0
  0
LINE
  5
AD
330
1F
100
AcDbEntity
  8
0
  6
Continuous
 62
   131
370
    15
100
AcDbLine
 10
2.0
 20
-2.999999999999999
 30
0.0
 11
10.39711431702995
 21
-0.7499999999999998
 31
0.0
  0
LINE
  5
AE
330
1F
100
AcDbEntity
  8
0
  6
Continuous
 62
   131
370
    15
100
AcDbLine
 10
10.39711431702995
 20
0.7500000000000002
 30
0.0
 11
2.0
 21
2.999999999999999
 31
0.0
  0
LINE
  5
AF
330
1F
100
AcDbEntity
  8
0
  6
Continuous
 62
   131
370
    15
100
AcDbLine
 10
2.0
 20
2.999999999999998
 30
0.0
 11
-34.05288568297004
 21
2.999999999999996
 31
0.0
  0
LINE
  5
B0
330
1F
100
AcDbEntity
  8
0
  6
Continuous
 62
   131
370
    15
100
AcDbLine
 10
-34.05288568297004
 20
-3.000000000000001
 30
0.0
 11
2.0
 21
-2.999999999999999
 31
0.0
  0
LINE
  5
B1
330
1F
100
AcDbEntity
  8
0
  6
Continuous
 62
   131
370
    15
100
AcDbLine
 10
-34.05288568297004
 20
2.999999999999996
 30
0.0
 11
-34.60288568297005
 21
2.449999999999995
 31
0.0
  0
LINE
  5
B2
330
1F
100
AcDbEntity
  8
0
  6
Continuous
 62
   131
370
    15
100
AcDbLine
 10
-34.60288568297005
 20
-2.450000000000001
 30
0.0
 11
-34.05288568297004
 21
-3.0
 31
0.0
  0
LINE
  5
B3
330
1F
100
AcDbEntity
  8
0
  6
Continuous
 62
   131
370
    15
100
AcDbLine
 10
10.59726319069325
 20
0.7500000000000002
 30
0.0
 11
10.39711431702995
 21
0.7500000000000002
 31
0.0
  0
LINE
  5
B4
330
1F
100
AcDbEntity
  8
0
  6
Continuous
 62
   131
370
    15
100
AcDbLine
 10
10.39711431702995
 20
-0.7499999999999998
 30
0.0
 11
10.59726319069325
 21
-0.7499999999999998
 31
0.0
  0
SPLINE
  5
B5
330
1F
100
AcDbEntity
  8
0
  6
Continuous
 62
   131
370
    15
100
AcDbSpline
210
0.0
220
0.0
230
1.0
 70
     8
 71
     3
 72
     9
 73
     5
 74
     0
 42
0.000000001
 43
0.00000001
 40
0.0
 40
0.0
 40
0.0
 40
0.0
 40
0.5001401596033128
 40
1.0
 40
1.0
 40
1.0
 40
1.0
 10
11.20681260323968
 20
0.1944201282729603
 30
0.0
 10
11.17241149962169
 20
0.2107434317029259
 30
0.0
 10
11.10362857356098
 20
0.2433808896565371
 30
0.0
 10
11.03487925656104
 20
0.2791722796144379
 30
0.0
 10
11.00051423393807
 20
0.2970629580863699
 30
0.0
  0
SPLINE
  5
B6
330
1F
100
AcDbEntity
  8
0
  6
Continuous
 62
   131
370
    15
100
AcDbSpline
210
0.0
220
0.0
230
1.0
 70
     8
 71
     3
 72
     9
 73
     5
 74
     0
 42
0.000000001
 43
0.00000001
 40
0.0
 40
0.0
 40
0.0
 40
0.0
 40
0.5152953561169648
 40
0.9999999999999999
 40
0.9999999999999999
 40
0.9999999999999999
 40
0.9999999999999999
 10
10.96826777902977
 20
0.5963042032787479
 30
0.0
 10
10.90486051216344
 20
0.5932411183287519
 30
0.0
 10
10.78181017585896
 20
0.5872967896760003
 30
0.0
 10
10.65748004916418
 20
0.586240212999506
 30
0.0
 10
10.59721665938066
 20
0.5857280853777911
 30
0.0
  0
SPLINE
  5
B7
330
1F
100
AcDbEntity
  8
0
  6
Continuous
 62
   131
370
    15
100
AcDbSpline
210
0.0
220
0.0
230
1.0
 70
     8
 71
     3
 72
     9
 73
     5
 74
     0
 42
0.000000001
 43
0.00000001
 40
0.0
 40
0.0
 40
0.0
 40
0.0
 40
0.4847046438829021
 40
1.0
 40
1.0
 40
1.0
 40
1.0
 10
10.59721665938066
 20
-0.5857280853777905
 30
0.0
 10
10.6574800491642
 20
-0.586240212999506
 30
0.0
 10
10.78181017585905
 20
-0.5872967896760009
 30
0.0
 10
10.90486051216362
 20
-0.5932411183287595
 30
0.0
 10
10.96826777903001
 20
-0.5963042032787597
 30
0.0
  0
SPLINE
  5
B8
330
1F
100
AcDbEntity
  8
0
  6
Continuous
 62
     1
370
    15
100
AcDbSpline
210
0.0
220
0.0
230
1.0
 70
     8
 71
     3
 72
    19
 73
    15
 74
     0
 42
0.000000001
 43
0.00000001
 40
0.0
 40
0.0
 40
0.0
 40
0.0
 40
0.0588100032102827
 40
0.1485962133473709
 40
0.2382835562278195
 40
0.328127732884828
 40
0.4183555946473447
 40
0.5084193542501522
 40
0.5981723915349557
 40
0.6878677665457621
 40
0.7777608568954162
 40
0.8680236344287822
 40
0.958020615642918
 40
1.0
 40
1.0
 40
1.0
 40
1.0
 10
12.14527001550993
 20
0.5022158227524378
 30
0.0
 10
12.2461627890327
 20
0.5461629935450475
 30
0.0
 10
12.50109023812655
 20
0.6572050409967667
 30
0.0
 10
12.90941556149208
 20
0.7438588486377148
 30
0.0
 10
13.3709061783427
 20
0.760455604593324
 30
0.0
 10
13.83323969572353
 20
0.6783113777213441
 30
0.0
 10
14.29686426658233
 20
0.5123018340522917
 30
0.0
 10
14.76001856787651
 20
0.281643537416194
 30
0.0
 10
15.22186681822559
 20
0.0154415872911099
 30
0.0
 10
15.68339295334278
 20
-0.2522407984548478
 30
0.0
 10
16.14594567891722
 20
-0.4898128259877599
 30
0.0
 10
16.60965993446304
 20
-0.6602479611142946
 30
0.0
 10
16.99074848021881
 20
-0.7486006781265684
 30
0.0
 10
17.21690960994855
 20
-0.740722342611381
 30
0.0
 10
17.28884752815432
 20
-0.7500000000000011
 30
0.0
  0
SPLINE
  5
B9
330
1F
100
AcDbEntity
  8
0
  6
Continuous
 62
     1
370
    15
100
AcDbSpline
210
0.0
220
0.0
230
1.0
 70
     8
 71
     3
 72
    19
 73
    15
 74
     0
 42
0.000000001
 43
0.00000001
 40
0.0
 40
0.0
 40
0.0
 40
0.0
 40
0.002835998072716
 40
0.0935555875197162
 40
0.1845245648693311
 40
0.2751154513606982
 40
0.3655155224998451
 40
0.4559822576808601
 40
0.5467704572349168
 40
0.6376990684518242
 40
0.7282419985184972
 40
0.8186353545845283
 40
0.9091368864547231
 40
1.0
 40
1.0
 40
1.0
 40
1.0
 10
20.29357036111114
 20
0.5066512239690766
 30
0.0
 10
20.2983926146344
 20
0.5089856819741145
 30
0.0
 10
20.4574719757517
 20
0.5859961680892458
 30
0.0
 10
20.77146153050697
 20
0.6823305738712817
 30
0.0
 10
21.23514882850267
 20
0.7629476209911457
 30
0.0
 10
21.69766058335183
 20
0.7415310735839797
 30
0.0
 10
22.15917382695437
 20
0.6287508695383126
 30
0.0
 10
22.62105755518044
 20
0.4365532654605856
 30
0.0
 10
23.08425634086496
 20
0.1897945554879619
 30
0.0
 10
23.54785185090924
 20
-0.0802751932670744
 30
0.0
 10
24.01014308963375
 20
-0.3414121396392708
 30
0.0
 10
24.47162224565312
 20
-0.5576649102470715
 30
0.0
 10
24.93369964447631
 20
-0.7107531775985867
 30
0.0
 10
25.24243758541546
 20
-0.7364780378336756
 30
0.0
 10
25.39711431702995
 20
-0.7493661114222331
 30
0.0
  0
SPLINE
  5
BA
330
1F
100
AcDbEntity
  8
0
  6
Continuous
 62
     1
370
    15
100
AcDbSpline
210
0.0
220
0.0
230
1.0
 70
     8
 71
     3
 72
    13
 73
     9
 74
     0
 42
0.000000001
 43
0.00000001
 40
0.0
 40
0.0
 40
0.0
 40
0.0
 40
0.1802811273804811
 40
0.3657776748264547
 40
0.5505599561994875
 40
0.7351940856221936
 40
0.9202523114506332
 40
1.0
 40
1.0
 40
1.0
 40
1.0
 10
23.53459200947988
 20
-0.0713364143368713
 30
0.0
 10
23.38441336411471
 20
-0.0105417178743731
 30
0.0
 10
23.07971149926377
 20
0.1128064275302262
 30
0.0
 10
22.6211349667442
 20
0.2871288020598429
 30
0.0
 10
22.15919248738031
 20
0.4277126090158975
 30
0.0
 10
21.69762243712158
 20
0.5109853119012062
 30
0.0
 10
21.3234401076542
 20
0.5377080464400703
 30
0.0
 10
21.10282889735179
 20
0.5125106607553144
 30
0.0
 10
21.03639067549019
 20
0.5049223360361795
 30
0.0
  0
SPLINE
  5
BB
330
1F
100
AcDbEntity
  8
0
  6
Continuous
 62
     1
370
    15
100
AcDbSpline
210
0.0
220
0.0
230
1.0
 70
     8
 71
     3
 72
    14
 73
    10
 74
     0
 42
0.000000001
 43
0.00000001
 40
0.0
 40
0.0
 40
0.0
 40
0.0
 40
0.060324445755079
 40
0.2451893315177891
 40
0.4307505092743618
 40
0.6166790652409471
 40
0.8017480782026379
 40
0.9864656662196711
 40
1.0
 40
1.0
 40
1.0
 40
1.0
 10
15.37254934881659
 20
-0.0704754467264741
 30
0.0
 10
15.32235736337921
 20
-0.0507302633257327
 30
0.0
 10
15.11835152125496
 20
0.0295242381143624
 30
0.0
 10
14.75995774434657
 20
0.1770950544955062
 30
0.0
 10
14.29682956121311
 20
0.3414595768672187
 30
0.0
 10
13.83336131985304
 20
0.4654476064727608
 30
0.0
 10
13.37094235809592
 20
0.5244287084192955
 30
0.0
 10
13.05204557995855
 20
0.5369993973331941
 30
0.0
 10
12.88707371571067
 20
0.5125096801058995
 30
0.0
 10
12.8758113569156
 20
0.5108378072476941
 30
0.0
  0
SPLINE
  5
BC
330
1F
100
AcDbEntity
  8
0
  6
Continuous
 62
     1
370
    15
100
AcDbSpline
210
0.0
220
0.0
230
1.0
 70
     8
 71
     3
 72
    11
 73
     7
 74
     0
 42
0.000000001
 43
0.00000001
 40
0.0
 40
0.0
 40
0.0
 40
0.0
 40
0.2902555149765655
 40
0.5801998742340354
 40
0.835342436863666
 40
1.0
 40
1.0
 40
1.0
 40
1.0
 10
11.39711431702537
 20
-0.13217104365632
 30
0.0
 10
11.57235887580598
 20
-0.2297560976673125
 30
0.0
 10
11.92266013010918
 20
-0.4248215939038634
 30
0.0
 10
12.42699598045865
 20
-0.6306116331500724
 30
0.0
 10
12.8550202290013
 20
-0.7407727799262968
 30
0.0
 10
13.10817096325482
 20
-0.7396343741579581
 30
0.0
 10
13.20746388969762
 20
-0.7500000000000011
 30
0.0
  0
SPLINE
  5
BD
330
1F
100
AcDbEntity
  8
0
  6
Continuous
 62
     1
370
    15
100
AcDbSpline
210
0.0
220
0.0
230
1.0
 70
     8
 71
     3
 72
    19
 73
    15
 74
     0
 42
0.000000001
 43
0.00000001
 40
0.0
 40
0.0
 40
0.0
 40
0.0
 40
0.0768671573127234
 40
0.1666451458224892
 40
0.2561532684748318
 40
0.3456450343243596
 40
0.4353746100586124
 40
0.52542765280869
 40
0.615145348498587
 40
0.704633560069737
 40
0.7941465971907109
 40
0.8839377714451959
 40
0.9739757813914771
 40
1.0
 40
1.0
 40
1.0
 40
1.0
 10
16.21340660515337
 20
0.5034026053568149
 30
0.0
 10
16.34563138522259
 20
0.5566081151843095
 30
0.0
 10
16.63228980380228
 20
0.6719556869397062
 30
0.0
 10
17.07261029657228
 20
0.7542600579655505
 30
0.0
 10
17.53430117610441
 20
0.7526267203373288
 30
0.0
 10
17.99591119231671
 20
0.6548300013059886
 30
0.0
 10
18.45867742822276
 20
0.4751570926105416
 30
0.0
 10
18.92242608096555
 20
0.2364731872953323
 30
0.0
 10
19.38514891716107
 20
-0.0326582099737625
 30
0.0
 10
19.84673507163533
 20
-0.2970434564042606
 30
0.0
 10
20.30846880217072
 20
-0.5260587026068511
 30
0.0
 10
20.77142551614227
 20
-0.6820515264187558
 30
0.0
 10
21.12570470049597
 20
-0.7556128244563782
 30
0.0
 10
21.32513974857664
 20
-0.7430634630634033
 30
0.0
 10
21.36985835646551
 20
-0.7500000000000011
 30
0.0
  0
SPLINE
  5
BE
330
1F
100
AcDbEntity
  8
0
  6
Continuous
 62
     1
370
    15
100
AcDbSpline
210
0.0
220
0.0
230
1.0
 70
     8
 71
     3
 72
    10
 73
     6
 74
     0
 42
0.000000001
 43
0.00000001
 40
0.0
 40
0.0
 40
0.0
 40
0.0
 40
0.0950187169195189
 40
0.5466072403884435
 40
1.0
 40
1.0
 40
1.0
 40
1.0
 10
24.37431870165211
 20
0.5021865486841894
 30
0.0
 10
24.40669476626423
 20
0.5174564117001298
 30
0.0
 10
24.59294219104542
 20
0.6052982386037953
 30
0.0
 10
24.93369962782592
 20
0.7079690146684766
 30
0.0
 10
25.24243757985795
 20
0.7355487508520228
 30
0.0
 10
25.39711431702995
 20
0.7493661114222354
 30
0.0
  0
SPLINE
  5
BF
330
1F
100
AcDbEntity
  8
0
  6
Continuous
 62
     1
370
    15
100
AcDbSpline
210
0.0
220
0.0
230
1.0
 70
    24
 71
     3
 72
     8
 73
     4
 74
     0
 42
0.000000001
 43
0.00000001
 40
0.0
 40
0.0
 40
0.0
 40
0.0
 40
1.0
 40
1.0
 40
1.0
 40
1.0
 10
25.39711431702995
 20
0.5250000000000018
 30
0.0
 10
25.39711431702995
 20
0.588648385210973
 30
0.0
 10
25.39711431702995
 20
0.674244042279979
 30
0.0
 10
25.39711431702995
 20
0.7493661114222369
 30
0.0
  0
LINE
  5
C0
330
1F
100
AcDbEntity
  8
0
  6
Continuous
 62
     1
370
    15
100
AcDbLine
 10
25.39711431702995
 20
0.5250000000000019
 30
0.0
 11
25.05102886624672
 21
0.5003875197579647
 31
0.0
  0
SPLINE
  5
C1
330
1F
100
AcDbEntity
  8
0
  6
Continuous
 62
     1
370
    15
100
AcDbSpline
210
0.0
220
0.0
230
1.0
 70
     8
 71
     3
 72
    14
 73
    10
 74
     0
 42
0.000000001
 43
0.00000001
 40
0.0
 40
0.0
 40
0.0
 40
0.0
 40
0.0275888742647064
 40
0.2126653547145889
 40
0.3984939916095548
 40
0.5835970139919823
 40
0.768166430198328
 40
0.9527726047551122
 40
1.0
 40
1.0
 40
1.0
 40
1.0
 10
19.4544557818498
 20
-0.0708952527787667
 30
0.0
 10
19.43147610696189
 20
-0.0619844446891065
 30
0.0
 10
19.25434018382223
 20
0.0067033946550834
 30
0.0
 10
18.92233518371648
 20
0.1453459418977202
 30
0.0
 10
18.45877845141557
 20
0.3145425599122328
 30
0.0
 10
17.99597471594013
 20
0.4475094507263169
 30
0.0
 10
17.53429949076033
 20
0.5188733204562709
 30
0.0
 10
17.18750789684684
 20
0.5375678064222692
 30
0.0
 10
16.99432680128995
 20
0.5119297254257792
 30
0.0
 10
16.95497339806404
 20
0.5067069279440446
 30
0.0
  0
SPLINE
  5
C2
330
1F
100
AcDbEntity
  8
0
  6
Continuous
 62
     1
370
    15
100
AcDbSpline
210
0.0
220
0.0
230
1.0
 70
     8
 71
     3
 72
    18
 73
    14
 74
     0
 42
0.000000001
 43
0.00000001
 40
0.0
 40
0.0
 40
0.0
 40
0.0
 40
0.0874641424515772
 40
0.1808552762790055
 40
0.2744435899352795
 40
0.3684224894326893
 40
0.4621436241443598
 40
0.5555744921099234
 40
0.6489795106577433
 40
0.7426241364053097
 40
0.8366186976897871
 40
0.9302755070318255
 40
1.0
 40
1.0
 40
1.0
 40
1.0
 10
22.5909867538141
 20
-0.5895388346792705
 30
0.0
 10
22.44701167669895
 20
-0.6352589499079381
 30
0.0
 10
22.14930507809634
 20
-0.7297973954859813
 30
0.0
 10
21.69768402847853
 20
-0.7646697401429223
 30
0.0
 10
21.23517304905948
 20
-0.7104589328693858
 30
0.0
 10
20.77147037478395
 20
-0.5658323967166036
 30
0.0
 10
20.30848972401546
 20
-0.3504159402868001
 30
0.0
 10
19.84676566384009
 20
-0.0908024218137254
 30
0.0
 10
19.38518001188528
 20
0.1799019559009879
 30
0.0
 10
18.92245919621785
 20
0.4289994931603563
 30
0.0
 10
18.45871480500075
 20
0.6206000086855159
 30
0.0
 10
18.03494042016036
 20
0.7359422812051152
 30
0.0
 10
17.76605949963791
 20
0.7395293486420104
 30
0.0
 10
17.65131206166825
 20
0.7500000000000016
 30
0.0
  0
SPLINE
  5
C3
330
1F
100
AcDbEntity
  8
0
  6
Continuous
 62
     1
370
    15
100
AcDbSpline
210
0.0
220
0.0
230
1.0
 70
     8
 71
     3
 72
    14
 73
    10
 74
     0
 42
0.000000001
 43
0.00000001
 40
0.0
 40
0.0
 40
0.0
 40
0.0
 40
0.0390536764801144
 40
0.1928563416590047
 40
0.3460049614397878
 40
0.498886454404983
 40
0.6519367192434111
 40
0.8258751286118651
 40
1.0
 40
1.0
 40
1.0
 40
1.0
 10
14.41502856813814
 20
-0.5904723760582277
 30
0.0
 10
14.37573822201381
 20
-0.6062017725991855
 30
0.0
 10
14.18171314937018
 20
-0.6838772732639571
 30
0.0
 10
13.83328297243912
 20
-0.7466765928152124
 30
0.0
 10
13.37097184172932
 20
-0.7580055084431306
 30
0.0
 10
12.90948677903504
 20
-0.6684092802960303
 30
0.0
 10
12.42705087256722
 20
-0.4891367197044392
 30
0.0
 10
11.92269376765826
 20
-0.228191923452137
 30
0.0
 10
11.57237002489711
 20
-0.0248579950218867
 30
0.0
 10
11.39711431702727
 20
0.0768634335062829
 30
0.0
  0
LINE
  5
C4
330
1F
100
AcDbEntity
  8
0
  6
Continuous
 62
   131
370
    15
100
AcDbLine
 10
11.39711431702995
 20
-0.1321710436526181
 30
0.0
 11
11.39711431702995
 21
0.0768634335044657
 31
0.0
  0
SPLINE
  5
C5
330
1F
100
AcDbEntity
  8
0
  6
Continuous
 62
     1
370
    15
100
AcDbSpline
210
0.0
220
0.0
230
1.0
 70
     8
 71
     3
 72
    15
 73
    11
 74
     0
 42
0.000000001
 43
0.00000001
 40
0.0
 40
0.0
 40
0.0
 40
0.0
 40
0.1265570459845037
 40
0.2526104537112994
 40
0.3785131982564428
 40
0.5046243049998472
 40
0.6312726260799089
 40
0.7577252654815159
 40
0.8837301806136919
 40
1.0
 40
1.0
 40
1.0
 40
1.0
 10
25.39711431702995
 20
-0.7117056519239241
 30
0.0
 10
25.24243838638418
 20
-0.6748505128988879
 30
0.0
 10
24.93370206345017
 20
-0.6012869011830503
 30
0.0
 10
24.47162709296653
 20
-0.3912955543035427
 30
0.0
 10
24.01015037896849
 20
-0.1386809321035269
 30
0.0
 10
23.5478612918975
 20
0.133135081359553
 30
0.0
 10
23.08426869853601
 20
0.3877284207352449
 30
0.0
 10
22.62107025664066
 20
0.5920534859896573
 30
0.0
 10
22.17096755059796
 20
0.7266824055716398
 30
0.0
 10
21.87522225960165
 20
0.7401902586869553
 30
0.0
 10
21.73329144029095
 20
0.7466727986230157
 30
0.0
  0
SPLINE
  5
C6
330
1F
100
AcDbEntity
  8
0
  6
Continuous
 62
     1
370
    15
100
AcDbSpline
210
0.0
220
0.0
230
1.0
 70
     8
 71
     3
 72
    19
 73
    15
 74
     0
 42
0.000000001
 43
0.00000001
 40
0.0
 40
0.0
 40
0.0
 40
0.0
 40
0.0089595213524985
 40
0.102756852512405
 40
0.1963056653605421
 40
0.2898716679548641
 40
0.3837198772048802
 40
0.4778450520150798
 40
0.571584631996208
 40
0.6651181375259617
 40
0.7587118926591475
 40
0.8526297998008253
 40
0.9467184712014145
 40
1.0
 40
1.0
 40
1.0
 40
1.0
 10
18.50248248325109
 20
-0.5917045552054522
 30
0.0
 10
18.48773986942198
 20
-0.5978470470828116
 30
0.0
 10
18.31865666337962
 20
-0.6682953564363519
 30
0.0
 10
17.99596010260412
 20
-0.7346632348046598
 30
0.0
 10
17.53434131321601
 20
-0.7640676224477198
 30
0.0
 10
17.07264787770324
 20
-0.6905240114980625
 30
0.0
 10
16.60971035826547
 20
-0.532125450476966
 30
0.0
 10
16.14599220006147
 20
-0.3070790427153466
 30
0.0
 10
15.68344392634386
 20
-0.0428970361829134
 30
0.0
 10
15.22192080269351
 20
0.2261864732476208
 30
0.0
 10
14.7600712287934
 20
0.4681344477686413
 30
0.0
 10
14.29693135162056
 20
0.6468641462591296
 30
0.0
 10
13.89977203911903
 20
0.7442324007632258
 30
0.0
 10
13.65755823105286
 20
0.7399342977370509
 30
0.0
 10
13.56998610336049
 20
0.7500000000000016
 30
0.0
  0
LINE
  5
C7
330
1F
100
AcDbEntity
  8
0
  6
Continuous
 62
     1
370
    15
100
AcDbLine
 10
25.39711431702995
 20
-0.7493661114222349
 30
0.0
 11
25.39711431702995
 21
-0.7117056519239272
 31
0.0
  0
SPLINE
  5
C8
330
1F
100
AcDbEntity
  8
0
  6
Continuous
 62
     1
370
    15
100
AcDbSpline
210
0.0
220
0.0
230
1.0
 70
     8
 71
     3
 72
    12
 73
     8
 74
     0
 42
0.000000001
 43
0.00000001
 40
0.0
 40
0.0
 40
0.0
 40
0.0
 40
0.2373543923312218
 40
0.4737221211620253
 40
0.7097946322388304
 40
0.9462754126742381
 40
1.0
 40
1.0
 40
1.0
 40
1.0
 10
25.39711431702995
 20
-0.5917291982761601
 30
0.0
 10
25.24244485884884
 20
-0.5563175097316899
 30
0.0
 10
24.93374889123306
 20
-0.4856413362408453
 30
0.0
 10
24.47164038343054
 20
-0.2978955000673491
 30
0.0
 10
24.01012444510826
 20
-0.0806322605690453
 30
0.0
 10
23.66751204346083
 20
0.0958918184216427
 30
0.0
 10
23.47839918234098
 20
0.1793821705235398
 30
0.0
 10
23.44338945629752
 20
0.194838413621181
 30
0.0
  0
SPLINE
  5
C9
330
1F
100
AcDbEntity
  8
0
  6
Continuous
 62
     1
370
    15
100
AcDbSpline
210
0.0
220
0.0
230
1.0
 70
     8
 71
     3
 72
    14
 73
    10
 74
     0
 42
0.000000001
 43
0.00000001
 40
0.0
 40
0.0
 40
0.0
 40
0.0
 40
0.0003322934264202
 40
0.1698784807953207
 40
0.3394572253737365
 40
0.5095704022145707
 40
0.6802079763126881
 40
0.8501154495393093
 40
1.0
 40
1.0
 40
1.0
 40
1.0
 10
17.99648226767998
 20
-0.6240045585281356
 30
0.0
 10
17.99618083693287
 20
-0.6240595671097035
 30
0.0
 10
17.84208029412098
 20
-0.6521816228726955
 30
0.0
 10
17.53436325332268
 20
-0.637836294855647
 30
0.0
 10
17.07260986010827
 20
-0.570793466014268
 30
0.0
 10
16.6096732364182
 20
-0.4226411212320498
 30
0.0
 10
16.14604440523938
 20
-0.2251062271814641
 30
0.0
 10
15.70126985475154
 20
-0.0046817190552676
 30
0.0
 10
15.41131738968566
 20
0.1340170590041752
 30
0.0
 10
15.27541845643439
 20
0.1990243214092366
 30
0.0
  0
LINE
  5
CA
330
1F
100
AcDbEntity
  8
0
  6
Continuous
 62
     1
370
    15
100
AcDbLine
 10
25.39711431702995
 20
-0.7117056519239253
 30
0.0
 11
25.39711431702995
 21
-0.59172919827616
 31
0.0
  0
SPLINE
  5
CB
330
1F
100
AcDbEntity
  8
0
  6
Continuous
 62
   131
370
    15
100
AcDbSpline
210
0.0
220
0.0
230
1.0
 70
    24
 71
     3
 72
     8
 73
     4
 74
     0
 42
0.000000001
 43
0.00000001
 40
0.0
 40
0.0
 40
0.0
 40
0.0
 40
1.0
 40
1.0
 40
1.0
 40
1.0
 10
11.39711431703046
 20
0.103436189011214
 30
0.0
 10
11.39711431703046
 20
0.0977389923075874
 30
0.0
 10
11.39711431703046
 20
0.0888385028226591
 30
0.0
 10
11.39711431703046
 20
0.0768634335045156
 30
0.0
  0
SPLINE
  5
CC
330
1F
100
AcDbEntity
  8
0
  6
Continuous
 62
     1
370
    15
100
AcDbSpline
210
0.0
220
0.0
230
1.0
 70
     8
 71
     3
 72
    14
 73
    10
 74
     0
 42
0.000000001
 43
0.00000001
 40
0.0
 40
0.0
 40
0.0
 40
0.0
 40
0.1403643434162052
 40
0.3106875500759806
 40
0.4817533233732698
 40
0.6523290678925048
 40
0.8223528818733138
 40
0.9923275379670926
 40
1.0
 40
1.0
 40
1.0
 40
1.0
 10
22.07881640628733
 20
-0.6182892971470203
 30
0.0
 10
21.95187522224063
 20
-0.6281516040541527
 30
0.0
 10
21.67089898201221
 20
-0.6499811933679343
 30
0.0
 10
21.23512146541663
 20
-0.5863597767994569
 30
0.0
 10
20.77150492715693
 20
-0.4542656069593356
 30
0.0
 10
20.30852796569105
 20
-0.2616655547112316
 30
0.0
 10
19.84674898586129
 20
-0.0405073787615807
 30
0.0
 10
19.53238928413722
 20
0.1231509667425179
 30
0.0
 10
19.37165618158333
 20
0.1927083602482603
 30
0.0
 10
19.36471422474338
 20
0.1957124982630421
 30
0.0
  0
SPLINE
  5
CD
330
1F
100
AcDbEntity
  8
0
  6
Continuous
 62
     1
370
    15
100
AcDbSpline
210
0.0
220
0.0
230
1.0
 70
     8
 71
     3
 72
    14
 73
    10
 74
     0
 42
0.000000001
 43
0.00000001
 40
0.0
 40
0.0
 40
0.0
 40
0.0
 40
0.0328752761046952
 40
0.2163373814519357
 40
0.3994651129216659
 40
0.5828041083572264
 40
0.7668913869033849
 40
0.9510440618125782
 40
0.9999999999999999
 40
0.9999999999999999
 40
0.9999999999999999
 40
0.9999999999999999
 10
13.91429174189605
 20
-0.6241930567302659
 30
0.0
 10
13.8879798790976
 20
-0.6229382206014588
 30
0.0
 10
13.70624212420159
 20
-0.6528798833280773
 30
0.0
 10
13.3709926009962
 20
-0.6319567919909528
 30
0.0
 10
12.90948446887376
 20
-0.5494073173258164
 30
0.0
 10
12.44736966106629
 20
-0.3909849654122373
 30
0.0
 10
11.9842275264747
 20
-0.1854808801171079
 30
0.0
 10
11.63322212192005
 20
-0.0126074444260244
 30
0.0
 10
11.43809386957966
 20
0.0832953208316768
 30
0.0
 10
11.39711431702989
 20
0.1034361890114936
 30
0.0
  0
SPLINE
  5
CE
330
1F
100
AcDbEntity
  8
0
  6
Continuous
 62
     1
370
    15
100
AcDbSpline
210
0.0
220
0.0
230
1.0
 70
     8
 71
     3
 72
     8
 73
     4
 74
     0
 42
0.000000001
 43
0.00000001
 40
0.0
 40
0.0
 40
0.0
 40
0.0
 40
1.0
 40
1.0
 40
1.0
 40
1.0
 10
24.93369306263448
 20
0.2091243521614254
 30
0.0
 10
24.89986049511979
 20
0.2491581138994926
 30
0.0
 10
24.87044788964088
 20
0.2874656436820968
 30
0.0
 10
24.84726799057116
 20
0.32305884793289
 30
0.0
  0
LINE
  5
CF
330
1F
100
AcDbEntity
  8
0
  6
Continuous
 62
     1
370
    15
100
AcDbLine
 10
24.84726799057116
 20
0.3230588479328873
 30
0.0
 11
25.39711431702995
 21
0.000000000000002
 31
0.0
  0
LINE
  5
D0
330
1F
100
AcDbEntity
  8
0
  6
Continuous
 62
     1
370
    15
100
AcDbLine
 10
25.39711431702995
 20
0.000000000000002
 30
0.0
 11
25.39711431702995
 21
-0.2004322095222315
 31
0.0
  0
SPLINE
  5
D1
330
1F
100
AcDbEntity
  8
0
  6
Continuous
 62
     1
370
    15
100
AcDbSpline
210
0.0
220
0.0
230
1.0
 70
     8
 71
     3
 72
    10
 73
     6
 74
     0
 42
0.000000001
 43
0.00000001
 40
0.0
 40
0.0
 40
0.0
 40
0.0
 40
0.5
 40
0.5
 40
1.0
 40
1.0
 40
1.0
 40
1.0
 10
25.39711431702995
 20
-0.2004322095222316
 30
0.0
 10
25.3169052604367
 20
-0.1373715394669072
 30
0.0
 10
25.23803532198719
 20
-0.0717255156068366
 30
0.0
 10
25.08302977800458
 20
0.0648455420662257
 30
0.0
 10
25.00616674524158
 20
0.1364836568451773
 30
0.0
 10
24.93369306263399
 20
0.2091243521597786
 30
0.0
  0
SPLINE
  5
D2
330
1F
100
AcDbEntity
  8
0
  6
Continuous
 62
     1
370
    15
100
AcDbSpline
210
0.0
220
0.0
230
1.0
 70
     8
 71
     3
 72
    11
 73
     7
 74
     0
 42
0.000000001
 43
0.00000001
 40
0.0
 40
0.0
 40
0.0
 40
0.0
 40
0.263421877708853
 40
0.5262158744388923
 40
0.7894707010406399
 40
0.9999999999999999
 40
0.9999999999999999
 40
0.9999999999999999
 40
0.9999999999999999
 10
24.93369306263463
 20
0.2091243521613582
 30
0.0
 10
24.77960390001239
 20
0.2734255045048378
 30
0.0
 10
24.4717928550223
 20
0.4018745437499766
 30
0.0
 10
24.01013099228073
 20
0.535306978542672
 30
0.0
 10
23.57931677121646
 20
0.6064700212918039
 30
0.0
 10
23.30197327970411
 20
0.5938421987982772
 30
0.0
 10
23.2051675159985
 20
0.5959782559573635
 30
0.0
  0
SPLINE
  5
D3
330
1F
100
AcDbEntity
  8
0
  6
Continuous
 62
     1
370
    15
100
AcDbSpline
210
0.0
220
0.0
230
1.0
 70
     8
 71
     3
 72
    18
 73
    14
 74
     0
 42
0.000000001
 43
0.00000001
 40
0.0
 40
0.0
 40
0.0
 40
0.0
 40
0.0734473512203746
 40
0.1721488750390859
 40
0.271241107601941
 40
0.36995638808128
 40
0.4683945239357549
 40
0.5668517636243904
 40
0.6656235715903587
 40
0.7647042393888517
 40
0.8633551506949723
 40
0.9617762122181153
 40
1.0
 40
1.0
 40
1.0
 40
1.0
 10
19.72963816899989
 20
-0.5568660051817654
 30
0.0
 10
19.6149371755512
 20
-0.5739416287457935
 30
0.0
 10
19.34609634385379
 20
-0.6139641664996519
 30
0.0
 10
18.92237310121341
 20
-0.588639766109672
 30
0.0
 10
18.4587530896754
 20
-0.4963126837175027
 30
0.0
 10
17.99596010333978
 20
-0.3390656153677872
 30
0.0
 10
17.53431587952402
 20
-0.1399546105812754
 30
0.0
 10
17.07257761528159
 20
0.0769990295749276
 30
0.0
 10
16.60962990873282
 20
0.2839049561585252
 30
0.0
 10
16.14603297259805
 20
0.4560322753700118
 30
0.0
 10
15.68343413975649
 20
0.5668174833116301
 30
0.0
 10
15.31600532618542
 20
0.6121090470048918
 30
0.0
 10
15.10258096406039
 20
0.5924806063977616
 30
0.0
 10
15.04280892989767
 20
0.5959643089694153
 30
0.0
  0
SPLINE
  5
D4
330
1F
100
AcDbEntity
  8
0
  6
Continuous
 62
     1
370
    15
100
AcDbSpline
210
0.0
220
0.0
230
1.0
 70
     8
 71
     3
 72
     9
 73
     5
 74
     0
 42
0.000000001
 43
0.00000001
 40
0.0
 40
0.0
 40
0.0
 40
0.0
 40
0.578822129907477
 40
1.0
 40
1.0
 40
1.0
 40
1.0
 10
11.68947222211348
 20
-0.5340260829171007
 30
0.0
 10
11.63295320983171
 20
-0.5477987879714171
 30
0.0
 10
11.53530833870213
 20
-0.5715931530149891
 30
0.0
 10
11.43806926357925
 20
-0.5815644136164746
 30
0.0
 10
11.39711431702923
 20
-0.5857640879187457
 30
0.0
  0
SPLINE
  5
D5
330
1F
100
AcDbEntity
  8
0
  6
Continuous
 62
     1
370
    15
100
AcDbSpline
210
0.0
220
0.0
230
1.0
 70
    24
 71
     3
 72
     8
 73
     4
 74
     0
 42
0.000000001
 43
0.00000001
 40
0.0
 40
0.0
 40
0.0
 40
0.0
 40
1.0
 40
1.0
 40
1.0
 40
1.0
 10
25.39711431702995
 20
-0.5917291982761597
 30
0.0
 10
25.39711431702995
 20
-0.5010078852295432
 30
0.0
 10
25.39711431702995
 20
-0.3595289550547051
 30
0.0
 10
25.39711431702995
 20
-0.2004322095222556
 30
0.0
  0
SPLINE
  5
D6
330
1F
100
AcDbEntity
  8
0
  6
Continuous
 62
     1
370
    15
100
AcDbSpline
210
0.0
220
0.0
230
1.0
 70
     8
 71
     3
 72
    18
 73
    14
 74
     0
 42
0.000000001
 43
0.00000001
 40
0.0
 40
0.0
 40
0.0
 40
0.0
 40
0.0558337394391323
 40
0.1542852785222986
 40
0.2525758028922569
 40
0.3504976882807166
 40
0.4483431229175522
 40
0.5464074311118061
 40
0.6449052495100188
 40
0.7431170890029879
 40
0.841006672141954
 40
0.9388675107722697
 40
1.0
 40
1.0
 40
1.0
 40
1.0
 10
23.81158577938041
 20
-0.5549037792470318
 30
0.0
 10
23.72386998516576
 20
-0.5699798009581595
 30
0.0
 10
23.48148507816944
 20
-0.6116393464601275
 30
0.0
 10
23.08428113132185
 20
-0.5973528699863945
 30
0.0
 10
22.62111766693766
 20
-0.5180600592742641
 30
0.0
 10
22.15918824022616
 20
-0.3703484789390972
 30
0.0
 10
21.6976404744666
 20
-0.1771250898021026
 30
0.0
 10
21.23509033418436
 20
0.0388214854109181
 30
0.0
 10
20.77150237254019
 20
0.2489308554001308
 30
0.0
 10
20.30851895242263
 20
0.4292304684400021
 30
0.0
 10
19.84674228972503
 20
0.5525209723078487
 30
0.0
 10
19.44326236445407
 20
0.6097747933823688
 30
0.0
 10
19.19339243661019
 20
0.5922105148966206
 30
0.0
 10
19.12314462908641
 20
0.5959261567341878
 30
0.0
  0
SPLINE
  5
D7
330
1F
100
AcDbEntity
  8
0
  6
Continuous
 62
     1
370
    15
100
AcDbSpline
210
0.0
220
0.0
230
1.0
 70
     8
 71
     3
 72
    17
 73
    13
 74
     0
 42
0.000000001
 43
0.00000001
 40
0.0
 40
0.0
 40
0.0
 40
0.0
 40
0.0997528689170866
 40
0.2083949366268418
 40
0.3174355502510615
 40
0.4266864033836486
 40
0.5354452616968608
 40
0.644003015074854
 40
0.7526876513948771
 40
0.8618219568326054
 40
0.9709960042125625
 40
1.0
 40
1.0
 40
1.0
 40
1.0
 10
15.64565769870313
 20
-0.561340503704711
 30
0.0
 10
15.50443148326405
 20
-0.5788825092942177
 30
0.0
 10
15.20939407194969
 20
-0.6155297273924913
 30
0.0
 10
14.7599889986887
 20
-0.5776244447359258
 30
0.0
 10
14.29685233304383
 20
-0.4723452880417566
 30
0.0
 10
13.83333352460639
 20
-0.3065408594465738
 30
0.0
 10
13.37094576170021
 20
-0.1022050658696385
 30
0.0
 10
12.90944209531053
 20
0.1148557254225554
 30
0.0
 10
12.44731478621521
 20
0.3177560925626982
 30
0.0
 10
11.98416877222541
 20
0.4799408296990709
 30
0.0
 10
11.63324473296444
 20
0.5586738167907385
 30
0.0
 10
11.43807999511215
 20
0.5810642642140625
 30
0.0
 10
11.39711431702923
 20
0.5857640879187461
 30
0.0
  0
SPLINE
  5
D8
330
1F
100
AcDbEntity
  8
0
  6
Continuous
 62
   131
370
    15
100
AcDbSpline
210
0.0
220
0.0
230
1.0
 70
    24
 71
     3
 72
    10
 73
     6
 74
     0
 42
0.000000001
 43
0.00000001
 40
0.0
 40
0.0
 40
0.0
 40
0.0
 40
0.5
 40
0.5
 40
1.0
 40
1.0
 40
1.0
 40
1.0
 10
11.39711431702995
 20
0.5857640879186728
 30
0.0
 10
11.39711431702995
 20
0.5478289809185052
 30
0.0
 10
11.39711431702995
 20
0.4839438140604257
 30
0.0
 10
11.39711431702995
 20
0.3153463128206674
 30
0.0
 10
11.39711431702995
 20
0.2113596879937139
 30
0.0
 10
11.39711431702995
 20
0.1034361890114657
 30
0.0
  0
SPLINE
  5
D9
330
1F
100
AcDbEntity
  8
0
  6
Continuous
 62
     1
370
    15
100
AcDbSpline
210
0.0
220
0.0
230
1.0
 70
     8
 71
     3
 72
     8
 73
     4
 74
     0
 42
0.000000001
 43
0.00000001
 40
0.0
 40
0.0
 40
0.0
 40
0.0
 40
1.0
 40
1.0
 40
1.0
 40
1.0
 10
25.39711431702995
 20
0.5250000000000019
 30
0.0
 10
25.21052535001348
 20
0.4741732592527874
 30
0.0
 10
25.02569126366118
 20
0.4101591326915528
 30
0.0
 10
24.84726799056492
 20
0.3230588479383574
 30
0.0
  0
SPLINE
  5
DA
330
1F
100
AcDbEntity
  8
0
  6
Continuous
 62
   131
370
    15
100
AcDbSpline
210
0.0
220
0.0
230
1.0
 70
    24
 71
     3
 72
    10
 73
     6
 74
     0
 42
0.000000001
 43
0.00000001
 40
0.0
 40
0.0
 40
0.0
 40
0.0
 40
0.2957124952994237
 40
0.6496863277341609
 40
1.0
 40
1.0
 40
1.0
 40
1.0
 10
11.39711431702995
 20
-0.1512759658389069
 30
0.0
 10
11.39711431702995
 20
-0.2178678127142288
 30
0.0
 10
11.39711431702995
 20
-0.3641714459430398
 30
0.0
 10
11.39711431702995
 20
-0.5226924000644324
 30
0.0
 10
11.39711431702995
 20
-0.5648131587230689
 30
0.0
 10
11.39711431702995
 20
-0.5857640879186725
 30
0.0
  0
LINE
  5
DB
330
1F
100
AcDbEntity
  8
0
  6
Continuous
 62
     1
370
    15
100
AcDbLine
 10
25.39711431702995
 20
0.000000000000002
 30
0.0
 11
25.39711431702995
 21
0.5250000000000019
 31
0.0
  0
LINE
  5
DC
330
1F
100
AcDbEntity
  8
0
  6
Continuous
 62
   131
370
    15
100
AcDbLine
 10
10.39711431702995
 20
0.7500000000000002
 30
0.0
 11
10.39711431702995
 21
-0.75
 31
0.0
  0
LINE
  5
DD
330
1F
100
AcDbEntity
  8
0
  6
Continuous
 62
   131
370
    15
100
AcDbLine
 10
2.0
 20
2.999999999999999
 30
0.0
 11
2.0
 21
-2.999999999999999
 31
0.0
  0
LINE
  5
DE
330
1F
100
AcDbEntity
  8
0
  6
Continuous
 62
   131
370
    15
100
AcDbLine
 10
-34.05288568297004
 20
2.999999999999996
 30
0.0
 11
-34.05288568297004
 21
-3.000000000000001
 31
0.0
  0
LINE
  5
DF
330
1F
100
AcDbEntity
  8
0
  6
Continuous
 62
   131
370
    15
100
AcDbLine
 10
-34.60288568297005
 20
2.449999999999995
 30
0.0
 11
-34.60288568297005
 21
-2.450000000000002
 31
0.0
  0
SPLINE
  5
E0
330
1F
100
AcDbEntity
  8
0
  6
Continuous
 62
   131
370
    15
100
AcDbSpline
210
0.0
220
0.0
230
1.0
 70
     8
 71
     3
 72
     9
 73
     5
 74
     0
 42
0.000000001
 43
0.00000001
 40
0.0
 40
0.0
 40
0.0
 40
0.0
 40
0.4250982435402106
 40
1.0
 40
1.0
 40
1.0
 40
1.0
 10
11.29011750223888
 20
-0.0708038824332043
 30
0.0
 10
11.19186970582196
 20
-0.0312463309470869
 30
0.0
 10
10.96075184563343
 20
0.0618087500541491
 30
0.0
 10
10.72991532509556
 20
0.1517034792141987
 30
0.0
 10
10.59720700398328
 20
0.2033841169047882
 30
0.0
  0
SPLINE
  5
E1
330
1F
100
AcDbEntity
  8
0
  6
Continuous
 62
   131
370
    15
100
AcDbSpline
210
0.0
220
0.0
230
1.0
 70
     8
 71
     3
 72
    10
 73
     6
 74
     0
 42
0.000000001
 43
0.00000001
 40
0.0
 40
0.0
 40
0.0
 40
0.0
 40
0.5
 40
0.5
 40
1.0
 40
1.0
 40
1.0
 40
1.0
 10
11.39711431702713
 20
-0.132171043657336
 30
0.0
 10
11.26677005072595
 20
-0.0569294276177701
 30
0.0
 10
11.12970741427112
 20
0.0216865552688151
 30
0.0
 10
10.86112385976032
 20
0.1747534416041001
 30
0.0
 10
10.73204007507964
 20
0.2487575281808739
 30
0.0
 10
10.59718829341801
 20
0.3187345758872216
 30
0.0
  0
LWPOLYLINE
  5
E2
330
1F
100
AcDbEntity
  8
0
  6
Continuous
 62
   131
370
    15
100
AcDbPolyline
 90
       11
 70
   128
 43
0.0
 10
10.59724510399849
 20
0.4938280050093724
 10
10.59725161757503
 20
0.5863857796130694
 10
10.59725682107527
 20
0.660229639844574
 10
10.59726054843473
 20
0.7130029329245569
 10
10.59726268069845
 20
0.7430214521035142
 10
10.59726314981738
 20
0.7493271864319552
 10
10.59726194082005
 20
0.7317188947195593
 10
10.59725909229042
 20
0.6907585279460451
 10
10.59725469513644
 20
0.6277532951589422
 10
10.59724888968888
 20
0.5447139452071672
 10
10.59724460459763
 20
0.4834775351345453
  0
SPLINE
  5
E3
330
1F
100
AcDbEntity
  8
0
  6
Continuous
 62
   131
370
    15
100
AcDbSpline
210
0.0
220
0.0
230
1.0
 70
     8
 71
     3
 72
    10
 73
     6
 74
     0
 42
0.000000001
 43
0.00000001
 40
0.0
 40
0.0
 40
0.0
 40
0.0
 40
0.5
 40
0.5
 40
1.0
 40
1.0
 40
1.0
 40
1.0
 10
11.39711431702712
 20
0.0768634335063678
 30
0.0
 10
11.2667825798203
 20
0.1528915660537276
 30
0.0
 10
11.12973377182929
 20
0.2289722721235578
 30
0.0
 10
10.86117495360599
 20
0.3704898326309854
 30
0.0
 10
10.73210427307822
 20
0.4356245486928643
 30
0.0
 10
10.59726606746519
 20
0.4938038138399043
 30
0.0
  0
LWPOLYLINE
  5
E4
330
1F
100
AcDbEntity
  8
0
  6
Continuous
 62
   131
370
    15
100
AcDbPolyline
 90
       13
 70
   128
 43
0.0
 10
10.59726319069325
 20
-0.7499999999999998
 10
10.59726314981738
 20
-0.7493271864319548
 10
10.59726194082005
 20
-0.7317188947195589
 10
10.59725909229042
 20
-0.6907585279460448
 10
10.59725469513644
 20
-0.6277532951589417
 10
10.59724888968888
 20
-0.5447139452071669
 10
10.59724186122277
 20
-0.444290595707053
 10
10.59723383404456
 20
-0.3296881571950632
 10
10.59722506433361
 20
-0.2045640516205716
 10
10.59721583196645
 20
-0.0729114893904938
 10
10.59720643158482
 20
0.0610679699381171
 10
10.59719716319247
 20
0.1930985062197544
 10
10.59718832258086
 20
0.3189664972343848
  0
LINE
  5
E5
330
1F
100
AcDbEntity
  8
0
  6
Continuous
 62
   131
370
    15
100
AcDbLine
 10
11.39711431702989
 20
0.1034361890114936
 30
0.0
 11
11.19443245301644
 21
0.1973410059569303
 31
0.0
  0
SPLINE
  5
E6
330
1F
100
AcDbEntity
  8
0
  6
Continuous
 62
   131
370
    15
100
AcDbSpline
210
0.0
220
0.0
230
1.0
 70
    24
 71
     3
 72
     8
 73
     4
 74
     0
 42
0.000000001
 43
0.00000001
 40
0.0
 40
0.0
 40
0.0
 40
0.0
 40
1.0
 40
1.0
 40
1.0
 40
1.0
 10
11.39711431703046
 20
0.103436189011214
 30
0.0
 10
11.39711431703046
 20
0.0977389923075874
 30
0.0
 10
11.39711431703046
 20
0.088838502822659
 30
0.0
 10
11.39711431703046
 20
0.0768634335045155
 30
0.0
  0
SPLINE
  5
E7
330
1F
100
AcDbEntity
  8
0
  6
Continuous
 62
   131
370
    15
100
AcDbSpline
210
0.0
220
0.0
230
1.0
 70
     8
 71
     3
 72
    10
 73
     6
 74
     0
 42
0.000000001
 43
0.00000001
 40
0.0
 40
0.0
 40
0.0
 40
0.0
 40
0.2597890950672825
 40
0.6309934881613701
 40
0.9999999999999999
 40
0.9999999999999999
 40
0.9999999999999999
 40
0.9999999999999999
 10
10.59725140028482
 20
0.5819514214856324
 30
0.0
 10
10.59725136194106
 20
0.5815239901702406
 30
0.0
 10
10.59725126880913
 20
0.5804858158135432
 30
0.0
 10
10.59724818331312
 20
0.536959294963499
 30
0.0
 10
10.5972439930139
 20
0.4775323917000012
 30
0.0
 10
10.59724190408535
 20
0.4479071671369718
 30
0.0
  0
SPLINE
  5
E8
330
1F
100
AcDbEntity
  8
0
  6
Continuous
 62
   131
370
    15
100
AcDbSpline
210
0.0
220
0.0
230
1.0
 70
     8
 71
     3
 72
     9
 73
     5
 74
     0
 42
0.000000001
 43
0.00000001
 40
0.0
 40
0.0
 40
0.0
 40
0.0
 40
0.9364069942002387
 40
1.0
 40
1.0
 40
1.0
 40
1.0
 10
11.39711431702922
 20
0.5857640879187466
 30
0.0
 10
11.26315573284803
 20
0.598521651592633
 30
0.0
 10
11.12009979134943
 20
0.6121456033069005
 30
0.0
 10
10.97726189726957
 20
0.5955748776651488
 30
0.0
 10
10.96817840624293
 20
0.5945210954133067
 30
0.0
  0
SPLINE
  5
E9
330
1F
100
AcDbEntity
  8
0
  6
Continuous
 62
   131
370
    15
100
AcDbSpline
210
0.0
220
0.0
230
1.0
 70
    24
 71
     3
 72
    10
 73
     6
 74
     0
 42
0.000000001
 43
0.00000001
 40
0.0
 40
0.0
 40
0.0
 40
0.0
 40
0.5
 40
0.5
 40
1.0
 40
1.0
 40
1.0
 40
1.0
 10
11.39711431702995
 20
0.5857640879186728
 30
0.0
 10
11.39711431702995
 20
0.5478289809185052
 30
0.0
 10
11.39711431702995
 20
0.4839438140604257
 30
0.0
 10
11.39711431702995
 20
0.3153463128206674
 30
0.0
 10
11.39711431702995
 20
0.2113596879937139
 30
0.0
 10
11.39711431702995
 20
0.1034361890114657
 30
0.0
  0
SPLINE
  5
EA
330
1F
100
AcDbEntity
  8
0
  6
Continuous
 62
   131
370
    15
100
AcDbSpline
210
0.0
220
0.0
230
1.0
 70
     8
 71
     3
 72
    10
 73
     6
 74
     0
 42
0.000000001
 43
0.00000001
 40
0.0
 40
0.0
 40
0.0
 40
0.0
 40
0.5
 40
0.5
 40
1.0
 40
1.0
 40
1.0
 40
1.0
 10
11.39711431702482
 20
-0.5857640879191938
 30
0.0
 10
11.26677462036281
 20
-0.5990051906611115
 30
0.0
 10
11.12971702747047
 20
-0.6031237991361553
 30
0.0
 10
10.86114249476894
 20
-0.5919968664002621
 30
0.0
 10
10.73206348962444
 20
-0.5771062785954446
 30
0.0
 10
10.59721665938066
 20
-0.5531491781878091
 30
0.0
  0
SPLINE
  5
EB
330
1F
100
AcDbEntity
  8
0
  6
Continuous
 62
   131
370
    15
100
AcDbSpline
210
0.0
220
0.0
230
1.0
 70
    24
 71
     3
 72
    10
 73
     6
 74
     0
 42
0.000000001
 43
0.00000001
 40
0.0
 40
0.0
 40
0.0
 40
0.0
 40
0.2957124952994234
 40
0.6496863277341604
 40
1.0
 40
1.0
 40
1.0
 40
1.0
 10
11.39711431702995
 20
-0.1512759658389069
 30
0.0
 10
11.39711431702995
 20
-0.2178678127142287
 30
0.0
 10
11.39711431702995
 20
-0.3641714459430396
 30
0.0
 10
11.39711431702995
 20
-0.5226924000644322
 30
0.0
 10
11.39711431702995
 20
-0.5648131587230689
 30
0.0
 10
11.39711431702995
 20
-0.5857640879186725
 30
0.0
  0
LINE
  5
EC
330
1F
100
AcDbEntity
  8
중심선
 62
     1
100
AcDbLine
 10
-37.60288568297005
 20
-0.0000000000000046
 30
0.0
 11
26.89711431702995
 21
-0.0000000000000046
 31
0.0
  0
CIRCLE
  5
ED
330
1F
100
AcDbEntity
  8
외형선
100
AcDbCircle
 10
0.0000000000000104
 20
0.0
 30
0.0
 40
3.000000000000005
  0
INSERT
  5
EE
330
1F
100
AcDbEntity
  8
0
  6
Continuous
 62
     7
100
AcDbBlockReference
 66
     1
  2
블럭10
 10
-22.93944368806589
 20
-52.04609937292004
 30
0.0
  0
ATTRIB
  5
EF
330
EE
100
AcDbEntity
  8
FORMAT
 62
     2
100
AcDbText
 10
-39.05870472750145
 20
-49.97073246008785
 30
0.0
 40
4.233333333333333
  1
SEME7001514E [ 2 FLUTE ]
 41
0.75
  7
SLDTEXTSTYLE0
 11
-39.05870472750145
 21
-52.08739912675452
 31
0.0
100
AcDbAttribute
  2
AUTOATTR0
 70
     0
 74
     1
  0
SEQEND
  5
F0
330
EE
100
AcDbEntity
  8
0
  6
Continuous
 62
     7
  0
HATCH
  5
F1
330
1F
100
AcDbEntity
  8
중심선
100
AcDbHatch
 10
0.0
 20
0.0
 30
0.0
210
0.0
220
0.0
230
1.0
  2
SOLID
 70
     1
 71
     0
 91
        1
 92
        0
 93
        4
 72
     1
 10
-17.22453438368504
 20
-35.7989250712761
 11
-20.67080962752232
 21
-35.7989250712761
 72
     1
 10
-20.67080962752232
 20
-35.7989250712761
 11
-22.79903948672635
 21
-38.3352506518487
 72
     1
 10
-22.79903948672635
 20
-38.3352506518487
 11
-19.35273115777591
 21
-38.33521122254621
 72
     1
 10
-19.35273115777591
 20
-38.33521122254621
 11
-17.22453438368504
 21
-35.7989250712761
 97
        0
 75
     0
 76
     1
 98
        1
 10
0.0
 20
0.0
  0
HATCH
  5
F2
330
1F
100
AcDbEntity
  8
중심선
100
AcDbHatch
 10
0.0
 20
0.0
 30
0.0
210
0.0
220
0.0
230
1.0
  2
SOLID
 70
     1
 71
     0
 91
        1
 92
        0
 93
        4
 72
     1
 10
-12.21177039264909
 20
-35.7989250712761
 11
-15.65804563648637
 21
-35.7989250712761
 72
     1
 10
-15.65804563648637
 20
-35.7989250712761
 11
-20.18918364484376
 21
-41.19892507127612
 72
     1
 10
-20.18918364484376
 20
-41.19892507127612
 11
-16.74290840100648
 21
-41.19892507127612
 72
     1
 10
-16.74290840100648
 20
-41.19892507127612
 11
-12.21177039264909
 21
-35.7989250712761
 97
        0
 75
     0
 76
     1
 98
        1
 10
0.0
 20
0.0
  0
HATCH
  5
F3
330
1F
100
AcDbEntity
  8
중심선
100
AcDbHatch
 10
0.0
 20
0.0
 30
0.0
210
0.0
220
0.0
230
1.0
  2
SOLID
 70
     1
 71
     0
 91
        1
 92
        0
 93
        4
 72
     1
 10
-7.199006401613195
 20
-35.79892507127613
 11
-10.64528164545031
 21
-35.7989250712761
 72
     1
 10
-10.64528164545031
 20
-35.7989250712761
 11
-17.69371854733956
 21
-44.19892507127612
 72
     1
 10
-17.69371854733956
 20
-44.19892507127612
 11
-14.24744330350228
 21
-44.19892507127612
 72
     1
 10
-14.24744330350228
 20
-44.19892507127612
 11
-7.199006401613195
 21
-35.79892507127613
 97
        0
 75
     0
 76
     1
 98
        1
 10
0.0
 20
0.0
  0
HATCH
  5
F4
330
1F
100
AcDbEntity
  8
중심선
100
AcDbHatch
 10
0.0
 20
0.0
 30
0.0
210
0.0
220
0.0
230
1.0
  2
SOLID
 70
     1
 71
     0
 91
        1
 92
        0
 93
        6
 72
     3
 10
-2.399115970600996
 20
-39.99892507132738
 11
3.960054785062284
 21
1.540850780301639E-10
 40
0.3939339440162633
 50
17.09539180608433
 51
320.0019657685079
 73
     0
 72
     1
 10
-0.7161163149004002
 20
-38.58681907591441
 11
1.589185558800638
 21
-36.65249236586649
 72
     3
 10
-2.399115970653842
 20
-39.99892507127625
 11
6.600054785286829
 21
-1.249000902703301E-13
 40
0.6363583540795982
 50
39.99873849337408
 51
368.4976242363724
 73
     1
 72
     1
 10
4.026216521246767
 20
-39.03892507120613
 11
-3.71904866381792
 21
-39.0389250712061
 72
     1
 10
-3.71904866381792
 20
-39.0389250712061
 11
-3.719073708263854
 21
-40.95892507120602
 72
     1
 10
-3.719073708263854
 20
-40.95892507120602
 11
0.7223060612081835
 21
-40.95892507120599
 97
        0
 75
     0
 76
     1
 98
        1
 10
0.0
 20
0.0
  0
DIMENSION
  5
F5
330
1F
100
AcDbEntity
  8
치수문자_일반주서
100
AcDbDimension
  2
_D
 10
37.67982163667556
 20
0.7493661114222832
 30
0.0
 11
37.6798216366755
 21
12.82211611142228
 31
0.0
 70
   160
  1
%%c<>
 71
     2
 42
1.498732222844472
 52
-270.0
  3
SLDDIMSTYLE0
100
AcDbAlignedDimension
 13
25.39711431702995
 23
-0.7493661114222349
 33
0.0
 14
25.39711431702995
 24
0.7493661114222369
 34
0.0
 50
90.0000000000002
100
AcDbRotatedDimension
  0
DIMENSION
  5
103
330
1F
100
AcDbEntity
  8
치수문자_일반주서
100
AcDbDimension
  2
_D_1
 10
25.39711431702995
 20
24.23841044024269
 30
0.0
 11
-4.602885682970046
 21
24.23841044024269
 31
0.0
 70
   160
  1
<>
 71
     2
 42
60.0
  3
SLDDIMSTYLE1
100
AcDbAlignedDimension
 13
-34.60288568297005
 23
2.449999999999995
 33
0.0
 14
25.39711431702995
 24
0.7493661114222354
 34
0.0
 50
-0.0000000000000034
100
AcDbRotatedDimension
  0
DIMENSION
  5
10E
330
1F
100
AcDbEntity
  8
치수문자_일반주서
100
AcDbDimension
  2
_D_2
 10
25.39711431702995
 20
13.93276189408627
 30
0.0
 11
18.39711431702959
 21
13.93276189408627
 31
0.0
 70
   160
  1
<>
 71
     2
 42
14.00000000000072
  3
SLDDIMSTYLE2
100
AcDbAlignedDimension
 13
11.39711431702923
 23
0.5857640879187459
 33
0.0
 14
25.39711431702995
 24
0.7493661114222354
 34
0.0
100
AcDbRotatedDimension
  0
DIMENSION
  5
11B
330
1F
100
AcDbEntity
  8
치수문자_일반주서
100
AcDbDimension
  2
_D_3
 10
-44.46143616358481
 20
-3.000000000000039
 30
0.0
 11
-44.46143616358486
 21
12.66649999999996
 31
0.0
 70
   160
  1
%%c<>
 71
     2
 42
5.999999999999996
 52
-270.0
  3
SLDDIMSTYLE2
100
AcDbAlignedDimension
 13
-34.05288568297004
 23
2.999999999999996
 33
0.0
 14
-34.05288568297004
 24
-3.0
 34
0.0
 50
90.0000000000002
100
AcDbRotatedDimension
  0
INSERT
  5
12E
330
1F
100
AcDbEntity
  8
외형선
100
AcDbBlockReference
  2
SW_DOWELSYMBOL_0
 10
0.0000000000000104
 20
0.0
 30
0.0
  0
ENDSEC
  0
SECTION
  2
OBJECTS
  0
DICTIONARY
  5
C
330
0
100
AcDbDictionary
281
     1
  3
ACAD_GROUP
350
D
  3
ACAD_IMAGE_VARS
350
152
  3
ACAD_LAYOUT
350
1A
  3
ACAD_MLINESTYLE
350
17
  3
ACAD_PLOTSETTINGS
350
19
  3
ACAD_PLOTSTYLENAME
350
E
  3
ACAD_SCALELIST
350
47
  3
APPDATA
350
150
  3
DWGPROPS
350
182
  0
DICTIONARY
  5
D
102
{ACAD_REACTORS
330
C
102
}
330
C
100
AcDbDictionary
281
     1
  0
RASTERVARIABLES
  5
152
102
{ACAD_REACTORS
330
C
102
}
330
C
100
AcDbRasterVariables
 90
        0
 70
     1
 71
     1
 72
     1
  0
DICTIONARY
  5
1A
102
{ACAD_REACTORS
330
C
102
}
330
C
100
AcDbDictionary
281
     1
  3
Layout1
350
1E
  3
Layout2
350
26
  3
Model
350
22
  0
DICTIONARY
  5
17
102
{ACAD_REACTORS
330
C
102
}
330
C
100
AcDbDictionary
281
     1
  3
Standard
350
18
  0
DICTIONARY
  5
19
102
{ACAD_REACTORS
330
C
102
}
330
C
100
AcDbDictionary
281
     1
  0
ACDBDICTIONARYWDFLT
  5
E
102
{ACAD_REACTORS
330
C
102
}
330
C
100
AcDbDictionary
281
     1
  3
Normal
350
F
100
AcDbDictionaryWithDefault
340
F
  0
DICTIONARY
  5
47
102
{ACAD_REACTORS
330
C
102
}
330
C
100
AcDbDictionary
281
     1
  3
A0
350
48
  3
A1
350
49
  3
A2
350
4A
  3
A3
350
4B
  3
A4
350
4C
  3
A5
350
4D
  3
A6
350
4E
  3
A7
350
4F
  3
A8
350
50
  3
A9
350
51
  3
B0
350
52
  3
B1
350
53
  3
B2
350
54
  3
B3
350
55
  3
B4
350
56
  3
B5
350
57
  3
B6
350
58
  3
B7
350
59
  3
B8
350
5A
  3
B9
350
5B
  3
C0
350
5C
  3
C1
350
5D
  3
C2
350
5E
  3
C3
350
5F
  3
C4
350
60
  3
C5
350
61
  3
C6
350
62
  3
C7
350
63
  3
C8
350
64
  3
C9
350
65
  3
D0
350
66
  3
D1
350
67
  3
D2
350
68
  0
DICTIONARY
  5
150
102
{ACAD_REACTORS
330
C
102
}
330
C
100
AcDbDictionary
281
     1
  0
XRECORD
  5
182
102
{ACAD_REACTORS
330
C
102
}
330
C
100
AcDbXrecord
280
     1
  1
DWGPROPS COOKIE
  2

  3

  4

  6

  7

  8
12014102
  9

300
=
301
=
302
=
303
=
304
=
305
=
306
=
307
=
308
=
309
=
 40
0.0
 41
2458262.159784202
 42
2458264.39705235
  1

 90
        0
  0
LAYOUT
  5
1E
102
{ACAD_REACTORS
330
1A
102
}
330
1A
100
AcDbPlotSettings
  1

  2
none_device
  4

  6

 40
0.0
 41
0.0
 42
0.0
 43
0.0
 44
0.0
 45
0.0
 46
0.0
 47
0.0
 48
0.0
 49
0.0
140
0.0
141
0.0
142
1.0
143
1.0
 70
   688
 72
     1
 73
     0
 74
     5
  7

 75
    16
147
1.0
148
0.0
149
0.0
100
AcDbLayout
  1
Layout1
 70
     1
 71
     1
 10
0.0
 20
0.0
 11
420.0
 21
297.0
 12
0.0
 22
0.0
 32
0.0
 14
1.000000000000000E+20
 24
1.000000000000000E+20
 34
1.000000000000000E+20
 15
-1.000000000000000E+20
 25
-1.000000000000000E+20
 35
-1.000000000000000E+20
146
0.0
 13
0.0
 23
0.0
 33
0.0
 16
1.0
 26
0.0
 36
0.0
 17
0.0
 27
1.0
 37
0.0
 76
     0
330
1B
  0
LAYOUT
  5
26
102
{ACAD_REACTORS
330
1A
102
}
330
1A
100
AcDbPlotSettings
  1

  2
none_device
  4

  6

 40
0.0
 41
0.0
 42
0.0
 43
0.0
 44
0.0
 45
0.0
 46
0.0
 47
0.0
 48
0.0
 49
0.0
140
0.0
141
0.0
142
1.0
143
1.0
 70
   688
 72
     1
 73
     0
 74
     5
  7

 75
    16
147
1.0
148
0.0
149
0.0
100
AcDbLayout
  1
Layout2
 70
     1
 71
     2
 10
0.0
 20
0.0
 11
0.0
 21
0.0
 12
0.0
 22
0.0
 32
0.0
 14
0.0
 24
0.0
 34
0.0
 15
0.0
 25
0.0
 35
0.0
146
0.0
 13
0.0
 23
0.0
 33
0.0
 16
1.0
 26
0.0
 36
0.0
 17
0.0
 27
1.0
 37
0.0
 76
     0
330
23
  0
LAYOUT
  5
22
102
{ACAD_REACTORS
330
1A
102
}
330
1A
100
AcDbPlotSettings
  1

  2
none_device
  4
ANSI_A_(11.00_x_8.50_Inches)
  6

 40
6.35
 41
19.05
 42
6.35000508
 43
19.05000254
 44
279.4
 45
215.9
 46
140.3855766617817
 47
118.4377884955873
 48
0.0
 49
0.0
140
0.0
141
0.0
142
0.1058944507156154
143
1.0
 70
  1696
 72
     0
 73
     0
 74
     0
  7

 75
     0
147
0.0235690232323232
148
0.0
149
0.0
100
AcDbLayout
  1
Model
 70
     1
 71
     0
 10
0.0
 20
0.0
 11
420.0
 21
297.0
 12
0.0
 22
0.0
 32
0.0
 14
-48.83643616358487
 24
-49.97073246008785
 34
0.0
 15
38.23015497000892
 25
28.61341044024269
 35
0.0
146
0.0
 13
0.0
 23
0.0
 33
0.0
 16
1.0
 26
0.0
 36
0.0
 17
0.0
 27
1.0
 37
0.0
 76
     0
330
1F
331
29
  0
MLINESTYLE
  5
18
102
{ACAD_REACTORS
330
17
102
}
330
17
100
AcDbMlineStyle
  2
Standard
 70
     0
  3

 62
   256
 51
90.0
 52
90.0
 71
     2
 49
0.5
 62
   256
  6
BYLAYER
 49
-0.5
 62
   256
  6
BYLAYER
  0
ACDBPLACEHOLDER
  5
F
102
{ACAD_REACTORS
330
E
102
}
330
E
  0
SCALE
  5
48
102
{ACAD_REACTORS
330
47
102
}
330
47
100
AcDbScale
 70
     0
300
1:1
140
1.0
141
1.0
290
     1
  0
SCALE
  5
49
102
{ACAD_REACTORS
330
47
102
}
330
47
100
AcDbScale
 70
     0
300
1:2
140
1.0
141
2.0
290
     0
  0
SCALE
  5
4A
102
{ACAD_REACTORS
330
47
102
}
330
47
100
AcDbScale
 70
     0
300
1:4
140
1.0
141
4.0
290
     0
  0
SCALE
  5
4B
102
{ACAD_REACTORS
330
47
102
}
330
47
100
AcDbScale
 70
     0
300
1:5
140
1.0
141
5.0
290
     0
  0
SCALE
  5
4C
102
{ACAD_REACTORS
330
47
102
}
330
47
100
AcDbScale
 70
     0
300
1:8
140
1.0
141
8.0
290
     0
  0
SCALE
  5
4D
102
{ACAD_REACTORS
330
47
102
}
330
47
100
AcDbScale
 70
     0
300
1:10
140
1.0
141
10.0
290
     0
  0
SCALE
  5
4E
102
{ACAD_REACTORS
330
47
102
}
330
47
100
AcDbScale
 70
     0
300
1:16
140
1.0
141
16.0
290
     0
  0
SCALE
  5
4F
102
{ACAD_REACTORS
330
47
102
}
330
47
100
AcDbScale
 70
     0
300
1:20
140
1.0
141
20.0
290
     0
  0
SCALE
  5
50
102
{ACAD_REACTORS
330
47
102
}
330
47
100
AcDbScale
 70
     0
300
1:30
140
1.0
141
30.0
290
     0
  0
SCALE
  5
51
102
{ACAD_REACTORS
330
47
102
}
330
47
100
AcDbScale
 70
     0
300
1:40
140
1.0
141
40.0
290
     0
  0
SCALE
  5
52
102
{ACAD_REACTORS
330
47
102
}
330
47
100
AcDbScale
 70
     0
300
1:50
140
1.0
141
50.0
290
     0
  0
SCALE
  5
53
102
{ACAD_REACTORS
330
47
102
}
330
47
100
AcDbScale
 70
     0
300
1:100
140
1.0
141
100.0
290
     0
  0
SCALE
  5
54
102
{ACAD_REACTORS
330
47
102
}
330
47
100
AcDbScale
 70
     0
300
2:1
140
2.0
141
1.0
290
     0
  0
SCALE
  5
55
102
{ACAD_REACTORS
330
47
102
}
330
47
100
AcDbScale
 70
     0
300
4:1
140
4.0
141
1.0
290
     0
  0
SCALE
  5
56
102
{ACAD_REACTORS
330
47
102
}
330
47
100
AcDbScale
 70
     0
300
8:1
140
8.0
141
1.0
290
     0
  0
SCALE
  5
57
102
{ACAD_REACTORS
330
47
102
}
330
47
100
AcDbScale
 70
     0
300
10:1
140
10.0
141
1.0
290
     0
  0
SCALE
  5
58
102
{ACAD_REACTORS
330
47
102
}
330
47
100
AcDbScale
 70
     0
300
100:1
140
100.0
141
1.0
290
     0
  0
SCALE
  5
59
102
{ACAD_REACTORS
330
47
102
}
330
47
100
AcDbScale
 70
     0
300
1/128" = 1'-0"
140
0.0078125
141
12.0
290
     0
  0
SCALE
  5
5A
102
{ACAD_REACTORS
330
47
102
}
330
47
100
AcDbScale
 70
     0
300
1/64" = 1'-0"
140
0.015625
141
12.0
290
     0
  0
SCALE
  5
5B
102
{ACAD_REACTORS
330
47
102
}
330
47
100
AcDbScale
 70
     0
300
1/32" = 1'-0"
140
0.03125
141
12.0
290
     0
  0
SCALE
  5
5C
102
{ACAD_REACTORS
330
47
102
}
330
47
100
AcDbScale
 70
     0
300
1/16" = 1'-0"
140
0.0625
141
12.0
290
     0
  0
SCALE
  5
5D
102
{ACAD_REACTORS
330
47
102
}
330
47
100
AcDbScale
 70
     0
300
3/32" = 1'-0"
140
0.09375
141
12.0
290
     0
  0
SCALE
  5
5E
102
{ACAD_REACTORS
330
47
102
}
330
47
100
AcDbScale
 70
     0
300
1/8" = 1'-0"
140
0.125
141
12.0
290
     0
  0
SCALE
  5
5F
102
{ACAD_REACTORS
330
47
102
}
330
47
100
AcDbScale
 70
     0
300
3/16" = 1'-0"
140
0.1875
141
12.0
290
     0
  0
SCALE
  5
60
102
{ACAD_REACTORS
330
47
102
}
330
47
100
AcDbScale
 70
     0
300
1/4" = 1'-0"
140
0.25
141
12.0
290
     0
  0
SCALE
  5
61
102
{ACAD_REACTORS
330
47
102
}
330
47
100
AcDbScale
 70
     0
300
3/8" = 1'-0"
140
0.375
141
12.0
290
     0
  0
SCALE
  5
62
102
{ACAD_REACTORS
330
47
102
}
330
47
100
AcDbScale
 70
     0
300
1/2" = 1'-0"
140
0.5
141
12.0
290
     0
  0
SCALE
  5
63
102
{ACAD_REACTORS
330
47
102
}
330
47
100
AcDbScale
 70
     0
300
3/4" = 1'-0"
140
0.75
141
12.0
290
     0
  0
SCALE
  5
64
102
{ACAD_REACTORS
330
47
102
}
330
47
100
AcDbScale
 70
     0
300
1" = 1'-0"
140
1.0
141
12.0
290
     0
  0
SCALE
  5
65
102
{ACAD_REACTORS
330
47
102
}
330
47
100
AcDbScale
 70
     0
300
1-1/2" = 1'-0"
140
1.5
141
12.0
290
     0
  0
SCALE
  5
66
102
{ACAD_REACTORS
330
47
102
}
330
47
100
AcDbScale
 70
     0
300
3" = 1'-0"
140
3.0
141
12.0
290
     0
  0
SCALE
  5
67
102
{ACAD_REACTORS
330
47
102
}
330
47
100
AcDbScale
 70
     0
300
6" = 1'-0"
140
6.0
141
12.0
290
     0
  0
SCALE
  5
68
102
{ACAD_REACTORS
330
47
102
}
330
47
100
AcDbScale
 70
     0
300
1'-0" = 1'-0"
140
12.0
141
12.0
290
     0
  0
ENDSEC
  0
EOF
