  0
SECTION
  2
HEADER
  9
$ACADVER
  1
AC1015
  9
$ACADMAINTVER
 70
     6
  9
$DWGCODEPAGE
  3
ANSI_949
  9
$INSBASE
 10
0.0
 20
0.0
 30
0.0
  9
$EXTMIN
 10
-49.57121709367616
 20
-49.97073246008785
 30
0.0
  9
$EXTMAX
 10
35.31923157208237
 20
28.61341044024268
 30
0.0
  9
$LIMMIN
 10
0.0
 20
0.0
  9
$LIMMAX
 10
420.0
 20
297.0
  9
$ORTHOMODE
 70
     0
  9
$REGENMODE
 70
     1
  9
$FILLMODE
 70
     1
  9
$QTEXTMODE
 70
     0
  9
$MIRRTEXT
 70
     1
  9
$LTSCALE
 40
1.0
  9
$ATTMODE
 70
     1
  9
$TEXTSIZE
 40
3.5
  9
$TRACEWID
 40
1.0
  9
$TEXTSTYLE
  7
Standard
  9
$CLAYER
  8
0
  9
$CELTYPE
  6
ByLayer
  9
$CECOLOR
 62
   256
  9
$CELTSCALE
 40
1.0
  9
$DISPSILH
 70
     0
  9
$DIMSCALE
 40
1.0
  9
$DIMASZ
 40
3.302
  9
$DIMEXO
 40
1.0
  9
$DIMDLI
 40
3.75
  9
$DIMRND
 40
0.0
  9
$DIMDLE
 40
0.0
  9
$DIMEXE
 40
1.0
  9
$DIMTP
 40
0.0
  9
$DIMTM
 40
0.0
  9
$DIMTXT
 40
3.5
  9
$DIMCEN
 40
2.5
  9
$DIMTSZ
 40
0.0
  9
$DIMTOL
 70
     0
  9
$DIMLIM
 70
     0
  9
$DIMTIH
 70
     1
  9
$DIMTOH
 70
     1
  9
$DIMSE1
 70
     0
  9
$DIMSE2
 70
     0
  9
$DIMTAD
 70
     1
  9
$DIMZIN
 70
     0
  9
$DIMBLK
  1

  9
$DIMASO
 70
     1
  9
$DIMSHO
 70
     1
  9
$DIMPOST
  1

  9
$DIMAPOST
  1

  9
$DIMALT
 70
     0
  9
$DIMALTD
 70
     3
  9
$DIMALTF
 40
0.0393700787401575
  9
$DIMLFAC
 40
1.0
  9
$DIMTOFL
 70
     1
  9
$DIMTVP
 40
0.0
  9
$DIMTIX
 70
     0
  9
$DIMSOXD
 70
     0
  9
$DIMSAH
 70
     0
  9
$DIMBLK1
  1

  9
$DIMBLK2
  1

  9
$DIMSTYLE
  2
ISO-25
  9
$DIMCLRD
 70
     0
  9
$DIMCLRE
 70
     0
  9
$DIMCLRT
 70
     0
  9
$DIMTFAC
 40
1.0
  9
$DIMGAP
 40
1.524
  9
$DIMJUST
 70
     0
  9
$DIMSD1
 70
     0
  9
$DIMSD2
 70
     0
  9
$DIMTOLJ
 70
     0
  9
$DIMTZIN
 70
     0
  9
$DIMALTZ
 70
     0
  9
$DIMALTTZ
 70
     0
  9
$DIMUPT
 70
     0
  9
$DIMDEC
 70
     2
  9
$DIMTDEC
 70
     2
  9
$DIMALTU
 70
     2
  9
$DIMALTTD
 70
     3
  9
$DIMTXSTY
  7
Standard
  9
$DIMAUNIT
 70
     0
  9
$DIMADEC
 70
     2
  9
$DIMALTRND
 40
0.0
  9
$DIMAZIN
 70
     0
  9
$DIMDSEP
 70
    44
  9
$DIMATFIT
 70
     3
  9
$DIMFRAC
 70
     0
  9
$DIMLDRBLK
  1

  9
$DIMLUNIT
 70
     2
  9
$DIMLWD
 70
    -2
  9
$DIMLWE
 70
    -2
  9
$DIMTMOVE
 70
     0
  9
$LUNITS
 70
     2
  9
$LUPREC
 70
     2
  9
$SKETCHINC
 40
1.0
  9
$FILLETRAD
 40
10.0
  9
$AUNITS
 70
     0
  9
$AUPREC
 70
     2
  9
$MENU
  1
.
  9
$ELEVATION
 40
0.0
  9
$PELEVATION
 40
0.0
  9
$THICKNESS
 40
0.0
  9
$LIMCHECK
 70
     0
  9
$CHAMFERA
 40
0.0
  9
$CHAMFERB
 40
0.0
  9
$CHAMFERC
 40
0.0
  9
$CHAMFERD
 40
0.0
  9
$SKPOLY
 70
     0
  9
$TDCREATE
 40
2458262.535534757
  9
$TDUCREATE
 40
2458262.160534757
  9
$TDUPDATE
 40
2458264.794043866
  9
$TDUUPDATE
 40
2458264.419043866
  9
$TDINDWG
 40
0.0024071528
  9
$TDUSRTIMER
 40
2458264.41835507
  9
$USRTIMER
 70
     1
  9
$ANGBASE
 50
0.0
  9
$ANGDIR
 70
     0
  9
$PDMODE
 70
     0
  9
$PDSIZE
 40
-1.0
  9
$PLINEWID
 40
0.0
  9
$SPLFRAME
 70
     0
  9
$SPLINETYPE
 70
     6
  9
$SPLINESEGS
 70
     8
  9
$HANDSEED
  5
19B
  9
$SURFTAB1
 70
     6
  9
$SURFTAB2
 70
     6
  9
$SURFTYPE
 70
     6
  9
$SURFU
 70
     6
  9
$SURFV
 70
     6
  9
$UCSBASE
  2

  9
$UCSNAME
  2

  9
$UCSORG
 10
0.0
 20
0.0
 30
0.0
  9
$UCSXDIR
 10
1.0
 20
0.0
 30
0.0
  9
$UCSYDIR
 10
0.0
 20
1.0
 30
0.0
  9
$UCSORTHOREF
  2

  9
$UCSORTHOVIEW
 70
     0
  9
$UCSORGTOP
 10
0.0
 20
0.0
 30
0.0
  9
$UCSORGBOTTOM
 10
0.0
 20
0.0
 30
0.0
  9
$UCSORGLEFT
 10
0.0
 20
0.0
 30
0.0
  9
$UCSORGRIGHT
 10
0.0
 20
0.0
 30
0.0
  9
$UCSORGFRONT
 10
0.0
 20
0.0
 30
0.0
  9
$UCSORGBACK
 10
0.0
 20
0.0
 30
0.0
  9
$PUCSBASE
  2

  9
$PUCSNAME
  2

  9
$PUCSORG
 10
0.0
 20
0.0
 30
0.0
  9
$PUCSXDIR
 10
1.0
 20
0.0
 30
0.0
  9
$PUCSYDIR
 10
0.0
 20
1.0
 30
0.0
  9
$PUCSORTHOREF
  2

  9
$PUCSORTHOVIEW
 70
     0
  9
$PUCSORGTOP
 10
0.0
 20
0.0
 30
0.0
  9
$PUCSORGBOTTOM
 10
0.0
 20
0.0
 30
0.0
  9
$PUCSORGLEFT
 10
0.0
 20
0.0
 30
0.0
  9
$PUCSORGRIGHT
 10
0.0
 20
0.0
 30
0.0
  9
$PUCSORGFRONT
 10
0.0
 20
0.0
 30
0.0
  9
$PUCSORGBACK
 10
0.0
 20
0.0
 30
0.0
  9
$USERI1
 70
     0
  9
$USERI2
 70
     0
  9
$USERI3
 70
     0
  9
$USERI4
 70
     0
  9
$USERI5
 70
     0
  9
$USERR1
 40
0.0
  9
$USERR2
 40
0.0
  9
$USERR3
 40
0.0
  9
$USERR4
 40
0.0
  9
$USERR5
 40
0.0
  9
$WORLDVIEW
 70
     1
  9
$SHADEDGE
 70
     3
  9
$SHADEDIF
 70
    70
  9
$TILEMODE
 70
     1
  9
$MAXACTVP
 70
    64
  9
$PINSBASE
 10
0.0
 20
0.0
 30
0.0
  9
$PLIMCHECK
 70
     0
  9
$PEXTMIN
 10
1.000000000000000E+20
 20
1.000000000000000E+20
 30
1.000000000000000E+20
  9
$PEXTMAX
 10
-1.000000000000000E+20
 20
-1.000000000000000E+20
 30
-1.000000000000000E+20
  9
$PLIMMIN
 10
0.0
 20
0.0
  9
$PLIMMAX
 10
0.0
 20
0.0
  9
$UNITMODE
 70
     0
  9
$VISRETAIN
 70
     1
  9
$PLINEGEN
 70
     0
  9
$PSLTSCALE
 70
     1
  9
$TREEDEPTH
 70
  3020
  9
$CMLSTYLE
  2
Standard
  9
$CMLJUST
 70
     0
  9
$CMLSCALE
 40
20.0
  9
$PROXYGRAPHICS
 70
     1
  9
$MEASUREMENT
 70
     1
  9
$CELWEIGHT
370
    -1
  9
$ENDCAPS
280
     0
  9
$JOINSTYLE
280
     0
  9
$LWDISPLAY
290
     1
  9
$INSUNITS
 70
     4
  9
$HYPERLINKBASE
  1

  9
$STYLESHEET
  1

  9
$XEDIT
290
     1
  9
$CEPSNTYPE
380
     0
  9
$PSTYLEMODE
290
     1
  9
$FINGERPRINTGUID
  2
{6FCC8868-4F99-453A-981B-EEBD6B3FF327}
  9
$VERSIONGUID
  2
{FAEB1C32-E019-11D5-929B-00C0DF256EC4}
  9
$EXTNAMES
290
     1
  9
$PSVPSCALE
 40
0.0
  9
$OLESTARTUP
290
     0
  0
ENDSEC
  0
SECTION
  2
CLASSES
  0
CLASS
  1
ACDBDICTIONARYWDFLT
  2
AcDbDictionaryWithDefault
  3
ObjectDBX Classes
 90
        0
280
     0
281
     0
  0
CLASS
  1
VISUALSTYLE
  2
AcDbVisualStyle
  3
ObjectDBX Classes
 90
     4095
280
     0
281
     0
  0
CLASS
  1
MATERIAL
  2
AcDbMaterial
  3
ObjectDBX Classes
 90
     1153
280
     0
281
     0
  0
CLASS
  1
SCALE
  2
AcDbScale
  3
ObjectDBX Classes
 90
     1153
280
     0
281
     0
  0
CLASS
  1
SUN
  2
AcDbSun
  3
SCENEOE
 90
     1153
280
     0
281
     0
  0
CLASS
  1
ACDBPLACEHOLDER
  2
AcDbPlaceHolder
  3
ObjectDBX Classes
 90
        0
280
     0
281
     0
  0
CLASS
  1
LAYOUT
  2
AcDbLayout
  3
ObjectDBX Classes
 90
        0
280
     0
281
     0
  0
CLASS
  1
TABLESTYLE
  2
AcDbTableStyle
  3
ObjectDBX Classes
 90
     4095
280
     0
281
     0
  0
CLASS
  1
MLEADERSTYLE
  2
AcDbMLeaderStyle
  3
ACDB_MLEADERSTYLE_CLASS
 90
     4095
280
     0
281
     0
  0
CLASS
  1
RASTERVARIABLES
  2
AcDbRasterVariables
  3
ISM
 90
        0
280
     0
281
     0
  0
ENDSEC
  0
SECTION
  2
TABLES
  0
TABLE
  2
VPORT
  5
8
330
0
100
AcDbSymbolTable
 70
     1
  0
VPORT
  5
29
330
8
100
AcDbSymbolTableRecord
100
AcDbViewportTableRecord
  2
*Active
 70
     0
 10
0.0
 20
0.0
 11
1.0
 21
1.0
 12
-7.12599276079689
 22
-10.67866100992259
 13
0.0
 23
0.0
 14
10.0
 24
10.0
 15
10.0
 25
10.0
 16
0.0
 26
0.0
 36
1.0
 17
0.0
 27
0.0
 37
0.0
 40
80.15582575833714
 41
1.730423620025674
 42
50.0
 43
0.0
 44
0.0
 50
0.0
 51
0.0
 71
    16
 72
  2000
 73
     1
 74
     3
 75
     0
 76
     0
 77
     0
 78
     0
281
     0
 65
     1
110
0.0
120
0.0
130
0.0
111
1.0
121
0.0
131
0.0
112
0.0
122
1.0
132
0.0
 79
     0
146
0.0
  0
ENDTAB
  0
TABLE
  2
LTYPE
  5
5
330
0
100
AcDbSymbolTable
 70
     6
  0
LTYPE
  5
14
330
5
100
AcDbSymbolTableRecord
100
AcDbLinetypeTableRecord
  2
ByBlock
 70
     0
  3

 72
    65
 73
     0
 40
0.0
  0
LTYPE
  5
15
330
5
100
AcDbSymbolTableRecord
100
AcDbLinetypeTableRecord
  2
ByLayer
 70
     0
  3

 72
    65
 73
     0
 40
0.0
  0
LTYPE
  5
16
330
5
100
AcDbSymbolTableRecord
100
AcDbLinetypeTableRecord
  2
Continuous
 70
     0
  3
Solid line
 72
    65
 73
     0
 40
0.0
  0
LTYPE
  5
6A
330
5
100
AcDbSymbolTableRecord
100
AcDbLinetypeTableRecord
  2
HIDDEN
 70
     0
  3
Hidden __ __ __ __ __ __ __ __ __ __ __ __ __ __
 72
    65
 73
     2
 40
1.905
 49
1.27
 74
     0
 49
-0.635
 74
     0
  0
LTYPE
  5
6B
330
5
100
AcDbSymbolTableRecord
100
AcDbLinetypeTableRecord
  2
PHANTOM
 70
     0
  3
Phantom ______  __  __  ______  __  __  ______
 72
    65
 73
     6
 40
12.7
 49
6.35
 74
     0
 49
-1.27
 74
     0
 49
1.27
 74
     0
 49
-1.27
 74
     0
 49
1.27
 74
     0
 49
-1.27
 74
     0
  0
LTYPE
  5
6C
330
5
100
AcDbSymbolTableRecord
100
AcDbLinetypeTableRecord
  2
CENTER
 70
     0
  3
Center ____ _ ____ _ ____ _ ____ _ ____ _ ____
 72
    65
 73
     4
 40
10.16
 49
6.35
 74
     0
 49
-1.27
 74
     0
 49
1.27
 74
     0
 49
-1.27
 74
     0
  0
LTYPE
  5
6D
330
5
100
AcDbSymbolTableRecord
100
AcDbLinetypeTableRecord
  2
CENTERX2
 70
     0
  3
Center (2x) ________  __  ________  __  _____
 72
    65
 73
     4
 40
20.32
 49
12.7
 74
     0
 49
-2.54
 74
     0
 49
2.54
 74
     0
 49
-2.54
 74
     0
  0
LTYPE
  5
6E
330
5
100
AcDbSymbolTableRecord
100
AcDbLinetypeTableRecord
  2
DOT2
 70
     0
  3
Dot (.5x) ........................................
 72
    65
 73
     2
 40
0.635
 49
0.0
 74
     0
 49
-0.635
 74
     0
  0
ENDTAB
  0
TABLE
  2
LAYER
  5
2
330
0
100
AcDbSymbolTable
 70
    17
  0
LAYER
  5
10
330
2
100
AcDbSymbolTableRecord
100
AcDbLayerTableRecord
  2
0
 70
     0
 62
     7
  6
Continuous
370
    -3
390
F
  0
LAYER
  5
6F
330
2
100
AcDbSymbolTableRecord
100
AcDbLayerTableRecord
  2
FORMAT
 70
     0
 62
     2
  6
Continuous
370
    -3
390
F
  0
LAYER
  5
70
330
2
100
AcDbSymbolTableRecord
100
AcDbLayerTableRecord
  2
외형선
 70
     0
 62
   100
  6
Continuous
370
    30
390
F
  0
LAYER
  5
71
330
2
100
AcDbSymbolTableRecord
100
AcDbLayerTableRecord
  2
숨은선
 70
     0
 62
     2
  6
HIDDEN
370
    15
390
F
  0
LAYER
  5
72
330
2
100
AcDbSymbolTableRecord
100
AcDbLayerTableRecord
  2
중심선
 70
     0
 62
     1
  6
CENTERX2
370
    -3
390
F
  0
LAYER
  5
73
330
2
100
AcDbSymbolTableRecord
100
AcDbLayerTableRecord
  2
파단선
 70
     0
 62
     4
  6
Continuous
370
    -3
390
F
  0
LAYER
  5
74
330
2
100
AcDbSymbolTableRecord
100
AcDbLayerTableRecord
  2
해칭선
 70
     0
 62
     4
  6
Continuous
370
    -3
390
F
  0
LAYER
  5
75
330
2
100
AcDbSymbolTableRecord
100
AcDbLayerTableRecord
  2
가는실선
 70
     0
 62
     4
  6
Continuous
370
    -3
390
F
  0
LAYER
  5
76
330
2
100
AcDbSymbolTableRecord
100
AcDbLayerTableRecord
  2
치수_보조선
 70
     0
 62
     4
  6
Continuous
370
    -3
390
F
  0
LAYER
  5
77
330
2
100
AcDbSymbolTableRecord
100
AcDbLayerTableRecord
  2
치수문자_일반주서
 70
     0
 62
     7
  6
Continuous
370
    15
390
F
  0
LAYER
  5
78
330
2
100
AcDbSymbolTableRecord
100
AcDbLayerTableRecord
  2
개별주서
 70
     0
 62
   100
  6
Continuous
370
    30
390
F
  0
LAYER
  5
79
330
2
100
AcDbSymbolTableRecord
100
AcDbLayerTableRecord
  2
중간선
 70
     0
 62
     2
  6
Continuous
370
    15
390
F
  0
LAYER
  5
7A
330
2
100
AcDbSymbolTableRecord
100
AcDbLayerTableRecord
  2
윤곽선
 70
     0
 62
     3
  6
Continuous
370
    40
390
F
  0
LAYER
  5
7B
330
2
100
AcDbSymbolTableRecord
100
AcDbLayerTableRecord
  2
중심마크
 70
     0
 62
   100
  6
Continuous
370
    30
390
F
  0
LAYER
  5
7C
330
2
100
AcDbSymbolTableRecord
100
AcDbLayerTableRecord
  2
가상선
 70
     0
 62
     4
  6
PHANTOM
370
    -3
390
F
  0
LAYER
  5
7D
330
2
100
AcDbSymbolTableRecord
100
AcDbLayerTableRecord
  2
특수지정선
 70
     0
 62
     5
  6
CENTERX2
370
    60
390
F
  0
LAYER
  5
147
330
2
100
AcDbSymbolTableRecord
100
AcDbLayerTableRecord
  2
Defpoints
 70
     0
 62
     7
  6
Continuous
290
     0
370
    -3
390
F
  0
ENDTAB
  0
TABLE
  2
STYLE
  5
3
330
0
100
AcDbSymbolTable
 70
     2
  0
STYLE
  5
11
330
3
100
AcDbSymbolTableRecord
100
AcDbTextStyleTableRecord
  2
Standard
 70
     0
 40
0.0
 41
1.0
 50
0.0
 71
     0
 42
3.5
  3
txt
  4

  0
STYLE
  5
93
330
3
100
AcDbSymbolTableRecord
100
AcDbTextStyleTableRecord
  2
SLDTEXTSTYLE0
 70
     0
 40
0.0
 41
0.75
 50
0.0
 71
     0
 42
3.5
  3
TXT
  4

  0
ENDTAB
  0
TABLE
  2
VIEW
  5
6
330
0
100
AcDbSymbolTable
 70
     0
  0
ENDTAB
  0
TABLE
  2
UCS
  5
7
330
0
100
AcDbSymbolTable
 70
     0
  0
ENDTAB
  0
TABLE
  2
APPID
  5
9
330
0
100
AcDbSymbolTable
 70
     1
  0
APPID
  5
12
330
9
100
AcDbSymbolTableRecord
100
AcDbRegAppTableRecord
  2
ACAD
 70
     0
  0
ENDTAB
  0
TABLE
  2
DIMSTYLE
  5
A
330
0
100
AcDbSymbolTable
 70
     3
100
AcDbDimStyleTable
  0
DIMSTYLE
105
27
330
A
100
AcDbSymbolTableRecord
100
AcDbDimStyleTableRecord
  2
ISO-25
 70
     0
 41
2.5
 42
0.625
 43
3.75
 44
1.25
 73
     0
 74
     0
 77
     1
 78
     8
140
2.5
141
2.5
143
0.03937007874016
147
0.625
171
     3
172
     1
178
     0
271
     2
272
     2
274
     3
278
    44
283
     0
284
     8
340
11
  0
DIMSTYLE
105
EB
102
{ACAD_REACTORS
330
EA
330
103
330
10F
102
}
330
A
100
AcDbSymbolTableRecord
100
AcDbDimStyleTableRecord
  2
SLDDIMSTYLE0
 70
     0
 41
3.302
 44
0.0
 45
0.000000001
 73
     0
 74
     0
 77
     1
 78
    12
 79
     3
140
3.5
147
0.875
172
     1
173
     1
178
     0
271
     2
272
     2
276
     2
284
    12
289
     0
340
93
  0
DIMSTYLE
105
F9
102
{ACAD_REACTORS
330
F8
102
}
330
A
100
AcDbSymbolTableRecord
100
AcDbDimStyleTableRecord
  2
SLDDIMSTYLE1
 70
     0
 41
3.302
 44
0.0
 45
0.000000001
 73
     0
 74
     0
 77
     1
 78
    12
 79
     3
140
3.5
147
0.875
173
     1
178
     0
271
     2
272
     2
276
     2
284
    12
340
93
  0
ENDTAB
  0
TABLE
  2
BLOCK_RECORD
  5
1
330
0
100
AcDbSymbolTable
 70
     7
  0
BLOCK_RECORD
  5
1F
330
1
100
AcDbSymbolTableRecord
100
AcDbBlockTableRecord
  2
*Model_Space
340
22
  0
BLOCK_RECORD
  5
1B
330
1
100
AcDbSymbolTableRecord
100
AcDbBlockTableRecord
  2
*Paper_Space
340
1E
  0
BLOCK_RECORD
  5
23
330
1
100
AcDbSymbolTableRecord
100
AcDbBlockTableRecord
  2
*Paper_Space0
340
26
  0
BLOCK_RECORD
  5
7E
330
1
100
AcDbSymbolTableRecord
100
AcDbBlockTableRecord
  2
블럭10
340
0
102
{BLKREFS
331
E3
102
}
  0
BLOCK_RECORD
  5
EC
330
1
100
AcDbSymbolTableRecord
100
AcDbBlockTableRecord
  2
_D
340
0
  0
BLOCK_RECORD
  5
FA
330
1
100
AcDbSymbolTableRecord
100
AcDbBlockTableRecord
  2
_D_1
340
0
  0
BLOCK_RECORD
  5
104
330
1
100
AcDbSymbolTableRecord
100
AcDbBlockTableRecord
  2
_D_2
340
0
  0
BLOCK_RECORD
  5
110
330
1
100
AcDbSymbolTableRecord
100
AcDbBlockTableRecord
  2
_D_3
340
0
  0
BLOCK_RECORD
  5
11C
330
1
100
AcDbSymbolTableRecord
100
AcDbBlockTableRecord
  2
SW_DOWELSYMBOL_0
340
0
102
{BLKREFS
331
122
102
}
  0
ENDTAB
  0
ENDSEC
  0
SECTION
  2
BLOCKS
  0
BLOCK
  5
20
330
1F
100
AcDbEntity
  8
0
100
AcDbBlockBegin
  2
*Model_Space
 70
     0
 10
0.0
 20
0.0
 30
0.0
  3
*Model_Space
  1

  0
ENDBLK
  5
21
330
1F
100
AcDbEntity
  8
0
100
AcDbBlockEnd
  0
BLOCK
  5
1C
330
1B
100
AcDbEntity
 67
     1
  8
0
100
AcDbBlockBegin
  2
*Paper_Space
 70
     0
 10
0.0
 20
0.0
 30
0.0
  3
*Paper_Space
  1

  0
ENDBLK
  5
1D
330
1B
100
AcDbEntity
 67
     1
  8
0
100
AcDbBlockEnd
  0
BLOCK
  5
24
330
23
100
AcDbEntity
  8
0
100
AcDbBlockBegin
  2
*Paper_Space0
 70
     0
 10
0.0
 20
0.0
 30
0.0
  3
*Paper_Space0
  1

  0
ENDBLK
  5
25
330
23
100
AcDbEntity
  8
0
100
AcDbBlockEnd
  0
BLOCK
  5
7F
330
7E
100
AcDbEntity
  8
0
100
AcDbBlockBegin
  2
블럭10
 70
     2
 10
0.0
 20
0.0
 30
0.0
  3
블럭10
  1

  0
ELLIPSE
  5
81
330
7E
100
AcDbEntity
  8
중심선
100
AcDbEllipse
 10
20.54032771741204
 20
12.0471743016438
 30
0.0
 11
6.600054785286829
 21
-1.261213355974178E-13
 31
0.0
210
0.0
220
0.0
230
1.0
 40
0.636358354079598
 41
0.9219305317359503
 42
6.513795318482858
  0
ELLIPSE
  5
82
330
7E
100
AcDbEntity
  8
중심선
100
AcDbEllipse
 10
20.54032771746488
 20
12.04717430159265
 30
0.0
 11
3.960054785062283
 21
1.540847449632565E-10
 31
0.0
210
0.0
220
0.0
230
1.0
 40
0.3939339440162632
 41
1.131841032648279
 42
5.62031148352944
  0
LINE
  5
83
330
7E
100
AcDbEntity
  8
중심선
100
AcDbLine
 10
2.268634060543552
 20
16.24717430164393
 30
0.0
 11
5.714909304380834
 21
16.24717430164393
 31
0.0
  0
LINE
  5
84
330
7E
100
AcDbEntity
  8
중심선
100
AcDbLine
 10
5.245725140726316
 20
7.84717430164391
 30
0.0
 11
8.692000384563599
 21
7.84717430164391
 31
0.0
  0
LINE
  5
85
330
7E
100
AcDbEntity
  8
중심선
100
AcDbLine
 10
15.74043728645272
 20
16.24717430164393
 30
0.0
 11
8.692000384563599
 21
7.84717430164391
 31
0.0
  0
LINE
  5
86
330
7E
100
AcDbEntity
  8
중심선
100
AcDbLine
 10
0.1404042013395286
 20
13.71084872107135
 30
0.0
 11
3.58671253028996
 21
13.71088815037384
 31
0.0
  0
LINE
  5
87
330
7E
100
AcDbEntity
  8
중심선
100
AcDbLine
 10
2.750260043222114
 20
10.84717430164391
 30
0.0
 11
6.196535287059397
 21
10.84717430164391
 31
0.0
  0
LINE
  5
88
330
7E
100
AcDbEntity
  8
중심선
100
AcDbLine
 10
12.29416204261559
 20
16.24717430164393
 30
0.0
 11
5.245725140726316
 21
7.84717430164391
 31
0.0
  0
LINE
  5
89
330
7E
100
AcDbEntity
  8
중심선
100
AcDbLine
 10
10.72767329541681
 20
16.24717430164393
 30
0.0
 11
6.196535287059397
 21
10.84717430164391
 31
0.0
  0
LINE
  5
8A
330
7E
100
AcDbEntity
  8
중심선
100
AcDbLine
 10
7.28139805157953
 20
16.24717430164393
 30
0.0
 11
2.750260043222114
 21
10.84717430164391
 31
0.0
  0
LINE
  5
8B
330
7E
100
AcDbEntity
  8
중심선
100
AcDbLine
 10
5.714909304380834
 20
16.24717430164393
 30
0.0
 11
3.58671253028996
 21
13.71088815037384
 31
0.0
  0
LINE
  5
8C
330
7E
100
AcDbEntity
  8
중심선
100
AcDbLine
 10
2.268634060543552
 20
16.24717430164393
 30
0.0
 11
0.1404042013395286
 21
13.71084872107135
 31
0.0
  0
LINE
  5
8D
330
7E
100
AcDbEntity
  8
중심선
100
AcDbLine
 10
7.28139805157953
 20
16.24717430164393
 30
0.0
 11
10.72767329541681
 21
16.24717430164393
 31
0.0
  0
LINE
  5
8E
330
7E
100
AcDbEntity
  8
중심선
100
AcDbLine
 10
12.29416204261559
 20
16.24717430164393
 30
0.0
 11
15.74043728645272
 21
16.24717430164393
 31
0.0
  0
LINE
  5
8F
330
7E
100
AcDbEntity
  8
중심선
100
AcDbLine
 10
19.22036997980202
 20
11.08717430171403
 30
0.0
 11
23.66174974927406
 21
11.08717430171406
 31
0.0
  0
LINE
  5
90
330
7E
100
AcDbEntity
  8
중심선
100
AcDbLine
 10
19.22039502424796
 20
13.00717430171391
 30
0.0
 11
19.22036997980202
 21
11.08717430171403
 31
0.0
  0
LINE
  5
91
330
7E
100
AcDbEntity
  8
중심선
100
AcDbLine
 10
19.22039502424796
 20
13.00717430171391
 30
0.0
 11
26.96566020931264
 21
13.00717430171391
 31
0.0
  0
LINE
  5
92
330
7E
100
AcDbEntity
  8
중심선
100
AcDbLine
 10
22.22332737316547
 20
13.45928029700563
 30
0.0
 11
24.52862924686651
 21
15.39360700705356
 31
0.0
  0
ATTDEF
  5
94
330
7E
100
AcDbEntity
  8
FORMAT
 62
     2
100
AcDbText
 10
-16.11926103943555
 20
2.075366912832191
 30
0.0
 40
4.233333333333333
  1
SEME7002012E [ 2 FLUTE ]
 41
0.75
  7
SLDTEXTSTYLE0
 11
-16.11926103943555
 21
-0.0412997538344756
 31
0.0
100
AcDbAttributeDefinition
  3

  2
AUTOATTR0
 70
     0
 74
     1
  0
ENDBLK
  5
80
330
7E
100
AcDbEntity
  8
0
100
AcDbBlockEnd
  0
BLOCK
  5
ED
330
EC
100
AcDbEntity
  8
0
100
AcDbBlockBegin
  2
_D
 70
     0
 10
0.0
 20
0.0
 30
0.0
  3
_D
  1

  0
LINE
  5
EF
330
EC
100
AcDbEntity
  8
치수문자_일반주서
 62
     0
370
    -2
100
AcDbLine
 10
22.52660161513767
 20
-0.9999999999999976
 30
0.0
 11
34.76889823874902
 21
-0.999999999999952
 31
0.0
  0
LINE
  5
F0
330
EC
100
AcDbEntity
  8
치수문자_일반주서
 62
     0
370
    -2
100
AcDbLine
 10
22.52660161513774
 20
1.000000000000002
 30
0.0
 11
34.76889823874901
 21
1.000000000000048
 31
0.0
  0
LINE
  5
F1
330
EC
100
AcDbEntity
  8
치수문자_일반주서
 62
     0
370
    -2
100
AcDbLine
 10
34.76889823874902
 20
-0.999999999999952
 30
0.0
 11
34.76889823874895
 21
16.14984755714842
 31
0.0
  0
LINE
  5
F2
330
EC
100
AcDbEntity
  8
치수문자_일반주서
 62
     0
370
    -2
100
AcDbLine
 10
34.76889823874902
 20
-0.999999999999952
 30
0.0
 11
34.76889823874901
 21
1.000000000000048
 31
0.0
  0
LINE
  5
F3
330
EC
100
AcDbEntity
  8
치수문자_일반주서
 62
     0
370
    -2
100
AcDbLine
 10
34.76889823874903
 20
-4.301999999999952
 30
0.0
 11
34.76889823874905
 21
-7.603999999999951
 31
0.0
  0
LINE
  5
F4
330
EC
100
AcDbEntity
  8
치수문자_일반주서
 62
     0
370
    -2
100
AcDbLine
 10
34.768898238749
 20
4.302000000000048
 30
0.0
 11
34.76889823874898
 21
7.604000000000047
 31
0.0
  0
SOLID
  5
F5
330
EC
100
AcDbEntity
  8
치수문자_일반주서
 62
     0
100
AcDbTrace
 10
35.31923157208237
 20
-4.30199999999995
 30
0.0
 11
34.2185649054157
 21
-4.301999999999953
 31
0.0
 12
34.76889823874902
 22
-0.999999999999952
 32
0.0
 13
34.76889823874902
 23
-0.999999999999952
 33
0.0
  0
SOLID
  5
F6
330
EC
100
AcDbEntity
  8
치수문자_일반주서
 62
     0
100
AcDbTrace
 10
34.21856490541566
 20
4.302000000000046
 30
0.0
 11
35.31923157208233
 21
4.302000000000049
 31
0.0
 12
34.76889823874901
 22
1.000000000000048
 32
0.0
 13
34.76889823874901
 23
1.000000000000048
 33
0.0
  0
MTEXT
  5
F7
330
EC
100
AcDbEntity
  8
치수문자_일반주서
 62
     0
100
AcDbMText
 10
30.39389823874897
 20
13.08734755714841
 30
0.0
 40
3.5
 41
0.0
 71
     2
 72
     1
  1
\A1;%%c2
  7
SLDTEXTSTYLE0
 11
-3.552713678800501E-15
 21
1.0
 31
0.0
 73
     1
 44
1.0
  0
POINT
  5
148
330
EC
100
AcDbEntity
  8
Defpoints
 62
     0
100
AcDbPoint
 10
22.46410161513767
 20
-0.9999999999999978
 30
0.0
  0
POINT
  5
149
330
EC
100
AcDbEntity
  8
Defpoints
 62
     0
100
AcDbPoint
 10
22.46410161513774
 20
1.000000000000002
 30
0.0
  0
POINT
  5
14A
330
EC
100
AcDbEntity
  8
Defpoints
 62
     0
100
AcDbPoint
 10
34.76889823874901
 20
1.000000000000048
 30
0.0
  0
ENDBLK
  5
EE
330
EC
100
AcDbEntity
  8
0
100
AcDbBlockEnd
  0
BLOCK
  5
FB
330
FA
100
AcDbEntity
  8
0
100
AcDbBlockBegin
  2
_D_1
 70
     0
 10
0.0
 20
0.0
 30
0.0
  3
_D_1
  1

  0
LINE
  5
FD
330
FA
100
AcDbEntity
  8
치수문자_일반주서
 62
     0
370
    -2
100
AcDbLine
 10
-37.53589838486226
 20
2.512499999999994
 30
0.0
 11
-37.53589838486226
 21
24.23841044024269
 31
0.0
  0
LINE
  5
FE
330
FA
100
AcDbEntity
  8
치수문자_일반주서
 62
     0
370
    -2
100
AcDbLine
 10
22.46410161513774
 20
1.073940869231902
 30
0.0
 11
22.46410161513774
 21
24.23841044024269
 31
0.0
  0
LINE
  5
FF
330
FA
100
AcDbEntity
  8
치수문자_일반주서
 62
     0
370
    -2
100
AcDbLine
 10
-34.23389838486226
 20
24.23841044024269
 30
0.0
 11
19.16210161513774
 21
24.23841044024269
 31
0.0
  0
SOLID
  5
100
330
FA
100
AcDbEntity
  8
치수문자_일반주서
 62
     0
100
AcDbTrace
 10
-34.23389838486226
 20
24.78874377357602
 30
0.0
 11
-34.23389838486226
 21
23.68807710690935
 31
0.0
 12
-37.53589838486226
 22
24.23841044024269
 32
0.0
 13
-37.53589838486226
 23
24.23841044024269
 33
0.0
  0
SOLID
  5
101
330
FA
100
AcDbEntity
  8
치수문자_일반주서
 62
     0
100
AcDbTrace
 10
19.16210161513774
 20
23.68807710690935
 30
0.0
 11
19.16210161513774
 21
24.78874377357602
 31
0.0
 12
22.46410161513774
 22
24.23841044024269
 32
0.0
 13
22.46410161513774
 23
24.23841044024269
 33
0.0
  0
MTEXT
  5
102
330
FA
100
AcDbEntity
  8
치수문자_일반주서
 62
     0
100
AcDbMText
 10
-7.535898384862257
 20
28.61341044024269
 30
0.0
 40
3.5
 41
0.0
 71
     2
 72
     1
  1
\A1;60
  7
SLDTEXTSTYLE0
 73
     1
 44
1.0
  0
POINT
  5
14E
330
FA
100
AcDbEntity
  8
Defpoints
 62
     0
100
AcDbPoint
 10
-37.53589838486226
 20
2.449999999999994
 30
0.0
  0
POINT
  5
14F
330
FA
100
AcDbEntity
  8
Defpoints
 62
     0
100
AcDbPoint
 10
22.46410161513774
 20
1.011440869231902
 30
0.0
  0
POINT
  5
150
330
FA
100
AcDbEntity
  8
Defpoints
 62
     0
100
AcDbPoint
 10
22.46410161513774
 20
24.23841044024269
 30
0.0
  0
ENDBLK
  5
FC
330
FA
100
AcDbEntity
  8
0
100
AcDbBlockEnd
  0
BLOCK
  5
105
330
104
100
AcDbEntity
  8
0
100
AcDbBlockBegin
  2
_D_2
 70
     0
 10
0.0
 20
0.0
 30
0.0
  3
_D_2
  1

  0
LINE
  5
107
330
104
100
AcDbEntity
  8
치수문자_일반주서
 62
     0
370
    -2
100
AcDbLine
 10
10.46410161513774
 20
0.8364096930282695
 30
0.0
 11
10.46410161513774
 21
14.12090749919579
 31
0.0
  0
LINE
  5
108
330
104
100
AcDbEntity
  8
치수문자_일반주서
 62
     0
370
    -2
100
AcDbLine
 10
22.46410161513774
 20
1.073940869231902
 30
0.0
 11
22.46410161513774
 21
14.12090749919579
 31
0.0
  0
LINE
  5
109
330
104
100
AcDbEntity
  8
치수문자_일반주서
 62
     0
370
    -2
100
AcDbLine
 10
13.76610161513774
 20
14.12090749919579
 30
0.0
 11
19.16210161513774
 21
14.12090749919579
 31
0.0
  0
SOLID
  5
10A
330
104
100
AcDbEntity
  8
치수문자_일반주서
 62
     0
100
AcDbTrace
 10
13.76610161513774
 20
14.67124083252912
 30
0.0
 11
13.76610161513774
 21
13.57057416586246
 31
0.0
 12
10.46410161513774
 22
14.12090749919579
 32
0.0
 13
10.46410161513774
 23
14.12090749919579
 33
0.0
  0
SOLID
  5
10B
330
104
100
AcDbEntity
  8
치수문자_일반주서
 62
     0
100
AcDbTrace
 10
19.16210161513774
 20
13.57057416586246
 30
0.0
 11
19.16210161513774
 21
14.67124083252912
 31
0.0
 12
22.46410161513774
 22
14.12090749919579
 32
0.0
 13
22.46410161513774
 23
14.12090749919579
 33
0.0
  0
MTEXT
  5
10C
330
104
100
AcDbEntity
  8
치수문자_일반주서
 62
     0
100
AcDbMText
 10
16.46410161513774
 20
18.49590749919579
 30
0.0
 40
3.5
 41
0.0
 71
     2
 72
     1
  1
\A1;12
  7
SLDTEXTSTYLE0
 73
     1
 44
1.0
  0
POINT
  5
10D
330
104
100
AcDbEntity
  8
Defpoints
 62
     0
100
AcDbPoint
 10
10.46410161513774
 20
0.7739096930282695
 30
0.0
  0
POINT
  5
10E
330
104
100
AcDbEntity
  8
Defpoints
 62
     0
100
AcDbPoint
 10
22.46410161513774
 20
1.011440869231902
 30
0.0
  0
POINT
  5
151
330
104
100
AcDbEntity
  8
Defpoints
 62
     0
100
AcDbPoint
 10
22.46410161513774
 20
14.12090749919579
 30
0.0
  0
ENDBLK
  5
106
330
104
100
AcDbEntity
  8
0
100
AcDbBlockEnd
  0
BLOCK
  5
111
330
110
100
AcDbEntity
  8
0
100
AcDbBlockBegin
  2
_D_3
 70
     0
 10
0.0
 20
0.0
 30
0.0
  3
_D_3
  1

  0
LINE
  5
113
330
110
100
AcDbEntity
  8
치수문자_일반주서
 62
     0
370
    -2
100
AcDbLine
 10
-37.04839838486226
 20
2.999999999999994
 30
0.0
 11
-45.19621709367612
 21
2.999999999999963
 31
0.0
  0
LINE
  5
114
330
110
100
AcDbEntity
  8
치수문자_일반주서
 62
     0
370
    -2
100
AcDbLine
 10
-37.04839838486226
 20
-3.0
 30
0.0
 11
-45.1962170936761
 21
-3.000000000000032
 31
0.0
  0
LINE
  5
115
330
110
100
AcDbEntity
  8
치수문자_일반주서
 62
     0
370
    -2
100
AcDbLine
 10
-45.19621709367612
 20
2.999999999999963
 30
0.0
 11
-45.19621709367617
 21
15.72899999999997
 31
0.0
  0
LINE
  5
116
330
110
100
AcDbEntity
  8
치수문자_일반주서
 62
     0
370
    -2
100
AcDbLine
 10
-45.19621709367612
 20
2.999999999999963
 30
0.0
 11
-45.1962170936761
 21
-3.000000000000032
 31
0.0
  0
LINE
  5
117
330
110
100
AcDbEntity
  8
치수문자_일반주서
 62
     0
370
    -2
100
AcDbLine
 10
-45.19621709367613
 20
6.301999999999962
 30
0.0
 11
-45.19621709367615
 21
9.603999999999962
 31
0.0
  0
LINE
  5
118
330
110
100
AcDbEntity
  8
치수문자_일반주서
 62
     0
370
    -2
100
AcDbLine
 10
-45.19621709367608
 20
-6.302000000000032
 30
0.0
 11
-45.19621709367607
 21
-9.604000000000031
 31
0.0
  0
SOLID
  5
119
330
110
100
AcDbEntity
  8
치수문자_일반주서
 62
     0
100
AcDbTrace
 10
-45.74655042700947
 20
6.301999999999961
 30
0.0
 11
-44.6458837603428
 21
6.301999999999964
 31
0.0
 12
-45.19621709367612
 22
2.999999999999963
 32
0.0
 13
-45.19621709367612
 23
2.999999999999963
 33
0.0
  0
SOLID
  5
11A
330
110
100
AcDbEntity
  8
치수문자_일반주서
 62
     0
100
AcDbTrace
 10
-44.64588376034275
 20
-6.30200000000003
 30
0.0
 11
-45.74655042700942
 21
-6.302000000000033
 31
0.0
 12
-45.1962170936761
 22
-3.000000000000032
 32
0.0
 13
-45.1962170936761
 23
-3.000000000000032
 33
0.0
  0
MTEXT
  5
11B
330
110
100
AcDbEntity
  8
치수문자_일반주서
 62
     0
100
AcDbMText
 10
-49.57121709367615
 20
12.66649999999995
 30
0.0
 40
3.5
 41
0.0
 71
     2
 72
     1
  1
\A1;%%c6
  7
SLDTEXTSTYLE0
 11
-3.552713678800505E-15
 21
1.0
 31
0.0
 73
     1
 44
1.0
  0
POINT
  5
14B
330
110
100
AcDbEntity
  8
Defpoints
 62
     0
100
AcDbPoint
 10
-36.98589838486226
 20
2.999999999999995
 30
0.0
  0
POINT
  5
14C
330
110
100
AcDbEntity
  8
Defpoints
 62
     0
100
AcDbPoint
 10
-36.98589838486226
 20
-3.0
 30
0.0
  0
POINT
  5
14D
330
110
100
AcDbEntity
  8
Defpoints
 62
     0
100
AcDbPoint
 10
-45.1962170936761
 20
-3.00000000000003
 30
0.0
  0
ENDBLK
  5
112
330
110
100
AcDbEntity
  8
0
100
AcDbBlockEnd
  0
BLOCK
  5
11D
330
11C
100
AcDbEntity
  8
0
100
AcDbBlockBegin
  2
SW_DOWELSYMBOL_0
 70
     0
 10
0.0
 20
0.0
 30
0.0
  3
SW_DOWELSYMBOL_0
  1

  0
CIRCLE
  5
11F
330
11C
100
AcDbEntity
  8
외형선
 62
     0
100
AcDbCircle
 10
0.0
 20
0.0
 30
0.0
 40
3.000000000000004
  0
HATCH
  5
120
330
11C
100
AcDbEntity
  8
0
  6
Continuous
 62
     0
370
    30
100
AcDbHatch
 10
0.0
 20
0.0
 30
0.0
210
0.0
220
0.0
230
1.0
  2
SOLID
 70
     1
 71
     0
 91
        1
 92
        0
 93
        3
 72
     2
 10
0.0000000000000104
 20
0.0
 40
3.000000000000004
 50
0.0
 51
90.0
 73
     1
 72
     1
 10
0.0000000000000104
 20
3.000000000000004
 11
0.0000000000000104
 21
0.0
 72
     1
 10
0.0000000000000104
 20
0.0
 11
3.000000000000015
 21
0.0
 97
        0
 75
     0
 76
     1
 98
        1
 10
0.0
 20
0.0
  0
HATCH
  5
121
330
11C
100
AcDbEntity
  8
0
  6
Continuous
 62
     0
370
    30
100
AcDbHatch
 10
0.0
 20
0.0
 30
0.0
210
0.0
220
0.0
230
1.0
  2
SOLID
 70
     1
 71
     0
 91
        1
 92
        0
 93
        3
 72
     2
 10
0.0000000000000104
 20
0.0
 40
3.000000000000004
 50
180.0
 51
270.0000000000007
 73
     1
 72
     1
 10
0.0000000000000104
 20
-3.000000000000004
 11
0.0000000000000104
 21
0.0
 72
     1
 10
0.0000000000000104
 20
0.0
 11
-2.999999999999994
 21
0.0
 97
        0
 75
     0
 76
     1
 98
        1
 10
0.0
 20
0.0
  0
ENDBLK
  5
11E
330
11C
100
AcDbEntity
  8
0
100
AcDbBlockEnd
  0
ENDSEC
  0
SECTION
  2
ENTITIES
  0
LINE
  5
95
330
1F
100
AcDbEntity
  8
0
  6
Continuous
 62
     1
370
    15
100
AcDbLine
 10
19.62391081086144
 20
0.3809285700252997
 30
0.0
 11
19.59769846978449
 21
0.3945193314318312
 31
0.0
  0
SPLINE
  5
96
330
1F
100
AcDbEntity
  8
0
  6
Continuous
 62
     1
370
    15
100
AcDbSpline
210
0.0
220
0.0
230
1.0
 70
     8
 71
     3
 72
     9
 73
     5
 74
     0
 42
0.000000001
 43
0.00000001
 40
0.0
 40
0.0
 40
0.0
 40
0.0
 40
0.5521833448220754
 40
1.0
 40
1.0
 40
1.0
 40
1.0
 10
19.8724779331158
 20
0.2562528243906815
 30
0.0
 10
19.82673413557164
 20
0.2781825444429487
 30
0.0
 10
19.74389245269021
 20
0.3178971071111387
 30
0.0
 10
19.66102170976867
 20
0.3614326353762248
 30
0.0
 10
19.62391081086144
 20
0.3809285700252997
 30
0.0
  0
SPLINE
  5
97
330
1F
100
AcDbEntity
  8
0
  6
Continuous
 62
     1
370
    15
100
AcDbSpline
210
0.0
220
0.0
230
1.0
 70
     8
 71
     3
 72
     9
 73
     5
 74
     0
 42
0.000000001
 43
0.00000001
 40
0.0
 40
0.0
 40
0.0
 40
0.0
 40
0.4994744685976826
 40
1.0
 40
1.0
 40
1.0
 40
1.0
 10
14.43029141317901
 20
0.2566220746590537
 30
0.0
 10
14.38454000888526
 20
0.2786035228326282
 30
0.0
 10
14.29294092390659
 20
0.3226126755632758
 30
0.0
 10
14.20130326077872
 20
0.3708390713414518
 30
0.0
 10
14.15543627074517
 20
0.3949776137159418
 30
0.0
  0
LINE
  5
98
330
1F
100
AcDbEntity
  8
0
  6
Continuous
 62
     1
370
    15
100
AcDbLine
 10
11.65194044833649
 20
-1.0
 30
0.0
 11
12.13757674070016
 21
-1.0
 31
0.0
  0
LINE
  5
99
330
1F
100
AcDbEntity
  8
0
  6
Continuous
 62
     1
370
    15
100
AcDbLine
 10
17.577915737882
 20
1.000000000000002
 30
0.0
 11
17.09436007558503
 21
1.000000000000002
 31
0.0
  0
LINE
  5
9A
330
1F
100
AcDbEntity
  8
0
  6
Continuous
 62
     1
370
    15
100
AcDbLine
 10
17.09340001270063
 20
-1.0
 30
0.0
 11
17.577915737882
 21
-1.0
 31
0.0
  0
LINE
  5
9B
330
1F
100
AcDbEntity
  8
0
  6
Continuous
 62
     1
370
    15
100
AcDbLine
 10
12.13757674070016
 20
1.000000000000002
 30
0.0
 11
11.6519151256489
 21
1.000000000000002
 31
0.0
  0
LINE
  5
9C
330
1F
100
AcDbEntity
  8
0
  6
Continuous
 62
     1
370
    15
100
AcDbLine
 10
19.45036232157756
 20
0.2106035518293782
 30
0.0
 11
19.308085296237
 21
0.2879851177015052
 31
0.0
  0
SPLINE
  5
9D
330
1F
100
AcDbEntity
  8
0
  6
Continuous
 62
     1
370
    15
100
AcDbSpline
210
0.0
220
0.0
230
1.0
 70
     8
 71
     3
 72
    11
 73
     7
 74
     0
 42
0.000000001
 43
0.00000001
 40
0.0
 40
0.0
 40
0.0
 40
0.0
 40
0.3670912297881607
 40
0.5351428166695278
 40
0.669192690003552
 40
1.0
 40
1.0
 40
1.0
 40
1.0
 10
12.59694696094478
 20
-0.8321750971266546
 30
0.0
 10
12.78114781590967
 20
-0.8161905623105609
 30
0.0
 10
13.04967442826084
 20
-0.7928884284252785
 30
0.0
 10
13.38543382989256
 20
-0.7824898414056821
 30
0.0
 10
13.70267472918649
 20
-0.7788224019735954
 30
0.0
 10
13.93602458939676
 20
-0.7880618441386776
 30
0.0
 10
14.1020838486969
 20
-0.7946369280958632
 30
0.0
  0
SPLINE
  5
9E
330
1F
100
AcDbEntity
  8
0
  6
Continuous
 62
     1
370
    15
100
AcDbSpline
210
0.0
220
0.0
230
1.0
 70
     8
 71
     3
 72
     9
 73
     5
 74
     0
 42
0.000000001
 43
0.00000001
 40
0.0
 40
0.0
 40
0.0
 40
0.0
 40
0.9597912240662346
 40
1.0
 40
1.0
 40
1.0
 40
1.0
 10
19.54389745756804
 20
0.7946590201991762
 30
0.0
 10
19.27815913625622
 20
0.7848477320134178
 30
0.0
 10
19.00128817239597
 20
0.7746254170560131
 30
0.0
 10
18.72452871414811
 20
0.7862104957934266
 30
0.0
 10
18.71340055510388
 20
0.7866763176285542
 30
0.0
  0
SPLINE
  5
9F
330
1F
100
AcDbEntity
  8
0
  6
Continuous
 62
     1
370
    15
100
AcDbSpline
210
0.0
220
0.0
230
1.0
 70
     8
 71
     3
 72
     9
 73
     5
 74
     0
 42
0.000000001
 43
0.00000001
 40
0.0
 40
0.0
 40
0.0
 40
0.0
 40
0.5005102134688892
 40
1.0
 40
1.0
 40
1.0
 40
1.0
 10
18.03908482557198
 20
-0.8321015380697573
 30
0.0
 10
18.29015436542926
 20
-0.8111881895641017
 30
0.0
 10
18.79178157123029
 20
-0.7694041301326033
 30
0.0
 10
19.29336277111141
 20
-0.7862464522967272
 30
0.0
 10
19.54389745756804
 20
-0.7946590201991737
 30
0.0
  0
SPLINE
  5
A0
330
1F
100
AcDbEntity
  8
0
  6
Continuous
 62
     1
370
    15
100
AcDbSpline
210
0.0
220
0.0
230
1.0
 70
     8
 71
     3
 72
     9
 73
     5
 74
     0
 42
0.000000001
 43
0.00000001
 40
0.0
 40
0.0
 40
0.0
 40
0.0
 40
0.6698415838895448
 40
0.9999999999999999
 40
0.9999999999999999
 40
0.9999999999999999
 40
0.9999999999999999
 10
14.1020838486969
 20
0.7946369280958651
 30
0.0
 10
13.91141536368758
 20
0.7870528760878321
 30
0.0
 10
13.6267682327911
 20
0.7757307184457299
 30
0.0
 10
13.34211757371324
 20
0.7850743863726615
 30
0.0
 10
13.24813776296729
 20
0.7881592769760793
 30
0.0
  0
SPLINE
  5
A1
330
1F
100
AcDbEntity
  8
0
  6
Continuous
 62
     1
370
    15
100
AcDbSpline
210
0.0
220
0.0
230
1.0
 70
     8
 71
     3
 72
    11
 73
     7
 74
     0
 42
0.000000001
 43
0.00000001
 40
0.0
 40
0.0
 40
0.0
 40
0.0
 40
0.3694497133208292
 40
0.5981399178136899
 40
0.7911724073873208
 40
0.9999999999999999
 40
0.9999999999999999
 40
0.9999999999999999
 40
0.9999999999999999
 10
20.34672287935883
 20
-0.7520637666138454
 30
0.0
 10
20.44042491607093
 20
-0.7380654536026777
 30
0.0
 10
20.59212872451123
 20
-0.7154021533154229
 30
0.0
 10
20.79248330229915
 20
-0.6936588034470301
 30
0.0
 10
20.95238804451419
 20
-0.6790502899684345
 30
0.0
 10
21.05409820926209
 20
-0.6727154070990998
 30
0.0
 10
21.10695214970074
 20
-0.669423469437889
 30
0.0
  0
SPLINE
  5
A2
330
1F
100
AcDbEntity
  8
0
  6
Continuous
 62
     1
370
    15
100
AcDbSpline
210
0.0
220
0.0
230
1.0
 70
     8
 71
     3
 72
    11
 73
     7
 74
     0
 42
0.000000001
 43
0.00000001
 40
0.0
 40
0.0
 40
0.0
 40
0.0
 40
0.3303550125519913
 40
0.5131983126010343
 40
0.6483695181239936
 40
0.9999999999999999
 40
0.9999999999999999
 40
0.9999999999999999
 40
0.9999999999999999
 10
16.65082361614486
 20
0.6839449086751156
 30
0.0
 10
16.45854760351483
 20
0.6716851762039799
 30
0.0
 10
16.15985159017719
 20
0.652639986096151
 30
0.0
 10
15.78239521835282
 20
0.6618905909843927
 30
0.0
 10
15.39362855675635
 20
0.684822603315667
 30
0.0
 10
15.10995676487397
 20
0.7238884622749884
 30
0.0
 10
14.90505269108739
 20
0.7521068254531504
 30
0.0
  0
SPLINE
  5
A3
330
1F
100
AcDbEntity
  8
0
  6
Continuous
 62
     1
370
    15
100
AcDbSpline
210
0.0
220
0.0
230
1.0
 70
     8
 71
     3
 72
    11
 73
     7
 74
     0
 42
0.000000001
 43
0.00000001
 40
0.0
 40
0.0
 40
0.0
 40
0.0
 40
0.3829488902563303
 40
0.6681897112625834
 40
0.919520508815366
 40
0.9999999999999999
 40
0.9999999999999999
 40
0.9999999999999999
 40
0.9999999999999999
 10
14.90505269108739
 20
-0.7521068254531483
 30
0.0
 10
15.0001166656431
 20
-0.7379031625869903
 30
0.0
 10
15.16598937431536
 20
-0.7131198517303994
 30
0.0
 10
15.39409824496143
 20
-0.6893907784253179
 30
0.0
 10
15.54721557564536
 20
-0.6759870076269853
 30
0.0
 10
15.62942512582597
 20
-0.6717823795492697
 30
0.0
 10
15.64936478108569
 20
-0.6707625608763683
 30
0.0
  0
SPLINE
  5
A4
330
1F
100
AcDbEntity
  8
0
  6
Continuous
 62
     1
370
    15
100
AcDbSpline
210
0.0
220
0.0
230
1.0
 70
     8
 71
     3
 72
    17
 73
    13
 74
     0
 42
0.000000001
 43
0.00000001
 40
0.0
 40
0.0
 40
0.0
 40
0.0
 40
0.1385580857618337
 40
0.233028023138163
 40
0.2998476756251962
 40
0.3791509496046667
 40
0.4705208003802323
 40
0.5532163288597735
 40
0.6552188557387704
 40
0.7393395379230321
 40
0.8389993208605657
 40
0.9999999999999999
 40
0.9999999999999999
 40
0.9999999999999999
 40
0.9999999999999999
 10
22.09115033800276
 20
0.6838531520327811
 30
0.0
 10
22.01036673502437
 20
0.6777012689281708
 30
0.0
 10
21.87450426838787
 20
0.6673549859915797
 30
0.0
 10
21.70083676464402
 20
0.660641928354701
 30
0.0
 10
21.56089131669769
 20
0.6579581720181795
 30
0.0
 10
21.42270147836857
 20
0.6579357277546811
 30
0.0
 10
21.27525148472529
 20
0.661078407463501
 30
0.0
 10
21.11490635569444
 20
0.6681128226695212
 30
0.0
 10
20.95878592910001
 20
0.6786792825326065
 30
0.0
 10
20.79248403069247
 20
0.6935963738207984
 30
0.0
 10
20.59212838631701
 20
0.7154311394937327
 30
0.0
 10
20.44042478693999
 20
0.7380765212442936
 30
0.0
 10
20.34672287935883
 20
0.752063766613848
 30
0.0
  0
SPLINE
  5
A5
330
1F
100
AcDbEntity
  8
0
  6
Continuous
 62
     1
370
    15
100
AcDbSpline
210
0.0
220
0.0
230
1.0
 70
     8
 71
     3
 72
     9
 73
     5
 74
     0
 42
0.000000001
 43
0.00000001
 40
0.0
 40
0.0
 40
0.0
 40
0.0
 40
0.4714053982347469
 40
1.0
 40
1.0
 40
1.0
 40
1.0
 10
11.20947472195052
 20
0.6839491160085949
 30
0.0
 10
11.09166099721248
 20
0.6752443077147666
 30
0.0
 10
10.8417408113614
 20
0.6567786551651249
 30
0.0
 10
10.59469087687415
 20
0.6586949957726418
 30
0.0
 10
10.46410161513773
 20
0.659707963072919
 30
0.0
  0
LINE
  5
A6
330
1F
100
AcDbEntity
  8
0
  6
Continuous
 62
   131
370
    15
100
AcDbLine
 10
2.0
 20
-3.0
 30
0.0
 11
9.464101615137736
 21
-0.9999999999999993
 31
0.0
  0
LINE
  5
A7
330
1F
100
AcDbEntity
  8
0
  6
Continuous
 62
   131
370
    15
100
AcDbLine
 10
9.464101615137736
 20
1.000000000000001
 30
0.0
 11
2.0
 21
3.0
 31
0.0
  0
LINE
  5
A8
330
1F
100
AcDbEntity
  8
0
  6
Continuous
 62
   131
370
    15
100
AcDbLine
 10
2.0
 20
2.999999999999999
 30
0.0
 11
-36.98589838486226
 21
2.999999999999996
 31
0.0
  0
LINE
  5
A9
330
1F
100
AcDbEntity
  8
0
  6
Continuous
 62
   131
370
    15
100
AcDbLine
 10
-36.98589838486226
 20
-3.000000000000001
 30
0.0
 11
2.0
 21
-2.999999999999998
 31
0.0
  0
LINE
  5
AA
330
1F
100
AcDbEntity
  8
0
  6
Continuous
 62
   131
370
    15
100
AcDbLine
 10
-36.98589838486226
 20
2.999999999999995
 30
0.0
 11
-37.53589838486226
 21
2.449999999999994
 31
0.0
  0
LINE
  5
AB
330
1F
100
AcDbEntity
  8
0
  6
Continuous
 62
   131
370
    15
100
AcDbLine
 10
-37.53589838486226
 20
-2.449999999999999
 30
0.0
 11
-36.98589838486226
 21
-3.0
 31
0.0
  0
LINE
  5
AC
330
1F
100
AcDbEntity
  8
0
  6
Continuous
 62
   131
370
    15
100
AcDbLine
 10
9.663895794517686
 20
1.000000000000001
 30
0.0
 11
9.464101615137736
 21
1.000000000000001
 31
0.0
  0
LINE
  5
AD
330
1F
100
AcDbEntity
  8
0
  6
Continuous
 62
   131
370
    15
100
AcDbLine
 10
9.464101615137736
 20
-0.9999999999999993
 30
0.0
 11
9.663895794517686
 21
-0.9999999999999993
 31
0.0
  0
SPLINE
  5
AE
330
1F
100
AcDbEntity
  8
0
  6
Continuous
 62
   131
370
    15
100
AcDbSpline
210
0.0
220
0.0
230
1.0
 70
     8
 71
     3
 72
     9
 73
     5
 74
     0
 42
0.000000001
 43
0.00000001
 40
0.0
 40
0.0
 40
0.0
 40
0.0
 40
0.4559772220703746
 40
0.9999999999999999
 40
0.9999999999999999
 40
0.9999999999999999
 40
0.9999999999999999
 10
10.46410161513781
 20
0.6597079630729172
 30
0.0
 10
10.34231326762169
 20
0.6640989658642946
 30
0.0
 10
10.07522021643125
 20
0.6737288389782188
 30
0.0
 10
9.805749505390256
 20
0.705912307749437
 30
0.0
 10
9.659151300599063
 20
0.7234208478337663
 30
0.0
  0
SPLINE
  5
AF
330
1F
100
AcDbEntity
  8
0
  6
Continuous
 62
   131
370
    15
100
AcDbSpline
210
0.0
220
0.0
230
1.0
 70
     8
 71
     3
 72
     9
 73
     5
 74
     0
 42
0.000000001
 43
0.00000001
 40
0.0
 40
0.0
 40
0.0
 40
0.0
 40
0.7306620798596944
 40
1.0
 40
1.0
 40
1.0
 40
1.0
 10
9.659151300599063
 20
-0.723420847833765
 30
0.0
 10
9.79547583537066
 20
-0.7061587456256945
 30
0.0
 10
9.982052556031704
 20
-0.6825334574331208
 30
0.0
 10
10.16790331120675
 20
-0.6744437368788926
 30
0.0
 10
10.2179599670621
 20
-0.6722648683703003
 30
0.0
  0
SPLINE
  5
B0
330
1F
100
AcDbEntity
  8
0
  6
Continuous
 62
     1
370
    15
100
AcDbSpline
210
0.0
220
0.0
230
1.0
 70
     8
 71
     3
 72
    15
 73
    11
 74
     0
 42
0.000000001
 43
0.00000001
 40
0.0
 40
0.0
 40
0.0
 40
0.0
 40
0.1310822669899904
 40
0.262123495410394
 40
0.3931289774716321
 40
0.5241040961322357
 40
0.6550543118848917
 40
0.7859851491224745
 40
0.9169021821556573
 40
1.0
 40
1.0
 40
1.0
 40
1.0
 10
22.46410161513773
 20
-0.9489408692318987
 30
0.0
 10
22.25056798943137
 20
-0.8974676571998746
 30
0.0
 10
21.82356759004035
 20
-0.7945373481073051
 30
0.0
 10
21.18321049391653
 20
-0.4985376588695511
 30
0.0
 10
20.54305949377253
 20
-0.1443581701534472
 30
0.0
 10
19.90308720393015
 20
0.2313410718737959
 30
0.0
 10
19.26326051246389
 20
0.5766016661219611
 30
0.0
 10
18.62354762125616
 20
0.8387194927705567
 30
0.0
 10
18.06177856729951
 20
0.9874849452109677
 30
0.0
 10
17.71324468711043
 20
0.9851450525608274
 30
0.0
 10
17.577915737882
 20
0.984236517604401
 30
0.0
  0
SPLINE
  5
B1
330
1F
100
AcDbEntity
  8
0
  6
Continuous
 62
     1
370
    15
100
AcDbSpline
210
0.0
220
0.0
230
1.0
 70
     8
 71
     3
 72
    12
 73
     8
 74
     0
 42
0.000000001
 43
0.00000001
 40
0.0
 40
0.0
 40
0.0
 40
0.0
 40
0.1374643810448705
 40
0.3532819286225334
 40
0.5690757633199272
 40
0.7846233019133284
 40
1.0
 40
1.0
 40
1.0
 40
1.0
 10
13.24868699552873
 20
-0.787979966506768
 30
0.0
 10
13.12108442977674
 20
-0.8335343202150779
 30
0.0
 10
12.79314725664584
 20
-0.9506085019987328
 30
0.0
 10
12.26484075600697
 20
-1.014882016952854
 30
0.0
 10
11.66403891336116
 20
-0.9824254210552448
 30
0.0
 10
11.06382814181776
 20
-0.8337025870349013
 30
0.0
 10
10.66395761429077
 20
-0.6571474307025467
 30
0.0
 10
10.46410161513777
 20
-0.5689048503037332
 30
0.0
  0
SPLINE
  5
B2
330
1F
100
AcDbEntity
  8
0
  6
Continuous
 62
   131
370
    15
100
AcDbSpline
210
0.0
220
0.0
230
1.0
 70
    24
 71
     3
 72
     8
 73
     4
 74
     0
 42
0.000000001
 43
0.00000001
 40
0.0
 40
0.0
 40
0.0
 40
0.0
 40
1.0
 40
1.0
 40
1.0
 40
1.0
 10
10.46410161513774
 20
-0.4405573216252106
 30
0.0
 10
10.46410161513774
 20
-0.4805682665785284
 30
0.0
 10
10.46410161513774
 20
-0.5236134423217667
 30
0.0
 10
10.46410161513774
 20
-0.5689048503036535
 30
0.0
  0
SPLINE
  5
B3
330
1F
100
AcDbEntity
  8
0
  6
Continuous
 62
     1
370
    15
100
AcDbSpline
210
0.0
220
0.0
230
1.0
 70
     8
 71
     3
 72
    13
 73
     9
 74
     0
 42
0.000000001
 43
0.00000001
 40
0.0
 40
0.0
 40
0.0
 40
0.0
 40
0.1535516838176052
 40
0.3063153677149206
 40
0.4605101236836994
 40
0.6131588401753909
 40
0.8174973422030151
 40
1.0
 40
1.0
 40
1.0
 40
1.0
 10
22.46410161513773
 20
-0.788972264368214
 30
0.0
 10
22.3305462239182
 20
-0.7606155593923658
 30
0.0
 10
22.06412082398368
 20
-0.704047671005169
 30
0.0
 10
21.66438795041114
 20
-0.5692867623733494
 30
0.0
 10
21.26404598094936
 20
-0.4095909883917396
 30
0.0
 10
20.82038721656576
 20
-0.2047890609456123
 30
0.0
 10
20.35106661245121
 20
0.0280977514086506
 30
0.0
 10
20.01450104977088
 20
0.1879511470245813
 30
0.0
 10
19.85571724884352
 20
0.2633662594469702
 30
0.0
  0
SPLINE
  5
B4
330
1F
100
AcDbEntity
  8
0
  6
Continuous
 62
     1
370
    15
100
AcDbSpline
210
0.0
220
0.0
230
1.0
 70
     8
 71
     3
 72
    12
 73
     8
 74
     0
 42
0.000000001
 43
0.00000001
 40
0.0
 40
0.0
 40
0.0
 40
0.0
 40
0.1257962501260589
 40
0.3755637668831951
 40
0.6247849799017089
 40
0.8120241640050903
 40
1.0
 40
1.0
 40
1.0
 40
1.0
 10
12.59935745183657
 20
-0.822074377669924
 30
0.0
 10
12.50976607816767
 20
-0.832946638445884
 30
0.0
 10
12.24229170002352
 20
-0.8654056919348728
 30
0.0
 10
11.79761248980904
 20
-0.832981872467891
 30
0.0
 10
11.30927755401527
 20
-0.7386796638987989
 30
0.0
 10
10.86509952640111
 20
-0.6014019664435121
 30
0.0
 10
10.59794242023344
 20
-0.4942423313300999
 30
0.0
 10
10.46410161513802
 20
-0.4405573216253274
 30
0.0
  0
LINE
  5
B5
330
1F
100
AcDbEntity
  8
0
  6
Continuous
 62
     1
370
    15
100
AcDbLine
 10
22.46410161513773
 20
-0.9489408692318994
 30
0.0
 11
22.46410161513773
 21
-0.788972264368214
 31
0.0
  0
SPLINE
  5
B6
330
1F
100
AcDbEntity
  8
0
  6
Continuous
 62
     1
370
    15
100
AcDbSpline
210
0.0
220
0.0
230
1.0
 70
     8
 71
     3
 72
    19
 73
    15
 74
     0
 42
0.000000001
 43
0.00000001
 40
0.0
 40
0.0
 40
0.0
 40
0.0
 40
0.0126164050511741
 40
0.1099939351464697
 40
0.2073653702818577
 40
0.3047348989924827
 40
0.402106714752596
 40
0.4994850051114947
 40
0.5968739408621869
 40
0.6942776653024848
 40
0.7917002836473526
 40
0.8891458526499116
 40
0.9806322980715778
 40
0.9999999999999999
 40
0.9999999999999999
 40
0.9999999999999999
 40
0.9999999999999999
 10
18.70639982165019
 20
-0.7895272415589002
 30
0.0
 10
18.67877560293785
 20
-0.8010116579404124
 30
0.0
 10
18.43793865222224
 20
-0.901136546570675
 30
0.0
 10
17.98391627185712
 20
-0.9888904458792677
 30
0.0
 10
17.34433090913839
 20
-1.015325636096093
 30
0.0
 10
16.70476210192126
 20
-0.8950724231488838
 30
0.0
 10
16.06517484680977
 20
-0.6566425270216235
 30
0.0
 10
15.42553676143032
 20
-0.3289686643529432
 30
0.0
 10
14.78581452347628
 20
0.043133590312086
 30
0.0
 10
14.14597677749438
 20
0.4087006039520076
 30
0.0
 10
13.50598659744531
 20
0.7220629387031172
 30
0.0
 10
12.87893734998984
 20
0.9228088283157023
 30
0.0
 10
12.42275070717828
 20
1.010697540464659
 30
0.0
 10
12.17999024051679
 20
0.9931001080677401
 30
0.0
 10
12.13757674070017
 20
0.9900256013080357
 30
0.0
  0
SPLINE
  5
B7
330
1F
100
AcDbEntity
  8
0
  6
Continuous
 62
     1
370
    15
100
AcDbSpline
210
0.0
220
0.0
230
1.0
 70
     8
 71
     3
 72
    15
 73
    11
 74
     0
 42
0.000000001
 43
0.00000001
 40
0.0
 40
0.0
 40
0.0
 40
0.0
 40
0.1037841319211149
 40
0.2513030004507914
 40
0.3982820481696153
 40
0.5450392312712616
 40
0.691959351522395
 40
0.839411566655891
 40
0.9867255652734956
 40
1.0
 40
1.0
 40
1.0
 40
1.0
 10
18.04145114845744
 20
-0.8236793672743634
 30
0.0
 10
17.91601215505354
 20
-0.8357769600136566
 30
0.0
 10
17.61227405143009
 20
-0.8650700831273798
 30
0.0
 10
17.13055275952835
 20
-0.8183876251275836
 30
0.0
 10
16.59738442223686
 20
-0.6999985071449056
 30
0.0
 10
16.06499724233856
 20
-0.5132024150051839
 30
0.0
 10
15.53199951022985
 20
-0.2778420650223393
 30
0.0
 10
14.99789650009927
 20
-0.0198809659154672
 30
0.0
 10
14.6254405941419
 20
0.1697810685747241
 30
0.0
 10
14.43140163273642
 20
0.2552752155992643
 30
0.0
 10
14.4153621367781
 20
0.2623422655140211
 30
0.0
  0
SPLINE
  5
B8
330
1F
100
AcDbEntity
  8
0
  6
Continuous
 62
     1
370
    15
100
AcDbSpline
210
0.0
220
0.0
230
1.0
 70
     8
 71
     3
 72
     9
 73
     5
 74
     0
 42
0.000000001
 43
0.00000001
 40
0.0
 40
0.0
 40
0.0
 40
0.0
 40
0.5296151486278724
 40
1.0
 40
1.0
 40
1.0
 40
1.0
 10
10.46410161513774
 20
-0.7739096930282693
 30
0.0
 10
10.67381977845702
 20
-0.8425536306331122
 30
0.0
 10
11.06980196261965
 20
-0.9721646090628001
 30
0.0
 10
11.46571088753383
 20
-0.9898924040916983
 30
0.0
 10
11.65194044833649
 20
-0.9982312903215222
 30
0.0
  0
SPLINE
  5
B9
330
1F
100
AcDbEntity
  8
0
  6
Continuous
 62
     1
370
    15
100
AcDbSpline
210
0.0
220
0.0
230
1.0
 70
     8
 71
     3
 72
    20
 73
    16
 74
     0
 42
0.000000001
 43
0.00000001
 40
0.0
 40
0.0
 40
0.0
 40
0.0
 40
0.0066191773654903
 40
0.0910578981844292
 40
0.175495854979634
 40
0.2599319517772053
 40
0.3443674522521794
 40
0.4288027077050921
 40
0.5132380653495264
 40
0.5976748153374477
 40
0.6821146264879069
 40
0.7665513618221567
 40
0.8509870693590252
 40
0.924708917916782
 40
1.0
 40
1.0
 40
1.0
 40
1.0
 10
15.65231839742209
 20
0.6709640074414824
 30
0.0
 10
15.66735093503641
 20
0.6781550723658825
 30
0.0
 10
15.87414872937795
 20
0.7770802441156993
 30
0.0
 10
16.27293496522282
 20
0.9015025128249335
 30
0.0
 10
16.84810160509977
 20
1.00945166533089
 30
0.0
 10
17.42316558935698
 20
0.9999576470457046
 30
0.0
 10
17.99815309962109
 20
0.8828946869217923
 30
0.0
 10
18.57319078593983
 20
0.6687264385522954
 30
0.0
 10
19.14833512112281
 20
0.3817000568495817
 30
0.0
 10
19.72383481156659
 20
0.0535319214260365
 30
0.0
 10
20.29918887049487
 20
-0.2805926223023681
 30
0.0
 10
20.87426185336076
 20
-0.5850198025533107
 30
0.0
 10
21.42508492226155
 20
-0.8134504973002958
 30
0.0
 10
21.9545713943033
 20
-0.9619747548724279
 30
0.0
 10
22.29306998170946
 20
-0.9866747577299299
 30
0.0
 10
22.46410161513766
 20
-0.9991548152296413
 30
0.0
  0
LINE
  5
BA
330
1F
100
AcDbEntity
  8
0
  6
Continuous
 62
   131
370
    15
100
AcDbLine
 10
10.46410161513774
 20
-0.773909693028268
 30
0.0
 11
10.46410161513774
 21
-0.568904850303884
 31
0.0
  0
LINE
  5
BB
330
1F
100
AcDbEntity
  8
0
  6
Continuous
 62
     1
370
    15
100
AcDbLine
 10
22.46410161513774
 20
-0.9991548152296446
 30
0.0
 11
22.46410161513773
 21
-0.9489408692319011
 31
0.0
  0
SPLINE
  5
BC
330
1F
100
AcDbEntity
  8
0
  6
Continuous
 62
     1
370
    15
100
AcDbSpline
210
0.0
220
0.0
230
1.0
 70
     8
 71
     3
 72
    30
 73
    26
 74
     0
 42
0.000000001
 43
0.00000001
 40
0.0
 40
0.0
 40
0.0
 40
0.0
 40
0.0472575332509168
 40
0.0949047363566238
 40
0.1383370633726085
 40
0.1820716846836006
 40
0.2253042569683875
 40
0.2688345345472868
 40
0.3120679096944853
 40
0.3556010564976944
 40
0.3988340711056202
 40
0.4423647433922214
 40
0.4855976646024959
 40
0.5291273289985691
 40
0.5723595485327436
 40
0.6158895032135706
 40
0.6591214150967125
 40
0.702651588024157
 40
0.7458837990017531
 40
0.7894138242373934
 40
0.8326469601024522
 40
0.8761787702687356
 40
0.9194117914596477
 40
0.962943457623122
 40
1.0
 40
1.0
 40
1.0
 40
1.0
 10
10.46410161513774
 20
0.7739096930282695
 30
0.0
 10
10.56874394756808
 20
0.8094846256091754
 30
0.0
 10
10.7788914581949
 20
0.8809278297977914
 30
0.0
 10
11.08357534158699
 20
0.9514611119297964
 30
0.0
 10
11.38253943424003
 20
0.9923387775207922
 30
0.0
 10
11.66972291803254
 20
1.004591991039974
 30
0.0
 10
11.95871201649536
 20
0.9889591680883323
 30
0.0
 10
12.24590486379896
 20
0.9463655942779364
 30
0.0
 10
12.53340790446729
 20
0.8770602431215568
 30
0.0
 10
12.8215195738744
 20
0.7851357918008613
 30
0.0
 10
13.10835443392792
 20
0.6691858472368943
 30
0.0
 10
13.39664830105971
 20
0.5377888150390542
 30
0.0
 10
13.6837378255517
 20
0.3887008762324994
 30
0.0
 10
13.9713941725872
 20
0.2310620123500986
 30
0.0
 10
14.25952429782668
 20
0.0665123379498835
 30
0.0
 10
14.54610148053911
 20
-0.1010585640520151
 30
0.0
 10
14.8349858007416
 20
-0.2634276331375927
 30
0.0
 10
15.1211340874737
 20
-0.4216071220546983
 30
0.0
 10
15.409986157718
 20
-0.5652933023224689
 30
0.0
 10
15.69663718351385
 20
-0.6954763890794841
 30
0.0
 10
15.9846932725629
 20
-0.8055669952743351
 30
0.0
 10
16.27242351388668
 20
-0.8934786924594073
 30
0.0
 10
16.55948722368006
 20
-0.9570225819946894
 30
0.0
 10
16.834027544786
 20
-0.9941585899399972
 30
0.0
 10
17.01170111178293
 20
-0.9970035550658486
 30
0.0
 10
17.09340001270063
 20
-0.9983117436043001
 30
0.0
  0
SPLINE
  5
BD
330
1F
100
AcDbEntity
  8
0
  6
Continuous
 62
     1
370
    15
100
AcDbSpline
210
0.0
220
0.0
230
1.0
 70
     8
 71
     3
 72
    13
 73
     9
 74
     0
 42
0.000000001
 43
0.00000001
 40
0.0
 40
0.0
 40
0.0
 40
0.0
 40
0.0507003659045042
 40
0.2608659525105222
 40
0.4432212193103414
 40
0.6265372696626704
 40
0.8127603933628451
 40
0.9999999999999999
 40
0.9999999999999999
 40
0.9999999999999999
 40
0.9999999999999999
 10
21.09103971271086
 20
0.6704948214013853
 30
0.0
 10
21.11421701709773
 20
0.6809447072322258
 30
0.0
 10
21.23346999442133
 20
0.7347119606288374
 30
0.0
 10
21.43653317730822
 20
0.8079006012726713
 30
0.0
 10
21.70049025304969
 20
0.8890653107452732
 30
0.0
 10
21.95219095687991
 20
0.9473025918444578
 30
0.0
 10
22.20780095814094
 20
0.9865946576740696
 30
0.0
 10
22.37851318250185
 20
0.9949605060482428
 30
0.0
 10
22.46410161513774
 20
0.9991548152296474
 30
0.0
  0
SPLINE
  5
BE
330
1F
100
AcDbEntity
  8
0
  6
Continuous
 62
     1
370
    15
100
AcDbSpline
210
0.0
220
0.0
230
1.0
 70
    24
 71
     3
 72
    10
 73
     6
 74
     0
 42
0.000000001
 43
0.00000001
 40
0.0
 40
0.0
 40
0.0
 40
0.0
 40
0.5
 40
0.5
 40
1.0
 40
1.0
 40
1.0
 40
1.0
 10
22.46410161513773
 20
0.7000000000000023
 30
0.0
 10
22.46410161513773
 20
0.7424322568073161
 30
0.0
 10
22.46410161513773
 20
0.7917424688671197
 30
0.0
 10
22.46410161513773
 20
0.8951951609608584
 30
0.0
 10
22.46410161513773
 20
0.9490734358014756
 30
0.0
 10
22.46410161513774
 20
0.9991548152296474
 30
0.0
  0
LINE
  5
BF
330
1F
100
AcDbEntity
  8
0
  6
Continuous
 62
     1
370
    15
100
AcDbLine
 10
22.46410161513773
 20
0.700000000000002
 30
0.0
 11
22.08654239651936
 21
0.6653675160344257
 31
0.0
  0
SPLINE
  5
C0
330
1F
100
AcDbEntity
  8
0
  6
Continuous
 62
     1
370
    15
100
AcDbSpline
210
0.0
220
0.0
230
1.0
 70
     8
 71
     3
 72
    13
 73
     9
 74
     0
 42
0.000000001
 43
0.00000001
 40
0.0
 40
0.0
 40
0.0
 40
0.0
 40
0.0201441332137821
 40
0.2608232911166057
 40
0.5011955961688083
 40
0.7419963383667968
 40
0.9830805899835204
 40
0.9999999999999999
 40
0.9999999999999999
 40
0.9999999999999999
 40
0.9999999999999999
 10
14.53045374301794
 20
-0.0909117878872998
 30
0.0
 10
14.50814895516946
 20
-0.0824765202981392
 30
0.0
 10
14.21934982380169
 20
0.0267420909324912
 30
0.0
 10
13.6645039712005
 20
0.2628855049603753
 30
0.0
 10
12.86547318012267
 20
0.535774243588124
 30
0.0
 10
12.065968218616
 20
0.6927553224861249
 30
0.0
 10
11.5132168864788
 20
0.7188683215610366
 30
0.0
 10
11.2278659719932
 20
0.6840058823643593
 30
0.0
 10
11.20915317896461
 20
0.6817196671253609
 30
0.0
  0
SPLINE
  5
C1
330
1F
100
AcDbEntity
  8
0
  6
Continuous
 62
   131
370
    15
100
AcDbSpline
210
0.0
220
0.0
230
1.0
 70
    24
 71
     3
 72
     9
 73
     5
 74
     0
 42
0.000000001
 43
0.00000001
 40
0.0
 40
0.0
 40
0.0
 40
0.0
 40
0.1864688227415493
 40
1.0
 40
1.0
 40
1.0
 40
1.0
 10
10.46410161513774
 20
0.7739096930282694
 30
0.0
 10
10.46410161513774
 20
0.7660283538107648
 30
0.0
 10
10.46410161513773
 20
0.723762096633669
 30
0.0
 10
10.46410161513781
 20
0.6884419795251333
 30
0.0
 10
10.46410161513787
 20
0.6597079630729199
 30
0.0
  0
SPLINE
  5
C2
330
1F
100
AcDbEntity
  8
0
  6
Continuous
 62
     1
370
    15
100
AcDbSpline
210
0.0
220
0.0
230
1.0
 70
     8
 71
     3
 72
    13
 73
     9
 74
     0
 42
0.000000001
 43
0.00000001
 40
0.0
 40
0.0
 40
0.0
 40
0.0
 40
0.2173553006911166
 40
0.3766666765412387
 40
0.5360016217668315
 40
0.6957927512431765
 40
0.934909888060942
 40
1.0
 40
1.0
 40
1.0
 40
1.0
 10
19.9899388662135
 20
-0.0992664161345333
 30
0.0
 10
19.7476372521246
 20
-0.0008420582794373
 30
0.0
 10
19.32773976902091
 20
0.1697227986442465
 30
0.0
 10
18.73116662773007
 20
0.3922502034007738
 30
0.0
 10
18.19850182672747
 20
0.554688577748359
 30
0.0
 10
17.57684580972321
 20
0.6765171728005182
 30
0.0
 10
17.05977498285413
 20
0.7288784404727966
 30
0.0
 10
16.72076649229361
 20
0.6799889678200526
 30
0.0
 10
16.64823008598163
 20
0.6695282662404121
 30
0.0
  0
SPLINE
  5
C3
330
1F
100
AcDbEntity
  8
0
  6
Continuous
 62
     1
370
    15
100
AcDbSpline
210
0.0
220
0.0
230
1.0
 70
     8
 71
     3
 72
     8
 73
     4
 74
     0
 42
0.000000001
 43
0.00000001
 40
0.0
 40
0.0
 40
0.0
 40
0.0
 40
1.0
 40
1.0
 40
1.0
 40
1.0
 10
21.84572704383312
 20
0.2793278076089368
 30
0.0
 10
21.80072924987631
 20
0.3325720018945475
 30
0.0
 10
21.76159937853182
 20
0.3835198365982959
 30
0.0
 10
21.73079775881276
 20
0.4308481981407635
 30
0.0
  0
LINE
  5
C4
330
1F
100
AcDbEntity
  8
0
  6
Continuous
 62
     1
370
    15
100
AcDbLine
 10
21.73079775881277
 20
0.4308481981407639
 30
0.0
 11
22.46410161513773
 21
0.0000000000000022
 31
0.0
  0
LINE
  5
C5
330
1F
100
AcDbEntity
  8
0
  6
Continuous
 62
     1
370
    15
100
AcDbLine
 10
22.46410161513773
 20
0.0000000000000022
 30
0.0
 11
22.46410161513773
 21
-0.2672429460296426
 31
0.0
  0
SPLINE
  5
C6
330
1F
100
AcDbEntity
  8
0
  6
Continuous
 62
     1
370
    15
100
AcDbSpline
210
0.0
220
0.0
230
1.0
 70
     8
 71
     3
 72
    10
 73
     6
 74
     0
 42
0.000000001
 43
0.00000001
 40
0.0
 40
0.0
 40
0.0
 40
0.0
 40
0.5
 40
0.5
 40
1.0
 40
1.0
 40
1.0
 40
1.0
 10
22.46410161513774
 20
-0.2672429460296438
 30
0.0
 10
22.35706499225161
 20
-0.1830915265342635
 30
0.0
 10
22.25181648043432
 20
-0.0954889939880752
 30
0.0
 10
22.04497490506463
 20
0.0867712062317256
 30
0.0
 10
21.94240770728104
 20
0.1823836725445497
 30
0.0
 10
21.84572704383232
 20
0.2793278076067497
 30
0.0
  0
SPLINE
  5
C7
330
1F
100
AcDbEntity
  8
0
  6
Continuous
 62
   131
370
    15
100
AcDbSpline
210
0.0
220
0.0
230
1.0
 70
    24
 71
     3
 72
    10
 73
     6
 74
     0
 42
0.000000001
 43
0.00000001
 40
0.0
 40
0.0
 40
0.0
 40
0.0
 40
0.5
 40
0.5
 40
1.0
 40
1.0
 40
1.0
 40
1.0
 10
10.46410161513771
 20
0.4807590714644483
 30
0.0
 10
10.46410161513771
 20
0.3475873204115565
 30
0.0
 10
10.46410161513771
 20
0.190772071266006
 30
0.0
 10
10.46410161513771
 20
-0.1312736616846917
 30
0.0
 10
10.46410161513771
 20
-0.2951179347587047
 30
0.0
 10
10.46410161513771
 20
-0.4405573216251992
 30
0.0
  0
SPLINE
  5
C8
330
1F
100
AcDbEntity
  8
0
  6
Continuous
 62
     1
370
    15
100
AcDbSpline
210
0.0
220
0.0
230
1.0
 70
     8
 71
     3
 72
    12
 73
     8
 74
     0
 42
0.000000001
 43
0.00000001
 40
0.0
 40
0.0
 40
0.0
 40
0.0
 40
0.2132133616689494
 40
0.4258162686564016
 40
0.657228068902129
 40
0.8894705641936693
 40
1.0
 40
1.0
 40
1.0
 40
1.0
 10
21.84572704245999
 20
0.279327808207108
 30
0.0
 10
21.68200810811046
 20
0.3479294470781655
 30
0.0
 10
21.35503898578422
 20
0.4849363103400649
 30
0.0
 10
20.85074740936668
 20
0.6519600088089146
 30
0.0
 10
20.3315040892394
 20
0.7640259856879985
 30
0.0
 10
19.8902911253229
 20
0.8117784645049269
 30
0.0
 10
19.62708992577517
 20
0.7917312404871992
 30
0.0
 10
19.54221868209899
 20
0.7852668594829975
 30
0.0
  0
SPLINE
  5
C9
330
1F
100
AcDbEntity
  8
0
  6
Continuous
 62
     1
370
    15
100
AcDbSpline
210
0.0
220
0.0
230
1.0
 70
     8
 71
     3
 72
    16
 73
    12
 74
     0
 42
0.000000001
 43
0.00000001
 40
0.0
 40
0.0
 40
0.0
 40
0.0
 40
0.0997533987985467
 40
0.2195945203805751
 40
0.3393695925250125
 40
0.4593966322709143
 40
0.5798213900816119
 40
0.6998671012985513
 40
0.8196466915150353
 40
0.9096440045319394
 40
1.0
 40
1.0
 40
1.0
 40
1.0
 10
14.90681949743113
 20
-0.7465323350050808
 30
0.0
 10
14.75904220099032
 20
-0.7671891770585484
 30
0.0
 10
14.43372912969743
 20
-0.812662608319465
 30
0.0
 10
13.93129700342942
 20
-0.792955319842008
 30
0.0
 10
13.39884542948063
 20
-0.7048947736285875
 30
0.0
 10
12.86541367559604
 20
-0.5483758991566833
 30
0.0
 10
12.33115509586318
 20
-0.3414505804010244
 30
0.0
 10
11.7976843061919
 20
-0.1015321252749482
 30
0.0
 10
11.30933900507164
 20
0.1265291739158277
 30
0.0
 10
10.8651201206796
 20
0.3257417358451897
 30
0.0
 10
10.59795156318256
 20
0.4290181616761327
 30
0.0
 10
10.46410161513781
 20
0.4807590714644115
 30
0.0
  0
SPLINE
  5
CA
330
1F
100
AcDbEntity
  8
0
  6
Continuous
 62
     1
370
    15
100
AcDbSpline
210
0.0
220
0.0
230
1.0
 70
    24
 71
     3
 72
    10
 73
     6
 74
     0
 42
0.000000001
 43
0.00000001
 40
0.0
 40
0.0
 40
0.0
 40
0.0
 40
0.5
 40
0.5
 40
1.0
 40
1.0
 40
1.0
 40
1.0
 10
22.46410161513773
 20
-0.7889722643682138
 30
0.0
 10
22.46410161513773
 20
-0.7284913890038028
 30
0.0
 10
22.46410161513774
 20
-0.6520714839064669
 30
0.0
 10
22.46410161513774
 20
-0.4744025591506786
 30
0.0
 10
22.46410161513773
 20
-0.3733074430513086
 30
0.0
 10
22.46410161513774
 20
-0.2672429460296759
 30
0.0
  0
SPLINE
  5
CB
330
1F
100
AcDbEntity
  8
0
  6
Continuous
 62
     1
370
    15
100
AcDbSpline
210
0.0
220
0.0
230
1.0
 70
     8
 71
     3
 72
    20
 73
    16
 74
     0
 42
0.000000001
 43
0.00000001
 40
0.0
 40
0.0
 40
0.0
 40
0.0
 40
0.0024270440392978
 40
0.0880722731823443
 40
0.1734884374658634
 40
0.2586911212081861
 40
0.3439060735212612
 40
0.4293586231084011
 40
0.5149876624848023
 40
0.6002989735745007
 40
0.6854797494891736
 40
0.7707564907503847
 40
0.8563464379752128
 40
0.9418548233584989
 40
1.0
 40
1.0
 40
1.0
 40
1.0
 10
20.34723288289402
 20
-0.75104999288974
 30
0.0
 10
20.34217956296761
 20
-0.7521596155906884
 30
0.0
 10
20.15880531601096
 20
-0.7924254665867501
 30
0.0
 10
19.79724745034199
 20
-0.8072909276561016
 30
0.0
 10
19.2636725280171
 20
-0.7832364660296564
 30
0.0
 10
18.73113496128047
 20
-0.6774679552615661
 30
0.0
 10
18.19852817940113
 20
-0.5100610705965584
 30
0.0
 10
17.66480450186645
 20
-0.2941205114874586
 30
0.0
 10
17.13060796712244
 20
-0.0511826878864663
 30
0.0
 10
16.59742361946395
 20
0.1973307830293969
 30
0.0
 10
16.06503261835883
 20
0.4268696536846904
 30
0.0
 10
15.53202833641808
 20
0.6171193714366282
 30
0.0
 10
14.99793450579493
 20
0.7461619516310193
 30
0.0
 10
14.52046131882759
 20
0.8084256772407757
 30
0.0
 10
14.22143033318807
 20
0.7927737343679877
 30
0.0
 10
14.10039463288089
 20
0.7864384582335616
 30
0.0
  0
SPLINE
  5
CC
330
1F
100
AcDbEntity
  8
0
  6
Continuous
 62
     1
370
    15
100
AcDbSpline
210
0.0
220
0.0
230
1.0
 70
     8
 71
     3
 72
     8
 73
     4
 74
     0
 42
0.000000001
 43
0.00000001
 40
0.0
 40
0.0
 40
0.0
 40
0.0
 40
1.0
 40
1.0
 40
1.0
 40
1.0
 10
22.46410161513773
 20
0.700000000000002
 30
0.0
 10
22.21522673474396
 20
0.6322959756877417
 30
0.0
 10
21.968819846639
 20
0.547101879878683
 30
0.0
 10
21.73079775881223
 20
0.4308481981411536
 30
0.0
  0
SPLINE
  5
CD
330
1F
100
AcDbEntity
  8
0
  6
Continuous
 62
   131
370
    15
100
AcDbSpline
210
0.0
220
0.0
230
1.0
 70
    24
 71
     3
 72
    11
 73
     7
 74
     0
 42
0.000000001
 43
0.00000001
 40
0.0
 40
0.0
 40
0.0
 40
0.0
 40
0.1321687683484992
 40
0.426220872947292
 40
0.709095509123691
 40
1.0
 40
1.0
 40
1.0
 40
1.0
 10
10.46410161513774
 20
0.6559240273476846
 30
0.0
 10
10.46410161513774
 20
0.6568417800506899
 30
0.0
 10
10.46410161513774
 20
0.6598013699985452
 30
0.0
 10
10.46410161513774
 20
0.631193006869602
 30
0.0
 10
10.46410161513774
 20
0.5743329289607045
 30
0.0
 10
10.46410161513774
 20
0.5122400141004049
 30
0.0
 10
10.46410161513774
 20
0.480759071464438
 30
0.0
  0
LINE
  5
CE
330
1F
100
AcDbEntity
  8
0
  6
Continuous
 62
     1
370
    15
100
AcDbLine
 10
22.46410161513773
 20
0.0000000000000022
 30
0.0
 11
22.46410161513773
 21
0.7000000000000023
 31
0.0
  0
LINE
  5
CF
330
1F
100
AcDbEntity
  8
0
  6
Continuous
 62
   131
370
    15
100
AcDbLine
 10
9.464101615137736
 20
1.000000000000001
 30
0.0
 11
9.464101615137736
 21
-0.9999999999999998
 31
0.0
  0
LINE
  5
D0
330
1F
100
AcDbEntity
  8
0
  6
Continuous
 62
   131
370
    15
100
AcDbLine
 10
2.0
 20
3.0
 30
0.0
 11
2.0
 21
-3.0
 31
0.0
  0
LINE
  5
D1
330
1F
100
AcDbEntity
  8
0
  6
Continuous
 62
   131
370
    15
100
AcDbLine
 10
-36.98589838486226
 20
2.999999999999995
 30
0.0
 11
-36.98589838486226
 21
-3.000000000000001
 31
0.0
  0
LINE
  5
D2
330
1F
100
AcDbEntity
  8
0
  6
Continuous
 62
   131
370
    15
100
AcDbLine
 10
-37.53589838486226
 20
2.449999999999994
 30
0.0
 11
-37.53589838486226
 21
-2.450000000000001
 31
0.0
  0
SPLINE
  5
D3
330
1F
100
AcDbEntity
  8
0
  6
Continuous
 62
   131
370
    15
100
AcDbSpline
210
0.0
220
0.0
230
1.0
 70
     8
 71
     3
 72
    10
 73
     6
 74
     0
 42
0.000000001
 43
0.00000001
 40
0.0
 40
0.0
 40
0.0
 40
0.0
 40
0.5
 40
0.5
 40
1.0
 40
1.0
 40
1.0
 40
1.0
 10
10.46410161513774
 20
-0.5689048503037166
 30
0.0
 10
10.32981233220547
 20
-0.5054530417641686
 30
0.0
 10
10.1997507847039
 20
-0.4376309434881044
 30
0.0
 10
9.932834192657662
 20
-0.2943245100181457
 30
0.0
 10
9.796897703310659
 20
-0.2189400129691255
 30
0.0
 10
9.663862573182485
 20
-0.1428148611838978
 30
0.0
  0
SPLINE
  5
D4
330
1F
100
AcDbEntity
  8
0
  6
Continuous
 62
   131
370
    15
100
AcDbSpline
210
0.0
220
0.0
230
1.0
 70
     8
 71
     3
 72
    10
 73
     6
 74
     0
 42
0.000000001
 43
0.00000001
 40
0.0
 40
0.0
 40
0.0
 40
0.0
 40
0.5000000000000001
 40
0.5000000000000001
 40
1.0
 40
1.0
 40
1.0
 40
1.0
 10
9.663984795954466
 20
-0.4106743696653209
 30
0.0
 10
9.79700132179223
 20
-0.48079234718199
 30
0.0
 10
9.932916689676215
 20
-0.5477188326578478
 30
0.0
 10
10.19979089807363
 20
-0.6698645488171432
 30
0.0
 10
10.32983289457181
 20
-0.7250557799993076
 30
0.0
 10
10.46410161514235
 20
-0.7739096930295616
 30
0.0
  0
ELLIPSE
  5
D5
330
1F
100
AcDbEntity
  8
0
  6
Continuous
 62
   131
370
    15
100
AcDbEllipse
 10
9.663949793101654
 20
0.0000000000000007
 30
0.0
 11
5.399858418009273E-5
 21
0.9999999999999998
 31
0.0
210
0.0
220
0.0
230
1.0
 40
0.0000626325672197
 41
3.141592657189755
 42
4.28953706723821
  0
SPLINE
  5
D6
330
1F
100
AcDbEntity
  8
0
  6
Continuous
 62
   131
370
    15
100
AcDbSpline
210
0.0
220
0.0
230
1.0
 70
     8
 71
     3
 72
     9
 73
     5
 74
     0
 42
0.000000001
 43
0.00000001
 40
0.0
 40
0.0
 40
0.0
 40
0.0
 40
0.3084177755523463
 40
1.0
 40
1.0
 40
1.0
 40
1.0
 10
10.21692431457291
 20
0.6717758268658072
 30
0.0
 10
10.24236158247367
 20
0.6841217983570552
 30
0.0
 10
10.32483824211238
 20
0.7241518240880225
 30
0.0
 10
10.40716552778177
 20
0.7535668109690146
 30
0.0
 10
10.46410161513774
 20
0.7739096930282696
 30
0.0
  0
ELLIPSE
  5
D7
330
1F
100
AcDbEntity
  8
0
  6
Continuous
 62
   131
370
    15
100
AcDbEllipse
 10
9.663949793101654
 20
0.0000000000000007
 30
0.0
 11
-5.399858418009273E-5
 21
0.9999999999999996
 31
0.0
210
0.0
220
0.0
230
1.0
 40
0.0000626325672197
 41
5.525212558711299
 42
7.997243619783966
  0
LINE
  5
D8
330
1F
100
AcDbEntity
  8
0
  6
Continuous
 62
   131
370
    15
100
AcDbLine
 10
9.663897014753502
 20
0.7143270904936238
 30
0.0
 11
9.663888730295916
 21
0.7153105100744267
 31
0.0
  0
SPLINE
  5
D9
330
1F
100
AcDbEntity
  8
0
  6
Continuous
 62
   131
370
    15
100
AcDbSpline
210
0.0
220
0.0
230
1.0
 70
    24
 71
     3
 72
    10
 73
     6
 74
     0
 42
0.000000001
 43
0.00000001
 40
0.0
 40
0.0
 40
0.0
 40
0.0
 40
0.5
 40
0.5
 40
1.0
 40
1.0
 40
1.0
 40
1.0
 10
9.663940148107876
 20
0.7153136593278674
 30
0.0
 10
9.663940148107876
 20
0.6307690839280694
 30
0.0
 10
9.663940148107876
 20
0.5136567794820891
 30
0.0
 10
9.663940148107876
 20
0.2389745931087124
 30
0.0
 10
9.663940148107876
 20
0.082587050692271
 30
0.0
 10
9.663940148107876
 20
-0.0705039289903749
 30
0.0
  0
SPLINE
  5
DA
330
1F
100
AcDbEntity
  8
0
  6
Continuous
 62
   131
370
    15
100
AcDbSpline
210
0.0
220
0.0
230
1.0
 70
    24
 71
     3
 72
     8
 73
     4
 74
     0
 42
0.000000001
 43
0.00000001
 40
0.0
 40
0.0
 40
0.0
 40
0.0
 40
1.0
 40
1.0
 40
1.0
 40
1.0
 10
9.663862573182485
 20
-0.0704659382882087
 30
0.0
 10
9.663862573182485
 20
-0.0906551901036029
 30
0.0
 10
9.663862573182485
 20
-0.1149075764939055
 30
0.0
 10
9.663862573182485
 20
-0.1428104445629345
 30
0.0
  0
SPLINE
  5
DB
330
1F
100
AcDbEntity
  8
0
  6
Continuous
 62
   131
370
    15
100
AcDbSpline
210
0.0
220
0.0
230
1.0
 70
    24
 71
     3
 72
     8
 73
     4
 74
     0
 42
0.000000001
 43
0.00000001
 40
0.0
 40
0.0
 40
0.0
 40
0.0
 40
1.0
 40
1.0
 40
1.0
 40
1.0
 10
10.46410161513774
 20
-0.4405573216252106
 30
0.0
 10
10.46410161513774
 20
-0.4805682665785284
 30
0.0
 10
10.46410161513774
 20
-0.5236134423217667
 30
0.0
 10
10.46410161513774
 20
-0.5689048503036536
 30
0.0
  0
SPLINE
  5
DC
330
1F
100
AcDbEntity
  8
0
  6
Continuous
 62
   131
370
    15
100
AcDbSpline
210
0.0
220
0.0
230
1.0
 70
     8
 71
     3
 72
    10
 73
     6
 74
     0
 42
0.000000001
 43
0.00000001
 40
0.0
 40
0.0
 40
0.0
 40
0.0
 40
0.5
 40
0.5
 40
1.0
 40
1.0
 40
1.0
 40
1.0
 10
10.46410161513802
 20
-0.4405573216253264
 30
0.0
 10
10.3298123322057
 20
-0.3844726297474245
 30
0.0
 10
10.19975078470408
 20
-0.3250767223986302
 30
0.0
 10
9.93283419265775
 20
-0.2006004827577776
 30
0.0
 10
9.796897703310705
 20
-0.1356174241357165
 30
0.0
 10
9.663862573182485
 20
-0.0704659382882086
 30
0.0
  0
SPLINE
  5
DD
330
1F
100
AcDbEntity
  8
0
  6
Continuous
 62
   131
370
    15
100
AcDbSpline
210
0.0
220
0.0
230
1.0
 70
     8
 71
     3
 72
    10
 73
     6
 74
     0
 42
0.000000001
 43
0.00000001
 40
0.0
 40
0.0
 40
0.0
 40
0.0
 40
0.5
 40
0.5
 40
1.0
 40
1.0
 40
1.0
 40
1.0
 10
10.46410161515193
 20
0.4807590714592231
 30
0.0
 10
10.32982538320255
 20
0.5300889365522135
 30
0.0
 10
10.19977624481416
 20
0.5746430834821723
 30
0.0
 10
9.932886553773749
 20
0.6535861210110541
 30
0.0
 10
9.796963470222046
 20
0.68776376891122
 30
0.0
 10
9.663940148107876
 20
0.715313659327867
 30
0.0
  0
SPLINE
  5
DE
330
1F
100
AcDbEntity
  8
0
  6
Continuous
 62
   131
370
    15
100
AcDbSpline
210
0.0
220
0.0
230
1.0
 70
    24
 71
     3
 72
    10
 73
     6
 74
     0
 42
0.000000001
 43
0.00000001
 40
0.0
 40
0.0
 40
0.0
 40
0.0
 40
0.5
 40
0.5
 40
1.0
 40
1.0
 40
1.0
 40
1.0
 10
10.46410161513771
 20
0.4807590714644483
 30
0.0
 10
10.46410161513771
 20
0.3475873204115565
 30
0.0
 10
10.46410161513771
 20
0.190772071266006
 30
0.0
 10
10.46410161513771
 20
-0.1312736616846917
 30
0.0
 10
10.46410161513771
 20
-0.2951179347587047
 30
0.0
 10
10.46410161513771
 20
-0.4405573216251992
 30
0.0
  0
SPLINE
  5
DF
330
1F
100
AcDbEntity
  8
0
  6
Continuous
 62
   131
370
    15
100
AcDbSpline
210
0.0
220
0.0
230
1.0
 70
    24
 71
     3
 72
    11
 73
     7
 74
     0
 42
0.000000001
 43
0.00000001
 40
0.0
 40
0.0
 40
0.0
 40
0.0
 40
0.119637465765189
 40
0.4179356216278624
 40
0.7048949087476525
 40
1.0
 40
1.0
 40
1.0
 40
1.0
 10
10.46410161513774
 20
0.6560118160541771
 30
0.0
 10
10.46410161513774
 20
0.6567883220058337
 30
0.0
 10
10.46410161513774
 20
0.6595009295951674
 30
0.0
 10
10.46410161513774
 20
0.6310993815357107
 30
0.0
 10
10.46410161513774
 20
0.5743567213837656
 30
0.0
 10
10.46410161513774
 20
0.5122480185572648
 30
0.0
 10
10.46410161513774
 20
0.480759071464438
 30
0.0
  0
SPLINE
  5
E0
330
1F
100
AcDbEntity
  8
0
  6
Continuous
 62
   131
370
    15
100
AcDbSpline
210
0.0
220
0.0
230
1.0
 70
    24
 71
     3
 72
     9
 73
     5
 74
     0
 42
0.000000001
 43
0.00000001
 40
0.0
 40
0.0
 40
0.0
 40
0.0
 40
0.1864688227420453
 40
1.0
 40
1.0
 40
1.0
 40
1.0
 10
10.46410161513774
 20
0.7739096930282695
 30
0.0
 10
10.46410161513774
 20
0.7660283538107431
 30
0.0
 10
10.46410161513773
 20
0.723762096633643
 30
0.0
 10
10.4641016151378
 20
0.688441979525112
 30
0.0
 10
10.46410161513786
 20
0.6597079630729199
 30
0.0
  0
LINE
  5
E1
330
1F
100
AcDbEntity
  8
중심선
 62
     1
100
AcDbLine
 10
-40.53589838486225
 20
-0.0000000000000041
 30
0.0
 11
23.96410161513774
 21
0.0000000000000024
 31
0.0
  0
CIRCLE
  5
E2
330
1F
100
AcDbEntity
  8
외형선
100
AcDbCircle
 10
0.0000000000000104
 20
0.0
 30
0.0
 40
3.000000000000005
  0
INSERT
  5
E3
330
1F
100
AcDbEntity
  8
0
  6
Continuous
 62
     7
100
AcDbBlockReference
 66
     1
  2
블럭10
 10
-22.93944368806589
 20
-52.04609937292004
 30
0.0
  0
ATTRIB
  5
E4
330
E3
100
AcDbEntity
  8
FORMAT
 62
     2
100
AcDbText
 10
-39.05870472750145
 20
-49.97073246008785
 30
0.0
 40
4.233333333333333
  1
SEME7002012E [ 2 FLUTE ]
 41
0.75
  7
SLDTEXTSTYLE0
 11
-39.05870472750145
 21
-52.08739912675452
 31
0.0
100
AcDbAttribute
  2
AUTOATTR0
 70
     0
 74
     1
  0
SEQEND
  5
E5
330
E3
100
AcDbEntity
  8
0
  6
Continuous
 62
     7
  0
HATCH
  5
E6
330
1F
100
AcDbEntity
  8
중심선
100
AcDbHatch
 10
0.0
 20
0.0
 30
0.0
210
0.0
220
0.0
230
1.0
  2
SOLID
 70
     1
 71
     0
 91
        1
 92
        0
 93
        4
 72
     1
 10
-17.22453438368504
 20
-35.7989250712761
 11
-20.67080962752232
 21
-35.7989250712761
 72
     1
 10
-20.67080962752232
 20
-35.7989250712761
 11
-22.79903948672635
 21
-38.3352506518487
 72
     1
 10
-22.79903948672635
 20
-38.3352506518487
 11
-19.35273115777591
 21
-38.33521122254621
 72
     1
 10
-19.35273115777591
 20
-38.33521122254621
 11
-17.22453438368504
 21
-35.7989250712761
 97
        0
 75
     0
 76
     1
 98
        1
 10
0.0
 20
0.0
  0
HATCH
  5
E7
330
1F
100
AcDbEntity
  8
중심선
100
AcDbHatch
 10
0.0
 20
0.0
 30
0.0
210
0.0
220
0.0
230
1.0
  2
SOLID
 70
     1
 71
     0
 91
        1
 92
        0
 93
        4
 72
     1
 10
-12.21177039264909
 20
-35.7989250712761
 11
-15.65804563648637
 21
-35.7989250712761
 72
     1
 10
-15.65804563648637
 20
-35.7989250712761
 11
-20.18918364484376
 21
-41.19892507127612
 72
     1
 10
-20.18918364484376
 20
-41.19892507127612
 11
-16.74290840100648
 21
-41.19892507127612
 72
     1
 10
-16.74290840100648
 20
-41.19892507127612
 11
-12.21177039264909
 21
-35.7989250712761
 97
        0
 75
     0
 76
     1
 98
        1
 10
0.0
 20
0.0
  0
HATCH
  5
E8
330
1F
100
AcDbEntity
  8
중심선
100
AcDbHatch
 10
0.0
 20
0.0
 30
0.0
210
0.0
220
0.0
230
1.0
  2
SOLID
 70
     1
 71
     0
 91
        1
 92
        0
 93
        4
 72
     1
 10
-7.199006401613195
 20
-35.79892507127613
 11
-10.64528164545031
 21
-35.7989250712761
 72
     1
 10
-10.64528164545031
 20
-35.7989250712761
 11
-17.69371854733956
 21
-44.19892507127612
 72
     1
 10
-17.69371854733956
 20
-44.19892507127612
 11
-14.24744330350228
 21
-44.19892507127612
 72
     1
 10
-14.24744330350228
 20
-44.19892507127612
 11
-7.199006401613195
 21
-35.79892507127613
 97
        0
 75
     0
 76
     1
 98
        1
 10
0.0
 20
0.0
  0
HATCH
  5
E9
330
1F
100
AcDbEntity
  8
중심선
100
AcDbHatch
 10
0.0
 20
0.0
 30
0.0
210
0.0
220
0.0
230
1.0
  2
SOLID
 70
     1
 71
     0
 91
        1
 92
        0
 93
        6
 72
     3
 10
-2.399115970600996
 20
-39.99892507132738
 11
3.960054785062284
 21
1.540850780301639E-10
 40
0.3939339440162633
 50
17.09539180608433
 51
320.0019657685079
 73
     0
 72
     1
 10
-0.7161163149004002
 20
-38.58681907591441
 11
1.589185558800638
 21
-36.65249236586649
 72
     3
 10
-2.399115970653842
 20
-39.99892507127625
 11
6.600054785286829
 21
-1.249000902703301E-13
 40
0.6363583540795982
 50
39.99873849337408
 51
368.4976242363724
 73
     1
 72
     1
 10
4.026216521246767
 20
-39.03892507120613
 11
-3.71904866381792
 21
-39.0389250712061
 72
     1
 10
-3.71904866381792
 20
-39.0389250712061
 11
-3.719073708263854
 21
-40.95892507120602
 72
     1
 10
-3.719073708263854
 20
-40.95892507120602
 11
0.7223060612081835
 21
-40.95892507120599
 97
        0
 75
     0
 76
     1
 98
        1
 10
0.0
 20
0.0
  0
DIMENSION
  5
EA
330
1F
100
AcDbEntity
  8
치수문자_일반주서
100
AcDbDimension
  2
_D
 10
34.76889823874901
 20
1.000000000000048
 30
0.0
 11
34.76889823874897
 21
13.08734755714842
 31
0.0
 70
   160
  1
%%c<>
 71
     2
 42
2.0
 52
-270.0
  3
SLDDIMSTYLE0
100
AcDbAlignedDimension
 13
22.46410161513767
 23
-0.9999999999999978
 33
0.0
 14
22.46410161513774
 24
1.000000000000002
 34
0.0
 50
90.0000000000002
100
AcDbRotatedDimension
  0
DIMENSION
  5
F8
330
1F
100
AcDbEntity
  8
치수문자_일반주서
100
AcDbDimension
  2
_D_1
 10
22.46410161513774
 20
24.23841044024269
 30
0.0
 11
-7.535898384862257
 21
24.23841044024269
 31
0.0
 70
   160
  1
<>
 71
     2
 42
59.99999999999999
  3
SLDDIMSTYLE1
100
AcDbAlignedDimension
 13
-37.53589838486226
 23
2.449999999999994
 33
0.0
 14
22.46410161513774
 24
1.011440869231902
 34
0.0
 50
-0.0000000000000068
100
AcDbRotatedDimension
  0
DIMENSION
  5
103
330
1F
100
AcDbEntity
  8
치수문자_일반주서
100
AcDbDimension
  2
_D_2
 10
22.46410161513774
 20
14.12090749919579
 30
0.0
 11
16.46410161513774
 21
14.12090749919579
 31
0.0
 70
   160
  1
<>
 71
     2
 42
12.0
  3
SLDDIMSTYLE0
100
AcDbAlignedDimension
 13
10.46410161513774
 23
0.7739096930282695
 33
0.0
 14
22.46410161513774
 24
1.011440869231902
 34
0.0
100
AcDbRotatedDimension
  0
DIMENSION
  5
10F
330
1F
100
AcDbEntity
  8
치수문자_일반주서
100
AcDbDimension
  2
_D_3
 10
-45.1962170936761
 20
-3.000000000000032
 30
0.0
 11
-45.19621709367615
 21
12.66649999999997
 31
0.0
 70
   160
  1
%%c<>
 71
     2
 42
5.999999999999995
 52
-270.0
  3
SLDDIMSTYLE0
100
AcDbAlignedDimension
 13
-36.98589838486226
 23
2.999999999999995
 33
0.0
 14
-36.98589838486226
 24
-3.0
 34
0.0
 50
90.0000000000002
100
AcDbRotatedDimension
  0
INSERT
  5
122
330
1F
100
AcDbEntity
  8
외형선
100
AcDbBlockReference
  2
SW_DOWELSYMBOL_0
 10
0.0000000000000104
 20
0.0
 30
0.0
  0
ENDSEC
  0
SECTION
  2
OBJECTS
  0
DICTIONARY
  5
C
330
0
100
AcDbDictionary
281
     1
  3
ACAD_GROUP
350
D
  3
ACAD_IMAGE_VARS
350
146
  3
ACAD_LAYOUT
350
1A
  3
ACAD_MLINESTYLE
350
17
  3
ACAD_PLOTSETTINGS
350
19
  3
ACAD_PLOTSTYLENAME
350
E
  3
ACAD_SCALELIST
350
47
  3
APPDATA
350
144
  3
DWGPROPS
350
19A
  0
DICTIONARY
  5
D
102
{ACAD_REACTORS
330
C
102
}
330
C
100
AcDbDictionary
281
     1
  0
RASTERVARIABLES
  5
146
102
{ACAD_REACTORS
330
C
102
}
330
C
100
AcDbRasterVariables
 90
        0
 70
     1
 71
     1
 72
     1
  0
DICTIONARY
  5
1A
102
{ACAD_REACTORS
330
C
102
}
330
C
100
AcDbDictionary
281
     1
  3
Layout1
350
1E
  3
Layout2
350
26
  3
Model
350
22
  0
DICTIONARY
  5
17
102
{ACAD_REACTORS
330
C
102
}
330
C
100
AcDbDictionary
281
     1
  3
Standard
350
18
  0
DICTIONARY
  5
19
102
{ACAD_REACTORS
330
C
102
}
330
C
100
AcDbDictionary
281
     1
  0
ACDBDICTIONARYWDFLT
  5
E
102
{ACAD_REACTORS
330
C
102
}
330
C
100
AcDbDictionary
281
     1
  3
Normal
350
F
100
AcDbDictionaryWithDefault
340
F
  0
DICTIONARY
  5
47
102
{ACAD_REACTORS
330
C
102
}
330
C
100
AcDbDictionary
281
     1
  3
A0
350
48
  3
A1
350
49
  3
A2
350
4A
  3
A3
350
4B
  3
A4
350
4C
  3
A5
350
4D
  3
A6
350
4E
  3
A7
350
4F
  3
A8
350
50
  3
A9
350
51
  3
B0
350
52
  3
B1
350
53
  3
B2
350
54
  3
B3
350
55
  3
B4
350
56
  3
B5
350
57
  3
B6
350
58
  3
B7
350
59
  3
B8
350
5A
  3
B9
350
5B
  3
C0
350
5C
  3
C1
350
5D
  3
C2
350
5E
  3
C3
350
5F
  3
C4
350
60
  3
C5
350
61
  3
C6
350
62
  3
C7
350
63
  3
C8
350
64
  3
C9
350
65
  3
D0
350
66
  3
D1
350
67
  3
D2
350
68
  0
DICTIONARY
  5
144
102
{ACAD_REACTORS
330
C
102
}
330
C
100
AcDbDictionary
281
     1
  0
XRECORD
  5
19A
102
{ACAD_REACTORS
330
C
102
}
330
C
100
AcDbXrecord
280
     1
  1
DWGPROPS COOKIE
  2

  3

  4

  6

  7

  8
12014102
  9

300
=
301
=
302
=
303
=
304
=
305
=
306
=
307
=
308
=
309
=
 40
0.0
 41
2458262.160534757
 42
2458264.419043866
  1

 90
        0
  0
LAYOUT
  5
1E
102
{ACAD_REACTORS
330
1A
102
}
330
1A
100
AcDbPlotSettings
  1

  2
none_device
  4

  6

 40
0.0
 41
0.0
 42
0.0
 43
0.0
 44
0.0
 45
0.0
 46
0.0
 47
0.0
 48
0.0
 49
0.0
140
0.0
141
0.0
142
1.0
143
1.0
 70
   688
 72
     1
 73
     0
 74
     5
  7

 75
    16
147
1.0
148
0.0
149
0.0
100
AcDbLayout
  1
Layout1
 70
     1
 71
     1
 10
0.0
 20
0.0
 11
420.0
 21
297.0
 12
0.0
 22
0.0
 32
0.0
 14
1.000000000000000E+20
 24
1.000000000000000E+20
 34
1.000000000000000E+20
 15
-1.000000000000000E+20
 25
-1.000000000000000E+20
 35
-1.000000000000000E+20
146
0.0
 13
0.0
 23
0.0
 33
0.0
 16
1.0
 26
0.0
 36
0.0
 17
0.0
 27
1.0
 37
0.0
 76
     0
330
1B
  0
LAYOUT
  5
26
102
{ACAD_REACTORS
330
1A
102
}
330
1A
100
AcDbPlotSettings
  1

  2
none_device
  4

  6

 40
0.0
 41
0.0
 42
0.0
 43
0.0
 44
0.0
 45
0.0
 46
0.0
 47
0.0
 48
0.0
 49
0.0
140
0.0
141
0.0
142
1.0
143
1.0
 70
   688
 72
     1
 73
     0
 74
     5
  7

 75
    16
147
1.0
148
0.0
149
0.0
100
AcDbLayout
  1
Layout2
 70
     1
 71
     2
 10
0.0
 20
0.0
 11
0.0
 21
0.0
 12
0.0
 22
0.0
 32
0.0
 14
0.0
 24
0.0
 34
0.0
 15
0.0
 25
0.0
 35
0.0
146
0.0
 13
0.0
 23
0.0
 33
0.0
 16
1.0
 26
0.0
 36
0.0
 17
0.0
 27
1.0
 37
0.0
 76
     0
330
23
  0
LAYOUT
  5
22
102
{ACAD_REACTORS
330
1A
102
}
330
1A
100
AcDbPlotSettings
  1

  2
none_device
  4
ANSI_A_(11.00_x_8.50_Inches)
  6

 40
6.35
 41
19.05
 42
6.35000508
 43
19.05000254
 44
279.4
 45
215.9
 46
143.0752957099583
 47
118.4377884955873
 48
0.0
 49
0.0
140
0.0
141
0.0
142
0.1058944507156154
143
1.0
 70
  1696
 72
     0
 73
     0
 74
     0
  7

 75
     0
147
0.0235690232323232
148
0.0
149
0.0
100
AcDbLayout
  1
Model
 70
     1
 71
     0
 10
0.0
 20
0.0
 11
420.0
 21
297.0
 12
0.0
 22
0.0
 32
0.0
 14
-49.57121709367616
 24
-49.97073246008785
 34
0.0
 15
35.31923157208237
 25
28.61341044024268
 35
0.0
146
0.0
 13
0.0
 23
0.0
 33
0.0
 16
1.0
 26
0.0
 36
0.0
 17
0.0
 27
1.0
 37
0.0
 76
     0
330
1F
331
29
  0
MLINESTYLE
  5
18
102
{ACAD_REACTORS
330
17
102
}
330
17
100
AcDbMlineStyle
  2
Standard
 70
     0
  3

 62
   256
 51
90.0
 52
90.0
 71
     2
 49
0.5
 62
   256
  6
BYLAYER
 49
-0.5
 62
   256
  6
BYLAYER
  0
ACDBPLACEHOLDER
  5
F
102
{ACAD_REACTORS
330
E
102
}
330
E
  0
SCALE
  5
48
102
{ACAD_REACTORS
330
47
102
}
330
47
100
AcDbScale
 70
     0
300
1:1
140
1.0
141
1.0
290
     1
  0
SCALE
  5
49
102
{ACAD_REACTORS
330
47
102
}
330
47
100
AcDbScale
 70
     0
300
1:2
140
1.0
141
2.0
290
     0
  0
SCALE
  5
4A
102
{ACAD_REACTORS
330
47
102
}
330
47
100
AcDbScale
 70
     0
300
1:4
140
1.0
141
4.0
290
     0
  0
SCALE
  5
4B
102
{ACAD_REACTORS
330
47
102
}
330
47
100
AcDbScale
 70
     0
300
1:5
140
1.0
141
5.0
290
     0
  0
SCALE
  5
4C
102
{ACAD_REACTORS
330
47
102
}
330
47
100
AcDbScale
 70
     0
300
1:8
140
1.0
141
8.0
290
     0
  0
SCALE
  5
4D
102
{ACAD_REACTORS
330
47
102
}
330
47
100
AcDbScale
 70
     0
300
1:10
140
1.0
141
10.0
290
     0
  0
SCALE
  5
4E
102
{ACAD_REACTORS
330
47
102
}
330
47
100
AcDbScale
 70
     0
300
1:16
140
1.0
141
16.0
290
     0
  0
SCALE
  5
4F
102
{ACAD_REACTORS
330
47
102
}
330
47
100
AcDbScale
 70
     0
300
1:20
140
1.0
141
20.0
290
     0
  0
SCALE
  5
50
102
{ACAD_REACTORS
330
47
102
}
330
47
100
AcDbScale
 70
     0
300
1:30
140
1.0
141
30.0
290
     0
  0
SCALE
  5
51
102
{ACAD_REACTORS
330
47
102
}
330
47
100
AcDbScale
 70
     0
300
1:40
140
1.0
141
40.0
290
     0
  0
SCALE
  5
52
102
{ACAD_REACTORS
330
47
102
}
330
47
100
AcDbScale
 70
     0
300
1:50
140
1.0
141
50.0
290
     0
  0
SCALE
  5
53
102
{ACAD_REACTORS
330
47
102
}
330
47
100
AcDbScale
 70
     0
300
1:100
140
1.0
141
100.0
290
     0
  0
SCALE
  5
54
102
{ACAD_REACTORS
330
47
102
}
330
47
100
AcDbScale
 70
     0
300
2:1
140
2.0
141
1.0
290
     0
  0
SCALE
  5
55
102
{ACAD_REACTORS
330
47
102
}
330
47
100
AcDbScale
 70
     0
300
4:1
140
4.0
141
1.0
290
     0
  0
SCALE
  5
56
102
{ACAD_REACTORS
330
47
102
}
330
47
100
AcDbScale
 70
     0
300
8:1
140
8.0
141
1.0
290
     0
  0
SCALE
  5
57
102
{ACAD_REACTORS
330
47
102
}
330
47
100
AcDbScale
 70
     0
300
10:1
140
10.0
141
1.0
290
     0
  0
SCALE
  5
58
102
{ACAD_REACTORS
330
47
102
}
330
47
100
AcDbScale
 70
     0
300
100:1
140
100.0
141
1.0
290
     0
  0
SCALE
  5
59
102
{ACAD_REACTORS
330
47
102
}
330
47
100
AcDbScale
 70
     0
300
1/128" = 1'-0"
140
0.0078125
141
12.0
290
     0
  0
SCALE
  5
5A
102
{ACAD_REACTORS
330
47
102
}
330
47
100
AcDbScale
 70
     0
300
1/64" = 1'-0"
140
0.015625
141
12.0
290
     0
  0
SCALE
  5
5B
102
{ACAD_REACTORS
330
47
102
}
330
47
100
AcDbScale
 70
     0
300
1/32" = 1'-0"
140
0.03125
141
12.0
290
     0
  0
SCALE
  5
5C
102
{ACAD_REACTORS
330
47
102
}
330
47
100
AcDbScale
 70
     0
300
1/16" = 1'-0"
140
0.0625
141
12.0
290
     0
  0
SCALE
  5
5D
102
{ACAD_REACTORS
330
47
102
}
330
47
100
AcDbScale
 70
     0
300
3/32" = 1'-0"
140
0.09375
141
12.0
290
     0
  0
SCALE
  5
5E
102
{ACAD_REACTORS
330
47
102
}
330
47
100
AcDbScale
 70
     0
300
1/8" = 1'-0"
140
0.125
141
12.0
290
     0
  0
SCALE
  5
5F
102
{ACAD_REACTORS
330
47
102
}
330
47
100
AcDbScale
 70
     0
300
3/16" = 1'-0"
140
0.1875
141
12.0
290
     0
  0
SCALE
  5
60
102
{ACAD_REACTORS
330
47
102
}
330
47
100
AcDbScale
 70
     0
300
1/4" = 1'-0"
140
0.25
141
12.0
290
     0
  0
SCALE
  5
61
102
{ACAD_REACTORS
330
47
102
}
330
47
100
AcDbScale
 70
     0
300
3/8" = 1'-0"
140
0.375
141
12.0
290
     0
  0
SCALE
  5
62
102
{ACAD_REACTORS
330
47
102
}
330
47
100
AcDbScale
 70
     0
300
1/2" = 1'-0"
140
0.5
141
12.0
290
     0
  0
SCALE
  5
63
102
{ACAD_REACTORS
330
47
102
}
330
47
100
AcDbScale
 70
     0
300
3/4" = 1'-0"
140
0.75
141
12.0
290
     0
  0
SCALE
  5
64
102
{ACAD_REACTORS
330
47
102
}
330
47
100
AcDbScale
 70
     0
300
1" = 1'-0"
140
1.0
141
12.0
290
     0
  0
SCALE
  5
65
102
{ACAD_REACTORS
330
47
102
}
330
47
100
AcDbScale
 70
     0
300
1-1/2" = 1'-0"
140
1.5
141
12.0
290
     0
  0
SCALE
  5
66
102
{ACAD_REACTORS
330
47
102
}
330
47
100
AcDbScale
 70
     0
300
3" = 1'-0"
140
3.0
141
12.0
290
     0
  0
SCALE
  5
67
102
{ACAD_REACTORS
330
47
102
}
330
47
100
AcDbScale
 70
     0
300
6" = 1'-0"
140
6.0
141
12.0
290
     0
  0
SCALE
  5
68
102
{ACAD_REACTORS
330
47
102
}
330
47
100
AcDbScale
 70
     0
300
1'-0" = 1'-0"
140
12.0
141
12.0
290
     0
  0
ENDSEC
  0
EOF
