  0
SECTION
  2
HEADER
  9
$ACADVER
  1
AC1015
  9
$ACADMAINTVER
 70
     6
  9
$DWGCODEPAGE
  3
ANSI_949
  9
$INSBASE
 10
0.0
 20
0.0
 30
0.0
  9
$EXTMIN
 10
-48.46537053986692
 20
-49.97073246008785
 30
0.0
  9
$EXTMAX
 10
37.67768247613368
 20
28.61341044024269
 30
0.0
  9
$LIMMIN
 10
0.0
 20
0.0
  9
$LIMMAX
 10
420.0
 20
297.0
  9
$ORTHOMODE
 70
     0
  9
$REGENMODE
 70
     1
  9
$FILLMODE
 70
     1
  9
$QTEXTMODE
 70
     0
  9
$MIRRTEXT
 70
     1
  9
$LTSCALE
 40
1.0
  9
$ATTMODE
 70
     1
  9
$TEXTSIZE
 40
3.5
  9
$TRACEWID
 40
1.0
  9
$TEXTSTYLE
  7
Standard
  9
$CLAYER
  8
0
  9
$CELTYPE
  6
ByLayer
  9
$CECOLOR
 62
   256
  9
$CELTSCALE
 40
1.0
  9
$DISPSILH
 70
     0
  9
$DIMSCALE
 40
1.0
  9
$DIMASZ
 40
3.302
  9
$DIMEXO
 40
1.0
  9
$DIMDLI
 40
3.75
  9
$DIMRND
 40
0.0
  9
$DIMDLE
 40
0.0
  9
$DIMEXE
 40
1.0
  9
$DIMTP
 40
0.0
  9
$DIMTM
 40
0.0
  9
$DIMTXT
 40
3.5
  9
$DIMCEN
 40
2.5
  9
$DIMTSZ
 40
0.0
  9
$DIMTOL
 70
     0
  9
$DIMLIM
 70
     0
  9
$DIMTIH
 70
     1
  9
$DIMTOH
 70
     1
  9
$DIMSE1
 70
     0
  9
$DIMSE2
 70
     0
  9
$DIMTAD
 70
     1
  9
$DIMZIN
 70
     0
  9
$DIMBLK
  1

  9
$DIMASO
 70
     1
  9
$DIMSHO
 70
     1
  9
$DIMPOST
  1

  9
$DIMAPOST
  1

  9
$DIMALT
 70
     0
  9
$DIMALTD
 70
     3
  9
$DIMALTF
 40
0.0393700787401575
  9
$DIMLFAC
 40
1.0
  9
$DIMTOFL
 70
     1
  9
$DIMTVP
 40
0.0
  9
$DIMTIX
 70
     0
  9
$DIMSOXD
 70
     0
  9
$DIMSAH
 70
     0
  9
$DIMBLK1
  1

  9
$DIMBLK2
  1

  9
$DIMSTYLE
  2
ISO-25
  9
$DIMCLRD
 70
     0
  9
$DIMCLRE
 70
     0
  9
$DIMCLRT
 70
     0
  9
$DIMTFAC
 40
1.0
  9
$DIMGAP
 40
1.524
  9
$DIMJUST
 70
     0
  9
$DIMSD1
 70
     0
  9
$DIMSD2
 70
     0
  9
$DIMTOLJ
 70
     0
  9
$DIMTZIN
 70
     0
  9
$DIMALTZ
 70
     0
  9
$DIMALTTZ
 70
     0
  9
$DIMUPT
 70
     0
  9
$DIMDEC
 70
     2
  9
$DIMTDEC
 70
     2
  9
$DIMALTU
 70
     2
  9
$DIMALTTD
 70
     3
  9
$DIMTXSTY
  7
Standard
  9
$DIMAUNIT
 70
     0
  9
$DIMADEC
 70
     2
  9
$DIMALTRND
 40
0.0
  9
$DIMAZIN
 70
     0
  9
$DIMDSEP
 70
    44
  9
$DIMATFIT
 70
     3
  9
$DIMFRAC
 70
     0
  9
$DIMLDRBLK
  1

  9
$DIMLUNIT
 70
     2
  9
$DIMLWD
 70
    -2
  9
$DIMLWE
 70
    -2
  9
$DIMTMOVE
 70
     0
  9
$LUNITS
 70
     2
  9
$LUPREC
 70
     2
  9
$SKETCHINC
 40
1.0
  9
$FILLETRAD
 40
10.0
  9
$AUNITS
 70
     0
  9
$AUPREC
 70
     2
  9
$MENU
  1
.
  9
$ELEVATION
 40
0.0
  9
$PELEVATION
 40
0.0
  9
$THICKNESS
 40
0.0
  9
$LIMCHECK
 70
     0
  9
$CHAMFERA
 40
0.0
  9
$CHAMFERB
 40
0.0
  9
$CHAMFERC
 40
0.0
  9
$CHAMFERD
 40
0.0
  9
$SKPOLY
 70
     0
  9
$TDCREATE
 40
2458262.535722662
  9
$TDUCREATE
 40
2458262.160722662
  9
$TDUPDATE
 40
2458264.795110845
  9
$TDUUPDATE
 40
2458264.420110845
  9
$TDINDWG
 40
0.0028766435
  9
$TDUSRTIMER
 40
2458264.419168924
  9
$USRTIMER
 70
     1
  9
$ANGBASE
 50
0.0
  9
$ANGDIR
 70
     0
  9
$PDMODE
 70
     0
  9
$PDSIZE
 40
-1.0
  9
$PLINEWID
 40
0.0
  9
$SPLFRAME
 70
     0
  9
$SPLINETYPE
 70
     6
  9
$SPLINESEGS
 70
     8
  9
$HANDSEED
  5
1A5
  9
$SURFTAB1
 70
     6
  9
$SURFTAB2
 70
     6
  9
$SURFTYPE
 70
     6
  9
$SURFU
 70
     6
  9
$SURFV
 70
     6
  9
$UCSBASE
  2

  9
$UCSNAME
  2

  9
$UCSORG
 10
0.0
 20
0.0
 30
0.0
  9
$UCSXDIR
 10
1.0
 20
0.0
 30
0.0
  9
$UCSYDIR
 10
0.0
 20
1.0
 30
0.0
  9
$UCSORTHOREF
  2

  9
$UCSORTHOVIEW
 70
     0
  9
$UCSORGTOP
 10
0.0
 20
0.0
 30
0.0
  9
$UCSORGBOTTOM
 10
0.0
 20
0.0
 30
0.0
  9
$UCSORGLEFT
 10
0.0
 20
0.0
 30
0.0
  9
$UCSORGRIGHT
 10
0.0
 20
0.0
 30
0.0
  9
$UCSORGFRONT
 10
0.0
 20
0.0
 30
0.0
  9
$UCSORGBACK
 10
0.0
 20
0.0
 30
0.0
  9
$PUCSBASE
  2

  9
$PUCSNAME
  2

  9
$PUCSORG
 10
0.0
 20
0.0
 30
0.0
  9
$PUCSXDIR
 10
1.0
 20
0.0
 30
0.0
  9
$PUCSYDIR
 10
0.0
 20
1.0
 30
0.0
  9
$PUCSORTHOREF
  2

  9
$PUCSORTHOVIEW
 70
     0
  9
$PUCSORGTOP
 10
0.0
 20
0.0
 30
0.0
  9
$PUCSORGBOTTOM
 10
0.0
 20
0.0
 30
0.0
  9
$PUCSORGLEFT
 10
0.0
 20
0.0
 30
0.0
  9
$PUCSORGRIGHT
 10
0.0
 20
0.0
 30
0.0
  9
$PUCSORGFRONT
 10
0.0
 20
0.0
 30
0.0
  9
$PUCSORGBACK
 10
0.0
 20
0.0
 30
0.0
  9
$USERI1
 70
     0
  9
$USERI2
 70
     0
  9
$USERI3
 70
     0
  9
$USERI4
 70
     0
  9
$USERI5
 70
     0
  9
$USERR1
 40
0.0
  9
$USERR2
 40
0.0
  9
$USERR3
 40
0.0
  9
$USERR4
 40
0.0
  9
$USERR5
 40
0.0
  9
$WORLDVIEW
 70
     1
  9
$SHADEDGE
 70
     3
  9
$SHADEDIF
 70
    70
  9
$TILEMODE
 70
     1
  9
$MAXACTVP
 70
    64
  9
$PINSBASE
 10
0.0
 20
0.0
 30
0.0
  9
$PLIMCHECK
 70
     0
  9
$PEXTMIN
 10
1.000000000000000E+20
 20
1.000000000000000E+20
 30
1.000000000000000E+20
  9
$PEXTMAX
 10
-1.000000000000000E+20
 20
-1.000000000000000E+20
 30
-1.000000000000000E+20
  9
$PLIMMIN
 10
0.0
 20
0.0
  9
$PLIMMAX
 10
0.0
 20
0.0
  9
$UNITMODE
 70
     0
  9
$VISRETAIN
 70
     1
  9
$PLINEGEN
 70
     0
  9
$PSLTSCALE
 70
     1
  9
$TREEDEPTH
 70
  3020
  9
$CMLSTYLE
  2
Standard
  9
$CMLJUST
 70
     0
  9
$CMLSCALE
 40
20.0
  9
$PROXYGRAPHICS
 70
     1
  9
$MEASUREMENT
 70
     1
  9
$CELWEIGHT
370
    -1
  9
$ENDCAPS
280
     0
  9
$JOINSTYLE
280
     0
  9
$LWDISPLAY
290
     1
  9
$INSUNITS
 70
     4
  9
$HYPERLINKBASE
  1

  9
$STYLESHEET
  1

  9
$XEDIT
290
     1
  9
$CEPSNTYPE
380
     0
  9
$PSTYLEMODE
290
     1
  9
$FINGERPRINTGUID
  2
{109E1715-4A09-414C-B625-23C496C1A7E7}
  9
$VERSIONGUID
  2
{FAEB1C32-E019-11D5-929B-00C0DF256EC4}
  9
$EXTNAMES
290
     1
  9
$PSVPSCALE
 40
0.0
  9
$OLESTARTUP
290
     0
  0
ENDSEC
  0
SECTION
  2
CLASSES
  0
CLASS
  1
ACDBDICTIONARYWDFLT
  2
AcDbDictionaryWithDefault
  3
ObjectDBX Classes
 90
        0
280
     0
281
     0
  0
CLASS
  1
VISUALSTYLE
  2
AcDbVisualStyle
  3
ObjectDBX Classes
 90
     4095
280
     0
281
     0
  0
CLASS
  1
MATERIAL
  2
AcDbMaterial
  3
ObjectDBX Classes
 90
     1153
280
     0
281
     0
  0
CLASS
  1
SCALE
  2
AcDbScale
  3
ObjectDBX Classes
 90
     1153
280
     0
281
     0
  0
CLASS
  1
SUN
  2
AcDbSun
  3
SCENEOE
 90
     1153
280
     0
281
     0
  0
CLASS
  1
ACDBPLACEHOLDER
  2
AcDbPlaceHolder
  3
ObjectDBX Classes
 90
        0
280
     0
281
     0
  0
CLASS
  1
LAYOUT
  2
AcDbLayout
  3
ObjectDBX Classes
 90
        0
280
     0
281
     0
  0
CLASS
  1
TABLESTYLE
  2
AcDbTableStyle
  3
ObjectDBX Classes
 90
     4095
280
     0
281
     0
  0
CLASS
  1
MLEADERSTYLE
  2
AcDbMLeaderStyle
  3
ACDB_MLEADERSTYLE_CLASS
 90
     4095
280
     0
281
     0
  0
CLASS
  1
RASTERVARIABLES
  2
AcDbRasterVariables
  3
ISM
 90
        0
280
     0
281
     0
  0
ENDSEC
  0
SECTION
  2
TABLES
  0
TABLE
  2
VPORT
  5
8
330
0
100
AcDbSymbolTable
 70
     1
  0
VPORT
  5
29
330
8
100
AcDbSymbolTableRecord
100
AcDbViewportTableRecord
  2
*Active
 70
     0
 10
0.0
 20
0.0
 11
1.0
 21
1.0
 12
-5.393844031866621
 22
-10.67866100992259
 13
0.0
 23
0.0
 14
10.0
 24
10.0
 15
10.0
 25
10.0
 16
0.0
 26
0.0
 36
1.0
 17
0.0
 27
0.0
 37
0.0
 40
80.15582575833714
 41
1.730423620025674
 42
50.0
 43
0.0
 44
0.0
 50
0.0
 51
0.0
 71
    16
 72
  2000
 73
     1
 74
     3
 75
     0
 76
     0
 77
     0
 78
     0
281
     0
 65
     1
110
0.0
120
0.0
130
0.0
111
1.0
121
0.0
131
0.0
112
0.0
122
1.0
132
0.0
 79
     0
146
0.0
  0
ENDTAB
  0
TABLE
  2
LTYPE
  5
5
330
0
100
AcDbSymbolTable
 70
     6
  0
LTYPE
  5
14
330
5
100
AcDbSymbolTableRecord
100
AcDbLinetypeTableRecord
  2
ByBlock
 70
     0
  3

 72
    65
 73
     0
 40
0.0
  0
LTYPE
  5
15
330
5
100
AcDbSymbolTableRecord
100
AcDbLinetypeTableRecord
  2
ByLayer
 70
     0
  3

 72
    65
 73
     0
 40
0.0
  0
LTYPE
  5
16
330
5
100
AcDbSymbolTableRecord
100
AcDbLinetypeTableRecord
  2
Continuous
 70
     0
  3
Solid line
 72
    65
 73
     0
 40
0.0
  0
LTYPE
  5
6A
330
5
100
AcDbSymbolTableRecord
100
AcDbLinetypeTableRecord
  2
HIDDEN
 70
     0
  3
Hidden __ __ __ __ __ __ __ __ __ __ __ __ __ __
 72
    65
 73
     2
 40
1.905
 49
1.27
 74
     0
 49
-0.635
 74
     0
  0
LTYPE
  5
6B
330
5
100
AcDbSymbolTableRecord
100
AcDbLinetypeTableRecord
  2
PHANTOM
 70
     0
  3
Phantom ______  __  __  ______  __  __  ______
 72
    65
 73
     6
 40
12.7
 49
6.35
 74
     0
 49
-1.27
 74
     0
 49
1.27
 74
     0
 49
-1.27
 74
     0
 49
1.27
 74
     0
 49
-1.27
 74
     0
  0
LTYPE
  5
6C
330
5
100
AcDbSymbolTableRecord
100
AcDbLinetypeTableRecord
  2
CENTER
 70
     0
  3
Center ____ _ ____ _ ____ _ ____ _ ____ _ ____
 72
    65
 73
     4
 40
10.16
 49
6.35
 74
     0
 49
-1.27
 74
     0
 49
1.27
 74
     0
 49
-1.27
 74
     0
  0
LTYPE
  5
6D
330
5
100
AcDbSymbolTableRecord
100
AcDbLinetypeTableRecord
  2
CENTERX2
 70
     0
  3
Center (2x) ________  __  ________  __  _____
 72
    65
 73
     4
 40
20.32
 49
12.7
 74
     0
 49
-2.54
 74
     0
 49
2.54
 74
     0
 49
-2.54
 74
     0
  0
LTYPE
  5
6E
330
5
100
AcDbSymbolTableRecord
100
AcDbLinetypeTableRecord
  2
DOT2
 70
     0
  3
Dot (.5x) ........................................
 72
    65
 73
     2
 40
0.635
 49
0.0
 74
     0
 49
-0.635
 74
     0
  0
ENDTAB
  0
TABLE
  2
LAYER
  5
2
330
0
100
AcDbSymbolTable
 70
    17
  0
LAYER
  5
10
330
2
100
AcDbSymbolTableRecord
100
AcDbLayerTableRecord
  2
0
 70
     0
 62
     7
  6
Continuous
370
    -3
390
F
  0
LAYER
  5
6F
330
2
100
AcDbSymbolTableRecord
100
AcDbLayerTableRecord
  2
FORMAT
 70
     0
 62
     2
  6
Continuous
370
    -3
390
F
  0
LAYER
  5
70
330
2
100
AcDbSymbolTableRecord
100
AcDbLayerTableRecord
  2
외형선
 70
     0
 62
   100
  6
Continuous
370
    30
390
F
  0
LAYER
  5
71
330
2
100
AcDbSymbolTableRecord
100
AcDbLayerTableRecord
  2
숨은선
 70
     0
 62
     2
  6
HIDDEN
370
    15
390
F
  0
LAYER
  5
72
330
2
100
AcDbSymbolTableRecord
100
AcDbLayerTableRecord
  2
중심선
 70
     0
 62
     1
  6
CENTERX2
370
    -3
390
F
  0
LAYER
  5
73
330
2
100
AcDbSymbolTableRecord
100
AcDbLayerTableRecord
  2
파단선
 70
     0
 62
     4
  6
Continuous
370
    -3
390
F
  0
LAYER
  5
74
330
2
100
AcDbSymbolTableRecord
100
AcDbLayerTableRecord
  2
해칭선
 70
     0
 62
     4
  6
Continuous
370
    -3
390
F
  0
LAYER
  5
75
330
2
100
AcDbSymbolTableRecord
100
AcDbLayerTableRecord
  2
가는실선
 70
     0
 62
     4
  6
Continuous
370
    -3
390
F
  0
LAYER
  5
76
330
2
100
AcDbSymbolTableRecord
100
AcDbLayerTableRecord
  2
치수_보조선
 70
     0
 62
     4
  6
Continuous
370
    -3
390
F
  0
LAYER
  5
77
330
2
100
AcDbSymbolTableRecord
100
AcDbLayerTableRecord
  2
치수문자_일반주서
 70
     0
 62
     7
  6
Continuous
370
    15
390
F
  0
LAYER
  5
78
330
2
100
AcDbSymbolTableRecord
100
AcDbLayerTableRecord
  2
개별주서
 70
     0
 62
   100
  6
Continuous
370
    30
390
F
  0
LAYER
  5
79
330
2
100
AcDbSymbolTableRecord
100
AcDbLayerTableRecord
  2
중간선
 70
     0
 62
     2
  6
Continuous
370
    15
390
F
  0
LAYER
  5
7A
330
2
100
AcDbSymbolTableRecord
100
AcDbLayerTableRecord
  2
윤곽선
 70
     0
 62
     3
  6
Continuous
370
    40
390
F
  0
LAYER
  5
7B
330
2
100
AcDbSymbolTableRecord
100
AcDbLayerTableRecord
  2
중심마크
 70
     0
 62
   100
  6
Continuous
370
    30
390
F
  0
LAYER
  5
7C
330
2
100
AcDbSymbolTableRecord
100
AcDbLayerTableRecord
  2
가상선
 70
     0
 62
     4
  6
PHANTOM
370
    -3
390
F
  0
LAYER
  5
7D
330
2
100
AcDbSymbolTableRecord
100
AcDbLayerTableRecord
  2
특수지정선
 70
     0
 62
     5
  6
CENTERX2
370
    60
390
F
  0
LAYER
  5
151
330
2
100
AcDbSymbolTableRecord
100
AcDbLayerTableRecord
  2
Defpoints
 70
     0
 62
     7
  6
Continuous
290
     0
370
    -3
390
F
  0
ENDTAB
  0
TABLE
  2
STYLE
  5
3
330
0
100
AcDbSymbolTable
 70
     2
  0
STYLE
  5
11
330
3
100
AcDbSymbolTableRecord
100
AcDbTextStyleTableRecord
  2
Standard
 70
     0
 40
0.0
 41
1.0
 50
0.0
 71
     0
 42
3.5
  3
txt
  4

  0
STYLE
  5
93
330
3
100
AcDbSymbolTableRecord
100
AcDbTextStyleTableRecord
  2
SLDTEXTSTYLE0
 70
     0
 40
0.0
 41
0.75
 50
0.0
 71
     0
 42
3.5
  3
TXT
  4

  0
ENDTAB
  0
TABLE
  2
VIEW
  5
6
330
0
100
AcDbSymbolTable
 70
     0
  0
ENDTAB
  0
TABLE
  2
UCS
  5
7
330
0
100
AcDbSymbolTable
 70
     0
  0
ENDTAB
  0
TABLE
  2
APPID
  5
9
330
0
100
AcDbSymbolTable
 70
     1
  0
APPID
  5
12
330
9
100
AcDbSymbolTableRecord
100
AcDbRegAppTableRecord
  2
ACAD
 70
     0
  0
ENDTAB
  0
TABLE
  2
DIMSTYLE
  5
A
330
0
100
AcDbSymbolTable
 70
     3
100
AcDbDimStyleTable
  0
DIMSTYLE
105
27
330
A
100
AcDbSymbolTableRecord
100
AcDbDimStyleTableRecord
  2
ISO-25
 70
     0
 41
2.5
 42
0.625
 43
3.75
 44
1.25
 73
     0
 74
     0
 77
     1
 78
     8
140
2.5
141
2.5
143
0.03937007874016
147
0.625
171
     3
172
     1
178
     0
271
     2
272
     2
274
     3
278
    44
283
     0
284
     8
340
11
  0
DIMSTYLE
105
F5
102
{ACAD_REACTORS
330
F4
330
10D
330
119
102
}
330
A
100
AcDbSymbolTableRecord
100
AcDbDimStyleTableRecord
  2
SLDDIMSTYLE0
 70
     0
 41
3.302
 44
0.0
 45
0.000000001
 73
     0
 74
     0
 77
     1
 78
    12
 79
     3
140
3.5
147
0.875
172
     1
173
     1
178
     0
271
     2
272
     2
276
     2
284
    12
289
     0
340
93
  0
DIMSTYLE
105
103
102
{ACAD_REACTORS
330
102
102
}
330
A
100
AcDbSymbolTableRecord
100
AcDbDimStyleTableRecord
  2
SLDDIMSTYLE1
 70
     0
 41
3.302
 44
0.0
 45
0.000000001
 73
     0
 74
     0
 77
     1
 78
    12
 79
     3
140
3.5
147
0.875
173
     1
178
     0
271
     2
272
     2
276
     2
284
    12
340
93
  0
ENDTAB
  0
TABLE
  2
BLOCK_RECORD
  5
1
330
0
100
AcDbSymbolTable
 70
     7
  0
BLOCK_RECORD
  5
1F
330
1
100
AcDbSymbolTableRecord
100
AcDbBlockTableRecord
  2
*Model_Space
340
22
  0
BLOCK_RECORD
  5
1B
330
1
100
AcDbSymbolTableRecord
100
AcDbBlockTableRecord
  2
*Paper_Space
340
1E
  0
BLOCK_RECORD
  5
23
330
1
100
AcDbSymbolTableRecord
100
AcDbBlockTableRecord
  2
*Paper_Space0
340
26
  0
BLOCK_RECORD
  5
7E
330
1
100
AcDbSymbolTableRecord
100
AcDbBlockTableRecord
  2
블럭10
340
0
102
{BLKREFS
331
ED
102
}
  0
BLOCK_RECORD
  5
F6
330
1
100
AcDbSymbolTableRecord
100
AcDbBlockTableRecord
  2
_D
340
0
  0
BLOCK_RECORD
  5
104
330
1
100
AcDbSymbolTableRecord
100
AcDbBlockTableRecord
  2
_D_1
340
0
  0
BLOCK_RECORD
  5
10E
330
1
100
AcDbSymbolTableRecord
100
AcDbBlockTableRecord
  2
_D_2
340
0
  0
BLOCK_RECORD
  5
11A
330
1
100
AcDbSymbolTableRecord
100
AcDbBlockTableRecord
  2
_D_3
340
0
  0
BLOCK_RECORD
  5
126
330
1
100
AcDbSymbolTableRecord
100
AcDbBlockTableRecord
  2
SW_DOWELSYMBOL_0
340
0
102
{BLKREFS
331
12C
102
}
  0
ENDTAB
  0
ENDSEC
  0
SECTION
  2
BLOCKS
  0
BLOCK
  5
20
330
1F
100
AcDbEntity
  8
0
100
AcDbBlockBegin
  2
*Model_Space
 70
     0
 10
0.0
 20
0.0
 30
0.0
  3
*Model_Space
  1

  0
ENDBLK
  5
21
330
1F
100
AcDbEntity
  8
0
100
AcDbBlockEnd
  0
BLOCK
  5
1C
330
1B
100
AcDbEntity
 67
     1
  8
0
100
AcDbBlockBegin
  2
*Paper_Space
 70
     0
 10
0.0
 20
0.0
 30
0.0
  3
*Paper_Space
  1

  0
ENDBLK
  5
1D
330
1B
100
AcDbEntity
 67
     1
  8
0
100
AcDbBlockEnd
  0
BLOCK
  5
24
330
23
100
AcDbEntity
  8
0
100
AcDbBlockBegin
  2
*Paper_Space0
 70
     0
 10
0.0
 20
0.0
 30
0.0
  3
*Paper_Space0
  1

  0
ENDBLK
  5
25
330
23
100
AcDbEntity
  8
0
100
AcDbBlockEnd
  0
BLOCK
  5
7F
330
7E
100
AcDbEntity
  8
0
100
AcDbBlockBegin
  2
블럭10
 70
     2
 10
0.0
 20
0.0
 30
0.0
  3
블럭10
  1

  0
ELLIPSE
  5
81
330
7E
100
AcDbEntity
  8
중심선
100
AcDbEllipse
 10
20.54032771741204
 20
12.0471743016438
 30
0.0
 11
6.600054785286829
 21
-1.261213355974178E-13
 31
0.0
210
0.0
220
0.0
230
1.0
 40
0.636358354079598
 41
0.9219305317359503
 42
6.513795318482858
  0
ELLIPSE
  5
82
330
7E
100
AcDbEntity
  8
중심선
100
AcDbEllipse
 10
20.54032771746488
 20
12.04717430159265
 30
0.0
 11
3.960054785062283
 21
1.540847449632565E-10
 31
0.0
210
0.0
220
0.0
230
1.0
 40
0.3939339440162632
 41
1.131841032648279
 42
5.62031148352944
  0
LINE
  5
83
330
7E
100
AcDbEntity
  8
중심선
100
AcDbLine
 10
2.268634060543552
 20
16.24717430164393
 30
0.0
 11
5.714909304380834
 21
16.24717430164393
 31
0.0
  0
LINE
  5
84
330
7E
100
AcDbEntity
  8
중심선
100
AcDbLine
 10
5.245725140726316
 20
7.84717430164391
 30
0.0
 11
8.692000384563599
 21
7.84717430164391
 31
0.0
  0
LINE
  5
85
330
7E
100
AcDbEntity
  8
중심선
100
AcDbLine
 10
15.74043728645272
 20
16.24717430164393
 30
0.0
 11
8.692000384563599
 21
7.84717430164391
 31
0.0
  0
LINE
  5
86
330
7E
100
AcDbEntity
  8
중심선
100
AcDbLine
 10
0.1404042013395286
 20
13.71084872107135
 30
0.0
 11
3.58671253028996
 21
13.71088815037384
 31
0.0
  0
LINE
  5
87
330
7E
100
AcDbEntity
  8
중심선
100
AcDbLine
 10
2.750260043222114
 20
10.84717430164391
 30
0.0
 11
6.196535287059397
 21
10.84717430164391
 31
0.0
  0
LINE
  5
88
330
7E
100
AcDbEntity
  8
중심선
100
AcDbLine
 10
12.29416204261559
 20
16.24717430164393
 30
0.0
 11
5.245725140726316
 21
7.84717430164391
 31
0.0
  0
LINE
  5
89
330
7E
100
AcDbEntity
  8
중심선
100
AcDbLine
 10
10.72767329541681
 20
16.24717430164393
 30
0.0
 11
6.196535287059397
 21
10.84717430164391
 31
0.0
  0
LINE
  5
8A
330
7E
100
AcDbEntity
  8
중심선
100
AcDbLine
 10
7.28139805157953
 20
16.24717430164393
 30
0.0
 11
2.750260043222114
 21
10.84717430164391
 31
0.0
  0
LINE
  5
8B
330
7E
100
AcDbEntity
  8
중심선
100
AcDbLine
 10
5.714909304380834
 20
16.24717430164393
 30
0.0
 11
3.58671253028996
 21
13.71088815037384
 31
0.0
  0
LINE
  5
8C
330
7E
100
AcDbEntity
  8
중심선
100
AcDbLine
 10
2.268634060543552
 20
16.24717430164393
 30
0.0
 11
0.1404042013395286
 21
13.71084872107135
 31
0.0
  0
LINE
  5
8D
330
7E
100
AcDbEntity
  8
중심선
100
AcDbLine
 10
7.28139805157953
 20
16.24717430164393
 30
0.0
 11
10.72767329541681
 21
16.24717430164393
 31
0.0
  0
LINE
  5
8E
330
7E
100
AcDbEntity
  8
중심선
100
AcDbLine
 10
12.29416204261559
 20
16.24717430164393
 30
0.0
 11
15.74043728645272
 21
16.24717430164393
 31
0.0
  0
LINE
  5
8F
330
7E
100
AcDbEntity
  8
중심선
100
AcDbLine
 10
19.22036997980202
 20
11.08717430171403
 30
0.0
 11
23.66174974927406
 21
11.08717430171406
 31
0.0
  0
LINE
  5
90
330
7E
100
AcDbEntity
  8
중심선
100
AcDbLine
 10
19.22039502424796
 20
13.00717430171391
 30
0.0
 11
19.22036997980202
 21
11.08717430171403
 31
0.0
  0
LINE
  5
91
330
7E
100
AcDbEntity
  8
중심선
100
AcDbLine
 10
19.22039502424796
 20
13.00717430171391
 30
0.0
 11
26.96566020931264
 21
13.00717430171391
 31
0.0
  0
LINE
  5
92
330
7E
100
AcDbEntity
  8
중심선
100
AcDbLine
 10
22.22332737316547
 20
13.45928029700563
 30
0.0
 11
24.52862924686651
 21
15.39360700705356
 31
0.0
  0
ATTDEF
  5
94
330
7E
100
AcDbEntity
  8
FORMAT
 62
     2
100
AcDbText
 10
-16.11926103943555
 20
2.075366912832191
 30
0.0
 40
4.233333333333333
  1
SEME7002014E [ 2 FLUTE ]
 41
0.75
  7
SLDTEXTSTYLE0
 11
-16.11926103943555
 21
-0.0412997538344756
 31
0.0
100
AcDbAttributeDefinition
  3

  2
AUTOATTR0
 70
     0
 74
     1
  0
ENDBLK
  5
80
330
7E
100
AcDbEntity
  8
0
100
AcDbBlockEnd
  0
BLOCK
  5
F7
330
F6
100
AcDbEntity
  8
0
100
AcDbBlockBegin
  2
_D
 70
     0
 10
0.0
 20
0.0
 30
0.0
  3
_D
  1

  0
LINE
  5
F9
330
F6
100
AcDbEntity
  8
치수문자_일반주서
 62
     0
370
    -2
100
AcDbLine
 10
24.52660161513774
 20
-0.9999999999999977
 30
0.0
 11
37.12734914280034
 21
-0.9999999999999503
 31
0.0
  0
LINE
  5
FA
330
F6
100
AcDbEntity
  8
치수문자_일반주서
 62
     0
370
    -2
100
AcDbLine
 10
24.52660161513774
 20
1.000000000000002
 30
0.0
 11
37.12734914280033
 21
1.00000000000005
 31
0.0
  0
LINE
  5
FB
330
F6
100
AcDbEntity
  8
치수문자_일반주서
 62
     0
370
    -2
100
AcDbLine
 10
37.12734914280034
 20
-0.9999999999999503
 30
0.0
 11
37.12734914280028
 21
13.7290000000001
 31
0.0
  0
LINE
  5
FC
330
F6
100
AcDbEntity
  8
치수문자_일반주서
 62
     0
370
    -2
100
AcDbLine
 10
37.12734914280034
 20
-0.9999999999999503
 30
0.0
 11
37.12734914280033
 21
1.00000000000005
 31
0.0
  0
LINE
  5
FD
330
F6
100
AcDbEntity
  8
치수문자_일반주서
 62
     0
370
    -2
100
AcDbLine
 10
37.12734914280036
 20
-4.30199999999995
 30
0.0
 11
37.12734914280037
 21
-7.603999999999949
 31
0.0
  0
LINE
  5
FE
330
F6
100
AcDbEntity
  8
치수문자_일반주서
 62
     0
370
    -2
100
AcDbLine
 10
37.12734914280032
 20
4.302000000000049
 30
0.0
 11
37.12734914280031
 21
7.604000000000049
 31
0.0
  0
SOLID
  5
FF
330
F6
100
AcDbEntity
  8
치수문자_일반주서
 62
     0
100
AcDbTrace
 10
37.67768247613369
 20
-4.301999999999948
 30
0.0
 11
36.57701580946702
 21
-4.301999999999952
 31
0.0
 12
37.12734914280034
 22
-0.9999999999999503
 32
0.0
 13
37.12734914280034
 23
-0.9999999999999503
 33
0.0
  0
SOLID
  5
100
330
F6
100
AcDbEntity
  8
치수문자_일반주서
 62
     0
100
AcDbTrace
 10
36.57701580946699
 20
4.302000000000048
 30
0.0
 11
37.67768247613365
 21
4.302000000000051
 31
0.0
 12
37.12734914280033
 22
1.00000000000005
 32
0.0
 13
37.12734914280033
 23
1.00000000000005
 33
0.0
  0
MTEXT
  5
101
330
F6
100
AcDbEntity
  8
치수문자_일반주서
 62
     0
100
AcDbMText
 10
32.7523491428003
 20
10.66650000000009
 30
0.0
 40
3.5
 41
0.0
 71
     2
 72
     1
  1
\A1;%%c2
  7
SLDTEXTSTYLE0
 11
-3.552713678800502E-15
 21
1.0
 31
0.0
 73
     1
 44
1.0
  0
POINT
  5
152
330
F6
100
AcDbEntity
  8
Defpoints
 62
     0
100
AcDbPoint
 10
24.46410161513774
 20
-0.9999999999999979
 30
0.0
  0
POINT
  5
153
330
F6
100
AcDbEntity
  8
Defpoints
 62
     0
100
AcDbPoint
 10
24.46410161513774
 20
1.000000000000002
 30
0.0
  0
POINT
  5
154
330
F6
100
AcDbEntity
  8
Defpoints
 62
     0
100
AcDbPoint
 10
37.12734914280033
 20
1.000000000000049
 30
0.0
  0
ENDBLK
  5
F8
330
F6
100
AcDbEntity
  8
0
100
AcDbBlockEnd
  0
BLOCK
  5
105
330
104
100
AcDbEntity
  8
0
100
AcDbBlockBegin
  2
_D_1
 70
     0
 10
0.0
 20
0.0
 30
0.0
  3
_D_1
  1

  0
LINE
  5
107
330
104
100
AcDbEntity
  8
치수문자_일반주서
 62
     0
370
    -2
100
AcDbLine
 10
-35.53589838486226
 20
2.512499999999995
 30
0.0
 11
-35.53589838486226
 21
24.23841044024269
 31
0.0
  0
LINE
  5
108
330
104
100
AcDbEntity
  8
치수문자_일반주서
 62
     0
370
    -2
100
AcDbLine
 10
24.46410161513774
 20
1.061654815229648
 30
0.0
 11
24.46410161513774
 21
24.23841044024269
 31
0.0
  0
LINE
  5
109
330
104
100
AcDbEntity
  8
치수문자_일반주서
 62
     0
370
    -2
100
AcDbLine
 10
-32.23389838486226
 20
24.23841044024269
 30
0.0
 11
21.16210161513774
 21
24.23841044024269
 31
0.0
  0
SOLID
  5
10A
330
104
100
AcDbEntity
  8
치수문자_일반주서
 62
     0
100
AcDbTrace
 10
-32.23389838486226
 20
24.78874377357602
 30
0.0
 11
-32.23389838486226
 21
23.68807710690935
 31
0.0
 12
-35.53589838486226
 22
24.23841044024269
 32
0.0
 13
-35.53589838486226
 23
24.23841044024269
 33
0.0
  0
SOLID
  5
10B
330
104
100
AcDbEntity
  8
치수문자_일반주서
 62
     0
100
AcDbTrace
 10
21.16210161513774
 20
23.68807710690935
 30
0.0
 11
21.16210161513774
 21
24.78874377357602
 31
0.0
 12
24.46410161513774
 22
24.23841044024269
 32
0.0
 13
24.46410161513774
 23
24.23841044024269
 33
0.0
  0
MTEXT
  5
10C
330
104
100
AcDbEntity
  8
치수문자_일반주서
 62
     0
100
AcDbMText
 10
-5.535898384862261
 20
28.61341044024269
 30
0.0
 40
3.5
 41
0.0
 71
     2
 72
     1
  1
\A1;60
  7
SLDTEXTSTYLE0
 73
     1
 44
1.0
  0
POINT
  5
158
330
104
100
AcDbEntity
  8
Defpoints
 62
     0
100
AcDbPoint
 10
-35.53589838486226
 20
2.449999999999995
 30
0.0
  0
POINT
  5
159
330
104
100
AcDbEntity
  8
Defpoints
 62
     0
100
AcDbPoint
 10
24.46410161513774
 20
0.9991548152296479
 30
0.0
  0
POINT
  5
15A
330
104
100
AcDbEntity
  8
Defpoints
 62
     0
100
AcDbPoint
 10
24.46410161513774
 20
24.23841044024269
 30
0.0
  0
ENDBLK
  5
106
330
104
100
AcDbEntity
  8
0
100
AcDbBlockEnd
  0
BLOCK
  5
10F
330
10E
100
AcDbEntity
  8
0
100
AcDbBlockBegin
  2
_D_2
 70
     0
 10
0.0
 20
0.0
 30
0.0
  3
_D_2
  1

  0
LINE
  5
111
330
10E
100
AcDbEntity
  8
치수문자_일반주서
 62
     0
370
    -2
100
AcDbLine
 10
10.46410161513774
 20
0.8486672131126443
 30
0.0
 11
10.46410161513774
 21
14.13316501928018
 31
0.0
  0
LINE
  5
112
330
10E
100
AcDbEntity
  8
치수문자_일반주서
 62
     0
370
    -2
100
AcDbLine
 10
24.46410161513774
 20
1.061654815229648
 30
0.0
 11
24.46410161513774
 21
14.13316501928018
 31
0.0
  0
LINE
  5
113
330
10E
100
AcDbEntity
  8
치수문자_일반주서
 62
     0
370
    -2
100
AcDbLine
 10
13.76610161513774
 20
14.13316501928018
 30
0.0
 11
21.16210161513774
 21
14.13316501928018
 31
0.0
  0
SOLID
  5
114
330
10E
100
AcDbEntity
  8
치수문자_일반주서
 62
     0
100
AcDbTrace
 10
13.76610161513774
 20
14.68349835261351
 30
0.0
 11
13.76610161513774
 21
13.58283168594685
 31
0.0
 12
10.46410161513774
 22
14.13316501928018
 32
0.0
 13
10.46410161513774
 23
14.13316501928018
 33
0.0
  0
SOLID
  5
115
330
10E
100
AcDbEntity
  8
치수문자_일반주서
 62
     0
100
AcDbTrace
 10
21.16210161513774
 20
13.58283168594685
 30
0.0
 11
21.16210161513774
 21
14.68349835261351
 31
0.0
 12
24.46410161513774
 22
14.13316501928018
 32
0.0
 13
24.46410161513774
 23
14.13316501928018
 33
0.0
  0
MTEXT
  5
116
330
10E
100
AcDbEntity
  8
치수문자_일반주서
 62
     0
100
AcDbMText
 10
17.4641016151377
 20
18.50816501928018
 30
0.0
 40
3.5
 41
0.0
 71
     2
 72
     1
  1
\A1;14
  7
SLDTEXTSTYLE0
 73
     1
 44
1.0
  0
POINT
  5
117
330
10E
100
AcDbEntity
  8
Defpoints
 62
     0
100
AcDbPoint
 10
10.46410161513774
 20
0.7861672131126443
 30
0.0
  0
POINT
  5
118
330
10E
100
AcDbEntity
  8
Defpoints
 62
     0
100
AcDbPoint
 10
24.46410161513774
 20
0.9991548152296479
 30
0.0
  0
POINT
  5
15B
330
10E
100
AcDbEntity
  8
Defpoints
 62
     0
100
AcDbPoint
 10
24.46410161513774
 20
14.13316501928018
 30
0.0
  0
ENDBLK
  5
110
330
10E
100
AcDbEntity
  8
0
100
AcDbBlockEnd
  0
BLOCK
  5
11B
330
11A
100
AcDbEntity
  8
0
100
AcDbBlockBegin
  2
_D_3
 70
     0
 10
0.0
 20
0.0
 30
0.0
  3
_D_3
  1

  0
LINE
  5
11D
330
11A
100
AcDbEntity
  8
치수문자_일반주서
 62
     0
370
    -2
100
AcDbLine
 10
-35.04839838486226
 20
2.999999999999996
 30
0.0
 11
-44.09037053986688
 21
2.999999999999963
 31
0.0
  0
LINE
  5
11E
330
11A
100
AcDbEntity
  8
치수문자_일반주서
 62
     0
370
    -2
100
AcDbLine
 10
-35.04839838486226
 20
-3.000000000000001
 30
0.0
 11
-44.09037053986686
 21
-3.000000000000034
 31
0.0
  0
LINE
  5
11F
330
11A
100
AcDbEntity
  8
치수문자_일반주서
 62
     0
370
    -2
100
AcDbLine
 10
-44.09037053986688
 20
2.999999999999963
 30
0.0
 11
-44.09037053986693
 21
15.72899999999996
 31
0.0
  0
LINE
  5
120
330
11A
100
AcDbEntity
  8
치수문자_일반주서
 62
     0
370
    -2
100
AcDbLine
 10
-44.09037053986688
 20
2.999999999999963
 30
0.0
 11
-44.09037053986686
 21
-3.000000000000034
 31
0.0
  0
LINE
  5
121
330
11A
100
AcDbEntity
  8
치수문자_일반주서
 62
     0
370
    -2
100
AcDbLine
 10
-44.0903705398669
 20
6.301999999999962
 30
0.0
 11
-44.09037053986691
 21
9.603999999999962
 31
0.0
  0
LINE
  5
122
330
11A
100
AcDbEntity
  8
치수문자_일반주서
 62
     0
370
    -2
100
AcDbLine
 10
-44.09037053986685
 20
-6.302000000000033
 30
0.0
 11
-44.09037053986683
 21
-9.604000000000033
 31
0.0
  0
SOLID
  5
123
330
11A
100
AcDbEntity
  8
치수문자_일반주서
 62
     0
100
AcDbTrace
 10
-44.64070387320023
 20
6.301999999999961
 30
0.0
 11
-43.54003720653356
 21
6.301999999999964
 31
0.0
 12
-44.09037053986688
 22
2.999999999999963
 32
0.0
 13
-44.09037053986688
 23
2.999999999999963
 33
0.0
  0
SOLID
  5
124
330
11A
100
AcDbEntity
  8
치수문자_일반주서
 62
     0
100
AcDbTrace
 10
-43.54003720653351
 20
-6.302000000000032
 30
0.0
 11
-44.64070387320018
 21
-6.302000000000035
 31
0.0
 12
-44.09037053986686
 22
-3.000000000000034
 32
0.0
 13
-44.09037053986686
 23
-3.000000000000034
 33
0.0
  0
MTEXT
  5
125
330
11A
100
AcDbEntity
  8
치수문자_일반주서
 62
     0
100
AcDbMText
 10
-48.46537053986692
 20
12.66649999999995
 30
0.0
 40
3.5
 41
0.0
 71
     2
 72
     1
  1
\A1;%%c6
  7
SLDTEXTSTYLE0
 11
-3.552713678800503E-15
 21
1.0
 31
0.0
 73
     1
 44
1.0
  0
POINT
  5
155
330
11A
100
AcDbEntity
  8
Defpoints
 62
     0
100
AcDbPoint
 10
-34.98589838486226
 20
2.999999999999996
 30
0.0
  0
POINT
  5
156
330
11A
100
AcDbEntity
  8
Defpoints
 62
     0
100
AcDbPoint
 10
-34.98589838486226
 20
-3.000000000000001
 30
0.0
  0
POINT
  5
157
330
11A
100
AcDbEntity
  8
Defpoints
 62
     0
100
AcDbPoint
 10
-44.09037053986686
 20
-3.000000000000035
 30
0.0
  0
ENDBLK
  5
11C
330
11A
100
AcDbEntity
  8
0
100
AcDbBlockEnd
  0
BLOCK
  5
127
330
126
100
AcDbEntity
  8
0
100
AcDbBlockBegin
  2
SW_DOWELSYMBOL_0
 70
     0
 10
0.0
 20
0.0
 30
0.0
  3
SW_DOWELSYMBOL_0
  1

  0
CIRCLE
  5
129
330
126
100
AcDbEntity
  8
외형선
 62
     0
100
AcDbCircle
 10
0.0
 20
0.0
 30
0.0
 40
3.000000000000004
  0
HATCH
  5
12A
330
126
100
AcDbEntity
  8
0
  6
Continuous
 62
     0
370
    30
100
AcDbHatch
 10
0.0
 20
0.0
 30
0.0
210
0.0
220
0.0
230
1.0
  2
SOLID
 70
     1
 71
     0
 91
        1
 92
        0
 93
        3
 72
     2
 10
0.0000000000000104
 20
0.0
 40
3.000000000000004
 50
0.0
 51
90.0
 73
     1
 72
     1
 10
0.0000000000000104
 20
3.000000000000004
 11
0.0000000000000104
 21
0.0
 72
     1
 10
0.0000000000000104
 20
0.0
 11
3.000000000000015
 21
0.0
 97
        0
 75
     0
 76
     1
 98
        1
 10
0.0
 20
0.0
  0
HATCH
  5
12B
330
126
100
AcDbEntity
  8
0
  6
Continuous
 62
     0
370
    30
100
AcDbHatch
 10
0.0
 20
0.0
 30
0.0
210
0.0
220
0.0
230
1.0
  2
SOLID
 70
     1
 71
     0
 91
        1
 92
        0
 93
        3
 72
     2
 10
0.0000000000000104
 20
0.0
 40
3.000000000000004
 50
180.0
 51
270.0000000000007
 73
     1
 72
     1
 10
0.0000000000000104
 20
-3.000000000000004
 11
0.0000000000000104
 21
0.0
 72
     1
 10
0.0000000000000104
 20
0.0
 11
-2.999999999999994
 21
0.0
 97
        0
 75
     0
 76
     1
 98
        1
 10
0.0
 20
0.0
  0
ENDBLK
  5
128
330
126
100
AcDbEntity
  8
0
100
AcDbBlockEnd
  0
ENDSEC
  0
SECTION
  2
ENTITIES
  0
LINE
  5
95
330
1F
100
AcDbEntity
  8
0
  6
Continuous
 62
     1
370
    15
100
AcDbLine
 10
21.62141006903049
 20
0.3822241278936586
 30
0.0
 11
21.59782019407284
 21
0.3944547645156411
 31
0.0
  0
SPLINE
  5
96
330
1F
100
AcDbEntity
  8
0
  6
Continuous
 62
     1
370
    15
100
AcDbSpline
210
0.0
220
0.0
230
1.0
 70
     8
 71
     3
 72
     9
 73
     5
 74
     0
 42
0.000000001
 43
0.00000001
 40
0.0
 40
0.0
 40
0.0
 40
0.0
 40
0.5464396669286955
 40
1.0
 40
1.0
 40
1.0
 40
1.0
 10
21.87251947025824
 20
0.2562333700709177
 30
0.0
 10
21.82678852069645
 20
0.2781601822431489
 30
0.0
 10
21.74309959339212
 20
0.3182868668513009
 30
0.0
 10
21.65938134545087
 20
0.3622735247062669
 30
0.0
 10
21.62141006903049
 20
0.3822241278936586
 30
0.0
  0
SPLINE
  5
97
330
1F
100
AcDbEntity
  8
0
  6
Continuous
 62
     1
370
    15
100
AcDbSpline
210
0.0
220
0.0
230
1.0
 70
     8
 71
     3
 72
     9
 73
     5
 74
     0
 42
0.000000001
 43
0.00000001
 40
0.0
 40
0.0
 40
0.0
 40
0.0
 40
0.502496737041491
 40
1.0
 40
1.0
 40
1.0
 40
1.0
 10
10.96708069316323
 20
0.2668247711766942
 30
0.0
 10
10.93834442794789
 20
0.2807191592838415
 30
0.0
 10
10.88115745916371
 20
0.3083698624286063
 30
0.0
 10
10.82356584886772
 20
0.3372014972937055
 30
0.0
 10
10.79491383482644
 20
0.3515453297155207
 30
0.0
  0
LINE
  5
98
330
1F
100
AcDbEntity
  8
0
  6
Continuous
 62
     1
370
    15
100
AcDbLine
 10
16.17964323579834
 20
0.3824231794324181
 30
0.0
 11
16.1554034092361
 21
0.394995039506448
 31
0.0
  0
SPLINE
  5
99
330
1F
100
AcDbEntity
  8
0
  6
Continuous
 62
     1
370
    15
100
AcDbSpline
210
0.0
220
0.0
230
1.0
 70
     8
 71
     3
 72
     9
 73
     5
 74
     0
 42
0.000000001
 43
0.00000001
 40
0.0
 40
0.0
 40
0.0
 40
0.0
 40
0.5478103397866829
 40
1.0
 40
1.0
 40
1.0
 40
1.0
 10
16.43006355378241
 20
0.2567287837372116
 30
0.0
 10
16.38434592021542
 20
0.2786629836657799
 30
0.0
 10
16.3008906981311
 20
0.3187027535195388
 30
0.0
 10
16.21739784202927
 20
0.3625816129128216
 30
0.0
 10
16.17964323579834
 20
0.3824231794324181
 30
0.0
  0
LINE
  5
9A
330
1F
100
AcDbEntity
  8
0
  6
Continuous
 62
     1
370
    15
100
AcDbLine
 10
13.65296019073444
 20
-1.000000000000001
 30
0.0
 11
14.13684763912002
 21
-1.000000000000001
 31
0.0
  0
LINE
  5
9B
330
1F
100
AcDbEntity
  8
0
  6
Continuous
 62
     1
370
    15
100
AcDbLine
 10
19.57899431129013
 20
1.000000000000002
 30
0.0
 11
19.09348911805161
 21
1.000000000000002
 31
0.0
  0
LINE
  5
9C
330
1F
100
AcDbEntity
  8
0
  6
Continuous
 62
     1
370
    15
100
AcDbLine
 10
19.09348242770448
 20
-1.000000000000001
 30
0.0
 11
19.57899431129012
 21
-1.000000000000001
 31
0.0
  0
LINE
  5
9D
330
1F
100
AcDbEntity
  8
0
  6
Continuous
 62
     1
370
    15
100
AcDbLine
 10
14.13684763912002
 20
1.000000000000002
 30
0.0
 11
13.65196315968624
 21
1.000000000000002
 31
0.0
  0
LINE
  5
9F
330
1F
100
AcDbEntity
  8
0
  6
Continuous
 62
     1
370
    15
100
AcDbLine
 10
21.39733971674602
 20
0.2394406949977528
 30
0.0
 11
21.3080680793216
 21
0.2879945898604318
 31
0.0
  0
SPLINE
  5
A0
330
1F
100
AcDbEntity
  8
0
  6
Continuous
 62
     1
370
    15
100
AcDbSpline
210
0.0
220
0.0
230
1.0
 70
     8
 71
     3
 72
    12
 73
     8
 74
     0
 42
0.000000001
 43
0.00000001
 40
0.0
 40
0.0
 40
0.0
 40
0.0
 40
0.2376018513698343
 40
0.4373489723679376
 40
0.6390458635391829
 40
0.7720201214714159
 40
1.0
 40
1.0
 40
1.0
 40
1.0
 10
14.59749870803284
 20
-0.8321202484744674
 30
0.0
 10
14.71667103547732
 20
-0.8212844080961936
 30
0.0
 10
14.93602915344675
 20
-0.8013390935842933
 30
0.0
 10
15.2564241770814
 20
-0.7854013245496869
 30
0.0
 10
15.5247178516575
 20
-0.7801267668891358
 30
0.0
 10
15.80600721933395
 20
-0.7817930731815503
 30
0.0
 10
15.98740370632012
 20
-0.789661422435795
 30
0.0
 10
16.1019743536442
 20
-0.79463109898471
 30
0.0
  0
SPLINE
  5
A1
330
1F
100
AcDbEntity
  8
0
  6
Continuous
 62
     1
370
    15
100
AcDbSpline
210
0.0
220
0.0
230
1.0
 70
     8
 71
     3
 72
    10
 73
     6
 74
     0
 42
0.000000001
 43
0.00000001
 40
0.0
 40
0.0
 40
0.0
 40
0.0
 40
0.4462612574728684
 40
0.9453669300669673
 40
1.0
 40
1.0
 40
1.0
 40
1.0
 10
21.54424552507345
 20
0.7946774915525281
 30
0.0
 10
21.42110809866761
 20
0.7899726195401873
 30
0.0
 10
21.16025182035913
 20
0.7800057440021846
 30
0.0
 10
20.88518777814322
 20
0.7763958718367114
 30
0.0
 10
20.73254736291076
 20
0.7867756088826694
 30
0.0
 10
20.71748752721651
 20
0.7877996963382993
 30
0.0
  0
SPLINE
  5
A2
330
1F
100
AcDbEntity
  8
0
  6
Continuous
 62
     1
370
    15
100
AcDbSpline
210
0.0
220
0.0
230
1.0
 70
     8
 71
     3
 72
     9
 73
     5
 74
     0
 42
0.000000001
 43
0.00000001
 40
0.0
 40
0.0
 40
0.0
 40
0.0
 40
0.4983646497663875
 40
1.0
 40
1.0
 40
1.0
 40
1.0
 10
10.76913422102534
 20
0.7988662958423165
 30
0.0
 10
10.71849065924633
 20
0.7964497288519511
 30
0.0
 10
10.61687116877336
 20
0.7916007352656317
 30
0.0
 10
10.51513571508159
 20
0.7879808035501275
 30
0.0
 10
10.46410161513774
 20
0.7861649178361989
 30
0.0
  0
SPLINE
  5
A3
330
1F
100
AcDbEntity
  8
0
  6
Continuous
 62
     1
370
    15
100
AcDbSpline
210
0.0
220
0.0
230
1.0
 70
     8
 71
     3
 72
     9
 73
     5
 74
     0
 42
0.000000001
 43
0.00000001
 40
0.0
 40
0.0
 40
0.0
 40
0.0
 40
0.5016353502336137
 40
1.0
 40
1.0
 40
1.0
 40
1.0
 10
10.46410161513774
 20
-0.7861649178361984
 30
0.0
 10
10.51513571508159
 20
-0.7879808035501271
 30
0.0
 10
10.61687116877338
 20
-0.7916007352656314
 30
0.0
 10
10.71849065924636
 20
-0.796449728851951
 30
0.0
 10
10.76913422102536
 20
-0.7988662958423165
 30
0.0
  0
SPLINE
  5
A4
330
1F
100
AcDbEntity
  8
0
  6
Continuous
 62
     1
370
    15
100
AcDbSpline
210
0.0
220
0.0
230
1.0
 70
     8
 71
     3
 72
    11
 73
     7
 74
     0
 42
0.000000001
 43
0.00000001
 40
0.0
 40
0.0
 40
0.0
 40
0.0
 40
0.4809216859108281
 40
0.6320658448810487
 40
0.7549764201876923
 40
0.9999999999999999
 40
0.9999999999999999
 40
0.9999999999999999
 40
0.9999999999999999
 10
20.03837638941738
 20
-0.8321719842992759
 30
0.0
 10
20.27983518834737
 20
-0.8122352824167247
 30
0.0
 10
20.59717970455607
 20
-0.7860328700724564
 30
0.0
 10
20.97605106993986
 20
-0.7804967341960968
 30
0.0
 10
21.23613400550253
 20
-0.781428955246833
 30
0.0
 10
21.42108109920134
 20
-0.7893815247869573
 30
0.0
 10
21.54424552507345
 20
-0.7946774915525262
 30
0.0
  0
SPLINE
  5
A5
330
1F
100
AcDbEntity
  8
0
  6
Continuous
 62
     1
370
    15
100
AcDbSpline
210
0.0
220
0.0
230
1.0
 70
     8
 71
     3
 72
     9
 73
     5
 74
     0
 42
0.000000001
 43
0.00000001
 40
0.0
 40
0.0
 40
0.0
 40
0.0
 40
0.9443638040622738
 40
0.9999999999999999
 40
0.9999999999999999
 40
0.9999999999999999
 40
0.9999999999999999
 10
16.1019743536442
 20
0.7946310989847113
 30
0.0
 10
15.84144917216286
 20
0.7818022354530021
 30
0.0
 10
15.56557542482031
 20
0.7682175729780909
 30
0.0
 10
15.28969774346119
 20
0.78684592223622
 30
0.0
 10
15.27434895872625
 20
0.7878823327255416
 30
0.0
  0
SPLINE
  5
A6
330
1F
100
AcDbEntity
  8
0
  6
Continuous
 62
     1
370
    15
100
AcDbSpline
210
0.0
220
0.0
230
1.0
 70
     8
 71
     3
 72
     9
 73
     5
 74
     0
 42
0.000000001
 43
0.00000001
 40
0.0
 40
0.0
 40
0.0
 40
0.0
 40
0.9033682219289042
 40
1.0
 40
1.0
 40
1.0
 40
1.0
 10
11.44767046830711
 20
-0.754601620981995
 30
0.0
 10
11.67825236034633
 20
-0.7201215240813633
 30
0.0
 10
11.93349920924132
 20
-0.6819531492551948
 30
0.0
 10
12.18709493388222
 20
-0.6726200410958058
 30
0.0
 10
12.2116003396655
 20
-0.6717181662594339
 30
0.0
  0
SPLINE
  5
A7
330
1F
100
AcDbEntity
  8
0
  6
Continuous
 62
     1
370
    15
100
AcDbSpline
210
0.0
220
0.0
230
1.0
 70
     8
 71
     3
 72
    11
 73
     7
 74
     0
 42
0.000000001
 43
0.00000001
 40
0.0
 40
0.0
 40
0.0
 40
0.0
 40
0.3729131273424172
 40
0.6371537315275786
 40
0.8823741303111614
 40
1.0
 40
1.0
 40
1.0
 40
1.0
 10
22.34638791689443
 20
-0.7521167712595201
 30
0.0
 10
22.43971786847268
 20
-0.7381549010509426
 30
0.0
 10
22.59918001273977
 20
-0.7142998606937003
 30
0.0
 10
22.81980518938578
 20
-0.690908175220732
 30
0.0
 10
22.97673907124451
 20
-0.6768573087060975
 30
0.0
 10
23.06734455658453
 20
-0.6721441025700333
 30
0.0
 10
23.09671663489353
 20
-0.6706161966248755
 30
0.0
  0
SPLINE
  5
A8
330
1F
100
AcDbEntity
  8
0
  6
Continuous
 62
     1
370
    15
100
AcDbSpline
210
0.0
220
0.0
230
1.0
 70
     8
 71
     3
 72
    11
 73
     7
 74
     0
 42
0.000000001
 43
0.00000001
 40
0.0
 40
0.0
 40
0.0
 40
0.0
 40
0.3859091281908417
 40
0.6155354419285298
 40
0.7550845174767382
 40
1.0
 40
1.0
 40
1.0
 40
1.0
 10
18.65030740087119
 20
0.6839007302475585
 30
0.0
 10
18.42571555761498
 20
0.6704542559308211
 30
0.0
 10
18.06748552522278
 20
0.6490067676329013
 30
0.0
 10
17.62844882615147
 20
0.6693859904743515
 30
0.0
 10
17.27196267545055
 20
0.6993049246154439
 30
0.0
 10
17.04796242523309
 20
0.7315388495599132
 30
0.0
 10
16.90526753121598
 20
0.7520728288712797
 30
0.0
  0
SPLINE
  5
A9
330
1F
100
AcDbEntity
  8
0
  6
Continuous
 62
     1
370
    15
100
AcDbSpline
210
0.0
220
0.0
230
1.0
 70
     8
 71
     3
 72
     9
 73
     5
 74
     0
 42
0.000000001
 43
0.00000001
 40
0.0
 40
0.0
 40
0.0
 40
0.0
 40
0.8494408513902904
 40
1.0
 40
1.0
 40
1.0
 40
1.0
 10
16.90526753121598
 20
-0.7520728288712784
 30
0.0
 10
17.11685167866002
 20
-0.7215346101303763
 30
0.0
 10
17.36593805953954
 20
-0.6855836446324023
 30
0.0
 10
17.61428461978295
 20
-0.6733705748434127
 30
0.0
 10
17.65167546645335
 20
-0.6715317854540713
 30
0.0
  0
SPLINE
  5
AA
330
1F
100
AcDbEntity
  8
0
  6
Continuous
 62
     1
370
    15
100
AcDbSpline
210
0.0
220
0.0
230
1.0
 70
     8
 71
     3
 72
    15
 73
    11
 74
     0
 42
0.000000001
 43
0.00000001
 40
0.0
 40
0.0
 40
0.0
 40
0.0
 40
0.2158313355140243
 40
0.3944194275223635
 40
0.519555391303162
 40
0.5680547550175755
 40
0.6094220275579517
 40
0.6594116391474315
 40
0.7950118864136445
 40
1.0
 40
1.0
 40
1.0
 40
1.0
 10
24.06783080325167
 20
0.681791666819933
 30
0.0
 10
23.94502348996334
 20
0.6734520206115279
 30
0.0
 10
23.72060014528363
 20
0.6582117939066133
 30
0.0
 10
23.42175713992897
 20
0.6569192698958062
 30
0.0
 10
23.2191241804947
 20
0.663085062187255
 30
0.0
 10
23.09575719806256
 20
0.6697227533184077
 30
0.0
 10
23.01546809639331
 20
0.6749254702052673
 30
0.0
 10
22.88520104964455
 20
0.684812672256024
 30
0.0
 10
22.66078014161141
 20
0.7060430475944405
 30
0.0
 10
22.46451373809526
 20
0.7348056038201324
 30
0.0
 10
22.34638791689444
 20
0.7521167712595221
 30
0.0
  0
SPLINE
  5
AB
330
1F
100
AcDbEntity
  8
0
  6
Continuous
 62
     1
370
    15
100
AcDbSpline
210
0.0
220
0.0
230
1.0
 70
     8
 71
     3
 72
    11
 73
     7
 74
     0
 42
0.000000001
 43
0.00000001
 40
0.0
 40
0.0
 40
0.0
 40
0.0
 40
0.3594036615045922
 40
0.5302689626932879
 40
0.6600005857476909
 40
1.0
 40
1.0
 40
1.0
 40
1.0
 10
13.20994053345829
 20
0.6839889239319471
 30
0.0
 10
12.99891036440058
 20
0.6709458053537659
 30
0.0
 10
12.68755363426946
 20
0.6517018139882265
 30
0.0
 10
12.30043387748841
 20
0.6638084865642727
 30
0.0
 10
11.92542580335004
 20
0.687712451039358
 30
0.0
 10
11.64827615598721
 20
0.7265153874007675
 30
0.0
 10
11.44767046830711
 20
0.7546016209819957
 30
0.0
  0
LINE
  5
AC
330
1F
100
AcDbEntity
  8
0
  6
Continuous
 62
   131
370
    15
100
AcDbLine
 10
2.0
 20
-3.0
 30
0.0
 11
9.464101615137736
 21
-0.9999999999999998
 31
0.0
  0
LINE
  5
AD
330
1F
100
AcDbEntity
  8
0
  6
Continuous
 62
   131
370
    15
100
AcDbLine
 10
9.464101615137736
 20
1.0
 30
0.0
 11
2.0
 21
3.0
 31
0.0
  0
LINE
  5
AE
330
1F
100
AcDbEntity
  8
0
  6
Continuous
 62
   131
370
    15
100
AcDbLine
 10
2.0
 20
2.999999999999999
 30
0.0
 11
-34.98589838486226
 21
2.999999999999997
 31
0.0
  0
LINE
  5
AF
330
1F
100
AcDbEntity
  8
0
  6
Continuous
 62
   131
370
    15
100
AcDbLine
 10
-34.98589838486226
 20
-3.000000000000002
 30
0.0
 11
2.0
 21
-3.0
 31
0.0
  0
LINE
  5
B0
330
1F
100
AcDbEntity
  8
0
  6
Continuous
 62
   131
370
    15
100
AcDbLine
 10
-34.98589838486226
 20
2.999999999999996
 30
0.0
 11
-35.53589838486226
 21
2.449999999999994
 31
0.0
  0
LINE
  5
B1
330
1F
100
AcDbEntity
  8
0
  6
Continuous
 62
   131
370
    15
100
AcDbLine
 10
-35.53589838486226
 20
-2.45
 30
0.0
 11
-34.98589838486226
 21
-3.000000000000001
 31
0.0
  0
LINE
  5
B2
330
1F
100
AcDbEntity
  8
0
  6
Continuous
 62
   131
370
    15
100
AcDbLine
 10
9.66387112578446
 20
1.0
 30
0.0
 11
9.464101615137736
 21
1.0
 31
0.0
  0
LINE
  5
B3
330
1F
100
AcDbEntity
  8
0
  6
Continuous
 62
   131
370
    15
100
AcDbLine
 10
9.464101615137736
 20
-0.9999999999999998
 30
0.0
 11
9.66387112578446
 21
-0.9999999999999998
 31
0.0
  0
SPLINE
  5
B4
330
1F
100
AcDbEntity
  8
0
  6
Continuous
 62
   131
370
    15
100
AcDbSpline
210
0.0
220
0.0
230
1.0
 70
     8
 71
     3
 72
     9
 73
     5
 74
     0
 42
0.000000001
 43
0.00000001
 40
0.0
 40
0.0
 40
0.0
 40
0.0
 40
0.6014491562336501
 40
1.0
 40
1.0
 40
1.0
 40
1.0
 10
10.46410161513774
 20
0.7861649178361987
 30
0.0
 10
10.33696713985314
 20
0.7828778093895127
 30
0.0
 10
10.12558688606623
 20
0.7774124954679333
 30
0.0
 10
9.912873823153074
 20
0.785477150663804
 30
0.0
 10
9.828096852448912
 20
0.7886913257968027
 30
0.0
  0
SPLINE
  5
B5
330
1F
100
AcDbEntity
  8
0
  6
Continuous
 62
   131
370
    15
100
AcDbSpline
210
0.0
220
0.0
230
1.0
 70
     8
 71
     3
 72
     9
 73
     5
 74
     0
 42
0.000000001
 43
0.00000001
 40
0.0
 40
0.0
 40
0.0
 40
0.0
 40
0.5040723550797759
 40
1.0
 40
1.0
 40
1.0
 40
1.0
 10
9.659056602521137
 20
-0.7936759317635853
 30
0.0
 10
9.794447771425915
 20
-0.7881180042855248
 30
0.0
 10
10.06304248315802
 20
-0.7770919533187327
 30
0.0
 10
10.3311431050976
 20
-0.7831570625158754
 30
0.0
 10
10.46410161513774
 20
-0.7861649178361982
 30
0.0
  0
SPLINE
  5
B6
330
1F
100
AcDbEntity
  8
0
  6
Continuous
 62
     1
370
    15
100
AcDbSpline
210
0.0
220
0.0
230
1.0
 70
     8
 71
     3
 72
    15
 73
    11
 74
     0
 42
0.000000001
 43
0.00000001
 40
0.0
 40
0.0
 40
0.0
 40
0.0
 40
0.1263743711983971
 40
0.252653955921165
 40
0.3788599330783236
 40
0.5050139488793275
 40
0.6311379816877825
 40
0.7572542023854396
 40
0.8833848321178948
 40
1.0
 40
1.0
 40
1.0
 40
1.0
 10
24.46410161513774
 20
-0.9489408692318989
 30
0.0
 10
24.25825222473915
 20
-0.8997926677573361
 30
0.0
 10
23.84670784026493
 20
-0.8015331281750236
 30
0.0
 10
23.22971042823244
 20
-0.5216478085754271
 30
0.0
 10
22.61313571339491
 20
-0.1848874629273512
 30
0.0
 10
21.99686717268198
 20
0.1770780862168011
 30
0.0
 10
21.38077391302373
 20
0.516967555059951
 30
0.0
 10
20.76472529026599
 20
0.7893420136666474
 30
0.0
 10
20.16414937645641
 20
0.9688090870879149
 30
0.0
 10
19.7688812570443
 20
0.9869086493312945
 30
0.0
 10
19.57899431129013
 20
0.9956036854981236
 30
0.0
  0
SPLINE
  5
B7
330
1F
100
AcDbEntity
  8
0
  6
Continuous
 62
     1
370
    15
100
AcDbSpline
210
0.0
220
0.0
230
1.0
 70
     8
 71
     3
 72
    16
 73
    12
 74
     0
 42
0.000000001
 43
0.00000001
 40
0.0
 40
0.0
 40
0.0
 40
0.0
 40
0.0132051647509491
 40
0.1411919307814745
 40
0.2691774681373649
 40
0.3971843141688257
 40
0.5176608907411957
 40
0.6383319166453463
 40
0.7590761616542208
 40
0.8796063299977793
 40
1.0
 40
1.0
 40
1.0
 40
1.0
 10
15.27766854127255
 20
-0.7865140964631488
 30
0.0
 10
15.25648108313118
 20
-0.7953871747287444
 30
0.0
 10
15.02994107550906
 20
-0.8902596792315395
 30
0.0
 10
14.59807359402531
 20
-0.9794384751172158
 30
0.0
 10
13.98202425441264
 20
-1.018823237043964
 30
0.0
 10
13.3779505612487
 20
-0.9230059185803917
 30
0.0
 10
12.78577338664585
 20
-0.7239119055197796
 30
0.0
 10
12.20495562807636
 20
-0.44760156411805
 30
0.0
 10
11.62394362350599
 20
-0.1229975640134236
 30
0.0
 10
11.04368080797956
 20
0.2197507743100572
 30
0.0
 10
10.65722169504715
 20
0.4215498169162659
 30
0.0
 10
10.46410161514472
 20
0.5223921723639935
 30
0.0
  0
SPLINE
  5
B8
330
1F
100
AcDbEntity
  8
0
  6
Continuous
 62
     1
370
    15
100
AcDbSpline
210
0.0
220
0.0
230
1.0
 70
     8
 71
     3
 72
    13
 73
     9
 74
     0
 42
0.000000001
 43
0.00000001
 40
0.0
 40
0.0
 40
0.0
 40
0.0
 40
0.1778940827154749
 40
0.3548135884866253
 40
0.5324933737804627
 40
0.7105866246707195
 40
0.887533088519306
 40
0.9999999999999999
 40
0.9999999999999999
 40
0.9999999999999999
 40
0.9999999999999999
 10
24.46410161513774
 20
-0.7889722643682143
 30
0.0
 10
24.30956232548719
 20
-0.7554097189342771
 30
0.0
 10
24.00133037596929
 20
-0.6884684974929368
 30
0.0
 10
23.53944496411338
 20
-0.5234316796540741
 30
0.0
 10
23.07685279787742
 20
-0.3256981549864893
 30
0.0
 10
22.61390285682084
 20
-0.1052929888429086
 30
0.0
 10
22.20842905433499
 20
0.0984067621829487
 30
0.0
 10
21.95712068194464
 20
0.2154591491628486
 30
0.0
 10
21.85946148965671
 20
0.2609460601602909
 30
0.0
  0
SPLINE
  5
B9
330
1F
100
AcDbEntity
  8
0
  6
Continuous
 62
     1
370
    15
100
AcDbSpline
210
0.0
220
0.0
230
1.0
 70
     8
 71
     3
 72
    16
 73
    12
 74
     0
 42
0.000000001
 43
0.00000001
 40
0.0
 40
0.0
 40
0.0
 40
0.0
 40
0.0852034248758695
 40
0.2123400459260858
 40
0.3389397730884259
 40
0.4662439293807646
 40
0.5935330323234765
 40
0.7201318627473299
 40
0.8472818726935483
 40
0.9747153022337072
 40
0.9999999999999999
 40
0.9999999999999999
 40
0.9999999999999999
 40
0.9999999999999999
 10
14.59960309249477
 20
-0.8253382312005013
 30
0.0
 10
14.49617072502253
 20
-0.835766271811348
 30
0.0
 10
14.23840134906968
 20
-0.8617545536844322
 30
0.0
 10
13.82703658368253
 20
-0.8343496053627046
 30
0.0
 10
13.36516232838635
 20
-0.7524528781932299
 30
0.0
 10
12.90237866708421
 20
-0.6154378985146203
 30
0.0
 10
12.43961845588964
 20
-0.4358004949569589
 30
0.0
 10
11.97772886780346
 20
-0.2234223454587482
 30
0.0
 10
11.51514982109385
 20
0.001992061016648
 30
0.0
 10
11.17521137518072
 20
0.1720184104028389
 30
0.0
 10
10.99002142379889
 20
0.2550227510617777
 30
0.0
 10
10.959360545273
 20
0.2687653217956384
 30
0.0
  0
LINE
  5
BA
330
1F
100
AcDbEntity
  8
0
  6
Continuous
 62
     1
370
    15
100
AcDbLine
 10
24.46410161513774
 20
-0.9489408692319002
 30
0.0
 11
24.46410161513774
 21
-0.7889722643682143
 31
0.0
  0
SPLINE
  5
BB
330
1F
100
AcDbEntity
  8
0
  6
Continuous
 62
     1
370
    15
100
AcDbSpline
210
0.0
220
0.0
230
1.0
 70
     8
 71
     3
 72
    18
 73
    14
 74
     0
 42
0.000000001
 43
0.00000001
 40
0.0
 40
0.0
 40
0.0
 40
0.0
 40
0.0864537377323935
 40
0.1801172400799795
 40
0.2738241206729413
 40
0.3675903563907125
 40
0.4614239888948459
 40
0.5552187969624282
 40
0.6489478657991659
 40
0.7426270313872219
 40
0.8362724472486689
 40
0.9299004829854604
 40
0.9999999999999999
 40
0.9999999999999999
 40
0.9999999999999999
 40
0.9999999999999999
 10
20.71748752721651
 20
-0.7877996963382973
 30
0.0
 10
20.52787612660976
 20
-0.8479761672674855
 30
0.0
 10
20.13284078099287
 20
-0.9733474947058512
 30
0.0
 10
19.53224835667669
 20
-1.019494640605533
 30
0.0
 10
18.91555859600655
 20
-0.9476455290742897
 30
0.0
 10
18.29842772130234
 20
-0.7545348044416667
 30
0.0
 10
17.68096691412214
 20
-0.4674844693980924
 30
0.0
 10
17.06367517770838
 20
-0.1214593739049414
 30
0.0
 10
16.44681345313498
 20
0.2394289883172953
 30
0.0
 10
15.83034387605676
 20
0.5713256418768647
 30
0.0
 10
15.21414030701591
 20
0.8274147755015869
 30
0.0
 10
14.64967561066673
 20
0.9811173313804492
 30
0.0
 10
14.29058943280099
 20
0.9860340876576766
 30
0.0
 10
14.13684763912002
 20
0.9881391838038045
 30
0.0
  0
SPLINE
  5
BC
330
1F
100
AcDbEntity
  8
0
  6
Continuous
 62
     1
370
    15
100
AcDbSpline
210
0.0
220
0.0
230
1.0
 70
     8
 71
     3
 72
    16
 73
    12
 74
     0
 42
0.000000001
 43
0.00000001
 40
0.0
 40
0.0
 40
0.0
 40
0.0
 40
0.055647692365127
 40
0.1829841307189614
 40
0.3104019484731754
 40
0.4386522834125723
 40
0.5660660407950429
 40
0.6934056467098284
 40
0.8216365517890503
 40
0.9491467921991946
 40
1.0
 40
1.0
 40
1.0
 40
1.0
 10
20.03985508775036
 20
-0.8247293562493692
 30
0.0
 10
19.97261020959292
 20
-0.8331534027236994
 30
0.0
 10
19.75149150633735
 20
-0.8608538653255854
 30
0.0
 10
19.3770051682321
 20
-0.8446560599517136
 30
0.0
 10
18.91481519604206
 20
-0.7771629048342977
 30
0.0
 10
18.45167317845435
 20
-0.6520969086043291
 30
0.0
 10
17.98949349053581
 20
-0.4809130334383181
 30
0.0
 10
17.52741609427605
 20
-0.2746810646064011
 30
0.0
 10
17.06427951702946
 20
-0.0520512231609701
 30
0.0
 10
16.69427095891288
 20
0.1339814419973375
 30
0.0
 10
16.4790073258187
 20
0.2325467143371828
 30
0.0
 10
16.41763350525458
 20
0.2606486619420139
 30
0.0
  0
SPLINE
  5
BD
330
1F
100
AcDbEntity
  8
0
  6
Continuous
 62
     1
370
    15
100
AcDbSpline
210
0.0
220
0.0
230
1.0
 70
     8
 71
     3
 72
    13
 73
     9
 74
     0
 42
0.000000001
 43
0.00000001
 40
0.0
 40
0.0
 40
0.0
 40
0.0
 40
0.1970580128765279
 40
0.3784176938297913
 40
0.5590112913441438
 40
0.7394734184716245
 40
0.9199323032811412
 40
0.9999999999999999
 40
0.9999999999999999
 40
0.9999999999999999
 40
0.9999999999999999
 10
10.46410161513774
 20
0.2665732728402594
 30
0.0
 10
10.6735790895072
 20
0.1465533390920476
 30
0.0
 10
11.0758463284946
 20
-0.0839253198552561
 30
0.0
 10
11.66984327967156
 20
-0.4216729526092654
 30
0.0
 10
12.24648917113247
 20
-0.7021007955756497
 30
0.0
 10
12.82235422286957
 20
-0.8995710537433571
 30
0.0
 10
13.29104872316888
 20
-0.9995283082193411
 30
0.0
 10
13.56788119946882
 20
-0.9894835346692399
 30
0.0
 10
13.65296019073444
 20
-0.9863964720075301
 30
0.0
  0
SPLINE
  5
BE
330
1F
100
AcDbEntity
  8
0
  6
Continuous
 62
     1
370
    15
100
AcDbSpline
210
0.0
220
0.0
230
1.0
 70
     8
 71
     3
 72
    19
 73
    15
 74
     0
 42
0.000000001
 43
0.00000001
 40
0.0
 40
0.0
 40
0.0
 40
0.0
 40
0.0487082675846027
 40
0.1333954982435013
 40
0.2180826340376285
 40
0.3027704413616459
 40
0.3874590010690221
 40
0.4721458775799298
 40
0.5568310953851404
 40
0.6415157783655799
 40
0.7262002375112782
 40
0.8108848699177037
 40
0.9038438966791639
 40
1.0
 40
1.0
 40
1.0
 40
1.0
 10
17.669721071976
 20
0.671091360892989
 30
0.0
 10
17.78000220137884
 20
0.7190408217050103
 30
0.0
 10
18.08202497765591
 20
0.850358204414567
 30
0.0
 10
18.57577067195057
 20
0.9712980437540993
 30
0.0
 10
19.1510714120643
 20
1.018566988989736
 30
0.0
 10
19.72659153554859
 20
0.9510672541853031
 30
0.0
 10
20.30230046006539
 20
0.7809398310507206
 30
0.0
 10
20.8776522297139
 20
0.5249617733254297
 30
0.0
 10
21.45288753167538
 20
0.2113592299686193
 30
0.0
 10
22.02806515972229
 20
-0.1253251964501025
 30
0.0
 10
22.60329227093711
 20
-0.4488047308144225
 30
0.0
 10
23.19740482675781
 20
-0.7294914659569375
 30
0.0
 10
23.81775993884503
 20
-0.9428728754438154
 30
0.0
 10
24.24623984104733
 20
-0.9801839153131895
 30
0.0
 10
24.46410161513774
 20
-0.99915481522546
 30
0.0
  0
LINE
  5
BF
330
1F
100
AcDbEntity
  8
0
  6
Continuous
 62
   131
370
    15
100
AcDbLine
 10
10.46410161513774
 20
0.2665732728402596
 30
0.0
 11
10.46410161513774
 21
0.5223921723674385
 31
0.0
  0
LINE
  5
C0
330
1F
100
AcDbEntity
  8
0
  6
Continuous
 62
     1
370
    15
100
AcDbLine
 10
24.46410161513774
 20
-0.9991548152296457
 30
0.0
 11
24.46410161513774
 21
-0.9489408692319019
 31
0.0
  0
SPLINE
  5
C1
330
1F
100
AcDbEntity
  8
0
  6
Continuous
 62
     1
370
    15
100
AcDbSpline
210
0.0
220
0.0
230
1.0
 70
     8
 71
     3
 72
    32
 73
    28
 74
     0
 42
0.000000001
 43
0.00000001
 40
0.0
 40
0.0
 40
0.0
 40
0.0
 40
0.0056284766238617
 40
0.0472668284591567
 40
0.0891933375712005
 40
0.1308314548457637
 40
0.172757218572976
 40
0.2143953572749151
 40
0.2563196075623372
 40
0.2979572469552342
 40
0.3398813549607977
 40
0.3815184643258278
 40
0.4234429764817212
 40
0.4650801413209228
 40
0.5070045616468989
 40
0.5486423709456332
 40
0.5905672089312853
 40
0.6322055504786374
 40
0.6741325778199566
 40
0.7157707127928635
 40
0.7576955313257874
 40
0.7993335115721693
 40
0.8412575200217266
 40
0.8828948150646628
 40
0.9248191791910457
 40
0.9664562442916649
 40
1.0
 40
1.0
 40
1.0
 40
1.0
 10
12.2079283240501
 20
0.6709352670410337
 30
0.0
 10
12.22083802738759
 20
0.6768040748145816
 30
0.0
 10
12.32925115120243
 20
0.7260891565214205
 30
0.0
 10
12.5339612615356
 20
0.8013466474751362
 30
0.0
 10
12.82189129418028
 20
0.891168115097768
 30
0.0
 10
13.10898102134281
 20
0.9558152543055156
 30
0.0
 10
13.39740774012951
 20
0.9935606456519237
 30
0.0
 10
13.68438781862952
 20
1.004450885408146
 30
0.0
 10
13.97248176185988
 20
0.9875588706473204
 30
0.0
 10
14.26026872653522
 20
0.9434681475405999
 30
0.0
 10
14.54736405652772
 20
0.8731507128329058
 30
0.0
 10
14.83612976737281
 20
0.7797878556402892
 30
0.0
 10
15.12244111252738
 20
0.6630808469959222
 30
0.0
 10
15.41151041956956
 20
0.5305607912414366
 30
0.0
 10
15.69795530961096
 20
0.3809550172877868
 30
0.0
 10
15.9864984707277
 20
0.2226894104356587
 30
0.0
 10
16.27392942752603
 20
0.0579790106093483
 30
0.0
 10
16.56140854155734
 20
-0.1097660573761747
 30
0.0
 10
16.8496888249954
 20
-0.2716792504523265
 30
0.0
 10
17.1366064155591
 20
-0.4297494994927161
 30
0.0
 10
17.42496962192649
 20
-0.5723687307736717
 30
0.0
 10
17.712249676464
 20
-0.7021102991964779
 30
0.0
 10
17.99989831720648
 20
-0.8107030631494871
 30
0.0
 10
18.2882401400753
 20
-0.8977253977370218
 30
0.0
 10
18.57484585295157
 20
-0.9595875459923646
 30
0.0
 10
18.84450153522443
 20
-0.9949844287497513
 30
0.0
 10
19.01666672971861
 20
-0.9969050094015904
 30
0.0
 10
19.09348242770448
 20
-0.9977619232728441
 30
0.0
  0
SPLINE
  5
C2
330
1F
100
AcDbEntity
  8
0
  6
Continuous
 62
     1
370
    15
100
AcDbSpline
210
0.0
220
0.0
230
1.0
 70
     8
 71
     3
 72
    12
 73
     8
 74
     0
 42
0.000000001
 43
0.00000001
 40
0.0
 40
0.0
 40
0.0
 40
0.0
 40
0.0639924323958281
 40
0.2930752843054984
 40
0.5240675440886433
 40
0.760973763054002
 40
1.0
 40
1.0
 40
1.0
 40
1.0
 10
23.09094653502591
 20
0.670154613070784
 30
0.0
 10
23.1201903363439
 20
0.6832717766522903
 30
0.0
 10
23.2541223508738
 20
0.7433463245637136
 30
0.0
 10
23.49458723740698
 20
0.8282038063729696
 30
0.0
 10
23.81308706806429
 20
0.9196351469608461
 30
0.0
 10
24.13694240518545
 20
0.9809184130536953
 30
0.0
 10
24.35472517756399
 20
0.993057989453419
 30
0.0
 10
24.46410161513774
 20
0.9991548152296481
 30
0.0
  0
SPLINE
  5
C3
330
1F
100
AcDbEntity
  8
0
  6
Continuous
 62
     1
370
    15
100
AcDbSpline
210
0.0
220
0.0
230
1.0
 70
    24
 71
     3
 72
    10
 73
     6
 74
     0
 42
0.000000001
 43
0.00000001
 40
0.0
 40
0.0
 40
0.0
 40
0.0
 40
0.5
 40
0.5
 40
1.0
 40
1.0
 40
1.0
 40
1.0
 10
24.46410161513774
 20
0.7000000000000021
 30
0.0
 10
24.46410161513774
 20
0.7424322568073161
 30
0.0
 10
24.46410161513774
 20
0.7917424688671199
 30
0.0
 10
24.46410161513774
 20
0.8951951609608586
 30
0.0
 10
24.46410161513774
 20
0.949073435801476
 30
0.0
 10
24.46410161513774
 20
0.9991548152296479
 30
0.0
  0
LINE
  5
C4
330
1F
100
AcDbEntity
  8
0
  6
Continuous
 62
     1
370
    15
100
AcDbLine
 10
24.46410161513774
 20
0.7000000000000017
 30
0.0
 11
24.0654905043068
 21
0.671639982184994
 31
0.0
  0
SPLINE
  5
C5
330
1F
100
AcDbEntity
  8
0
  6
Continuous
 62
     1
370
    15
100
AcDbSpline
210
0.0
220
0.0
230
1.0
 70
     8
 71
     3
 72
    14
 73
    10
 74
     0
 42
0.000000001
 43
0.00000001
 40
0.0
 40
0.0
 40
0.0
 40
0.0
 40
0.0258714672051832
 40
0.2113158030741998
 40
0.3966874837412929
 40
0.5820217630026185
 40
0.7673541407794238
 40
0.9527201295228368
 40
1.0
 40
1.0
 40
1.0
 40
1.0
 10
16.53276900738415
 20
-0.0921628243943087
 30
0.0
 10
16.50410085142124
 20
-0.0810700496714941
 30
0.0
 10
16.26994194764073
 20
0.0095347305012791
 30
0.0
 10
15.8304103476407
 20
0.1931938276792398
 30
0.0
 10
15.21420310636074
 20
0.4193148012396632
 30
0.0
 10
14.59813736995356
 20
0.5964398464983257
 30
0.0
 10
13.98207525643624
 20
0.6916769001983228
 30
0.0
 10
13.5189698449096
 20
0.7168286026295516
 30
0.0
 10
13.26119175633543
 20
0.6826656882752726
 30
0.0
 10
13.2088043436367
 20
0.6757228689566561
 30
0.0
  0
SPLINE
  5
C6
330
1F
100
AcDbEntity
  8
0
  6
Continuous
 62
     1
370
    15
100
AcDbSpline
210
0.0
220
0.0
230
1.0
 70
     8
 71
     3
 72
    13
 73
     9
 74
     0
 42
0.000000001
 43
0.00000001
 40
0.0
 40
0.0
 40
0.0
 40
0.0
 40
0.1798922693795774
 40
0.3648146562808113
 40
0.5497600451250961
 40
0.734763739626467
 40
0.9198606605625983
 40
0.9999999999999999
 40
0.9999999999999999
 40
0.9999999999999999
 40
0.9999999999999999
 10
21.98004087808743
 20
-0.095514091939891
 30
0.0
 10
21.78028737803011
 20
-0.014377749891089
 30
0.0
 10
21.37519490398645
 20
0.150163655020313
 30
0.0
 10
20.76474636161914
 20
0.3828212148237301
 30
0.0
 10
20.14861376080353
 20
0.5700940993791153
 30
0.0
 10
19.5322647086868
 20
0.6811878152200082
 30
0.0
 10
19.03227987353515
 20
0.7169723740984981
 30
0.0
 10
18.73771018991587
 20
0.68329093393527
 30
0.0
 10
18.64870795534096
 20
0.6731143149383795
 30
0.0
  0
SPLINE
  5
C7
330
1F
100
AcDbEntity
  8
0
  6
Continuous
 62
     1
370
    15
100
AcDbSpline
210
0.0
220
0.0
230
1.0
 70
     8
 71
     3
 72
     9
 73
     5
 74
     0
 42
0.000000001
 43
0.00000001
 40
0.0
 40
0.0
 40
0.0
 40
0.0
 40
0.1631004563033411
 40
1.0
 40
1.0
 40
1.0
 40
1.0
 10
11.09085173367571
 20
-0.0920498442928456
 30
0.0
 10
11.05676387987321
 20
-0.0787329218450571
 30
0.0
 10
10.8477647478346
 20
0.0029156691498151
 30
0.0
 10
10.63890023261742
 20
0.087729946731503
 30
0.0
 10
10.46410161513774
 20
0.1587109769385793
 30
0.0
  0
LINE
  5
C8
330
1F
100
AcDbEntity
  8
0
  6
Continuous
 62
   131
370
    15
100
AcDbLine
 10
10.46410161513774
 20
0.2665732728402596
 30
0.0
 11
10.46410161513776
 21
0.262897305510771
 31
0.0
  0
SPLINE
  5
C9
330
1F
100
AcDbEntity
  8
0
  6
Continuous
 62
   131
370
    15
100
AcDbSpline
210
0.0
220
0.0
230
1.0
 70
    24
 71
     3
 72
     9
 73
     5
 74
     0
 42
0.000000001
 43
0.00000001
 40
0.0
 40
0.0
 40
0.0
 40
0.0
 40
0.245017424957508
 40
1.0
 40
1.0
 40
1.0
 40
1.0
 10
10.46410161513774
 20
0.2215263080823685
 30
0.0
 10
10.46410161513774
 20
0.2184291499141562
 30
0.0
 10
10.46410161513773
 20
0.2057885870286822
 30
0.0
 10
10.46410161513773
 20
0.1789634716346089
 30
0.0
 10
10.46410161513774
 20
0.1587109769385794
 30
0.0
  0
SPLINE
  5
CA
330
1F
100
AcDbEntity
  8
0
  6
Continuous
 62
     1
370
    15
100
AcDbSpline
210
0.0
220
0.0
230
1.0
 70
     8
 71
     3
 72
     8
 73
     4
 74
     0
 42
0.000000001
 43
0.00000001
 40
0.0
 40
0.0
 40
0.0
 40
0.0
 40
1.0
 40
1.0
 40
1.0
 40
1.0
 10
23.84572704383309
 20
0.2793278076089509
 30
0.0
 10
23.80072924987629
 20
0.3325720018945564
 30
0.0
 10
23.76159937853181
 20
0.3835198365983001
 30
0.0
 10
23.73079775881276
 20
0.4308481981407625
 30
0.0
  0
LINE
  5
CB
330
1F
100
AcDbEntity
  8
0
  6
Continuous
 62
     1
370
    15
100
AcDbLine
 10
23.73079775881276
 20
0.4308481981407634
 30
0.0
 11
24.46410161513774
 21
0.000000000000002
 31
0.0
  0
LINE
  5
CC
330
1F
100
AcDbEntity
  8
0
  6
Continuous
 62
     1
370
    15
100
AcDbLine
 10
24.46410161513774
 20
0.000000000000002
 30
0.0
 11
24.46410161513774
 21
-0.2672429460296428
 31
0.0
  0
SPLINE
  5
CD
330
1F
100
AcDbEntity
  8
0
  6
Continuous
 62
     1
370
    15
100
AcDbSpline
210
0.0
220
0.0
230
1.0
 70
     8
 71
     3
 72
    10
 73
     6
 74
     0
 42
0.000000001
 43
0.00000001
 40
0.0
 40
0.0
 40
0.0
 40
0.0
 40
0.5
 40
0.5
 40
1.0
 40
1.0
 40
1.0
 40
1.0
 10
24.46410161513774
 20
-0.2672429460296428
 30
0.0
 10
24.3570649922516
 20
-0.1830915265342626
 30
0.0
 10
24.25181648043432
 20
-0.0954889939880748
 30
0.0
 10
24.04497490506462
 20
0.0867712062317255
 30
0.0
 10
23.94240770728104
 20
0.1823836725445499
 30
0.0
 10
23.84572704383232
 20
0.2793278076067497
 30
0.0
  0
SPLINE
  5
CE
330
1F
100
AcDbEntity
  8
0
  6
Continuous
 62
     1
370
    15
100
AcDbSpline
210
0.0
220
0.0
230
1.0
 70
     8
 71
     3
 72
    13
 73
     9
 74
     0
 42
0.000000001
 43
0.00000001
 40
0.0
 40
0.0
 40
0.0
 40
0.0
 40
0.1328760813740062
 40
0.3338452620260275
 40
0.5352885152922167
 40
0.7354165634316983
 40
0.9361699399521892
 40
1.0
 40
1.0
 40
1.0
 40
1.0
 10
23.84572704183657
 20
0.2793278084786807
 30
0.0
 10
23.74384504966552
 20
0.3227613970407323
 30
0.0
 10
23.48787106232056
 20
0.4318863622285253
 30
0.0
 10
23.07683178174058
 20
0.581048714424218
 30
0.0
 10
22.61395562859941
 20
0.7098346286479572
 30
0.0
 10
22.15198644135529
 20
0.7847452041804942
 30
0.0
 10
21.79528605749428
 20
0.810805730749454
 30
0.0
 10
21.5920675153672
 20
0.7928651595751113
 30
0.0
 10
21.54304157513813
 20
0.7885370438389065
 30
0.0
  0
SPLINE
  5
CF
330
1F
100
AcDbEntity
  8
0
  6
Continuous
 62
     1
370
    15
100
AcDbSpline
210
0.0
220
0.0
230
1.0
 70
     8
 71
     3
 72
    21
 73
    17
 74
     0
 42
0.000000001
 43
0.00000001
 40
0.0
 40
0.0
 40
0.0
 40
0.0
 40
0.0496989639149519
 40
0.1247743101269177
 40
0.2003820774038395
 40
0.2756636862877184
 40
0.3507153040643994
 40
0.4262628357801526
 40
0.5016248252916914
 40
0.5766642894642618
 40
0.652127359418143
 40
0.7275809488645236
 40
0.8026198482603074
 40
0.8779902721738835
 40
0.9535306371865654
 40
1.0
 40
1.0
 40
1.0
 40
1.0
 10
16.90693669414627
 20
-0.7455637914815437
 30
0.0
 10
16.80521155026739
 20
-0.7618074771562295
 30
0.0
 10
16.54982021712475
 20
-0.8025889042589316
 30
0.0
 10
16.14002204496769
 20
-0.8046284482003883
 30
0.0
 10
15.67700243876452
 20
-0.7579092474972586
 30
0.0
 10
15.21456917814701
 20
-0.6553274655006083
 30
0.0
 10
14.75259821276286
 20
-0.5061591081716461
 30
0.0
 10
14.28969796102241
 20
-0.3221819096389527
 30
0.0
 10
13.82711890211075
 20
-0.1149820159875064
 30
0.0
 10
13.36519468787874
 20
0.1013447013820251
 30
0.0
 10
12.90244020788043
 20
0.3092394042383323
 30
0.0
 10
12.43970257786863
 20
0.4952154187574694
 30
0.0
 10
11.9777806808676
 20
0.6476390814127
 30
0.0
 10
11.51519123014755
 20
0.7509796802705414
 30
0.0
 10
11.11083773664607
 20
0.8026769713232211
 30
0.0
 10
10.86125140842844
 20
0.7950315472234921
 30
0.0
 10
10.76619245004976
 20
0.7921196647639294
 30
0.0
  0
SPLINE
  5
D0
330
1F
100
AcDbEntity
  8
0
  6
Continuous
 62
     1
370
    15
100
AcDbSpline
210
0.0
220
0.0
230
1.0
 70
    24
 71
     3
 72
    10
 73
     6
 74
     0
 42
0.000000001
 43
0.00000001
 40
0.0
 40
0.0
 40
0.0
 40
0.0
 40
0.5
 40
0.5
 40
1.0
 40
1.0
 40
1.0
 40
1.0
 10
24.46410161513774
 20
-0.788972264368214
 30
0.0
 10
24.46410161513774
 20
-0.728491389003803
 30
0.0
 10
24.46410161513773
 20
-0.6520714839064665
 30
0.0
 10
24.46410161513774
 20
-0.474402559150678
 30
0.0
 10
24.46410161513774
 20
-0.3733074430513079
 30
0.0
 10
24.46410161513774
 20
-0.2672429460296747
 30
0.0
  0
SPLINE
  5
D1
330
1F
100
AcDbEntity
  8
0
  6
Continuous
 62
   131
370
    15
100
AcDbSpline
210
0.0
220
0.0
230
1.0
 70
    24
 71
     3
 72
    10
 73
     6
 74
     0
 42
0.000000001
 43
0.00000001
 40
0.0
 40
0.0
 40
0.0
 40
0.0
 40
0.1579043983978107
 40
0.6031843176087489
 40
1.0
 40
1.0
 40
1.0
 40
1.0
 10
10.46410161513774
 20
0.7788690587550351
 30
0.0
 10
10.46410161513774
 20
0.7800570237179035
 30
0.0
 10
10.46410161513774
 20
0.7845949709995593
 30
0.0
 10
10.46410161513774
 20
0.6981970055782966
 30
0.0
 10
10.46410161513774
 20
0.5545847247748596
 30
0.0
 10
10.46410161513774
 20
0.4869111671664911
 30
0.0
  0
SPLINE
  5
D2
330
1F
100
AcDbEntity
  8
0
  6
Continuous
 62
     1
370
    15
100
AcDbSpline
210
0.0
220
0.0
230
1.0
 70
     8
 71
     3
 72
    22
 73
    18
 74
     0
 42
0.000000001
 43
0.00000001
 40
0.0
 40
0.0
 40
0.0
 40
0.0
 40
0.0314784656945585
 40
0.1054807706673383
 40
0.1797977513587848
 40
0.2535923161582676
 40
0.3275261849420467
 40
0.4018796523373569
 40
0.475708339712865
 40
0.5495849647562393
 40
0.6239509885100815
 40
0.6978251115722083
 40
0.7716557509395959
 40
0.8460103849584854
 40
0.9199412046424427
 40
0.9937371692012568
 40
1.0
 40
1.0
 40
1.0
 40
1.0
 10
22.34897166898163
 20
-0.7450912343954954
 30
0.0
 10
22.28345206429216
 20
-0.7570187562082499
 30
0.0
 10
22.06390329519002
 20
-0.7969865298973687
 30
0.0
 10
21.68954734296391
 20
-0.8071384290534278
 30
0.0
 10
21.22653923137497
 20
-0.774520306870008
 30
0.0
 10
20.76451250859208
 20
-0.683464844100494
 30
0.0
 10
20.30219489818567
 20
-0.5446623003073893
 30
0.0
 10
19.83913085251585
 20
-0.368281041196782
 30
0.0
 10
19.37702399931468
 20
-0.1643995022642154
 30
0.0
 10
18.91481802901927
 20
0.0511125323142478
 30
0.0
 10
18.45173166983607
 20
0.261354926832182
 30
0.0
 10
17.98953122677097
 20
0.4548212735990271
 30
0.0
 10
17.52741805551593
 20
0.6154711647096927
 30
0.0
 10
17.06435988646419
 20
0.7331052470019713
 30
0.0
 10
16.60201861967784
 20
0.7937491939163196
 30
0.0
 10
16.28167550118935
 20
0.8118274325566678
 30
0.0
 10
16.11486453315249
 20
0.7938659034744726
 30
0.0
 10
16.10181526275661
 20
0.7924608109168578
 30
0.0
  0
SPLINE
  5
D3
330
1F
100
AcDbEntity
  8
0
  6
Continuous
 62
     1
370
    15
100
AcDbSpline
210
0.0
220
0.0
230
1.0
 70
     8
 71
     3
 72
    10
 73
     6
 74
     0
 42
0.000000001
 43
0.00000001
 40
0.0
 40
0.0
 40
0.0
 40
0.0
 40
0.4033088025643317
 40
0.8714233189512286
 40
1.0
 40
1.0
 40
1.0
 40
1.0
 10
11.44864914380741
 20
-0.7509721128237357
 30
0.0
 10
11.31619624115731
 20
-0.7688111735405029
 30
0.0
 10
11.03000722842516
 20
-0.807355766165153
 30
0.0
 10
10.70229646230615
 20
-0.8013427008647646
 30
0.0
 10
10.50632918897685
 20
-0.7830976267872591
 30
0.0
 10
10.46410161513774
 20
-0.7791661274112732
 30
0.0
  0
LINE
  5
D4
330
1F
100
AcDbEntity
  8
0
  6
Continuous
 62
   131
370
    15
100
AcDbLine
 10
10.46410161513774
 20
-0.7791661274112731
 30
0.0
 11
10.46410161513774
 21
-0.7788690587550344
 31
0.0
  0
SPLINE
  5
D5
330
1F
100
AcDbEntity
  8
0
  6
Continuous
 62
   131
370
    15
100
AcDbSpline
210
0.0
220
0.0
230
1.0
 70
    24
 71
     3
 72
    10
 73
     6
 74
     0
 42
0.000000001
 43
0.00000001
 40
0.0
 40
0.0
 40
0.0
 40
0.0
 40
0.4999999999999999
 40
0.4999999999999999
 40
1.0
 40
1.0
 40
1.0
 40
1.0
 10
10.46410161513774
 20
0.1587109769385765
 30
0.0
 10
10.46410161513774
 20
-0.0184403039303201
 30
0.0
 10
10.46410161513774
 20
-0.2079969345082804
 30
0.0
 10
10.46410161513774
 20
-0.5413725374703017
 30
0.0
 10
10.46410161513774
 20
-0.6826084869280586
 30
0.0
 10
10.46410161513774
 20
-0.7861649178361984
 30
0.0
  0
SPLINE
  5
D6
330
1F
100
AcDbEntity
  8
0
  6
Continuous
 62
     1
370
    15
100
AcDbSpline
210
0.0
220
0.0
230
1.0
 70
     8
 71
     3
 72
     8
 73
     4
 74
     0
 42
0.000000001
 43
0.00000001
 40
0.0
 40
0.0
 40
0.0
 40
0.0
 40
1.0
 40
1.0
 40
1.0
 40
1.0
 10
24.46410161513774
 20
0.7000000000000017
 30
0.0
 10
24.21522673474396
 20
0.6322959756877417
 30
0.0
 10
23.968819846639
 20
0.5471018798786829
 30
0.0
 10
23.73079775881223
 20
0.4308481981411532
 30
0.0
  0
LINE
  5
D7
330
1F
100
AcDbEntity
  8
0
  6
Continuous
 62
     1
370
    15
100
AcDbLine
 10
24.46410161513774
 20
0.000000000000002
 30
0.0
 11
24.46410161513774
 21
0.7000000000000021
 31
0.0
  0
LINE
  5
D8
330
1F
100
AcDbEntity
  8
0
  6
Continuous
 62
   131
370
    15
100
AcDbLine
 10
9.464101615137736
 20
1.0
 30
0.0
 11
9.464101615137736
 21
-1.0
 31
0.0
  0
LINE
  5
D9
330
1F
100
AcDbEntity
  8
0
  6
Continuous
 62
   131
370
    15
100
AcDbLine
 10
2.0
 20
3.0
 30
0.0
 11
2.0
 21
-3.0
 31
0.0
  0
LINE
  5
DA
330
1F
100
AcDbEntity
  8
0
  6
Continuous
 62
   131
370
    15
100
AcDbLine
 10
-34.98589838486226
 20
2.999999999999996
 30
0.0
 11
-34.98589838486226
 21
-3.000000000000002
 31
0.0
  0
LINE
  5
DB
330
1F
100
AcDbEntity
  8
0
  6
Continuous
 62
   131
370
    15
100
AcDbLine
 10
-35.53589838486226
 20
2.449999999999995
 30
0.0
 11
-35.53589838486226
 21
-2.450000000000002
 31
0.0
  0
ELLIPSE
  5
DC
330
1F
100
AcDbEntity
  8
0
  6
Continuous
 62
   131
370
    15
100
AcDbEllipse
 10
9.663950147827386
 20
0.0000000000000002
 30
0.0
 11
7.902204296783566E-5
 21
1.0
 31
0.0
210
0.0
220
0.0
230
1.0
 40
0.0000240474437803
 41
0.8389476927653897
 42
3.700950688939899
  0
SPLINE
  5
DD
330
1F
100
AcDbEntity
  8
0
  6
Continuous
 62
   131
370
    15
100
AcDbSpline
210
0.0
220
0.0
230
1.0
 70
    24
 71
     3
 72
    10
 73
     6
 74
     0
 42
0.000000001
 43
0.00000001
 40
0.0
 40
0.0
 40
0.0
 40
0.0
 40
0.5
 40
0.5
 40
1.0
 40
1.0
 40
1.0
 40
1.0
 10
9.663985109907287
 20
0.6679709723745526
 30
0.0
 10
9.663985109907287
 20
0.6459545925346707
 30
0.0
 10
9.663985109907287
 20
0.6139874233842625
 30
0.0
 10
9.663985109907287
 20
0.5367261596502318
 30
0.0
 10
9.663985109907287
 20
0.4916898688664271
 30
0.0
 10
9.663985109907287
 20
0.4457865416828839
 30
0.0
  0
SPLINE
  5
DE
330
1F
100
AcDbEntity
  8
0
  6
Continuous
 62
   131
370
    15
100
AcDbSpline
210
0.0
220
0.0
230
1.0
 70
    24
 71
     3
 72
    10
 73
     6
 74
     0
 42
0.000000001
 43
0.00000001
 40
0.0
 40
0.0
 40
0.0
 40
0.0
 40
0.4999999999999999
 40
0.4999999999999999
 40
1.0
 40
1.0
 40
1.0
 40
1.0
 10
9.663955702191252
 20
0.4457956931118081
 30
0.0
 10
9.663955702191252
 20
0.2883110418049027
 30
0.0
 10
9.663955702191252
 20
0.0994636114658849
 30
0.0
 10
9.663955702191252
 20
-0.2782404473138007
 30
0.0
 10
9.663955702191252
 20
-0.4641705921290391
 30
0.0
 10
9.663955702191252
 20
-0.6167895284883229
 30
0.0
  0
SPLINE
  5
DF
330
1F
100
AcDbEntity
  8
0
  6
Continuous
 62
   131
370
    15
100
AcDbSpline
210
0.0
220
0.0
230
1.0
 70
     8
 71
     3
 72
    10
 73
     6
 74
     0
 42
0.000000001
 43
0.00000001
 40
0.0
 40
0.0
 40
0.0
 40
0.0
 40
0.3788758795613805
 40
0.7555332186228558
 40
0.9999999999999999
 40
0.9999999999999999
 40
0.9999999999999999
 40
0.9999999999999999
 10
9.663889156370725
 20
-0.616785069069954
 30
0.0
 10
9.663887749654172
 20
-0.6557865854896416
 30
0.0
 10
9.663884944458221
 20
-0.7335612415745107
 30
0.0
 10
9.663885628913011
 20
-0.787925457102858
 30
0.0
 10
9.663888796763558
 20
-0.7876637716673306
 30
0.0
 10
9.663890043590406
 20
-0.7875607755123729
 30
0.0
  0
LINE
  5
E0
330
1F
100
AcDbEntity
  8
0
  6
Continuous
 62
   131
370
    15
100
AcDbLine
 10
9.663898612801137
 20
-0.7935288866963877
 30
0.0
 11
9.66389592943937
 21
-0.847600759549117
 31
0.0
  0
SPLINE
  5
E1
330
1F
100
AcDbEntity
  8
0
  6
Continuous
 62
   131
370
    15
100
AcDbSpline
210
0.0
220
0.0
230
1.0
 70
     8
 71
     3
 72
    10
 73
     6
 74
     0
 42
0.000000001
 43
0.00000001
 40
0.0
 40
0.0
 40
0.0
 40
0.0
 40
0.5
 40
0.5
 40
1.0
 40
1.0
 40
1.0
 40
1.0
 10
10.46410161514468
 20
0.5223921723640099
 30
0.0
 10
10.32966125030137
 20
0.5881884676314751
 30
0.0
 10
10.19894363477012
 20
0.6487318281601595
 30
0.0
 10
9.933240815693612
 20
0.7579964178954548
 30
0.0
 10
9.79737397330279
 20
0.8067195684569233
 30
0.0
 10
9.663863029514001
 20
0.8475731962602036
 30
0.0
  0
SPLINE
  5
E2
330
1F
100
AcDbEntity
  8
0
  6
Continuous
 62
   131
370
    15
100
AcDbSpline
210
0.0
220
0.0
230
1.0
 70
     8
 71
     3
 72
    10
 73
     6
 74
     0
 42
0.000000001
 43
0.00000001
 40
0.0
 40
0.0
 40
0.0
 40
0.0
 40
0.5
 40
0.5
 40
1.0
 40
1.0
 40
1.0
 40
1.0
 10
9.663985109907287
 20
0.6679918523624547
 30
0.0
 10
9.797477139679032
 20
0.6107114811182419
 30
0.0
 10
9.93332271311506
 20
0.547087129225468
 30
0.0
 10
10.19898321359767
 20
0.4122307383587439
 30
0.0
 10
10.32968173855948
 20
0.34093163023499
 30
0.0
 10
10.46410161513794
 20
0.2665732728401484
 30
0.0
  0
LINE
  5
E3
330
1F
100
AcDbEntity
  8
0
  6
Continuous
 62
   131
370
    15
100
AcDbLine
 10
9.828550629119782
 20
-0.7885286356841577
 30
0.0
 11
9.663863029514001
 21
-0.8475731962602031
 31
0.0
  0
ELLIPSE
  5
E4
330
1F
100
AcDbEntity
  8
0
  6
Continuous
 62
   131
370
    15
100
AcDbEllipse
 10
9.663950147827386
 20
0.0000000000000002
 30
0.0
 11
-7.902204296783566E-5
 21
1.0
 31
0.0
210
0.0
220
0.0
230
1.0
 40
0.0000240474437785
 41
5.723827272634381
 42
6.283185307179586
  0
LINE
  5
E5
330
1F
100
AcDbEntity
  8
0
  6
Continuous
 62
   131
370
    15
100
AcDbLine
 10
10.46410161513774
 20
0.2665732728402596
 30
0.0
 11
10.46410161513775
 21
0.2630963323147731
 31
0.0
  0
SPLINE
  5
E6
330
1F
100
AcDbEntity
  8
0
  6
Continuous
 62
   131
370
    15
100
AcDbSpline
210
0.0
220
0.0
230
1.0
 70
    24
 71
     3
 72
     9
 73
     5
 74
     0
 42
0.000000001
 43
0.00000001
 40
0.0
 40
0.0
 40
0.0
 40
0.0
 40
0.2451997564034911
 40
1.0
 40
1.0
 40
1.0
 40
1.0
 10
10.46410161513774
 20
0.2215363080823685
 30
0.0
 10
10.46410161513774
 20
0.2184363078649339
 30
0.0
 10
10.46410161513773
 20
0.2057935537981909
 30
0.0
 10
10.46410161513773
 20
0.1789628207666553
 30
0.0
 10
10.46410161513774
 20
0.1587109769385794
 30
0.0
  0
SPLINE
  5
E7
330
1F
100
AcDbEntity
  8
0
  6
Continuous
 62
   131
370
    15
100
AcDbSpline
210
0.0
220
0.0
230
1.0
 70
     8
 71
     3
 72
    10
 73
     6
 74
     0
 42
0.000000001
 43
0.00000001
 40
0.0
 40
0.0
 40
0.0
 40
0.0
 40
0.5
 40
0.5
 40
1.0
 40
1.0
 40
1.0
 40
1.0
 10
10.46410161513774
 20
0.1587109769385789
 30
0.0
 10
10.32967680320015
 20
0.2113115316603171
 30
0.0
 10
10.19897367960083
 20
0.2620130509219215
 30
0.0
 10
9.93330298512079
 20
0.3584571039477039
 30
0.0
 10
9.797452288235572
 20
0.4042529559898788
 30
0.0
 10
9.663955702191252
 20
0.4457956931118079
 30
0.0
  0
SPLINE
  5
E8
330
1F
100
AcDbEntity
  8
0
  6
Continuous
 62
   131
370
    15
100
AcDbSpline
210
0.0
220
0.0
230
1.0
 70
     8
 71
     3
 72
    10
 73
     6
 74
     0
 42
0.000000001
 43
0.00000001
 40
0.0
 40
0.0
 40
0.0
 40
0.0
 40
0.5
 40
0.5
 40
1.0
 40
1.0
 40
1.0
 40
1.0
 10
10.46410161513774
 20
-0.7791661274112731
 30
0.0
 10
10.32967425794845
 20
-0.765171564400935
 30
0.0
 10
10.19896876274207
 20
-0.7443870166102682
 30
0.0
 10
9.93329281103616
 20
-0.689891862651651
 30
0.0
 10
9.797439471905786
 20
-0.6560035304096399
 30
0.0
 10
9.663940536143503
 20
-0.6167850731300883
 30
0.0
  0
SPLINE
  5
E9
330
1F
100
AcDbEntity
  8
0
  6
Continuous
 62
   131
370
    15
100
AcDbSpline
210
0.0
220
0.0
230
1.0
 70
    24
 71
     3
 72
    10
 73
     6
 74
     0
 42
0.000000001
 43
0.00000001
 40
0.0
 40
0.0
 40
0.0
 40
0.0
 40
0.4999999999999999
 40
0.4999999999999999
 40
1.0
 40
1.0
 40
1.0
 40
1.0
 10
10.46410161513774
 20
0.1587109769385765
 30
0.0
 10
10.46410161513774
 20
-0.0184403039303201
 30
0.0
 10
10.46410161513774
 20
-0.2079969345082804
 30
0.0
 10
10.46410161513774
 20
-0.5413725374703017
 30
0.0
 10
10.46410161513774
 20
-0.6826084869280586
 30
0.0
 10
10.46410161513774
 20
-0.7861649178361984
 30
0.0
  0
SPLINE
  5
EA
330
1F
100
AcDbEntity
  8
0
  6
Continuous
 62
   131
370
    15
100
AcDbSpline
210
0.0
220
0.0
230
1.0
 70
    24
 71
     3
 72
    10
 73
     6
 74
     0
 42
0.000000001
 43
0.00000001
 40
0.0
 40
0.0
 40
0.0
 40
0.0
 40
0.1584043744110869
 40
0.6034199183202476
 40
1.0
 40
1.0
 40
1.0
 40
1.0
 10
10.46410161513774
 20
0.7788702571338182
 30
0.0
 10
10.46410161513774
 20
0.7800661572532032
 30
0.0
 10
10.46410161513774
 20
0.784621776092905
 30
0.0
 10
10.46410161513774
 20
0.6982043605389683
 30
0.0
 10
10.46410161513774
 20
0.5545870805236335
 30
0.0
 10
10.46410161513774
 20
0.4869111671664911
 30
0.0
  0
LINE
  5
EB
330
1F
100
AcDbEntity
  8
중심선
 62
     1
100
AcDbLine
 10
-38.53589838486226
 20
-0.0000000000000046
 30
0.0
 11
25.96410161513774
 21
0.0000000000000022
 31
0.0
  0
CIRCLE
  5
EC
330
1F
100
AcDbEntity
  8
외형선
100
AcDbCircle
 10
0.0000000000000104
 20
0.0
 30
0.0
 40
3.000000000000005
  0
INSERT
  5
ED
330
1F
100
AcDbEntity
  8
0
  6
Continuous
 62
     7
100
AcDbBlockReference
 66
     1
  2
블럭10
 10
-22.93944368806589
 20
-52.04609937292004
 30
0.0
  0
ATTRIB
  5
EE
330
ED
100
AcDbEntity
  8
FORMAT
 62
     2
100
AcDbText
 10
-39.05870472750145
 20
-49.97073246008785
 30
0.0
 40
4.233333333333333
  1
SEME7002014E [ 2 FLUTE ]
 41
0.75
  7
SLDTEXTSTYLE0
 11
-39.05870472750145
 21
-52.08739912675452
 31
0.0
100
AcDbAttribute
  2
AUTOATTR0
 70
     0
 74
     1
  0
SEQEND
  5
EF
330
ED
100
AcDbEntity
  8
0
  6
Continuous
 62
     7
  0
HATCH
  5
F0
330
1F
100
AcDbEntity
  8
중심선
100
AcDbHatch
 10
0.0
 20
0.0
 30
0.0
210
0.0
220
0.0
230
1.0
  2
SOLID
 70
     1
 71
     0
 91
        1
 92
        0
 93
        4
 72
     1
 10
-17.22453438368504
 20
-35.7989250712761
 11
-20.67080962752232
 21
-35.7989250712761
 72
     1
 10
-20.67080962752232
 20
-35.7989250712761
 11
-22.79903948672635
 21
-38.3352506518487
 72
     1
 10
-22.79903948672635
 20
-38.3352506518487
 11
-19.35273115777591
 21
-38.33521122254621
 72
     1
 10
-19.35273115777591
 20
-38.33521122254621
 11
-17.22453438368504
 21
-35.7989250712761
 97
        0
 75
     0
 76
     1
 98
        1
 10
0.0
 20
0.0
  0
HATCH
  5
F1
330
1F
100
AcDbEntity
  8
중심선
100
AcDbHatch
 10
0.0
 20
0.0
 30
0.0
210
0.0
220
0.0
230
1.0
  2
SOLID
 70
     1
 71
     0
 91
        1
 92
        0
 93
        4
 72
     1
 10
-12.21177039264909
 20
-35.7989250712761
 11
-15.65804563648637
 21
-35.7989250712761
 72
     1
 10
-15.65804563648637
 20
-35.7989250712761
 11
-20.18918364484376
 21
-41.19892507127612
 72
     1
 10
-20.18918364484376
 20
-41.19892507127612
 11
-16.74290840100648
 21
-41.19892507127612
 72
     1
 10
-16.74290840100648
 20
-41.19892507127612
 11
-12.21177039264909
 21
-35.7989250712761
 97
        0
 75
     0
 76
     1
 98
        1
 10
0.0
 20
0.0
  0
HATCH
  5
F2
330
1F
100
AcDbEntity
  8
중심선
100
AcDbHatch
 10
0.0
 20
0.0
 30
0.0
210
0.0
220
0.0
230
1.0
  2
SOLID
 70
     1
 71
     0
 91
        1
 92
        0
 93
        4
 72
     1
 10
-7.199006401613195
 20
-35.79892507127613
 11
-10.64528164545031
 21
-35.7989250712761
 72
     1
 10
-10.64528164545031
 20
-35.7989250712761
 11
-17.69371854733956
 21
-44.19892507127612
 72
     1
 10
-17.69371854733956
 20
-44.19892507127612
 11
-14.24744330350228
 21
-44.19892507127612
 72
     1
 10
-14.24744330350228
 20
-44.19892507127612
 11
-7.199006401613195
 21
-35.79892507127613
 97
        0
 75
     0
 76
     1
 98
        1
 10
0.0
 20
0.0
  0
HATCH
  5
F3
330
1F
100
AcDbEntity
  8
중심선
100
AcDbHatch
 10
0.0
 20
0.0
 30
0.0
210
0.0
220
0.0
230
1.0
  2
SOLID
 70
     1
 71
     0
 91
        1
 92
        0
 93
        6
 72
     3
 10
-2.399115970600996
 20
-39.99892507132738
 11
3.960054785062284
 21
1.540850780301639E-10
 40
0.3939339440162633
 50
17.09539180608433
 51
320.0019657685079
 73
     0
 72
     1
 10
-0.7161163149004002
 20
-38.58681907591441
 11
1.589185558800638
 21
-36.65249236586649
 72
     3
 10
-2.399115970653842
 20
-39.99892507127625
 11
6.600054785286829
 21
-1.249000902703301E-13
 40
0.6363583540795982
 50
39.99873849337408
 51
368.4976242363724
 73
     1
 72
     1
 10
4.026216521246767
 20
-39.03892507120613
 11
-3.71904866381792
 21
-39.0389250712061
 72
     1
 10
-3.71904866381792
 20
-39.0389250712061
 11
-3.719073708263854
 21
-40.95892507120602
 72
     1
 10
-3.719073708263854
 20
-40.95892507120602
 11
0.7223060612081835
 21
-40.95892507120599
 97
        0
 75
     0
 76
     1
 98
        1
 10
0.0
 20
0.0
  0
DIMENSION
  5
F4
330
1F
100
AcDbEntity
  8
치수문자_일반주서
100
AcDbDimension
  2
_D
 10
37.12734914280033
 20
1.00000000000005
 30
0.0
 11
37.1273491428003
 21
10.6665000000001
 31
0.0
 70
   160
  1
%%c<>
 71
     2
 42
2.0
 52
-270.0
  3
SLDDIMSTYLE0
100
AcDbAlignedDimension
 13
24.46410161513774
 23
-0.9999999999999979
 33
0.0
 14
24.46410161513774
 24
1.000000000000002
 34
0.0
 50
90.0000000000002
100
AcDbRotatedDimension
  0
DIMENSION
  5
102
330
1F
100
AcDbEntity
  8
치수문자_일반주서
100
AcDbDimension
  2
_D_1
 10
24.46410161513774
 20
24.23841044024269
 30
0.0
 11
-5.535898384862261
 21
24.23841044024269
 31
0.0
 70
   160
  1
<>
 71
     2
 42
60.0
  3
SLDDIMSTYLE1
100
AcDbAlignedDimension
 13
-35.53589838486226
 23
2.449999999999995
 33
0.0
 14
24.46410161513774
 24
0.9991548152296479
 34
0.0
 50
-0.0000000000000068
100
AcDbRotatedDimension
  0
DIMENSION
  5
10D
330
1F
100
AcDbEntity
  8
치수문자_일반주서
100
AcDbDimension
  2
_D_2
 10
24.46410161513774
 20
14.13316501928018
 30
0.0
 11
17.4641016151377
 21
14.13316501928018
 31
0.0
 70
   160
  1
<>
 71
     2
 42
14.0
  3
SLDDIMSTYLE0
100
AcDbAlignedDimension
 13
10.46410161513774
 23
0.7861672131126443
 33
0.0
 14
24.46410161513774
 24
0.9991548152296479
 34
0.0
 50
0.0000000000001163
100
AcDbRotatedDimension
  0
DIMENSION
  5
119
330
1F
100
AcDbEntity
  8
치수문자_일반주서
100
AcDbDimension
  2
_D_3
 10
-44.09037053986686
 20
-3.000000000000034
 30
0.0
 11
-44.09037053986692
 21
12.66649999999996
 31
0.0
 70
   160
  1
%%c<>
 71
     2
 42
5.999999999999996
 52
-270.0
  3
SLDDIMSTYLE0
100
AcDbAlignedDimension
 13
-34.98589838486226
 23
2.999999999999996
 33
0.0
 14
-34.98589838486226
 24
-3.000000000000001
 34
0.0
 50
90.0000000000002
100
AcDbRotatedDimension
  0
INSERT
  5
12C
330
1F
100
AcDbEntity
  8
외형선
100
AcDbBlockReference
  2
SW_DOWELSYMBOL_0
 10
0.0000000000000104
 20
0.0
 30
0.0
  0
ENDSEC
  0
SECTION
  2
OBJECTS
  0
DICTIONARY
  5
C
330
0
100
AcDbDictionary
281
     1
  3
ACAD_GROUP
350
D
  3
ACAD_IMAGE_VARS
350
150
  3
ACAD_LAYOUT
350
1A
  3
ACAD_MLINESTYLE
350
17
  3
ACAD_PLOTSETTINGS
350
19
  3
ACAD_PLOTSTYLENAME
350
E
  3
ACAD_SCALELIST
350
47
  3
APPDATA
350
14E
  3
DWGPROPS
350
1A4
  0
DICTIONARY
  5
D
102
{ACAD_REACTORS
330
C
102
}
330
C
100
AcDbDictionary
281
     1
  0
RASTERVARIABLES
  5
150
102
{ACAD_REACTORS
330
C
102
}
330
C
100
AcDbRasterVariables
 90
        0
 70
     1
 71
     1
 72
     1
  0
DICTIONARY
  5
1A
102
{ACAD_REACTORS
330
C
102
}
330
C
100
AcDbDictionary
281
     1
  3
Layout1
350
1E
  3
Layout2
350
26
  3
Model
350
22
  0
DICTIONARY
  5
17
102
{ACAD_REACTORS
330
C
102
}
330
C
100
AcDbDictionary
281
     1
  3
Standard
350
18
  0
DICTIONARY
  5
19
102
{ACAD_REACTORS
330
C
102
}
330
C
100
AcDbDictionary
281
     1
  0
ACDBDICTIONARYWDFLT
  5
E
102
{ACAD_REACTORS
330
C
102
}
330
C
100
AcDbDictionary
281
     1
  3
Normal
350
F
100
AcDbDictionaryWithDefault
340
F
  0
DICTIONARY
  5
47
102
{ACAD_REACTORS
330
C
102
}
330
C
100
AcDbDictionary
281
     1
  3
A0
350
48
  3
A1
350
49
  3
A2
350
4A
  3
A3
350
4B
  3
A4
350
4C
  3
A5
350
4D
  3
A6
350
4E
  3
A7
350
4F
  3
A8
350
50
  3
A9
350
51
  3
B0
350
52
  3
B1
350
53
  3
B2
350
54
  3
B3
350
55
  3
B4
350
56
  3
B5
350
57
  3
B6
350
58
  3
B7
350
59
  3
B8
350
5A
  3
B9
350
5B
  3
C0
350
5C
  3
C1
350
5D
  3
C2
350
5E
  3
C3
350
5F
  3
C4
350
60
  3
C5
350
61
  3
C6
350
62
  3
C7
350
63
  3
C8
350
64
  3
C9
350
65
  3
D0
350
66
  3
D1
350
67
  3
D2
350
68
  0
DICTIONARY
  5
14E
102
{ACAD_REACTORS
330
C
102
}
330
C
100
AcDbDictionary
281
     1
  0
XRECORD
  5
1A4
102
{ACAD_REACTORS
330
C
102
}
330
C
100
AcDbXrecord
280
     1
  1
DWGPROPS COOKIE
  2

  3

  4

  6

  7

  8
12014102
  9

300
=
301
=
302
=
303
=
304
=
305
=
306
=
307
=
308
=
309
=
 40
0.0
 41
2458262.160722662
 42
2458264.420110845
  1

 90
        0
  0
LAYOUT
  5
1E
102
{ACAD_REACTORS
330
1A
102
}
330
1A
100
AcDbPlotSettings
  1

  2
none_device
  4

  6

 40
0.0
 41
0.0
 42
0.0
 43
0.0
 44
0.0
 45
0.0
 46
0.0
 47
0.0
 48
0.0
 49
0.0
140
0.0
141
0.0
142
1.0
143
1.0
 70
   688
 72
     1
 73
     0
 74
     5
  7

 75
    16
147
1.0
148
0.0
149
0.0
100
AcDbLayout
  1
Layout1
 70
     1
 71
     1
 10
0.0
 20
0.0
 11
420.0
 21
297.0
 12
0.0
 22
0.0
 32
0.0
 14
1.000000000000000E+20
 24
1.000000000000000E+20
 34
1.000000000000000E+20
 15
-1.000000000000000E+20
 25
-1.000000000000000E+20
 35
-1.000000000000000E+20
146
0.0
 13
0.0
 23
0.0
 33
0.0
 16
1.0
 26
0.0
 36
0.0
 17
0.0
 27
1.0
 37
0.0
 76
     0
330
1B
  0
LAYOUT
  5
26
102
{ACAD_REACTORS
330
1A
102
}
330
1A
100
AcDbPlotSettings
  1

  2
none_device
  4

  6

 40
0.0
 41
0.0
 42
0.0
 43
0.0
 44
0.0
 45
0.0
 46
0.0
 47
0.0
 48
0.0
 49
0.0
140
0.0
141
0.0
142
1.0
143
1.0
 70
   688
 72
     1
 73
     0
 74
     5
  7

 75
    16
147
1.0
148
0.0
149
0.0
100
AcDbLayout
  1
Layout2
 70
     1
 71
     2
 10
0.0
 20
0.0
 11
0.0
 21
0.0
 12
0.0
 22
0.0
 32
0.0
 14
0.0
 24
0.0
 34
0.0
 15
0.0
 25
0.0
 35
0.0
146
0.0
 13
0.0
 23
0.0
 33
0.0
 16
1.0
 26
0.0
 36
0.0
 17
0.0
 27
1.0
 37
0.0
 76
     0
330
23
  0
LAYOUT
  5
22
102
{ACAD_REACTORS
330
1A
102
}
330
1A
100
AcDbPlotSettings
  1

  2
none_device
  4
ANSI_A_(11.00_x_8.50_Inches)
  6

 40
6.35
 41
19.05
 42
6.35000508
 43
19.05000254
 44
279.4
 45
215.9
 46
140.3855766617817
 47
118.4377884955873
 48
0.0
 49
0.0
140
0.0
141
0.0
142
0.1058944507156154
143
1.0
 70
  1696
 72
     0
 73
     0
 74
     0
  7

 75
     0
147
0.0235690232323232
148
0.0
149
0.0
100
AcDbLayout
  1
Model
 70
     1
 71
     0
 10
0.0
 20
0.0
 11
420.0
 21
297.0
 12
0.0
 22
0.0
 32
0.0
 14
-48.46537053986692
 24
-49.97073246008785
 34
0.0
 15
37.67768247613368
 25
28.61341044024269
 35
0.0
146
0.0
 13
0.0
 23
0.0
 33
0.0
 16
1.0
 26
0.0
 36
0.0
 17
0.0
 27
1.0
 37
0.0
 76
     0
330
1F
331
29
  0
MLINESTYLE
  5
18
102
{ACAD_REACTORS
330
17
102
}
330
17
100
AcDbMlineStyle
  2
Standard
 70
     0
  3

 62
   256
 51
90.0
 52
90.0
 71
     2
 49
0.5
 62
   256
  6
BYLAYER
 49
-0.5
 62
   256
  6
BYLAYER
  0
ACDBPLACEHOLDER
  5
F
102
{ACAD_REACTORS
330
E
102
}
330
E
  0
SCALE
  5
48
102
{ACAD_REACTORS
330
47
102
}
330
47
100
AcDbScale
 70
     0
300
1:1
140
1.0
141
1.0
290
     1
  0
SCALE
  5
49
102
{ACAD_REACTORS
330
47
102
}
330
47
100
AcDbScale
 70
     0
300
1:2
140
1.0
141
2.0
290
     0
  0
SCALE
  5
4A
102
{ACAD_REACTORS
330
47
102
}
330
47
100
AcDbScale
 70
     0
300
1:4
140
1.0
141
4.0
290
     0
  0
SCALE
  5
4B
102
{ACAD_REACTORS
330
47
102
}
330
47
100
AcDbScale
 70
     0
300
1:5
140
1.0
141
5.0
290
     0
  0
SCALE
  5
4C
102
{ACAD_REACTORS
330
47
102
}
330
47
100
AcDbScale
 70
     0
300
1:8
140
1.0
141
8.0
290
     0
  0
SCALE
  5
4D
102
{ACAD_REACTORS
330
47
102
}
330
47
100
AcDbScale
 70
     0
300
1:10
140
1.0
141
10.0
290
     0
  0
SCALE
  5
4E
102
{ACAD_REACTORS
330
47
102
}
330
47
100
AcDbScale
 70
     0
300
1:16
140
1.0
141
16.0
290
     0
  0
SCALE
  5
4F
102
{ACAD_REACTORS
330
47
102
}
330
47
100
AcDbScale
 70
     0
300
1:20
140
1.0
141
20.0
290
     0
  0
SCALE
  5
50
102
{ACAD_REACTORS
330
47
102
}
330
47
100
AcDbScale
 70
     0
300
1:30
140
1.0
141
30.0
290
     0
  0
SCALE
  5
51
102
{ACAD_REACTORS
330
47
102
}
330
47
100
AcDbScale
 70
     0
300
1:40
140
1.0
141
40.0
290
     0
  0
SCALE
  5
52
102
{ACAD_REACTORS
330
47
102
}
330
47
100
AcDbScale
 70
     0
300
1:50
140
1.0
141
50.0
290
     0
  0
SCALE
  5
53
102
{ACAD_REACTORS
330
47
102
}
330
47
100
AcDbScale
 70
     0
300
1:100
140
1.0
141
100.0
290
     0
  0
SCALE
  5
54
102
{ACAD_REACTORS
330
47
102
}
330
47
100
AcDbScale
 70
     0
300
2:1
140
2.0
141
1.0
290
     0
  0
SCALE
  5
55
102
{ACAD_REACTORS
330
47
102
}
330
47
100
AcDbScale
 70
     0
300
4:1
140
4.0
141
1.0
290
     0
  0
SCALE
  5
56
102
{ACAD_REACTORS
330
47
102
}
330
47
100
AcDbScale
 70
     0
300
8:1
140
8.0
141
1.0
290
     0
  0
SCALE
  5
57
102
{ACAD_REACTORS
330
47
102
}
330
47
100
AcDbScale
 70
     0
300
10:1
140
10.0
141
1.0
290
     0
  0
SCALE
  5
58
102
{ACAD_REACTORS
330
47
102
}
330
47
100
AcDbScale
 70
     0
300
100:1
140
100.0
141
1.0
290
     0
  0
SCALE
  5
59
102
{ACAD_REACTORS
330
47
102
}
330
47
100
AcDbScale
 70
     0
300
1/128" = 1'-0"
140
0.0078125
141
12.0
290
     0
  0
SCALE
  5
5A
102
{ACAD_REACTORS
330
47
102
}
330
47
100
AcDbScale
 70
     0
300
1/64" = 1'-0"
140
0.015625
141
12.0
290
     0
  0
SCALE
  5
5B
102
{ACAD_REACTORS
330
47
102
}
330
47
100
AcDbScale
 70
     0
300
1/32" = 1'-0"
140
0.03125
141
12.0
290
     0
  0
SCALE
  5
5C
102
{ACAD_REACTORS
330
47
102
}
330
47
100
AcDbScale
 70
     0
300
1/16" = 1'-0"
140
0.0625
141
12.0
290
     0
  0
SCALE
  5
5D
102
{ACAD_REACTORS
330
47
102
}
330
47
100
AcDbScale
 70
     0
300
3/32" = 1'-0"
140
0.09375
141
12.0
290
     0
  0
SCALE
  5
5E
102
{ACAD_REACTORS
330
47
102
}
330
47
100
AcDbScale
 70
     0
300
1/8" = 1'-0"
140
0.125
141
12.0
290
     0
  0
SCALE
  5
5F
102
{ACAD_REACTORS
330
47
102
}
330
47
100
AcDbScale
 70
     0
300
3/16" = 1'-0"
140
0.1875
141
12.0
290
     0
  0
SCALE
  5
60
102
{ACAD_REACTORS
330
47
102
}
330
47
100
AcDbScale
 70
     0
300
1/4" = 1'-0"
140
0.25
141
12.0
290
     0
  0
SCALE
  5
61
102
{ACAD_REACTORS
330
47
102
}
330
47
100
AcDbScale
 70
     0
300
3/8" = 1'-0"
140
0.375
141
12.0
290
     0
  0
SCALE
  5
62
102
{ACAD_REACTORS
330
47
102
}
330
47
100
AcDbScale
 70
     0
300
1/2" = 1'-0"
140
0.5
141
12.0
290
     0
  0
SCALE
  5
63
102
{ACAD_REACTORS
330
47
102
}
330
47
100
AcDbScale
 70
     0
300
3/4" = 1'-0"
140
0.75
141
12.0
290
     0
  0
SCALE
  5
64
102
{ACAD_REACTORS
330
47
102
}
330
47
100
AcDbScale
 70
     0
300
1" = 1'-0"
140
1.0
141
12.0
290
     0
  0
SCALE
  5
65
102
{ACAD_REACTORS
330
47
102
}
330
47
100
AcDbScale
 70
     0
300
1-1/2" = 1'-0"
140
1.5
141
12.0
290
     0
  0
SCALE
  5
66
102
{ACAD_REACTORS
330
47
102
}
330
47
100
AcDbScale
 70
     0
300
3" = 1'-0"
140
3.0
141
12.0
290
     0
  0
SCALE
  5
67
102
{ACAD_REACTORS
330
47
102
}
330
47
100
AcDbScale
 70
     0
300
6" = 1'-0"
140
6.0
141
12.0
290
     0
  0
SCALE
  5
68
102
{ACAD_REACTORS
330
47
102
}
330
47
100
AcDbScale
 70
     0
300
1'-0" = 1'-0"
140
12.0
141
12.0
290
     0
  0
ENDSEC
  0
EOF
