  0
SECTION
  2
HEADER
  9
$ACADVER
  1
AC1015
  9
$ACADMAINTVER
 70
     6
  9
$DWGCODEPAGE
  3
ANSI_949
  9
$INSBASE
 10
0.0
 20
0.0
 30
0.0
  9
$EXTMIN
 10
-45.98351878653654
 20
-49.97073246008785
 30
0.0
  9
$EXTMAX
 10
40.23196787234785
 20
28.61341044024268
 30
0.0
  9
$LIMMIN
 10
0.0
 20
0.0
  9
$LIMMAX
 10
420.0
 20
297.0
  9
$ORTHOMODE
 70
     0
  9
$REGENMODE
 70
     1
  9
$FILLMODE
 70
     1
  9
$QTEXTMODE
 70
     0
  9
$MIRRTEXT
 70
     1
  9
$LTSCALE
 40
1.0
  9
$ATTMODE
 70
     1
  9
$TEXTSIZE
 40
3.5
  9
$TRACEWID
 40
1.0
  9
$TEXTSTYLE
  7
Standard
  9
$CLAYER
  8
0
  9
$CELTYPE
  6
ByLayer
  9
$CECOLOR
 62
   256
  9
$CELTSCALE
 40
1.0
  9
$DISPSILH
 70
     0
  9
$DIMSCALE
 40
1.0
  9
$DIMASZ
 40
3.302
  9
$DIMEXO
 40
1.0
  9
$DIMDLI
 40
3.75
  9
$DIMRND
 40
0.0
  9
$DIMDLE
 40
0.0
  9
$DIMEXE
 40
1.0
  9
$DIMTP
 40
0.0
  9
$DIMTM
 40
0.0
  9
$DIMTXT
 40
3.5
  9
$DIMCEN
 40
2.5
  9
$DIMTSZ
 40
0.0
  9
$DIMTOL
 70
     0
  9
$DIMLIM
 70
     0
  9
$DIMTIH
 70
     1
  9
$DIMTOH
 70
     1
  9
$DIMSE1
 70
     0
  9
$DIMSE2
 70
     0
  9
$DIMTAD
 70
     1
  9
$DIMZIN
 70
     0
  9
$DIMBLK
  1

  9
$DIMASO
 70
     1
  9
$DIMSHO
 70
     1
  9
$DIMPOST
  1

  9
$DIMAPOST
  1

  9
$DIMALT
 70
     0
  9
$DIMALTD
 70
     3
  9
$DIMALTF
 40
0.0393700787401575
  9
$DIMLFAC
 40
1.0
  9
$DIMTOFL
 70
     1
  9
$DIMTVP
 40
0.0
  9
$DIMTIX
 70
     0
  9
$DIMSOXD
 70
     0
  9
$DIMSAH
 70
     0
  9
$DIMBLK1
  1

  9
$DIMBLK2
  1

  9
$DIMSTYLE
  2
ISO-25
  9
$DIMCLRD
 70
     0
  9
$DIMCLRE
 70
     0
  9
$DIMCLRT
 70
     0
  9
$DIMTFAC
 40
1.0
  9
$DIMGAP
 40
1.524
  9
$DIMJUST
 70
     0
  9
$DIMSD1
 70
     0
  9
$DIMSD2
 70
     0
  9
$DIMTOLJ
 70
     0
  9
$DIMTZIN
 70
     0
  9
$DIMALTZ
 70
     0
  9
$DIMALTTZ
 70
     0
  9
$DIMUPT
 70
     0
  9
$DIMDEC
 70
     2
  9
$DIMTDEC
 70
     2
  9
$DIMALTU
 70
     2
  9
$DIMALTTD
 70
     3
  9
$DIMTXSTY
  7
Standard
  9
$DIMAUNIT
 70
     0
  9
$DIMADEC
 70
     2
  9
$DIMALTRND
 40
0.0
  9
$DIMAZIN
 70
     0
  9
$DIMDSEP
 70
    44
  9
$DIMATFIT
 70
     3
  9
$DIMFRAC
 70
     0
  9
$DIMLDRBLK
  1

  9
$DIMLUNIT
 70
     2
  9
$DIMLWD
 70
    -2
  9
$DIMLWE
 70
    -2
  9
$DIMTMOVE
 70
     0
  9
$LUNITS
 70
     2
  9
$LUPREC
 70
     2
  9
$SKETCHINC
 40
1.0
  9
$FILLETRAD
 40
10.0
  9
$AUNITS
 70
     0
  9
$AUPREC
 70
     2
  9
$MENU
  1
.
  9
$ELEVATION
 40
0.0
  9
$PELEVATION
 40
0.0
  9
$THICKNESS
 40
0.0
  9
$LIMCHECK
 70
     0
  9
$CHAMFERA
 40
0.0
  9
$CHAMFERB
 40
0.0
  9
$CHAMFERC
 40
0.0
  9
$CHAMFERD
 40
0.0
  9
$SKPOLY
 70
     0
  9
$TDCREATE
 40
2458262.535910741
  9
$TDUCREATE
 40
2458262.160910741
  9
$TDUPDATE
 40
2458264.795944525
  9
$TDUUPDATE
 40
2458264.420944525
  9
$TDINDWG
 40
0.0034739931
  9
$TDUSRTIMER
 40
2458264.420238391
  9
$USRTIMER
 70
     1
  9
$ANGBASE
 50
0.0
  9
$ANGDIR
 70
     0
  9
$PDMODE
 70
     0
  9
$PDSIZE
 40
-1.0
  9
$PLINEWID
 40
0.0
  9
$SPLFRAME
 70
     0
  9
$SPLINETYPE
 70
     6
  9
$SPLINESEGS
 70
     8
  9
$HANDSEED
  5
1AA
  9
$SURFTAB1
 70
     6
  9
$SURFTAB2
 70
     6
  9
$SURFTYPE
 70
     6
  9
$SURFU
 70
     6
  9
$SURFV
 70
     6
  9
$UCSBASE
  2

  9
$UCSNAME
  2

  9
$UCSORG
 10
0.0
 20
0.0
 30
0.0
  9
$UCSXDIR
 10
1.0
 20
0.0
 30
0.0
  9
$UCSYDIR
 10
0.0
 20
1.0
 30
0.0
  9
$UCSORTHOREF
  2

  9
$UCSORTHOVIEW
 70
     0
  9
$UCSORGTOP
 10
0.0
 20
0.0
 30
0.0
  9
$UCSORGBOTTOM
 10
0.0
 20
0.0
 30
0.0
  9
$UCSORGLEFT
 10
0.0
 20
0.0
 30
0.0
  9
$UCSORGRIGHT
 10
0.0
 20
0.0
 30
0.0
  9
$UCSORGFRONT
 10
0.0
 20
0.0
 30
0.0
  9
$UCSORGBACK
 10
0.0
 20
0.0
 30
0.0
  9
$PUCSBASE
  2

  9
$PUCSNAME
  2

  9
$PUCSORG
 10
0.0
 20
0.0
 30
0.0
  9
$PUCSXDIR
 10
1.0
 20
0.0
 30
0.0
  9
$PUCSYDIR
 10
0.0
 20
1.0
 30
0.0
  9
$PUCSORTHOREF
  2

  9
$PUCSORTHOVIEW
 70
     0
  9
$PUCSORGTOP
 10
0.0
 20
0.0
 30
0.0
  9
$PUCSORGBOTTOM
 10
0.0
 20
0.0
 30
0.0
  9
$PUCSORGLEFT
 10
0.0
 20
0.0
 30
0.0
  9
$PUCSORGRIGHT
 10
0.0
 20
0.0
 30
0.0
  9
$PUCSORGFRONT
 10
0.0
 20
0.0
 30
0.0
  9
$PUCSORGBACK
 10
0.0
 20
0.0
 30
0.0
  9
$USERI1
 70
     0
  9
$USERI2
 70
     0
  9
$USERI3
 70
     0
  9
$USERI4
 70
     0
  9
$USERI5
 70
     0
  9
$USERR1
 40
0.0
  9
$USERR2
 40
0.0
  9
$USERR3
 40
0.0
  9
$USERR4
 40
0.0
  9
$USERR5
 40
0.0
  9
$WORLDVIEW
 70
     1
  9
$SHADEDGE
 70
     3
  9
$SHADEDIF
 70
    70
  9
$TILEMODE
 70
     1
  9
$MAXACTVP
 70
    64
  9
$PINSBASE
 10
0.0
 20
0.0
 30
0.0
  9
$PLIMCHECK
 70
     0
  9
$PEXTMIN
 10
1.000000000000000E+20
 20
1.000000000000000E+20
 30
1.000000000000000E+20
  9
$PEXTMAX
 10
-1.000000000000000E+20
 20
-1.000000000000000E+20
 30
-1.000000000000000E+20
  9
$PLIMMIN
 10
0.0
 20
0.0
  9
$PLIMMAX
 10
0.0
 20
0.0
  9
$UNITMODE
 70
     0
  9
$VISRETAIN
 70
     1
  9
$PLINEGEN
 70
     0
  9
$PSLTSCALE
 70
     1
  9
$TREEDEPTH
 70
  3020
  9
$CMLSTYLE
  2
Standard
  9
$CMLJUST
 70
     0
  9
$CMLSCALE
 40
20.0
  9
$PROXYGRAPHICS
 70
     1
  9
$MEASUREMENT
 70
     1
  9
$CELWEIGHT
370
    -1
  9
$ENDCAPS
280
     0
  9
$JOINSTYLE
280
     0
  9
$LWDISPLAY
290
     1
  9
$INSUNITS
 70
     4
  9
$HYPERLINKBASE
  1

  9
$STYLESHEET
  1

  9
$XEDIT
290
     1
  9
$CEPSNTYPE
380
     0
  9
$PSTYLEMODE
290
     1
  9
$FINGERPRINTGUID
  2
{3E54EEAF-B718-4E96-8C81-10C6B92627E0}
  9
$VERSIONGUID
  2
{FAEB1C32-E019-11D5-929B-00C0DF256EC4}
  9
$EXTNAMES
290
     1
  9
$PSVPSCALE
 40
0.0
  9
$OLESTARTUP
290
     0
  0
ENDSEC
  0
SECTION
  2
CLASSES
  0
CLASS
  1
ACDBDICTIONARYWDFLT
  2
AcDbDictionaryWithDefault
  3
ObjectDBX Classes
 90
        0
280
     0
281
     0
  0
CLASS
  1
VISUALSTYLE
  2
AcDbVisualStyle
  3
ObjectDBX Classes
 90
     4095
280
     0
281
     0
  0
CLASS
  1
MATERIAL
  2
AcDbMaterial
  3
ObjectDBX Classes
 90
     1153
280
     0
281
     0
  0
CLASS
  1
SCALE
  2
AcDbScale
  3
ObjectDBX Classes
 90
     1153
280
     0
281
     0
  0
CLASS
  1
SUN
  2
AcDbSun
  3
SCENEOE
 90
     1153
280
     0
281
     0
  0
CLASS
  1
ACDBPLACEHOLDER
  2
AcDbPlaceHolder
  3
ObjectDBX Classes
 90
        0
280
     0
281
     0
  0
CLASS
  1
LAYOUT
  2
AcDbLayout
  3
ObjectDBX Classes
 90
        0
280
     0
281
     0
  0
CLASS
  1
TABLESTYLE
  2
AcDbTableStyle
  3
ObjectDBX Classes
 90
     4095
280
     0
281
     0
  0
CLASS
  1
MLEADERSTYLE
  2
AcDbMLeaderStyle
  3
ACDB_MLEADERSTYLE_CLASS
 90
     4095
280
     0
281
     0
  0
CLASS
  1
RASTERVARIABLES
  2
AcDbRasterVariables
  3
ISM
 90
        0
280
     0
281
     0
  0
ENDSEC
  0
SECTION
  2
TABLES
  0
TABLE
  2
VPORT
  5
8
330
0
100
AcDbSymbolTable
 70
     1
  0
VPORT
  5
29
330
8
100
AcDbSymbolTableRecord
100
AcDbViewportTableRecord
  2
*Active
 70
     0
 10
0.0
 20
0.0
 11
1.0
 21
1.0
 12
-2.875775457094342
 22
-10.67866100992259
 13
0.0
 23
0.0
 14
10.0
 24
10.0
 15
10.0
 25
10.0
 16
0.0
 26
0.0
 36
1.0
 17
0.0
 27
0.0
 37
0.0
 40
80.15582575833714
 41
1.704749679075738
 42
50.0
 43
0.0
 44
0.0
 50
0.0
 51
0.0
 71
    16
 72
  2000
 73
     1
 74
     3
 75
     0
 76
     0
 77
     0
 78
     0
281
     0
 65
     1
110
0.0
120
0.0
130
0.0
111
1.0
121
0.0
131
0.0
112
0.0
122
1.0
132
0.0
 79
     0
146
0.0
  0
ENDTAB
  0
TABLE
  2
LTYPE
  5
5
330
0
100
AcDbSymbolTable
 70
     6
  0
LTYPE
  5
14
330
5
100
AcDbSymbolTableRecord
100
AcDbLinetypeTableRecord
  2
ByBlock
 70
     0
  3

 72
    65
 73
     0
 40
0.0
  0
LTYPE
  5
15
330
5
100
AcDbSymbolTableRecord
100
AcDbLinetypeTableRecord
  2
ByLayer
 70
     0
  3

 72
    65
 73
     0
 40
0.0
  0
LTYPE
  5
16
330
5
100
AcDbSymbolTableRecord
100
AcDbLinetypeTableRecord
  2
Continuous
 70
     0
  3
Solid line
 72
    65
 73
     0
 40
0.0
  0
LTYPE
  5
6A
330
5
100
AcDbSymbolTableRecord
100
AcDbLinetypeTableRecord
  2
HIDDEN
 70
     0
  3
Hidden __ __ __ __ __ __ __ __ __ __ __ __ __ __
 72
    65
 73
     2
 40
1.905
 49
1.27
 74
     0
 49
-0.635
 74
     0
  0
LTYPE
  5
6B
330
5
100
AcDbSymbolTableRecord
100
AcDbLinetypeTableRecord
  2
PHANTOM
 70
     0
  3
Phantom ______  __  __  ______  __  __  ______
 72
    65
 73
     6
 40
12.7
 49
6.35
 74
     0
 49
-1.27
 74
     0
 49
1.27
 74
     0
 49
-1.27
 74
     0
 49
1.27
 74
     0
 49
-1.27
 74
     0
  0
LTYPE
  5
6C
330
5
100
AcDbSymbolTableRecord
100
AcDbLinetypeTableRecord
  2
CENTER
 70
     0
  3
Center ____ _ ____ _ ____ _ ____ _ ____ _ ____
 72
    65
 73
     4
 40
10.16
 49
6.35
 74
     0
 49
-1.27
 74
     0
 49
1.27
 74
     0
 49
-1.27
 74
     0
  0
LTYPE
  5
6D
330
5
100
AcDbSymbolTableRecord
100
AcDbLinetypeTableRecord
  2
CENTERX2
 70
     0
  3
Center (2x) ________  __  ________  __  _____
 72
    65
 73
     4
 40
20.32
 49
12.7
 74
     0
 49
-2.54
 74
     0
 49
2.54
 74
     0
 49
-2.54
 74
     0
  0
LTYPE
  5
6E
330
5
100
AcDbSymbolTableRecord
100
AcDbLinetypeTableRecord
  2
DOT2
 70
     0
  3
Dot (.5x) ........................................
 72
    65
 73
     2
 40
0.635
 49
0.0
 74
     0
 49
-0.635
 74
     0
  0
ENDTAB
  0
TABLE
  2
LAYER
  5
2
330
0
100
AcDbSymbolTable
 70
    17
  0
LAYER
  5
10
330
2
100
AcDbSymbolTableRecord
100
AcDbLayerTableRecord
  2
0
 70
     0
 62
     7
  6
Continuous
370
    -3
390
F
  0
LAYER
  5
6F
330
2
100
AcDbSymbolTableRecord
100
AcDbLayerTableRecord
  2
FORMAT
 70
     0
 62
     2
  6
Continuous
370
    -3
390
F
  0
LAYER
  5
70
330
2
100
AcDbSymbolTableRecord
100
AcDbLayerTableRecord
  2
외형선
 70
     0
 62
   100
  6
Continuous
370
    30
390
F
  0
LAYER
  5
71
330
2
100
AcDbSymbolTableRecord
100
AcDbLayerTableRecord
  2
숨은선
 70
     0
 62
     2
  6
HIDDEN
370
    15
390
F
  0
LAYER
  5
72
330
2
100
AcDbSymbolTableRecord
100
AcDbLayerTableRecord
  2
중심선
 70
     0
 62
     1
  6
CENTERX2
370
    -3
390
F
  0
LAYER
  5
73
330
2
100
AcDbSymbolTableRecord
100
AcDbLayerTableRecord
  2
파단선
 70
     0
 62
     4
  6
Continuous
370
    -3
390
F
  0
LAYER
  5
74
330
2
100
AcDbSymbolTableRecord
100
AcDbLayerTableRecord
  2
해칭선
 70
     0
 62
     4
  6
Continuous
370
    -3
390
F
  0
LAYER
  5
75
330
2
100
AcDbSymbolTableRecord
100
AcDbLayerTableRecord
  2
가는실선
 70
     0
 62
     4
  6
Continuous
370
    -3
390
F
  0
LAYER
  5
76
330
2
100
AcDbSymbolTableRecord
100
AcDbLayerTableRecord
  2
치수_보조선
 70
     0
 62
     4
  6
Continuous
370
    -3
390
F
  0
LAYER
  5
77
330
2
100
AcDbSymbolTableRecord
100
AcDbLayerTableRecord
  2
치수문자_일반주서
 70
     0
 62
     7
  6
Continuous
370
    15
390
F
  0
LAYER
  5
78
330
2
100
AcDbSymbolTableRecord
100
AcDbLayerTableRecord
  2
개별주서
 70
     0
 62
   100
  6
Continuous
370
    30
390
F
  0
LAYER
  5
79
330
2
100
AcDbSymbolTableRecord
100
AcDbLayerTableRecord
  2
중간선
 70
     0
 62
     2
  6
Continuous
370
    15
390
F
  0
LAYER
  5
7A
330
2
100
AcDbSymbolTableRecord
100
AcDbLayerTableRecord
  2
윤곽선
 70
     0
 62
     3
  6
Continuous
370
    40
390
F
  0
LAYER
  5
7B
330
2
100
AcDbSymbolTableRecord
100
AcDbLayerTableRecord
  2
중심마크
 70
     0
 62
   100
  6
Continuous
370
    30
390
F
  0
LAYER
  5
7C
330
2
100
AcDbSymbolTableRecord
100
AcDbLayerTableRecord
  2
가상선
 70
     0
 62
     4
  6
PHANTOM
370
    -3
390
F
  0
LAYER
  5
7D
330
2
100
AcDbSymbolTableRecord
100
AcDbLayerTableRecord
  2
특수지정선
 70
     0
 62
     5
  6
CENTERX2
370
    60
390
F
  0
LAYER
  5
155
330
2
100
AcDbSymbolTableRecord
100
AcDbLayerTableRecord
  2
Defpoints
 70
     0
 62
     7
  6
Continuous
290
     0
370
    -3
390
F
  0
ENDTAB
  0
TABLE
  2
STYLE
  5
3
330
0
100
AcDbSymbolTable
 70
     2
  0
STYLE
  5
11
330
3
100
AcDbSymbolTableRecord
100
AcDbTextStyleTableRecord
  2
Standard
 70
     0
 40
0.0
 41
1.0
 50
0.0
 71
     0
 42
3.5
  3
txt
  4

  0
STYLE
  5
93
330
3
100
AcDbSymbolTableRecord
100
AcDbTextStyleTableRecord
  2
SLDTEXTSTYLE0
 70
     0
 40
0.0
 41
0.75
 50
0.0
 71
     0
 42
3.5
  3
TXT
  4

  0
ENDTAB
  0
TABLE
  2
VIEW
  5
6
330
0
100
AcDbSymbolTable
 70
     0
  0
ENDTAB
  0
TABLE
  2
UCS
  5
7
330
0
100
AcDbSymbolTable
 70
     0
  0
ENDTAB
  0
TABLE
  2
APPID
  5
9
330
0
100
AcDbSymbolTable
 70
     1
  0
APPID
  5
12
330
9
100
AcDbSymbolTableRecord
100
AcDbRegAppTableRecord
  2
ACAD
 70
     0
  0
ENDTAB
  0
TABLE
  2
DIMSTYLE
  5
A
330
0
100
AcDbSymbolTable
 70
     3
100
AcDbDimStyleTable
  0
DIMSTYLE
105
27
330
A
100
AcDbSymbolTableRecord
100
AcDbDimStyleTableRecord
  2
ISO-25
 70
     0
 41
2.5
 42
0.625
 43
3.75
 44
1.25
 73
     0
 74
     0
 77
     1
 78
     8
140
2.5
141
2.5
143
0.03937007874016
147
0.625
171
     3
172
     1
178
     0
271
     2
272
     2
274
     3
278
    44
283
     0
284
     8
340
11
  0
DIMSTYLE
105
F9
102
{ACAD_REACTORS
330
F8
330
111
330
11D
102
}
330
A
100
AcDbSymbolTableRecord
100
AcDbDimStyleTableRecord
  2
SLDDIMSTYLE0
 70
     0
 41
3.302
 44
0.0
 45
0.000000001
 73
     0
 74
     0
 77
     1
 78
    12
 79
     3
140
3.5
147
0.875
172
     1
173
     1
178
     0
271
     2
272
     2
276
     2
284
    12
289
     0
340
93
  0
DIMSTYLE
105
107
102
{ACAD_REACTORS
330
106
102
}
330
A
100
AcDbSymbolTableRecord
100
AcDbDimStyleTableRecord
  2
SLDDIMSTYLE1
 70
     0
 41
3.302
 44
0.0
 45
0.000000001
 73
     0
 74
     0
 77
     1
 78
    12
 79
     3
140
3.5
147
0.875
173
     1
178
     0
271
     2
272
     2
276
     2
284
    12
340
93
  0
ENDTAB
  0
TABLE
  2
BLOCK_RECORD
  5
1
330
0
100
AcDbSymbolTable
 70
     7
  0
BLOCK_RECORD
  5
1F
330
1
100
AcDbSymbolTableRecord
100
AcDbBlockTableRecord
  2
*Model_Space
340
22
  0
BLOCK_RECORD
  5
1B
330
1
100
AcDbSymbolTableRecord
100
AcDbBlockTableRecord
  2
*Paper_Space
340
1E
  0
BLOCK_RECORD
  5
23
330
1
100
AcDbSymbolTableRecord
100
AcDbBlockTableRecord
  2
*Paper_Space0
340
26
  0
BLOCK_RECORD
  5
7E
330
1
100
AcDbSymbolTableRecord
100
AcDbBlockTableRecord
  2
블럭10
340
0
102
{BLKREFS
331
F1
102
}
  0
BLOCK_RECORD
  5
FA
330
1
100
AcDbSymbolTableRecord
100
AcDbBlockTableRecord
  2
_D
340
0
  0
BLOCK_RECORD
  5
108
330
1
100
AcDbSymbolTableRecord
100
AcDbBlockTableRecord
  2
_D_1
340
0
  0
BLOCK_RECORD
  5
112
330
1
100
AcDbSymbolTableRecord
100
AcDbBlockTableRecord
  2
_D_2
340
0
  0
BLOCK_RECORD
  5
11E
330
1
100
AcDbSymbolTableRecord
100
AcDbBlockTableRecord
  2
_D_3
340
0
  0
BLOCK_RECORD
  5
12A
330
1
100
AcDbSymbolTableRecord
100
AcDbBlockTableRecord
  2
SW_DOWELSYMBOL_0
340
0
102
{BLKREFS
331
130
102
}
  0
ENDTAB
  0
ENDSEC
  0
SECTION
  2
BLOCKS
  0
BLOCK
  5
20
330
1F
100
AcDbEntity
  8
0
100
AcDbBlockBegin
  2
*Model_Space
 70
     0
 10
0.0
 20
0.0
 30
0.0
  3
*Model_Space
  1

  0
ENDBLK
  5
21
330
1F
100
AcDbEntity
  8
0
100
AcDbBlockEnd
  0
BLOCK
  5
1C
330
1B
100
AcDbEntity
 67
     1
  8
0
100
AcDbBlockBegin
  2
*Paper_Space
 70
     0
 10
0.0
 20
0.0
 30
0.0
  3
*Paper_Space
  1

  0
ENDBLK
  5
1D
330
1B
100
AcDbEntity
 67
     1
  8
0
100
AcDbBlockEnd
  0
BLOCK
  5
24
330
23
100
AcDbEntity
  8
0
100
AcDbBlockBegin
  2
*Paper_Space0
 70
     0
 10
0.0
 20
0.0
 30
0.0
  3
*Paper_Space0
  1

  0
ENDBLK
  5
25
330
23
100
AcDbEntity
  8
0
100
AcDbBlockEnd
  0
BLOCK
  5
7F
330
7E
100
AcDbEntity
  8
0
100
AcDbBlockBegin
  2
블럭10
 70
     2
 10
0.0
 20
0.0
 30
0.0
  3
블럭10
  1

  0
ELLIPSE
  5
81
330
7E
100
AcDbEntity
  8
중심선
100
AcDbEllipse
 10
20.54032771741204
 20
12.0471743016438
 30
0.0
 11
6.600054785286829
 21
-1.261213355974178E-13
 31
0.0
210
0.0
220
0.0
230
1.0
 40
0.636358354079598
 41
0.9219305317359503
 42
6.513795318482858
  0
ELLIPSE
  5
82
330
7E
100
AcDbEntity
  8
중심선
100
AcDbEllipse
 10
20.54032771746488
 20
12.04717430159265
 30
0.0
 11
3.960054785062283
 21
1.540847449632565E-10
 31
0.0
210
0.0
220
0.0
230
1.0
 40
0.3939339440162632
 41
1.131841032648279
 42
5.62031148352944
  0
LINE
  5
83
330
7E
100
AcDbEntity
  8
중심선
100
AcDbLine
 10
2.268634060543552
 20
16.24717430164393
 30
0.0
 11
5.714909304380834
 21
16.24717430164393
 31
0.0
  0
LINE
  5
84
330
7E
100
AcDbEntity
  8
중심선
100
AcDbLine
 10
5.245725140726316
 20
7.84717430164391
 30
0.0
 11
8.692000384563599
 21
7.84717430164391
 31
0.0
  0
LINE
  5
85
330
7E
100
AcDbEntity
  8
중심선
100
AcDbLine
 10
15.74043728645272
 20
16.24717430164393
 30
0.0
 11
8.692000384563599
 21
7.84717430164391
 31
0.0
  0
LINE
  5
86
330
7E
100
AcDbEntity
  8
중심선
100
AcDbLine
 10
0.1404042013395286
 20
13.71084872107135
 30
0.0
 11
3.58671253028996
 21
13.71088815037384
 31
0.0
  0
LINE
  5
87
330
7E
100
AcDbEntity
  8
중심선
100
AcDbLine
 10
2.750260043222114
 20
10.84717430164391
 30
0.0
 11
6.196535287059397
 21
10.84717430164391
 31
0.0
  0
LINE
  5
88
330
7E
100
AcDbEntity
  8
중심선
100
AcDbLine
 10
12.29416204261559
 20
16.24717430164393
 30
0.0
 11
5.245725140726316
 21
7.84717430164391
 31
0.0
  0
LINE
  5
89
330
7E
100
AcDbEntity
  8
중심선
100
AcDbLine
 10
10.72767329541681
 20
16.24717430164393
 30
0.0
 11
6.196535287059397
 21
10.84717430164391
 31
0.0
  0
LINE
  5
8A
330
7E
100
AcDbEntity
  8
중심선
100
AcDbLine
 10
7.28139805157953
 20
16.24717430164393
 30
0.0
 11
2.750260043222114
 21
10.84717430164391
 31
0.0
  0
LINE
  5
8B
330
7E
100
AcDbEntity
  8
중심선
100
AcDbLine
 10
5.714909304380834
 20
16.24717430164393
 30
0.0
 11
3.58671253028996
 21
13.71088815037384
 31
0.0
  0
LINE
  5
8C
330
7E
100
AcDbEntity
  8
중심선
100
AcDbLine
 10
2.268634060543552
 20
16.24717430164393
 30
0.0
 11
0.1404042013395286
 21
13.71084872107135
 31
0.0
  0
LINE
  5
8D
330
7E
100
AcDbEntity
  8
중심선
100
AcDbLine
 10
7.28139805157953
 20
16.24717430164393
 30
0.0
 11
10.72767329541681
 21
16.24717430164393
 31
0.0
  0
LINE
  5
8E
330
7E
100
AcDbEntity
  8
중심선
100
AcDbLine
 10
12.29416204261559
 20
16.24717430164393
 30
0.0
 11
15.74043728645272
 21
16.24717430164393
 31
0.0
  0
LINE
  5
8F
330
7E
100
AcDbEntity
  8
중심선
100
AcDbLine
 10
19.22036997980202
 20
11.08717430171403
 30
0.0
 11
23.66174974927406
 21
11.08717430171406
 31
0.0
  0
LINE
  5
90
330
7E
100
AcDbEntity
  8
중심선
100
AcDbLine
 10
19.22039502424796
 20
13.00717430171391
 30
0.0
 11
19.22036997980202
 21
11.08717430171403
 31
0.0
  0
LINE
  5
91
330
7E
100
AcDbEntity
  8
중심선
100
AcDbLine
 10
19.22039502424796
 20
13.00717430171391
 30
0.0
 11
26.96566020931264
 21
13.00717430171391
 31
0.0
  0
LINE
  5
92
330
7E
100
AcDbEntity
  8
중심선
100
AcDbLine
 10
22.22332737316547
 20
13.45928029700563
 30
0.0
 11
24.52862924686651
 21
15.39360700705356
 31
0.0
  0
ATTDEF
  5
94
330
7E
100
AcDbEntity
  8
FORMAT
 62
     2
100
AcDbText
 10
-16.11926103943555
 20
2.075366912832191
 30
0.0
 40
4.233333333333333
  1
SEME7002016E [ 2 FLUTE ]
 41
0.75
  7
SLDTEXTSTYLE0
 11
-16.11926103943555
 21
-0.0412997538344756
 31
0.0
100
AcDbAttributeDefinition
  3

  2
AUTOATTR0
 70
     0
 74
     1
  0
ENDBLK
  5
80
330
7E
100
AcDbEntity
  8
0
100
AcDbBlockEnd
  0
BLOCK
  5
FB
330
FA
100
AcDbEntity
  8
0
100
AcDbBlockBegin
  2
_D
 70
     0
 10
0.0
 20
0.0
 30
0.0
  3
_D
  1

  0
LINE
  5
FD
330
FA
100
AcDbEntity
  8
치수문자_일반주서
 62
     0
370
    -2
100
AcDbLine
 10
26.52660161513774
 20
-0.9999999999999974
 30
0.0
 11
39.6816345390145
 21
-0.9999999999999485
 31
0.0
  0
LINE
  5
FE
330
FA
100
AcDbEntity
  8
치수문자_일반주서
 62
     0
370
    -2
100
AcDbLine
 10
26.52660161513774
 20
1.000000000000002
 30
0.0
 11
39.6816345390145
 21
1.000000000000052
 31
0.0
  0
LINE
  5
FF
330
FA
100
AcDbEntity
  8
치수문자_일반주서
 62
     0
370
    -2
100
AcDbLine
 10
39.6816345390145
 20
-0.9999999999999485
 30
0.0
 11
39.68163453901445
 21
13.7290000000001
 31
0.0
  0
LINE
  5
100
330
FA
100
AcDbEntity
  8
치수문자_일반주서
 62
     0
370
    -2
100
AcDbLine
 10
39.6816345390145
 20
-0.9999999999999485
 30
0.0
 11
39.6816345390145
 21
1.000000000000052
 31
0.0
  0
LINE
  5
101
330
FA
100
AcDbEntity
  8
치수문자_일반주서
 62
     0
370
    -2
100
AcDbLine
 10
39.68163453901452
 20
-4.301999999999948
 30
0.0
 11
39.68163453901453
 21
-7.603999999999948
 31
0.0
  0
LINE
  5
102
330
FA
100
AcDbEntity
  8
치수문자_일반주서
 62
     0
370
    -2
100
AcDbLine
 10
39.68163453901448
 20
4.302000000000051
 30
0.0
 11
39.68163453901447
 21
7.604000000000051
 31
0.0
  0
SOLID
  5
103
330
FA
100
AcDbEntity
  8
치수문자_일반주서
 62
     0
100
AcDbTrace
 10
40.23196787234785
 20
-4.301999999999946
 30
0.0
 11
39.13130120568118
 21
-4.30199999999995
 31
0.0
 12
39.6816345390145
 22
-0.9999999999999485
 32
0.0
 13
39.6816345390145
 23
-0.9999999999999485
 33
0.0
  0
SOLID
  5
104
330
FA
100
AcDbEntity
  8
치수문자_일반주서
 62
     0
100
AcDbTrace
 10
39.13130120568115
 20
4.302000000000049
 30
0.0
 11
40.23196787234782
 21
4.302000000000053
 31
0.0
 12
39.6816345390145
 22
1.000000000000052
 32
0.0
 13
39.6816345390145
 23
1.000000000000052
 33
0.0
  0
MTEXT
  5
105
330
FA
100
AcDbEntity
  8
치수문자_일반주서
 62
     0
100
AcDbMText
 10
35.30663453901446
 20
10.66650000000009
 30
0.0
 40
3.5
 41
0.0
 71
     2
 72
     1
  1
\A1;%%c2
  7
SLDTEXTSTYLE0
 11
-3.552713678800501E-15
 21
1.0
 31
0.0
 73
     1
 44
1.0
  0
POINT
  5
159
330
FA
100
AcDbEntity
  8
Defpoints
 62
     0
100
AcDbPoint
 10
26.46410161513774
 20
-0.9999999999999977
 30
0.0
  0
POINT
  5
15A
330
FA
100
AcDbEntity
  8
Defpoints
 62
     0
100
AcDbPoint
 10
26.46410161513774
 20
1.000000000000002
 30
0.0
  0
POINT
  5
15B
330
FA
100
AcDbEntity
  8
Defpoints
 62
     0
100
AcDbPoint
 10
39.6816345390145
 20
1.000000000000052
 30
0.0
  0
ENDBLK
  5
FC
330
FA
100
AcDbEntity
  8
0
100
AcDbBlockEnd
  0
BLOCK
  5
109
330
108
100
AcDbEntity
  8
0
100
AcDbBlockBegin
  2
_D_1
 70
     0
 10
0.0
 20
0.0
 30
0.0
  3
_D_1
  1

  0
LINE
  5
10B
330
108
100
AcDbEntity
  8
치수문자_일반주서
 62
     0
370
    -2
100
AcDbLine
 10
-33.53589838486226
 20
2.512499999999996
 30
0.0
 11
-33.53589838486226
 21
24.23841044024269
 31
0.0
  0
LINE
  5
10C
330
108
100
AcDbEntity
  8
치수문자_일반주서
 62
     0
370
    -2
100
AcDbLine
 10
26.46410161513774
 20
1.061654815229649
 30
0.0
 11
26.46410161513774
 21
24.23841044024269
 31
0.0
  0
LINE
  5
10D
330
108
100
AcDbEntity
  8
치수문자_일반주서
 62
     0
370
    -2
100
AcDbLine
 10
-30.23389838486226
 20
24.23841044024269
 30
0.0
 11
23.16210161513774
 21
24.23841044024269
 31
0.0
  0
SOLID
  5
10E
330
108
100
AcDbEntity
  8
치수문자_일반주서
 62
     0
100
AcDbTrace
 10
-30.23389838486226
 20
24.78874377357602
 30
0.0
 11
-30.23389838486226
 21
23.68807710690935
 31
0.0
 12
-33.53589838486226
 22
24.23841044024269
 32
0.0
 13
-33.53589838486226
 23
24.23841044024269
 33
0.0
  0
SOLID
  5
10F
330
108
100
AcDbEntity
  8
치수문자_일반주서
 62
     0
100
AcDbTrace
 10
23.16210161513774
 20
23.68807710690935
 30
0.0
 11
23.16210161513774
 21
24.78874377357602
 31
0.0
 12
26.46410161513774
 22
24.23841044024269
 32
0.0
 13
26.46410161513774
 23
24.23841044024269
 33
0.0
  0
MTEXT
  5
110
330
108
100
AcDbEntity
  8
치수문자_일반주서
 62
     0
100
AcDbMText
 10
-3.535898384862259
 20
28.61341044024269
 30
0.0
 40
3.5
 41
0.0
 71
     2
 72
     1
  1
\A1;60
  7
SLDTEXTSTYLE0
 73
     1
 44
1.0
  0
POINT
  5
15C
330
108
100
AcDbEntity
  8
Defpoints
 62
     0
100
AcDbPoint
 10
-33.53589838486226
 20
2.449999999999996
 30
0.0
  0
POINT
  5
15D
330
108
100
AcDbEntity
  8
Defpoints
 62
     0
100
AcDbPoint
 10
26.46410161513774
 20
0.9991548152296488
 30
0.0
  0
POINT
  5
15E
330
108
100
AcDbEntity
  8
Defpoints
 62
     0
100
AcDbPoint
 10
26.46410161513774
 20
24.23841044024269
 30
0.0
  0
ENDBLK
  5
10A
330
108
100
AcDbEntity
  8
0
100
AcDbBlockEnd
  0
BLOCK
  5
113
330
112
100
AcDbEntity
  8
0
100
AcDbBlockBegin
  2
_D_2
 70
     0
 10
0.0
 20
0.0
 30
0.0
  3
_D_2
  1

  0
LINE
  5
115
330
112
100
AcDbEntity
  8
치수문자_일반주서
 62
     0
370
    -2
100
AcDbLine
 10
10.46410161513774
 20
1.051844127371356
 30
0.0
 11
10.46410161513774
 21
14.33634193353888
 31
0.0
  0
LINE
  5
116
330
112
100
AcDbEntity
  8
치수문자_일반주서
 62
     0
370
    -2
100
AcDbLine
 10
26.46410161513774
 20
1.061654815229649
 30
0.0
 11
26.46410161513774
 21
14.33634193353888
 31
0.0
  0
LINE
  5
117
330
112
100
AcDbEntity
  8
치수문자_일반주서
 62
     0
370
    -2
100
AcDbLine
 10
13.76610161513774
 20
14.33634193353888
 30
0.0
 11
23.16210161513774
 21
14.33634193353888
 31
0.0
  0
SOLID
  5
118
330
112
100
AcDbEntity
  8
치수문자_일반주서
 62
     0
100
AcDbTrace
 10
13.76610161513774
 20
14.88667526687221
 30
0.0
 11
13.76610161513774
 21
13.78600860020554
 31
0.0
 12
10.46410161513774
 22
14.33634193353888
 32
0.0
 13
10.46410161513774
 23
14.33634193353888
 33
0.0
  0
SOLID
  5
119
330
112
100
AcDbEntity
  8
치수문자_일반주서
 62
     0
100
AcDbTrace
 10
23.16210161513774
 20
13.78600860020554
 30
0.0
 11
23.16210161513774
 21
14.88667526687221
 31
0.0
 12
26.46410161513774
 22
14.33634193353888
 32
0.0
 13
26.46410161513774
 23
14.33634193353888
 33
0.0
  0
MTEXT
  5
11A
330
112
100
AcDbEntity
  8
치수문자_일반주서
 62
     0
100
AcDbMText
 10
18.46410161513774
 20
18.71134193353888
 30
0.0
 40
3.5
 41
0.0
 71
     2
 72
     1
  1
\A1;16
  7
SLDTEXTSTYLE0
 73
     1
 44
1.0
  0
POINT
  5
11B
330
112
100
AcDbEntity
  8
Defpoints
 62
     0
100
AcDbPoint
 10
10.46410161513774
 20
0.9893441273713564
 30
0.0
  0
POINT
  5
11C
330
112
100
AcDbEntity
  8
Defpoints
 62
     0
100
AcDbPoint
 10
26.46410161513774
 20
0.9991548152296489
 30
0.0
  0
POINT
  5
15F
330
112
100
AcDbEntity
  8
Defpoints
 62
     0
100
AcDbPoint
 10
26.46410161513774
 20
14.33634193353888
 30
0.0
  0
ENDBLK
  5
114
330
112
100
AcDbEntity
  8
0
100
AcDbBlockEnd
  0
BLOCK
  5
11F
330
11E
100
AcDbEntity
  8
0
100
AcDbBlockBegin
  2
_D_3
 70
     0
 10
0.0
 20
0.0
 30
0.0
  3
_D_3
  1

  0
LINE
  5
121
330
11E
100
AcDbEntity
  8
치수문자_일반주서
 62
     0
370
    -2
100
AcDbLine
 10
-33.04839838486226
 20
2.999999999999995
 30
0.0
 11
-41.60851878653649
 21
2.999999999999963
 31
0.0
  0
LINE
  5
122
330
11E
100
AcDbEntity
  8
치수문자_일반주서
 62
     0
370
    -2
100
AcDbLine
 10
-33.04839838486226
 20
-3.000000000000001
 30
0.0
 11
-41.60851878653647
 21
-3.000000000000032
 31
0.0
  0
LINE
  5
123
330
11E
100
AcDbEntity
  8
치수문자_일반주서
 62
     0
370
    -2
100
AcDbLine
 10
-41.60851878653649
 20
2.999999999999963
 30
0.0
 11
-41.60851878653654
 21
15.72899999999997
 31
0.0
  0
LINE
  5
124
330
11E
100
AcDbEntity
  8
치수문자_일반주서
 62
     0
370
    -2
100
AcDbLine
 10
-41.60851878653649
 20
2.999999999999963
 30
0.0
 11
-41.60851878653647
 21
-3.000000000000032
 31
0.0
  0
LINE
  5
125
330
11E
100
AcDbEntity
  8
치수문자_일반주서
 62
     0
370
    -2
100
AcDbLine
 10
-41.60851878653651
 20
6.301999999999962
 30
0.0
 11
-41.60851878653652
 21
9.603999999999962
 31
0.0
  0
LINE
  5
126
330
11E
100
AcDbEntity
  8
치수문자_일반주서
 62
     0
370
    -2
100
AcDbLine
 10
-41.60851878653646
 20
-6.302000000000032
 30
0.0
 11
-41.60851878653644
 21
-9.604000000000031
 31
0.0
  0
SOLID
  5
127
330
11E
100
AcDbEntity
  8
치수문자_일반주서
 62
     0
100
AcDbTrace
 10
-42.15885211986984
 20
6.301999999999961
 30
0.0
 11
-41.05818545320317
 21
6.301999999999964
 31
0.0
 12
-41.60851878653649
 22
2.999999999999963
 32
0.0
 13
-41.60851878653649
 23
2.999999999999963
 33
0.0
  0
SOLID
  5
128
330
11E
100
AcDbEntity
  8
치수문자_일반주서
 62
     0
100
AcDbTrace
 10
-41.05818545320312
 20
-6.30200000000003
 30
0.0
 11
-42.15885211986979
 21
-6.302000000000033
 31
0.0
 12
-41.60851878653647
 22
-3.000000000000032
 32
0.0
 13
-41.60851878653647
 23
-3.000000000000032
 33
0.0
  0
MTEXT
  5
129
330
11E
100
AcDbEntity
  8
치수문자_일반주서
 62
     0
100
AcDbMText
 10
-45.98351878653653
 20
12.66649999999995
 30
0.0
 40
3.5
 41
0.0
 71
     2
 72
     1
  1
\A1;%%c6
  7
SLDTEXTSTYLE0
 11
-3.552713678800503E-15
 21
1.0
 31
0.0
 73
     1
 44
1.0
  0
POINT
  5
156
330
11E
100
AcDbEntity
  8
Defpoints
 62
     0
100
AcDbPoint
 10
-32.98589838486226
 20
2.999999999999996
 30
0.0
  0
POINT
  5
157
330
11E
100
AcDbEntity
  8
Defpoints
 62
     0
100
AcDbPoint
 10
-32.98589838486226
 20
-3.0
 30
0.0
  0
POINT
  5
158
330
11E
100
AcDbEntity
  8
Defpoints
 62
     0
100
AcDbPoint
 10
-41.60851878653647
 20
-3.000000000000033
 30
0.0
  0
ENDBLK
  5
120
330
11E
100
AcDbEntity
  8
0
100
AcDbBlockEnd
  0
BLOCK
  5
12B
330
12A
100
AcDbEntity
  8
0
100
AcDbBlockBegin
  2
SW_DOWELSYMBOL_0
 70
     0
 10
0.0
 20
0.0
 30
0.0
  3
SW_DOWELSYMBOL_0
  1

  0
CIRCLE
  5
12D
330
12A
100
AcDbEntity
  8
외형선
 62
     0
100
AcDbCircle
 10
0.0
 20
0.0
 30
0.0
 40
3.000000000000004
  0
HATCH
  5
12E
330
12A
100
AcDbEntity
  8
0
  6
Continuous
 62
     0
370
    30
100
AcDbHatch
 10
0.0
 20
0.0
 30
0.0
210
0.0
220
0.0
230
1.0
  2
SOLID
 70
     1
 71
     0
 91
        1
 92
        0
 93
        3
 72
     2
 10
0.0000000000000104
 20
0.0
 40
3.000000000000004
 50
0.0
 51
90.0
 73
     1
 72
     1
 10
0.0000000000000104
 20
3.000000000000004
 11
0.0000000000000104
 21
0.0
 72
     1
 10
0.0000000000000104
 20
0.0
 11
3.000000000000015
 21
0.0
 97
        0
 75
     0
 76
     1
 98
        1
 10
0.0
 20
0.0
  0
HATCH
  5
12F
330
12A
100
AcDbEntity
  8
0
  6
Continuous
 62
     0
370
    30
100
AcDbHatch
 10
0.0
 20
0.0
 30
0.0
210
0.0
220
0.0
230
1.0
  2
SOLID
 70
     1
 71
     0
 91
        1
 92
        0
 93
        3
 72
     2
 10
0.0000000000000104
 20
0.0
 40
3.000000000000004
 50
180.0
 51
270.0000000000007
 73
     1
 72
     1
 10
0.0000000000000104
 20
-3.000000000000004
 11
0.0000000000000104
 21
0.0
 72
     1
 10
0.0000000000000104
 20
0.0
 11
-2.999999999999994
 21
0.0
 97
        0
 75
     0
 76
     1
 98
        1
 10
0.0
 20
0.0
  0
ENDBLK
  5
12C
330
12A
100
AcDbEntity
  8
0
100
AcDbBlockEnd
  0
ENDSEC
  0
SECTION
  2
ENTITIES
  0
SPLINE
  5
95
330
1F
100
AcDbEntity
  8
0
  6
Continuous
 62
     1
370
    15
100
AcDbSpline
210
0.0
220
0.0
230
1.0
 70
     8
 71
     3
 72
     9
 73
     5
 74
     0
 42
0.000000001
 43
0.00000001
 40
0.0
 40
0.0
 40
0.0
 40
0.0
 40
0.4994924736224086
 40
1.0
 40
1.0
 40
1.0
 40
1.0
 10
23.87199664100442
 20
0.2564782355605783
 30
0.0
 10
23.82625870511646
 20
0.2784487109921324
 30
0.0
 10
23.73468988615857
 20
0.3224343095582535
 30
0.0
 10
23.64308474638843
 20
0.370638317904869
 30
0.0
 10
23.5972356844786
 20
0.3947647868839183
 30
0.0
  0
SPLINE
  5
96
330
1F
100
AcDbEntity
  8
0
  6
Continuous
 62
     1
370
    15
100
AcDbSpline
210
0.0
220
0.0
230
1.0
 70
     8
 71
     3
 72
     9
 73
     5
 74
     0
 42
0.000000001
 43
0.00000001
 40
0.0
 40
0.0
 40
0.0
 40
0.0
 40
0.4994797469818886
 40
1.0
 40
1.0
 40
1.0
 40
1.0
 10
12.98967152747819
 20
0.2562576111207719
 30
0.0
 10
12.94378017688733
 20
0.2782974357878595
 30
0.0
 10
12.85190187577871
 20
0.3224229980359054
 30
0.0
 10
12.75999483262938
 20
0.3707917617338439
 30
0.0
 10
12.71399349613813
 20
0.3950013075781093
 30
0.0
  0
SPLINE
  5
97
330
1F
100
AcDbEntity
  8
0
  6
Continuous
 62
     1
370
    15
100
AcDbSpline
210
0.0
220
0.0
230
1.0
 70
     8
 71
     3
 72
     9
 73
     5
 74
     0
 42
0.000000001
 43
0.00000001
 40
0.0
 40
0.0
 40
0.0
 40
0.0
 40
0.4994818719625622
 40
1.0
 40
1.0
 40
1.0
 40
1.0
 10
18.43084502737496
 20
0.2563627996274778
 30
0.0
 10
18.38500985877797
 20
0.2783779573346823
 30
0.0
 10
18.29324442910001
 20
0.3224539467608905
 30
0.0
 10
18.20144704302868
 20
0.3707635628316509
 30
0.0
 10
18.15550078719352
 20
0.3949434014335951
 30
0.0
  0
LINE
  5
98
330
1F
100
AcDbEntity
  8
0
  6
Continuous
 62
     1
370
    15
100
AcDbLine
 10
15.65205030502563
 20
-1.000000000000001
 30
0.0
 11
16.13685077703744
 21
-1.000000000000001
 31
0.0
  0
LINE
  5
99
330
1F
100
AcDbEntity
  8
0
  6
Continuous
 62
     1
370
    15
100
AcDbLine
 10
10.69510878824019
 20
1.000000000000002
 30
0.0
 11
10.46410161513774
 21
1.000000000000002
 31
0.0
  0
LINE
  5
9A
330
1F
100
AcDbEntity
  8
0
  6
Continuous
 62
     1
370
    15
100
AcDbLine
 10
21.57840029622894
 20
1.000000000000002
 30
0.0
 11
21.0943431390843
 21
1.000000000000002
 31
0.0
  0
LINE
  5
9B
330
1F
100
AcDbEntity
  8
0
  6
Continuous
 62
     1
370
    15
100
AcDbLine
 10
21.09355140230403
 20
-1.000000000000001
 30
0.0
 11
21.57840029622893
 21
-1.000000000000001
 31
0.0
  0
LINE
  5
9D
330
1F
100
AcDbEntity
  8
0
  6
Continuous
 62
     1
370
    15
100
AcDbLine
 10
16.13685077703745
 20
1.000000000000002
 30
0.0
 11
15.65203352072344
 21
1.000000000000002
 31
0.0
  0
LINE
  5
9E
330
1F
100
AcDbEntity
  8
0
  6
Continuous
 62
     1
370
    15
100
AcDbLine
 10
12.58015294162009
 20
0.2038426373601537
 30
0.0
 11
12.42595491653559
 21
0.287618796458521
 31
0.0
  0
LINE
  5
9F
330
1F
100
AcDbEntity
  8
0
  6
Continuous
 62
     1
370
    15
100
AcDbLine
 10
23.47004303497763
 20
0.2000914500202124
 30
0.0
 11
23.3089450018445
 21
0.2875121077230158
 31
0.0
  0
SPLINE
  5
A0
330
1F
100
AcDbEntity
  8
0
  6
Continuous
 62
     1
370
    15
100
AcDbSpline
210
0.0
220
0.0
230
1.0
 70
     8
 71
     3
 72
    10
 73
     6
 74
     0
 42
0.000000001
 43
0.00000001
 40
0.0
 40
0.0
 40
0.0
 40
0.0
 40
0.4512757959085817
 40
0.63477583419155
 40
1.0
 40
1.0
 40
1.0
 40
1.0
 10
16.59800602893237
 20
-0.8320697426607914
 30
0.0
 10
16.82437101882513
 20
-0.8133623806864732
 30
0.0
 10
17.14278168164749
 20
-0.7870481369126354
 30
0.0
 10
17.6443090400589
 20
-0.7775813877943373
 30
0.0
 10
17.91966724011712
 20
-0.7878487137871704
 30
0.0
 10
18.10294231376054
 20
-0.7946825212679703
 30
0.0
  0
SPLINE
  5
A1
330
1F
100
AcDbEntity
  8
0
  6
Continuous
 62
     1
370
    15
100
AcDbSpline
210
0.0
220
0.0
230
1.0
 70
     8
 71
     3
 72
    10
 73
     6
 74
     0
 42
0.000000001
 43
0.00000001
 40
0.0
 40
0.0
 40
0.0
 40
0.0
 40
0.6529304777097592
 40
0.9391109855820613
 40
1.0
 40
1.0
 40
1.0
 40
1.0
 10
23.54401847330628
 20
0.7946654458817765
 30
0.0
 10
23.36332111353448
 20
0.7887136260085791
 30
0.0
 10
23.10342380222717
 20
0.7801531136447957
 30
0.0
 10
22.82709196142391
 20
0.7802717914759012
 30
0.0
 10
22.73108936447069
 20
0.7869161245324355
 30
0.0
 10
22.71424690745668
 20
0.7880817898106983
 30
0.0
  0
SPLINE
  5
A2
330
1F
100
AcDbEntity
  8
0
  6
Continuous
 62
     1
370
    15
100
AcDbSpline
210
0.0
220
0.0
230
1.0
 70
     8
 71
     3
 72
     9
 73
     5
 74
     0
 42
0.000000001
 43
0.00000001
 40
0.0
 40
0.0
 40
0.0
 40
0.0
 40
0.4692593185957901
 40
1.0
 40
1.0
 40
1.0
 40
1.0
 10
12.66163915863723
 20
0.7946875516125379
 30
0.0
 10
12.53223396296922
 20
0.7889948068647195
 30
0.0
 10
12.25646917676265
 20
0.7768634660000279
 30
0.0
 10
11.98127378253296
 20
0.7835751243004879
 30
0.0
 10
11.83521639148021
 20
0.7871372744002265
 30
0.0
  0
SPLINE
  5
A3
330
1F
100
AcDbEntity
  8
0
  6
Continuous
 62
     1
370
    15
100
AcDbSpline
210
0.0
220
0.0
230
1.0
 70
     8
 71
     3
 72
    11
 73
     7
 74
     0
 42
0.000000001
 43
0.00000001
 40
0.0
 40
0.0
 40
0.0
 40
0.0
 40
0.433605297500507
 40
0.6250362628653591
 40
0.7464358064141158
 40
1.0
 40
1.0
 40
1.0
 40
1.0
 10
11.12986989116943
 20
-0.8346356334929023
 30
0.0
 10
11.35197291383637
 20
-0.8155528659801082
 30
0.0
 10
11.67213146369515
 20
-0.7880453106986576
 30
0.0
 10
12.05266512717954
 20
-0.7806000390432266
 30
0.0
 10
12.34066589393351
 20
-0.7810374415113365
 30
0.0
 10
12.53215035941406
 20
-0.7891807491444246
 30
0.0
 10
12.66163915863723
 20
-0.794687551612537
 30
0.0
  0
SPLINE
  5
A4
330
1F
100
AcDbEntity
  8
0
  6
Continuous
 62
     1
370
    15
100
AcDbSpline
210
0.0
220
0.0
230
1.0
 70
     8
 71
     3
 72
    10
 73
     6
 74
     0
 42
0.000000001
 43
0.00000001
 40
0.0
 40
0.0
 40
0.0
 40
0.0
 40
0.4821534391760793
 40
0.6399596985551671
 40
1.0
 40
1.0
 40
1.0
 40
1.0
 10
22.03922792376397
 20
-0.8320872918438946
 30
0.0
 10
22.28113387780176
 20
-0.8123305591057266
 30
0.0
 10
22.60221436555949
 20
-0.7861075526927499
 30
0.0
 10
23.10345393393164
 20
-0.7780856756600844
 30
0.0
 10
23.36333347119516
 20
-0.7878657251830542
 30
0.0
 10
23.54401847330628
 20
-0.7946654458817743
 30
0.0
  0
SPLINE
  5
A5
330
1F
100
AcDbEntity
  8
0
  6
Continuous
 62
     1
370
    15
100
AcDbSpline
210
0.0
220
0.0
230
1.0
 70
     8
 71
     3
 72
    10
 73
     6
 74
     0
 42
0.000000001
 43
0.00000001
 40
0.0
 40
0.0
 40
0.0
 40
0.0
 40
0.6539936935416325
 40
0.9825805698674729
 40
1.0
 40
1.0
 40
1.0
 40
1.0
 10
18.10294231376053
 20
0.7946825212679715
 30
0.0
 10
17.9196648029719
 20
0.7887786340135111
 30
0.0
 10
17.64430294127051
 20
0.779908449239242
 30
0.0
 10
17.36423699395266
 20
0.7802081189795339
 30
0.0
 10
17.26731523920765
 20
0.7868634993187437
 30
0.0
 10
17.26243578555727
 20
0.7871985594915217
 30
0.0
  0
LINE
  5
A6
330
1F
100
AcDbEntity
  8
0
  6
Continuous
 62
     1
370
    15
100
AcDbLine
 10
13.46347995808543
 20
-0.7521344516719342
 30
0.0
 11
14.23012708027659
 21
-0.6718115756551005
 31
0.0
  0
SPLINE
  5
A7
330
1F
100
AcDbEntity
  8
0
  6
Continuous
 62
     1
370
    15
100
AcDbSpline
210
0.0
220
0.0
230
1.0
 70
     8
 71
     3
 72
     9
 73
     5
 74
     0
 42
0.000000001
 43
0.00000001
 40
0.0
 40
0.0
 40
0.0
 40
0.0
 40
0.7767415884802311
 40
1.0
 40
1.0
 40
1.0
 40
1.0
 10
24.3465795156693
 20
-0.7520864562342173
 30
0.0
 10
24.5441574941261
 20
-0.7238186825856573
 30
0.0
 10
24.7985252032678
 20
-0.6874259181607876
 30
0.0
 10
25.05211354425339
 20
-0.6735417831370992
 30
0.0
 10
25.10872927444176
 20
-0.6704420332063843
 30
0.0
  0
SPLINE
  5
A8
330
1F
100
AcDbEntity
  8
0
  6
Continuous
 62
     1
370
    15
100
AcDbSpline
210
0.0
220
0.0
230
1.0
 70
     8
 71
     3
 72
    16
 73
    12
 74
     0
 42
0.000000001
 43
0.00000001
 40
0.0
 40
0.0
 40
0.0
 40
0.0
 40
0.1406120256399145
 40
0.2464278767469626
 40
0.3454376963941224
 40
0.4135796510971049
 40
0.4707608558841485
 40
0.5187205076630785
 40
0.6319034146580584
 40
0.79479500926706
 40
0.9999999999999999
 40
0.9999999999999999
 40
0.9999999999999999
 40
0.9999999999999999
 10
20.6513057161368
 20
0.6839861130745963
 30
0.0
 10
20.56917547358384
 20
0.677730822299868
 30
0.0
 10
20.42523912676761
 20
0.6667681893597907
 30
0.0
 10
20.22485757423273
 20
0.6594183522982167
 30
0.0
 10
20.06597447433579
 20
0.657544761002653
 30
0.0
 10
19.93525284123364
 20
0.6588309902616016
 30
0.0
 10
19.83438592209721
 20
0.6614274044815062
 30
0.0
 10
19.70735825081491
 20
0.6663986859424251
 30
0.0
 10
19.51932177662163
 20
0.6779167104999487
 30
0.0
 10
19.23888903990001
 20
0.703300124066608
 30
0.0
 10
19.02449311594243
 20
0.7346453147889861
 30
0.0
 10
18.904972546231
 20
0.7521195045202834
 30
0.0
  0
SPLINE
  5
A9
330
1F
100
AcDbEntity
  8
0
  6
Continuous
 62
     1
370
    15
100
AcDbSpline
210
0.0
220
0.0
230
1.0
 70
     8
 71
     3
 72
    10
 73
     6
 74
     0
 42
0.000000001
 43
0.00000001
 40
0.0
 40
0.0
 40
0.0
 40
0.0
 40
0.4806515441563444
 40
0.8621924423540839
 40
1.0
 40
1.0
 40
1.0
 40
1.0
 10
18.904972546231
 20
-0.7521195045202819
 30
0.0
 10
19.02449417236245
 20
-0.7347653294561082
 30
0.0
 10
19.23889199132562
 20
-0.7036354209693204
 30
0.0
 10
19.48764716305667
 20
-0.6800244371267697
 30
0.0
 10
19.61643008182201
 20
-0.672724069067276
 30
0.0
 10
19.65060224369497
 20
-0.6707869382625626
 30
0.0
  0
SPLINE
  5
AA
330
1F
100
AcDbEntity
  8
0
  6
Continuous
 62
     1
370
    15
100
AcDbSpline
210
0.0
220
0.0
230
1.0
 70
     8
 71
     3
 72
    11
 73
     7
 74
     0
 42
0.000000001
 43
0.00000001
 40
0.0
 40
0.0
 40
0.0
 40
0.0
 40
0.3246957581747046
 40
0.4884790296766371
 40
0.6524525242291326
 40
1.0
 40
1.0
 40
1.0
 40
1.0
 10
26.04157666076516
 20
0.6793234908386125
 30
0.0
 10
25.86090874673443
 20
0.6689923140923424
 30
0.0
 10
25.58910819154531
 20
0.6534498776256469
 30
0.0
 10
25.21726811946522
 20
0.6621259843821586
 30
0.0
 10
24.83509873302444
 20
0.6845873731447699
 30
0.0
 10
24.54421641134305
 20
0.7247788114810643
 30
0.0
 10
24.34657951566929
 20
0.7520864562342192
 30
0.0
  0
SPLINE
  5
AB
330
1F
100
AcDbEntity
  8
0
  6
Continuous
 62
     1
370
    15
100
AcDbSpline
210
0.0
220
0.0
230
1.0
 70
     8
 71
     3
 72
    10
 73
     6
 74
     0
 42
0.000000001
 43
0.00000001
 40
0.0
 40
0.0
 40
0.0
 40
0.0
 40
0.2415627527543855
 40
0.5287417331632849
 40
1.0
 40
1.0
 40
1.0
 40
1.0
 10
15.20939444074715
 20
0.6839422502786928
 30
0.0
 10
15.06872924373766
 20
0.6743654581804439
 30
0.0
 10
14.76083591492562
 20
0.653403411695897
 30
0.0
 10
14.17944210498018
 20
0.6595197748774575
 30
0.0
 10
13.73785932810216
 20
0.7166415743132837
 30
0.0
 10
13.46347995808543
 20
0.7521344516719352
 30
0.0
  0
LINE
  5
AC
330
1F
100
AcDbEntity
  8
0
  6
Continuous
 62
   131
370
    15
100
AcDbLine
 10
2.0
 20
-3.0
 30
0.0
 11
9.464101615137736
 21
-0.9999999999999998
 31
0.0
  0
LINE
  5
AD
330
1F
100
AcDbEntity
  8
0
  6
Continuous
 62
   131
370
    15
100
AcDbLine
 10
9.464101615137736
 20
1.0
 30
0.0
 11
2.0
 21
3.0
 31
0.0
  0
LINE
  5
AE
330
1F
100
AcDbEntity
  8
0
  6
Continuous
 62
   131
370
    15
100
AcDbLine
 10
2.0
 20
2.999999999999999
 30
0.0
 11
-32.98589838486226
 21
2.999999999999997
 31
0.0
  0
LINE
  5
AF
330
1F
100
AcDbEntity
  8
0
  6
Continuous
 62
   131
370
    15
100
AcDbLine
 10
-32.98589838486226
 20
-3.000000000000002
 30
0.0
 11
2.0
 21
-3.0
 31
0.0
  0
LINE
  5
B0
330
1F
100
AcDbEntity
  8
0
  6
Continuous
 62
   131
370
    15
100
AcDbLine
 10
-32.98589838486226
 20
2.999999999999996
 30
0.0
 11
-33.53589838486226
 21
2.449999999999995
 31
0.0
  0
LINE
  5
B1
330
1F
100
AcDbEntity
  8
0
  6
Continuous
 62
   131
370
    15
100
AcDbLine
 10
-33.53589838486226
 20
-2.450000000000001
 30
0.0
 11
-32.98589838486226
 21
-3.0
 31
0.0
  0
LINE
  5
B2
330
1F
100
AcDbEntity
  8
0
  6
Continuous
 62
   131
370
    15
100
AcDbLine
 10
9.663976743527634
 20
1.0
 30
0.0
 11
9.464101615137736
 21
1.0
 31
0.0
  0
LINE
  5
B3
330
1F
100
AcDbEntity
  8
0
  6
Continuous
 62
   131
370
    15
100
AcDbLine
 10
10.46410161513774
 20
1.0
 30
0.0
 11
10.21079402836343
 21
1.0
 31
0.0
  0
LINE
  5
B4
330
1F
100
AcDbEntity
  8
0
  6
Continuous
 62
   131
370
    15
100
AcDbLine
 10
10.21079402836343
 20
-0.9999999999999998
 30
0.0
 11
10.46410161513774
 21
-0.9999999999999998
 31
0.0
  0
LINE
  5
B5
330
1F
100
AcDbEntity
  8
0
  6
Continuous
 62
   131
370
    15
100
AcDbLine
 10
9.464101615137736
 20
-0.9999999999999998
 30
0.0
 11
9.663976743527634
 21
-0.9999999999999998
 31
0.0
  0
SPLINE
  5
B6
330
1F
100
AcDbEntity
  8
0
  6
Continuous
 62
   131
370
    15
100
AcDbSpline
210
0.0
220
0.0
230
1.0
 70
     8
 71
     3
 72
     9
 73
     5
 74
     0
 42
0.000000001
 43
0.00000001
 40
0.0
 40
0.0
 40
0.0
 40
0.0
 40
0.5001208960290805
 40
1.0
 40
1.0
 40
1.0
 40
1.0
 10
9.808608360281283
 20
0.6872294477790921
 30
0.0
 10
9.783654570267792
 20
0.6850134793921854
 30
0.0
 10
9.733759054580243
 20
0.6805826139664427
 30
0.0
 10
9.684008923741906
 20
0.6769124328890104
 30
0.0
 10
9.659139872915997
 20
0.6750777860606125
 30
0.0
  0
SPLINE
  5
B7
330
1F
100
AcDbEntity
  8
0
  6
Continuous
 62
     1
370
    15
100
AcDbSpline
210
0.0
220
0.0
230
1.0
 70
     8
 71
     3
 72
    17
 73
    13
 74
     0
 42
0.000000001
 43
0.00000001
 40
0.0
 40
0.0
 40
0.0
 40
0.0
 40
0.1076684811469028
 40
0.2149558134103469
 40
0.3221814225913074
 40
0.4296670392973437
 40
0.5374624845362709
 40
0.644858397059637
 40
0.752069479389049
 40
0.8594180054200171
 40
0.9671831065936785
 40
1.0
 40
1.0
 40
1.0
 40
1.0
 10
26.46410161513774
 20
-0.9489408692318989
 30
0.0
 10
26.28866005317121
 20
-0.908620014904744
 30
0.0
 10
25.93839799637632
 20
-0.8281210429960739
 30
0.0
 10
25.41396969873293
 20
-0.6083670639882798
 30
0.0
 10
24.88985283072529
 20
-0.3393556369171611
 30
0.0
 10
24.36466424587881
 20
-0.0377203720543704
 30
0.0
 10
23.83863376864247
 20
0.2662579488120436
 30
0.0
 10
23.31374775427239
 20
0.5465044736215229
 30
0.0
 10
22.78969485686096
 20
0.7784291026814456
 30
0.0
 10
22.2650108169794
 20
0.9328511454868603
 30
0.0
 10
21.86081437936734
 20
1.004892807024798
 30
0.0
 10
21.63184904074182
 20
0.9930464905488722
 30
0.0
 10
21.57840029622894
 20
0.9902811342441085
 30
0.0
  0
SPLINE
  5
B8
330
1F
100
AcDbEntity
  8
0
  6
Continuous
 62
     1
370
    15
100
AcDbSpline
210
0.0
220
0.0
230
1.0
 70
     8
 71
     3
 72
    20
 73
    16
 74
     0
 42
0.000000001
 43
0.00000001
 40
0.0
 40
0.0
 40
0.0
 40
0.0
 40
0.037866496348052
 40
0.1178080549098205
 40
0.1975769594156328
 40
0.2774127818272495
 40
0.3575486733720591
 40
0.4376185474171252
 40
0.5174253543140435
 40
0.5972072499678829
 40
0.6772033206533861
 40
0.7573904553767286
 40
0.837270100417004
 40
0.9362178486992817
 40
1.0
 40
1.0
 40
1.0
 40
1.0
 10
17.26243578555727
 20
-0.7871985594915204
 30
0.0
 10
17.17948789307745
 20
-0.8179935135777013
 30
0.0
 10
16.92142520404231
 20
-0.9138009949085387
 30
0.0
 10
16.48900918745293
 20
-0.9919837770406557
 30
0.0
 10
15.9649283113367
 20
-1.011064445127997
 30
0.0
 10
15.4403984075179
 20
-0.9338989621804237
 30
0.0
 10
14.91458458265798
 20
-0.7729312468018134
 30
0.0
 10
14.38900088373138
 20
-0.5412108084701484
 30
0.0
 10
13.86466725269192
 20
-0.2599095229047584
 30
0.0
 10
13.34049866996096
 20
0.045140829254499
 30
0.0
 10
12.8152061118661
 20
0.3457141737287627
 30
0.0
 10
12.2891718373383
 20
0.615280862301338
 30
0.0
 10
11.72258807356746
 20
0.8423613920301722
 30
0.0
 10
11.19111431299114
 20
0.9864538488039141
 30
0.0
 10
10.83477596842877
 20
0.9846311212287843
 30
0.0
 10
10.69510878824019
 20
1.000000000000002
 30
0.0
  0
SPLINE
  5
B9
330
1F
100
AcDbEntity
  8
0
  6
Continuous
 62
     1
370
    15
100
AcDbSpline
210
0.0
220
0.0
230
1.0
 70
     8
 71
     3
 72
    12
 73
     8
 74
     0
 42
0.000000001
 43
0.00000001
 40
0.0
 40
0.0
 40
0.0
 40
0.0
 40
0.2016425787477093
 40
0.4025394831221849
 40
0.6033156159720253
 40
0.8046004642938364
 40
1.0
 40
1.0
 40
1.0
 40
1.0
 10
26.46410161513774
 20
-0.7889722643682141
 30
0.0
 10
26.28866710886435
 20
-0.750001979924015
 30
0.0
 10
25.93844685322359
 20
-0.672205523170108
 30
0.0
 10
25.41397306452063
 20
-0.4745020187385494
 30
0.0
 10
24.88983095588559
 20
-0.2391724637945421
 30
0.0
 10
24.37024265748424
 20
0.0183237018399565
 30
0.0
 10
24.02506920941069
 20
0.1830467221182419
 30
0.0
 10
23.85504302686524
 20
0.2641862954880475
 30
0.0
  0
SPLINE
  5
BA
330
1F
100
AcDbEntity
  8
0
  6
Continuous
 62
     1
370
    15
100
AcDbSpline
210
0.0
220
0.0
230
1.0
 70
     8
 71
     3
 72
    15
 73
    11
 74
     0
 42
0.000000001
 43
0.00000001
 40
0.0
 40
0.0
 40
0.0
 40
0.0
 40
0.0304319857456764
 40
0.1750540310384962
 40
0.3198028549734229
 40
0.4651200816178617
 40
0.6103122675443601
 40
0.7550061213364481
 40
0.8996527794553705
 40
1.0
 40
1.0
 40
1.0
 40
1.0
 10
16.59887643186702
 20
-0.8256833061081121
 30
0.0
 10
16.56213740138935
 20
-0.8313090502301665
 30
0.0
 10
16.35080333218636
 20
-0.8636700402223062
 30
0.0
 10
15.96493576598275
 20
-0.8480968727959907
 30
0.0
 10
15.44034184231285
 20
-0.7731784463237581
 30
0.0
 10
14.91459775560033
 20
-0.6217674566646872
 30
0.0
 10
14.38904620800535
 20
-0.4151439592394833
 30
0.0
 10
13.86466207647587
 20
-0.1707302431537736
 30
0.0
 10
13.39444012184767
 20
0.0651599269213849
 30
0.0
 10
13.09862326887597
 20
0.2036381286610595
 30
0.0
 10
12.97745942940415
 20
0.2603575158000253
 30
0.0
  0
LINE
  5
BB
330
1F
100
AcDbEntity
  8
0
  6
Continuous
 62
     1
370
    15
100
AcDbLine
 10
26.46410161513774
 20
-0.9489408692319005
 30
0.0
 11
26.46410161513774
 21
-0.7889722643682141
 31
0.0
  0
SPLINE
  5
BC
330
1F
100
AcDbEntity
  8
0
  6
Continuous
 62
     1
370
    15
100
AcDbSpline
210
0.0
220
0.0
230
1.0
 70
     8
 71
     3
 72
    20
 73
    16
 74
     0
 42
0.000000001
 43
0.00000001
 40
0.0
 40
0.0
 40
0.0
 40
0.0
 40
0.0682315922016579
 40
0.1482791182827938
 40
0.22816742924287
 40
0.3078277581994316
 40
0.3874985796010447
 40
0.4674179760082861
 40
0.5474439186881488
 40
0.6271635564773786
 40
0.7068020288243658
 40
0.7865986272334615
 40
0.8666738511498444
 40
0.946487455113561
 40
0.9999999999999999
 40
0.9999999999999999
 40
0.9999999999999999
 40
0.9999999999999999
 10
22.71424690745668
 20
-0.7880817898106965
 30
0.0
 10
22.56471461021953
 20
-0.8375133586505372
 30
0.0
 10
22.23975491818134
 20
-0.944936756029922
 30
0.0
 10
21.73903829408168
 20
-1.009777245963677
 30
0.0
 10
21.21365844626835
 20
-0.9934415746777607
 30
0.0
 10
20.68945072600868
 20
-0.8844473369180285
 30
0.0
 10
20.16517315716688
 20
-0.6952532540125489
 30
0.0
 10
19.63967114468427
 20
-0.4426792592856688
 30
0.0
 10
19.11379391439503
 20
-0.1502350505282165
 30
0.0
 10
18.58919313884936
 20
0.1567210574550282
 30
0.0
 10
18.06513023439564
 20
0.4489226101475379
 30
0.0
 10
17.54013166229118
 20
0.701207292730815
 30
0.0
 10
17.01408555108364
 20
0.8855221579783754
 30
0.0
 10
16.54628128386786
 20
0.9899094795210491
 30
0.0
 10
16.2541159320033
 20
0.9899157020486851
 30
0.0
 10
16.13685077703745
 20
0.9899181995579303
 30
0.0
  0
SPLINE
  5
BD
330
1F
100
AcDbEntity
  8
0
  6
Continuous
 62
     1
370
    15
100
AcDbSpline
210
0.0
220
0.0
230
1.0
 70
     8
 71
     3
 72
    10
 73
     6
 74
     0
 42
0.000000001
 43
0.00000001
 40
0.0
 40
0.0
 40
0.0
 40
0.0
 40
0.0525489264801801
 40
0.5262807320634567
 40
1.0
 40
1.0
 40
1.0
 40
1.0
 10
11.83624863263725
 20
-0.7867243155161391
 30
0.0
 10
11.81222815826617
 20
-0.7964813763909666
 30
0.0
 10
11.57166162944669
 20
-0.8941989414097034
 30
0.0
 10
11.11408797478046
 20
-0.995773922159594
 30
0.0
 10
10.68076182361036
 20
-0.9926413636654186
 30
0.0
 10
10.46410161513774
 20
-1.000000000000001
 30
0.0
  0
SPLINE
  5
BE
330
1F
100
AcDbEntity
  8
0
  6
Continuous
 62
   131
370
    15
100
AcDbSpline
210
0.0
220
0.0
230
1.0
 70
    24
 71
     3
 72
     8
 73
     4
 74
     0
 42
0.000000001
 43
0.00000001
 40
0.0
 40
0.0
 40
0.0
 40
0.0
 40
1.0
 40
1.0
 40
1.0
 40
1.0
 10
10.46410161513779
 20
-0.8340529741913498
 30
0.0
 10
10.46410161513779
 20
-0.8869239238629945
 30
0.0
 10
10.46410161513779
 20
-0.9396033823731486
 30
0.0
 10
10.46410161513779
 20
-0.9910751051347936
 30
0.0
  0
SPLINE
  5
BF
330
1F
100
AcDbEntity
  8
0
  6
Continuous
 62
     1
370
    15
100
AcDbSpline
210
0.0
220
0.0
230
1.0
 70
     8
 71
     3
 72
    15
 73
    11
 74
     0
 42
0.000000001
 43
0.00000001
 40
0.0
 40
0.0
 40
0.0
 40
0.0
 40
0.0835624855736896
 40
0.2286418831143807
 40
0.3732887390638539
 40
0.517955503820277
 40
0.663093871924014
 40
0.8084343529493343
 40
0.9531937415785287
 40
1.0
 40
1.0
 40
1.0
 40
1.0
 10
22.04155216520293
 20
-0.8225155577895272
 30
0.0
 10
21.9406170926991
 20
-0.8338773379810576
 30
0.0
 10
21.66444070934808
 20
-0.8649651975712594
 30
0.0
 10
21.21368879026311
 20
-0.8295849268906478
 30
0.0
 10
20.68945098697937
 20
-0.7255041843877311
 30
0.0
 10
20.16513250559571
 20
-0.5518640620336079
 30
0.0
 10
19.63965124368587
 20
-0.328504286231932
 30
0.0
 10
19.11384696141998
 20
-0.0771887268698694
 30
0.0
 10
18.70724049489449
 20
0.1288461707376196
 30
0.0
 10
18.47604074858918
 20
0.2335301067231547
 30
0.0
 10
18.419550478861
 20
0.2591080923158418
 30
0.0
  0
SPLINE
  5
C0
330
1F
100
AcDbEntity
  8
0
  6
Continuous
 62
     1
370
    15
100
AcDbSpline
210
0.0
220
0.0
230
1.0
 70
     8
 71
     3
 72
     9
 73
     5
 74
     0
 42
0.000000001
 43
0.00000001
 40
0.0
 40
0.0
 40
0.0
 40
0.0
 40
0.6227302350974272
 40
1.0
 40
1.0
 40
1.0
 40
1.0
 10
11.13255439176857
 20
-0.8344049857853222
 30
0.0
 10
10.99339605284742
 20
-0.8398213363529312
 30
0.0
 10
10.77079182319901
 20
-0.8585362524066695
 30
0.0
 10
10.54811198524949
 20
-0.8407595765228006
 30
0.0
 10
10.46410161513774
 20
-0.8340529741913443
 30
0.0
  0
SPLINE
  5
C1
330
1F
100
AcDbEntity
  8
0
  6
Continuous
 62
     1
370
    15
100
AcDbSpline
210
0.0
220
0.0
230
1.0
 70
     8
 71
     3
 72
    16
 73
    12
 74
     0
 42
0.000000001
 43
0.00000001
 40
0.0
 40
0.0
 40
0.0
 40
0.0
 40
0.1209659682163503
 40
0.2324784878972871
 40
0.3436445798722421
 40
0.4545715730558561
 40
0.5655007755433736
 40
0.6764265993390859
 40
0.7873513157390409
 40
0.8982756238105724
 40
1.0
 40
1.0
 40
1.0
 40
1.0
 10
10.46410161513774
 20
0.9893441273633892
 30
0.0
 10
10.67332706792881
 20
0.959171720656962
 30
0.0
 10
11.07542707681312
 20
0.90118487038196
 30
0.0
 10
11.66952893270861
 20
0.6766356302677428
 30
0.0
 10
12.24647122049786
 20
0.3925078650684733
 30
0.0
 10
12.8227290813434
 20
0.0643257226832646
 30
0.0
 10
13.39831096357859
 20
-0.2703305935426422
 30
0.0
 10
13.97370570513104
 20
-0.5765755446094815
 30
0.0
 10
14.54901490850366
 20
-0.817183824492654
 30
0.0
 10
15.10841061674005
 20
-0.973314697543446
 30
0.0
 10
15.47614016793106
 20
-0.9885443879849476
 30
0.0
 10
15.65205030502563
 20
-0.995829788151443
 30
0.0
  0
SPLINE
  5
C2
330
1F
100
AcDbEntity
  8
0
  6
Continuous
 62
     1
370
    15
100
AcDbSpline
210
0.0
220
0.0
230
1.0
 70
     8
 71
     3
 72
    20
 73
    16
 74
     0
 42
0.000000001
 43
0.00000001
 40
0.0
 40
0.0
 40
0.0
 40
0.0
 40
0.0106137404163862
 40
0.0950801085974196
 40
0.1795479722300095
 40
0.2640133289291652
 40
0.3484778694339453
 40
0.4329421054589574
 40
0.5174062961021547
 40
0.6018713445647647
 40
0.6863294641943064
 40
0.7707847254608612
 40
0.8552385685524106
 40
0.9268995556916226
 40
1.0
 40
1.0
 40
1.0
 40
1.0
 10
19.65422987621292
 20
0.670568995614654
 30
0.0
 10
19.6783246744935
 20
0.6820212108799072
 30
0.0
 10
19.89417092164808
 20
0.7846125527050953
 30
0.0
 10
20.3020583381023
 20
0.9095372362251789
 30
0.0
 10
20.87733871352593
 20
1.011659086520662
 30
0.0
 10
21.45246702093429
 20
0.9966039369919989
 30
0.0
 10
22.02749841845459
 20
0.8742199600230066
 30
0.0
 10
22.60254686955858
 20
0.6556644388201603
 30
0.0
 10
23.17768934742431
 20
0.3656287355544575
 30
0.0
 10
23.75307757036726
 20
0.036047662948255
 30
0.0
 10
24.32854750197749
 20
-0.297144306913293
 30
0.0
 10
24.90360272543708
 20
-0.5990056808197279
 30
0.0
 10
25.44973260820582
 20
-0.8216364097174744
 30
0.0
 10
25.96935549002312
 20
-0.9637904241056234
 30
0.0
 10
26.2980966110945
 20
-0.9872887983100195
 30
0.0
 10
26.46410161513767
 20
-0.9991548152296424
 30
0.0
  0
LINE
  5
C3
330
1F
100
AcDbEntity
  8
0
  6
Continuous
 62
   131
370
    15
100
AcDbLine
 10
10.46410161513774
 20
0.989344127359699
 30
0.0
 11
10.46410161513774
 21
1.000000000000002
 31
0.0
  0
LINE
  5
C4
330
1F
100
AcDbEntity
  8
0
  6
Continuous
 62
     1
370
    15
100
AcDbLine
 10
26.46410161513774
 20
-0.9991548152296461
 30
0.0
 11
26.46410161513774
 21
-0.9489408692319025
 31
0.0
  0
SPLINE
  5
C5
330
1F
100
AcDbEntity
  8
0
  6
Continuous
 62
     1
370
    15
100
AcDbSpline
210
0.0
220
0.0
230
1.0
 70
     8
 71
     3
 72
    32
 73
    28
 74
     0
 42
0.000000001
 43
0.00000001
 40
0.0
 40
0.0
 40
0.0
 40
0.0
 40
0.0066937749184484
 40
0.0486630465376541
 40
0.0903451563824877
 40
0.1323148302423571
 40
0.1739967660891185
 40
0.2159665351097119
 40
0.2576447494674825
 40
0.2996102322324714
 40
0.3412741833039937
 40
0.3832267250951649
 40
0.4248902873461921
 40
0.4668412636032126
 40
0.5085048354913988
 40
0.5504544578487965
 40
0.5921174547312584
 40
0.6340670838188381
 40
0.6757296206700648
 40
0.717679604566236
 40
0.7593422672868044
 40
0.8012921222990933
 40
0.8429555047667553
 40
0.8849060908143627
 40
0.9265697864094368
 40
0.9685219166276835
 40
1.0
 40
1.0
 40
1.0
 40
1.0
 10
14.21419348996928
 20
0.6734809640369407
 30
0.0
 10
14.22952909419488
 20
0.6804201411056169
 30
0.0
 10
14.34101733979699
 20
0.7308672357181571
 30
0.0
 10
14.54831224356189
 20
0.8062779657780427
 30
0.0
 10
14.83680634217954
 20
0.895185887674642
 30
0.0
 10
15.12337013979209
 20
0.9583231795380188
 30
0.0
 10
15.41247099412684
 20
0.9948207285407021
 30
0.0
 10
15.69878947401601
 20
1.00424368923584
 30
0.0
 10
15.98766525141163
 20
0.9859452982463488
 30
0.0
 10
16.27461552705408
 20
0.9404878726399316
 30
0.0
 10
16.56249932309024
 20
0.8688510278839182
 30
0.0
 10
16.85042800873704
 20
0.7744764895470352
 30
0.0
 10
17.1373766320271
 20
0.6565737072992878
 30
0.0
 10
17.42572168416179
 20
0.5235969986538616
 30
0.0
 10
17.71266542598384
 20
0.3729453144668097
 30
0.0
 10
18.00058209848443
 20
0.214866019223643
 30
0.0
 10
18.28842540936645
 20
0.0493893631939014
 30
0.0
 10
18.57529626665704
 20
-0.1176407315929826
 30
0.0
 10
18.86405726794858
 20
-0.2797381652173183
 30
0.0
 10
19.15024922546838
 20
-0.4368808720609432
 30
0.0
 10
19.43921226341269
 20
-0.5790672959579146
 30
0.0
 10
19.72565145360974
 20
-0.7077507983531333
 30
0.0
 10
20.01400000930309
 20
-0.8154109605528765
 30
0.0
 10
20.30147497146552
 20
-0.9012324621916556
 30
0.0
 10
20.58876803113546
 20
-0.9618540050227505
 30
0.0
 10
20.85352152798475
 20
-0.9956971029410744
 30
0.0
 10
21.02152964030419
 20
-0.9969249188598956
 30
0.0
 10
21.09355140230403
 20
-0.9974512593125332
 30
0.0
  0
SPLINE
  5
C6
330
1F
100
AcDbEntity
  8
0
  6
Continuous
 62
     1
370
    15
100
AcDbSpline
210
0.0
220
0.0
230
1.0
 70
     8
 71
     3
 72
    13
 73
     9
 74
     0
 42
0.000000001
 43
0.00000001
 40
0.0
 40
0.0
 40
0.0
 40
0.0
 40
0.0700675245971441
 40
0.2806639691928828
 40
0.4582662090020346
 40
0.6367522969138458
 40
0.8179105080440975
 40
1.0
 40
1.0
 40
1.0
 40
1.0
 10
25.09396166825058
 20
0.6713479101184439
 30
0.0
 10
25.12591251760324
 20
0.6856252048700344
 30
0.0
 10
25.25389552042745
 20
0.7428146408799005
 30
0.0
 10
25.46358697711006
 20
0.8169898588633433
 30
0.0
 10
25.72261280379887
 20
0.8948195628578343
 30
0.0
 10
25.9671955532572
 20
0.9499315837497986
 30
0.0
 10
26.21537101328457
 20
0.9871462198867101
 30
0.0
 10
26.38104982747848
 20
0.995145114360206
 30
0.0
 10
26.46410161513774
 20
0.9991548152296488
 30
0.0
  0
LINE
  5
C7
330
1F
100
AcDbEntity
  8
0
  6
Continuous
 62
   131
370
    15
100
AcDbLine
 10
10.46410161513774
 20
-1.000000000000001
 30
0.0
 11
10.46410161513774
 21
-0.9910751051234336
 31
0.0
  0
SPLINE
  5
C8
330
1F
100
AcDbEntity
  8
0
  6
Continuous
 62
     1
370
    15
100
AcDbSpline
210
0.0
220
0.0
230
1.0
 70
     8
 71
     3
 72
    15
 73
    11
 74
     0
 42
0.000000001
 43
0.00000001
 40
0.0
 40
0.0
 40
0.0
 40
0.0
 40
0.0437043808369576
 40
0.2011194776710858
 40
0.3582398824184908
 40
0.5155795293497739
 40
0.673583262086229
 40
0.8312451594940792
 40
0.9884177561610655
 40
1.0
 40
1.0
 40
1.0
 40
1.0
 10
23.98382989814937
 20
-0.0958337127247057
 30
0.0
 10
23.93525507876943
 20
-0.0768164786561607
 30
0.0
 10
23.7117227436906
 20
0.0106973153701865
 30
0.0
 10
23.31380140429042
 20
0.1747869451761664
 30
0.0
 10
22.78969224991737
 20
0.3720013799923513
 30
0.0
 10
22.26490380774672
 20
0.5357818994452315
 30
0.0
 10
21.73912540872472
 20
0.6518450267819875
 30
0.0
 10
21.21374695135898
 20
0.7022884552276242
 30
0.0
 10
20.85121978161476
 20
0.7097982485228138
 30
0.0
 10
20.66377130652722
 20
0.683633764883603
 30
0.0
 10
20.65090605217841
 20
0.6818380034789484
 30
0.0
  0
SPLINE
  5
C9
330
1F
100
AcDbEntity
  8
0
  6
Continuous
 62
     1
370
    15
100
AcDbSpline
210
0.0
220
0.0
230
1.0
 70
     8
 71
     3
 72
    13
 73
     9
 74
     0
 42
0.000000001
 43
0.00000001
 40
0.0
 40
0.0
 40
0.0
 40
0.0
 40
0.1078022789839662
 40
0.3076408247388765
 40
0.5066461106009078
 40
0.7053356335750264
 40
0.9043593700475381
 40
1.0
 40
1.0
 40
1.0
 40
1.0
 10
13.09975219033168
 20
-0.0950642817232238
 30
0.0
 10
13.00504209778223
 20
-0.0572985006178766
 30
0.0
 10
12.73476310871426
 20
0.0504756221155114
 30
0.0
 10
12.28937901992879
 20
0.2299066971676895
 30
0.0
 10
11.76452535107328
 20
0.4202844167964753
 30
0.0
 10
11.24043902220722
 20
0.5717381789576226
 30
0.0
 10
10.80703988154984
 20
0.6561271751744832
 30
0.0
 10
10.54813546594384
 20
0.6800133609014696
 30
0.0
 10
10.46410161513774
 20
0.6877662150310923
 30
0.0
  0
SPLINE
  5
CA
330
1F
100
AcDbEntity
  8
0
  6
Continuous
 62
   131
370
    15
100
AcDbSpline
210
0.0
220
0.0
230
1.0
 70
    24
 71
     3
 72
    10
 73
     6
 74
     0
 42
0.000000001
 43
0.00000001
 40
0.0
 40
0.0
 40
0.0
 40
0.0
 40
0.5
 40
0.5
 40
1.0
 40
1.0
 40
1.0
 40
1.0
 10
10.46410161514192
 20
0.9893441273587228
 30
0.0
 10
10.46410161514192
 20
0.9425233034875635
 30
0.0
 10
10.46410161514192
 20
0.8901524380710284
 30
0.0
 10
10.46410161514192
 20
0.785758665320649
 30
0.0
 10
10.46410161514192
 20
0.7340170078282255
 30
0.0
 10
10.46410161514192
 20
0.6877662150307798
 30
0.0
  0
SPLINE
  5
CB
330
1F
100
AcDbEntity
  8
0
  6
Continuous
 62
     1
370
    15
100
AcDbSpline
210
0.0
220
0.0
230
1.0
 70
    24
 71
     3
 72
    10
 73
     6
 74
     0
 42
0.000000001
 43
0.00000001
 40
0.0
 40
0.0
 40
0.0
 40
0.0
 40
0.5
 40
0.5
 40
1.0
 40
1.0
 40
1.0
 40
1.0
 10
26.46410161513774
 20
0.7000000000000023
 30
0.0
 10
26.46410161513774
 20
0.7424322568073165
 30
0.0
 10
26.46410161513774
 20
0.7917424688671201
 30
0.0
 10
26.46410161513773
 20
0.895195160960859
 30
0.0
 10
26.46410161513774
 20
0.9490734358014766
 30
0.0
 10
26.46410161513774
 20
0.9991548152296488
 30
0.0
  0
LINE
  5
CC
330
1F
100
AcDbEntity
  8
0
  6
Continuous
 62
     1
370
    15
100
AcDbLine
 10
26.46410161513774
 20
0.700000000000002
 30
0.0
 11
26.04049671272036
 21
0.6742746095421375
 31
0.0
  0
SPLINE
  5
CD
330
1F
100
AcDbEntity
  8
0
  6
Continuous
 62
     1
370
    15
100
AcDbSpline
210
0.0
220
0.0
230
1.0
 70
     8
 71
     3
 72
    14
 73
    10
 74
     0
 42
0.000000001
 43
0.00000001
 40
0.0
 40
0.0
 40
0.0
 40
0.0
 40
0.1418147563646782
 40
0.2994314820432323
 40
0.4576465684195887
 40
0.6152994804854259
 40
0.772582142330157
 40
0.9300085502789622
 40
1.0
 40
1.0
 40
1.0
 40
1.0
 10
18.537587168711
 20
-0.094856132053305
 30
0.0
 10
18.380225938029
 20
-0.0311010664750512
 30
0.0
 10
18.04796921293836
 20
0.10351308978926
 30
0.0
 10
17.54007319957513
 20
0.303268134138387
 30
0.0
 10
17.01422573285123
 20
0.4805963800081068
 30
0.0
 10
16.4891061026968
 20
0.615844118906038
 30
0.0
 10
15.96495980567328
 20
0.691221744224249
 30
0.0
 10
15.53809890585482
 20
0.7120345779673852
 30
0.0
 10
15.28559668671136
 20
0.6845044341433587
 30
0.0
 10
15.20788512722034
 20
0.6760315960953032
 30
0.0
  0
SPLINE
  5
CE
330
1F
100
AcDbEntity
  8
0
  6
Continuous
 62
     1
370
    15
100
AcDbSpline
210
0.0
220
0.0
230
1.0
 70
     8
 71
     3
 72
     8
 73
     4
 74
     0
 42
0.000000001
 43
0.00000001
 40
0.0
 40
0.0
 40
0.0
 40
0.0
 40
1.0
 40
1.0
 40
1.0
 40
1.0
 10
25.8457270438331
 20
0.2793278076089438
 30
0.0
 10
25.8007292498763
 20
0.3325720018945517
 30
0.0
 10
25.76159937853181
 20
0.3835198365982971
 30
0.0
 10
25.73079775881276
 20
0.4308481981407618
 30
0.0
  0
LINE
  5
CF
330
1F
100
AcDbEntity
  8
0
  6
Continuous
 62
     1
370
    15
100
AcDbLine
 10
25.73079775881276
 20
0.4308481981407626
 30
0.0
 11
26.46410161513774
 21
0.0000000000000023
 31
0.0
  0
LINE
  5
D0
330
1F
100
AcDbEntity
  8
0
  6
Continuous
 62
     1
370
    15
100
AcDbLine
 10
26.46410161513774
 20
0.0000000000000023
 30
0.0
 11
26.46410161513774
 21
-0.2672429460296425
 31
0.0
  0
SPLINE
  5
D1
330
1F
100
AcDbEntity
  8
0
  6
Continuous
 62
     1
370
    15
100
AcDbSpline
210
0.0
220
0.0
230
1.0
 70
     8
 71
     3
 72
    10
 73
     6
 74
     0
 42
0.000000001
 43
0.00000001
 40
0.0
 40
0.0
 40
0.0
 40
0.0
 40
0.5
 40
0.5
 40
1.0
 40
1.0
 40
1.0
 40
1.0
 10
26.46410161513774
 20
-0.2672429460296425
 30
0.0
 10
26.3570649922516
 20
-0.1830915265342622
 30
0.0
 10
26.25181648043431
 20
-0.0954889939880753
 30
0.0
 10
26.04497490506463
 20
0.0867712062317255
 30
0.0
 10
25.94240770728104
 20
0.1823836725445545
 30
0.0
 10
25.84572704383232
 20
0.2793278076067544
 30
0.0
  0
SPLINE
  5
D2
330
1F
100
AcDbEntity
  8
0
  6
Continuous
 62
     1
370
    15
100
AcDbSpline
210
0.0
220
0.0
230
1.0
 70
     8
 71
     3
 72
    12
 73
     8
 74
     0
 42
0.000000001
 43
0.00000001
 40
0.0
 40
0.0
 40
0.0
 40
0.0
 40
0.187527676816309
 40
0.414892663938168
 40
0.6428418682737355
 40
0.8714869646561917
 40
1.0
 40
1.0
 40
1.0
 40
1.0
 10
25.84572704383177
 20
0.279327807609528
 30
0.0
 10
25.7017777462456
 20
0.3399363718274435
 30
0.0
 10
25.38329938315016
 20
0.4740288380316192
 30
0.0
 10
24.88981825666615
 20
0.6413736945781738
 30
0.0
 10
24.36462317821786
 20
0.7587351324430804
 30
0.0
 10
23.91495245676985
 20
0.8102733594593924
 30
0.0
 10
23.64073885059696
 20
0.7921800651304279
 30
0.0
 10
23.54207100649237
 20
0.7856697158844353
 30
0.0
  0
SPLINE
  5
D3
330
1F
100
AcDbEntity
  8
0
  6
Continuous
 62
     1
370
    15
100
AcDbSpline
210
0.0
220
0.0
230
1.0
 70
     8
 71
     3
 72
    20
 73
    16
 74
     0
 42
0.000000001
 43
0.00000001
 40
0.0
 40
0.0
 40
0.0
 40
0.0
 40
0.0510420028365745
 40
0.1348694827140399
 40
0.2188733905077266
 40
0.3031879274487247
 40
0.387210648599405
 40
0.4710411753245318
 40
0.5549462980259473
 40
0.63918556546088
 40
0.7233511007746766
 40
0.8072238012321515
 40
0.8910688472099758
 40
0.9751524744350025
 40
0.9999999999999999
 40
0.9999999999999999
 40
0.9999999999999999
 40
0.9999999999999999
 10
18.90789649792604
 20
-0.7431841054201156
 30
0.0
 10
18.80161158578139
 20
-0.760819236395428
 30
0.0
 10
18.5207724665338
 20
-0.807416957097141
 30
0.0
 10
18.0651432837066
 20
-0.8028636141629653
 30
0.0
 10
17.54009701518501
 20
-0.7352733233888399
 30
0.0
 10
17.01418803449898
 20
-0.5981522297984005
 30
0.0
 10
16.48908146510958
 20
-0.4068871292767944
 30
0.0
 10
15.96496126640533
 20
-0.1783184715174912
 30
0.0
 10
15.44037312281074
 20
0.066590410890636
 30
0.0
 10
14.91464780746238
 20
0.3049450927175639
 30
0.0
 10
14.38910770102679
 20
0.5153802935226623
 30
0.0
 10
13.86472149138433
 20
0.6804863607006483
 30
0.0
 10
13.34051187778212
 20
0.7781433169438017
 30
0.0
 10
12.93901594151175
 20
0.8136452153112014
 30
0.0
 10
12.71205486118372
 20
0.7920326374394102
 30
0.0
 10
12.66028435200182
 20
0.7871027430295898
 30
0.0
  0
SPLINE
  5
D4
330
1F
100
AcDbEntity
  8
0
  6
Continuous
 62
     1
370
    15
100
AcDbSpline
210
0.0
220
0.0
230
1.0
 70
    24
 71
     3
 72
    10
 73
     6
 74
     0
 42
0.000000001
 43
0.00000001
 40
0.0
 40
0.0
 40
0.0
 40
0.0
 40
0.5
 40
0.5
 40
1.0
 40
1.0
 40
1.0
 40
1.0
 10
26.46410161513774
 20
-0.7889722643682138
 30
0.0
 10
26.46410161513774
 20
-0.7284913890038026
 30
0.0
 10
26.46410161513774
 20
-0.652071483906466
 30
0.0
 10
26.46410161513774
 20
-0.4744025591506777
 30
0.0
 10
26.46410161513774
 20
-0.3733074430513076
 30
0.0
 10
26.46410161513774
 20
-0.2672429460296745
 30
0.0
  0
SPLINE
  5
D5
330
1F
100
AcDbEntity
  8
0
  6
Continuous
 62
   131
370
    15
100
AcDbSpline
210
0.0
220
0.0
230
1.0
 70
    24
 71
     3
 72
    10
 73
     6
 74
     0
 42
0.000000001
 43
0.00000001
 40
0.0
 40
0.0
 40
0.0
 40
0.0
 40
0.4999999999999999
 40
0.4999999999999999
 40
1.0
 40
1.0
 40
1.0
 40
1.0
 10
10.46410161513774
 20
-0.1489122835598537
 30
0.0
 10
10.46410161513774
 20
-0.2961262100801872
 30
0.0
 10
10.46410161513774
 20
-0.4403484686605178
 30
0.0
 10
10.46410161513774
 20
-0.6798390904965453
 30
0.0
 10
10.46410161513774
 20
-0.7740765924924039
 30
0.0
 10
10.46410161513774
 20
-0.8340529741913442
 30
0.0
  0
SPLINE
  5
D6
330
1F
100
AcDbEntity
  8
0
  6
Continuous
 62
     1
370
    15
100
AcDbSpline
210
0.0
220
0.0
230
1.0
 70
     8
 71
     3
 72
    19
 73
    15
 74
     0
 42
0.000000001
 43
0.00000001
 40
0.0
 40
0.0
 40
0.0
 40
0.0
 40
0.0814534221659662
 40
0.1654753245407422
 40
0.2493440351104343
 40
0.3333267065837863
 40
0.4176546189664789
 40
0.5018048283756189
 40
0.5857006718189286
 40
0.6696082654810472
 40
0.7537932771082714
 40
0.8380970257865624
 40
0.9220590297616544
 40
1.0
 40
1.0
 40
1.0
 40
1.0
 10
24.34696882293627
 20
-0.7508199270148064
 30
0.0
 10
24.17732886476765
 20
-0.7717092907115048
 30
0.0
 10
23.83269967195319
 20
-0.8141467248332737
 30
0.0
 10
23.313778458925
 20
-0.7866568283471442
 30
0.0
 10
22.78969942360536
 20
-0.6924141155609956
 30
0.0
 10
22.26493576794639
 20
-0.5334199021693701
 30
0.0
 10
21.73910108920777
 20
-0.3267856279386315
 30
0.0
 10
21.21372595921703
 20
-0.0898839751848512
 30
0.0
 10
20.68947303028203
 20
0.1553660366140099
 30
0.0
 10
20.1651452499189
 20
0.3863478505014211
 30
0.0
 10
19.63967190269528
 20
0.5822972526080735
 30
0.0
 10
19.11389484057147
 20
0.723404627063276
 30
0.0
 10
18.60158285467218
 20
0.8031383160699911
 30
0.0
 10
18.26468887594816
 20
0.7957999087418073
 30
0.0
 10
18.10250628667347
 20
0.7922671596373414
 30
0.0
  0
SPLINE
  5
D7
330
1F
100
AcDbEntity
  8
0
  6
Continuous
 62
     1
370
    15
100
AcDbSpline
210
0.0
220
0.0
230
1.0
 70
     8
 71
     3
 72
    14
 73
    10
 74
     0
 42
0.000000001
 43
0.00000001
 40
0.0
 40
0.0
 40
0.0
 40
0.0
 40
0.0415879960626758
 40
0.216600568420985
 40
0.3920554613216445
 40
0.5667977355103102
 40
0.7412699472451686
 40
0.9160279150521314
 40
1.0
 40
1.0
 40
1.0
 40
1.0
 10
13.48253301247038
 20
-0.7501382319238828
 30
0.0
 10
13.42417238518047
 20
-0.7540659875727102
 30
0.0
 10
13.20751788226846
 20
-0.7979750212088497
 30
0.0
 10
12.81519701485247
 20
-0.8085730791785422
 30
0.0
 10
12.28934075276847
 20
-0.7696641232082616
 30
0.0
 10
11.76450154332727
 20
-0.6549609740724156
 30
0.0
 10
11.2404401738278
 20
-0.4819073620410981
 30
0.0
 10
10.80704061209145
 20
-0.3025963429596076
 30
0.0
 10
10.54813173755593
 20
-0.1865693900417656
 30
0.0
 10
10.46410161513774
 20
-0.1489122835598537
 30
0.0
  0
SPLINE
  5
D8
330
1F
100
AcDbEntity
  8
0
  6
Continuous
 62
   131
370
    15
100
AcDbSpline
210
0.0
220
0.0
230
1.0
 70
    24
 71
     3
 72
    10
 73
     6
 74
     0
 42
0.000000001
 43
0.00000001
 40
0.0
 40
0.0
 40
0.0
 40
0.0
 40
0.5
 40
0.5
 40
1.0
 40
1.0
 40
1.0
 40
1.0
 10
10.46410161513775
 20
0.6877662150310913
 30
0.0
 10
10.46410161513775
 20
0.6184846712501622
 30
0.0
 10
10.46410161513775
 20
0.5025953191031548
 30
0.0
 10
10.46410161513775
 20
0.2051915359641317
 30
0.0
 10
10.46410161513775
 20
0.0259814151357641
 30
0.0
 10
10.46410161513775
 20
-0.148912283559861
 30
0.0
  0
SPLINE
  5
D9
330
1F
100
AcDbEntity
  8
0
  6
Continuous
 62
     1
370
    15
100
AcDbSpline
210
0.0
220
0.0
230
1.0
 70
     8
 71
     3
 72
     8
 73
     4
 74
     0
 42
0.000000001
 43
0.00000001
 40
0.0
 40
0.0
 40
0.0
 40
0.0
 40
1.0
 40
1.0
 40
1.0
 40
1.0
 10
26.46410161513774
 20
0.700000000000002
 30
0.0
 10
26.21522673474396
 20
0.6322959756877419
 30
0.0
 10
25.968819846639
 20
0.5471018798786824
 30
0.0
 10
25.73079775881224
 20
0.4308481981411534
 30
0.0
  0
LINE
  5
DA
330
1F
100
AcDbEntity
  8
0
  6
Continuous
 62
     1
370
    15
100
AcDbLine
 10
26.46410161513774
 20
0.0000000000000023
 30
0.0
 11
26.46410161513774
 21
0.7000000000000023
 31
0.0
  0
LINE
  5
DB
330
1F
100
AcDbEntity
  8
0
  6
Continuous
 62
   131
370
    15
100
AcDbLine
 10
9.464101615137736
 20
1.0
 30
0.0
 11
9.464101615137736
 21
-1.0
 31
0.0
  0
LINE
  5
DC
330
1F
100
AcDbEntity
  8
0
  6
Continuous
 62
   131
370
    15
100
AcDbLine
 10
2.0
 20
3.0
 30
0.0
 11
2.0
 21
-3.0
 31
0.0
  0
LINE
  5
DD
330
1F
100
AcDbEntity
  8
0
  6
Continuous
 62
   131
370
    15
100
AcDbLine
 10
-32.98589838486226
 20
2.999999999999996
 30
0.0
 11
-32.98589838486226
 21
-3.000000000000002
 31
0.0
  0
LINE
  5
DE
330
1F
100
AcDbEntity
  8
0
  6
Continuous
 62
   131
370
    15
100
AcDbLine
 10
-33.53589838486226
 20
2.449999999999996
 30
0.0
 11
-33.53589838486226
 21
-2.450000000000002
 31
0.0
  0
ELLIPSE
  5
DF
330
1F
100
AcDbEntity
  8
0
  6
Continuous
 62
   131
370
    15
100
AcDbEllipse
 10
9.663967964056628
 20
0.0000000000000002
 30
0.0
 11
8.779471052378085E-6
 21
1.0
 31
0.0
210
0.0
220
0.0
230
1.0
 40
0.0000724214126056
 41
5.967384621116569
 42
8.829395970292495
  0
SPLINE
  5
E0
330
1F
100
AcDbEntity
  8
0
  6
Continuous
 62
   131
370
    15
100
AcDbSpline
210
0.0
220
0.0
230
1.0
 70
    24
 71
     3
 72
    10
 73
     6
 74
     0
 42
0.000000001
 43
0.00000001
 40
0.0
 40
0.0
 40
0.0
 40
0.0
 40
0.5
 40
0.5
 40
1.0
 40
1.0
 40
1.0
 40
1.0
 10
9.663998842266555
 20
0.9506050464229776
 30
0.0
 10
9.663998842266555
 20
0.8989324333517963
 30
0.0
 10
9.663998842266555
 20
0.8462553018537257
 30
0.0
 10
9.663998842266555
 20
0.7506906300239417
 30
0.0
 10
9.663998842266555
 20
0.7080256795303935
 30
0.0
 10
9.663998842266555
 20
0.6738225581021869
 30
0.0
  0
SPLINE
  5
E1
330
1F
100
AcDbEntity
  8
0
  6
Continuous
 62
   131
370
    15
100
AcDbSpline
210
0.0
220
0.0
230
1.0
 70
     8
 71
     3
 72
    11
 73
     7
 74
     0
 42
0.000000001
 43
0.00000001
 40
0.0
 40
0.0
 40
0.0
 40
0.0
 40
0.1805523366656087
 40
0.4536150996224918
 40
0.7269467221715527
 40
1.0
 40
1.0
 40
1.0
 40
1.0
 10
9.663980769645693
 20
0.6677950250299826
 30
0.0
 10
9.663976323573895
 20
0.6665854187932786
 30
0.0
 10
9.663965153376175
 20
0.6635464348415911
 30
0.0
 10
9.663947445369704
 20
0.5767983937994637
 30
0.0
 10
9.663928835301693
 20
0.4314410406250128
 30
0.0
 10
9.663919007886474
 20
0.2882843186132591
 30
0.0
 10
9.663914096682056
 20
0.2167424217535957
 30
0.0
  0
SPLINE
  5
E2
330
1F
100
AcDbEntity
  8
0
  6
Continuous
 62
   131
370
    15
100
AcDbSpline
210
0.0
220
0.0
230
1.0
 70
    24
 71
     3
 72
    10
 73
     6
 74
     0
 42
0.000000001
 43
0.00000001
 40
0.0
 40
0.0
 40
0.0
 40
0.0
 40
0.5
 40
0.5
 40
1.0
 40
1.0
 40
1.0
 40
1.0
 10
9.663959490518298
 20
0.2167483549542648
 30
0.0
 10
9.663959490518298
 20
0.0644390038791866
 30
0.0
 10
9.663959490518298
 20
-0.1006507095926312
 30
0.0
 10
9.663959490518298
 20
-0.4119329884977185
 30
0.0
 10
9.663959490518298
 20
-0.5567856733137959
 30
0.0
 10
9.663959490518298
 20
-0.6737756827527199
 30
0.0
  0
SPLINE
  5
E3
330
1F
100
AcDbEntity
  8
0
  6
Continuous
 62
   131
370
    15
100
AcDbSpline
210
0.0
220
0.0
230
1.0
 70
    24
 71
     3
 72
     8
 73
     4
 74
     0
 42
0.000000001
 43
0.00000001
 40
0.0
 40
0.0
 40
0.0
 40
0.0
 40
1.0
 40
1.0
 40
1.0
 40
1.0
 10
9.66389102190518
 20
-0.6737552670210655
 30
0.0
 10
9.66389102190518
 20
-0.723743253685891
 30
0.0
 10
9.66389102190518
 20
-0.7754655625444306
 30
0.0
 10
9.66389102190518
 20
-0.827950057398735
 30
0.0
  0
SPLINE
  5
E4
330
1F
100
AcDbEntity
  8
0
  6
Continuous
 62
   131
370
    15
100
AcDbSpline
210
0.0
220
0.0
230
1.0
 70
     8
 71
     3
 72
    10
 73
     6
 74
     0
 42
0.000000001
 43
0.00000001
 40
0.0
 40
0.0
 40
0.0
 40
0.0
 40
0.5
 40
0.5
 40
1.0
 40
1.0
 40
1.0
 40
1.0
 10
9.663998842266555
 20
0.9506540583665853
 30
0.0
 10
9.797870784530744
 20
0.9745526788142675
 30
0.0
 10
9.933547617486656
 20
0.9899817355777367
 30
0.0
 10
10.19781542810534
 20
1.002906180359157
 30
0.0
 10
10.32962545398552
 20
1.000576151550147
 30
0.0
 10
10.46410161513774
 20
0.9893441273713802
 30
0.0
  0
SPLINE
  5
E5
330
1F
100
AcDbEntity
  8
0
  6
Continuous
 62
   131
370
    15
100
AcDbSpline
210
0.0
220
0.0
230
1.0
 70
     8
 71
     3
 72
    10
 73
     6
 74
     0
 42
0.000000001
 43
0.00000001
 40
0.0
 40
0.0
 40
0.0
 40
0.0
 40
0.4999999999999999
 40
0.4999999999999999
 40
1.0
 40
1.0
 40
1.0
 40
1.0
 10
10.46410161513775
 20
-0.9910751051452433
 30
0.0
 10
10.32960740275344
 20
-0.9807899172597805
 30
0.0
 10
10.19778089709954
 20
-0.9617298114170506
 30
0.0
 10
9.933475727178216
 20
-0.9070831635645007
 30
0.0
 10
9.79777996066414
 20
-0.8711613898505267
 30
0.0
 10
9.66389102190518
 20
-0.8279583649210818
 30
0.0
  0
SPLINE
  5
E6
330
1F
100
AcDbEntity
  8
0
  6
Continuous
 62
   131
370
    15
100
AcDbSpline
210
0.0
220
0.0
230
1.0
 70
     8
 71
     3
 72
     9
 73
     5
 74
     0
 42
0.000000001
 43
0.00000001
 40
0.0
 40
0.0
 40
0.0
 40
0.0
 40
0.5717256413587103
 40
0.9999999999999999
 40
0.9999999999999999
 40
0.9999999999999999
 40
0.9999999999999999
 10
9.663998842266555
 20
-0.9506540583665589
 30
0.0
 10
9.768395239559478
 20
-0.967101624840365
 30
0.0
 10
9.950994006766813
 20
-0.995869910332543
 30
0.0
 10
10.1328918473496
 20
-0.996533559377123
 30
0.0
 10
10.21079402836343
 20
-0.9999999999999998
 30
0.0
  0
ELLIPSE
  5
E7
330
1F
100
AcDbEntity
  8
0
  6
Continuous
 62
   131
370
    15
100
AcDbEllipse
 10
9.663967964056628
 20
0.0000000000000002
 30
0.0
 11
-8.779471052378085E-6
 21
1.0
 31
0.0
210
0.0
220
0.0
230
1.0
 40
0.0000724214126073
 41
3.141592652974901
 42
3.457393339990039
  0
SPLINE
  5
E8
330
1F
100
AcDbEntity
  8
0
  6
Continuous
 62
   131
370
    15
100
AcDbSpline
210
0.0
220
0.0
230
1.0
 70
     8
 71
     3
 72
    10
 73
     6
 74
     0
 42
0.000000001
 43
0.00000001
 40
0.0
 40
0.0
 40
0.0
 40
0.0
 40
0.5
 40
0.5
 40
1.0
 40
1.0
 40
1.0
 40
1.0
 10
10.46410161513774
 20
-0.8340529741913443
 30
0.0
 10
10.32960740275343
 20
-0.8214089715706807
 30
0.0
 10
10.19778089709953
 20
-0.8014071714292452
 30
0.0
 10
9.933475727178212
 20
-0.7476980257615699
 30
0.0
 10
9.797779960664137
 20
-0.7136788865958203
 30
0.0
 10
9.66389102190518
 20
-0.6737552670210656
 30
0.0
  0
SPLINE
  5
E9
330
1F
100
AcDbEntity
  8
0
  6
Continuous
 62
   131
370
    15
100
AcDbSpline
210
0.0
220
0.0
230
1.0
 70
     8
 71
     3
 72
    10
 73
     6
 74
     0
 42
0.000000001
 43
0.00000001
 40
0.0
 40
0.0
 40
0.0
 40
0.0
 40
0.5
 40
0.5
 40
1.0
 40
1.0
 40
1.0
 40
1.0
 10
10.46410161513774
 20
-0.1489122835598571
 30
0.0
 10
10.32961886575032
 20
-0.0882718045987687
 30
0.0
 10
10.19780282521273
 20
-0.026710897599692
 30
0.0
 10
9.933521379426065
 20
0.0958932519816759
 30
0.0
 10
9.797837636184887
 20
0.1574267896948391
 30
0.0
 10
9.663959490518298
 20
0.2167483549542647
 30
0.0
  0
SPLINE
  5
EA
330
1F
100
AcDbEntity
  8
0
  6
Continuous
 62
   131
370
    15
100
AcDbSpline
210
0.0
220
0.0
230
1.0
 70
    24
 71
     3
 72
    10
 73
     6
 74
     0
 42
0.000000001
 43
0.00000001
 40
0.0
 40
0.0
 40
0.0
 40
0.0
 40
0.4999999999999999
 40
0.4999999999999999
 40
1.0
 40
1.0
 40
1.0
 40
1.0
 10
10.46410161513774
 20
-0.1489122835598537
 30
0.0
 10
10.46410161513774
 20
-0.2961262100801872
 30
0.0
 10
10.46410161513774
 20
-0.4403484686605178
 30
0.0
 10
10.46410161513774
 20
-0.6798390904965453
 30
0.0
 10
10.46410161513774
 20
-0.7740765924924039
 30
0.0
 10
10.46410161513774
 20
-0.8340529741913442
 30
0.0
  0
SPLINE
  5
EB
330
1F
100
AcDbEntity
  8
0
  6
Continuous
 62
   131
370
    15
100
AcDbSpline
210
0.0
220
0.0
230
1.0
 70
     8
 71
     3
 72
     9
 73
     5
 74
     0
 42
0.000000001
 43
0.00000001
 40
0.0
 40
0.0
 40
0.0
 40
0.0
 40
0.6067363429298771
 40
0.9999999999999999
 40
0.9999999999999999
 40
0.9999999999999999
 40
0.9999999999999999
 10
10.46410161513774
 20
0.6877662150310923
 30
0.0
 10
10.33132132881363
 20
0.6953590956208614
 30
0.0
 10
10.11247785937033
 20
0.7078733955770893
 30
0.0
 10
9.893384355059524
 20
0.6899651801192942
 30
0.0
 10
9.807222842313948
 20
0.6829225298167622
 30
0.0
  0
SPLINE
  5
EC
330
1F
100
AcDbEntity
  8
0
  6
Continuous
 62
   131
370
    15
100
AcDbSpline
210
0.0
220
0.0
230
1.0
 70
    24
 71
     3
 72
    10
 73
     6
 74
     0
 42
0.000000001
 43
0.00000001
 40
0.0
 40
0.0
 40
0.0
 40
0.0
 40
0.4999999999999999
 40
0.4999999999999999
 40
1.0
 40
1.0
 40
1.0
 40
1.0
 10
10.46410161513775
 20
0.6877662150310914
 30
0.0
 10
10.46410161513775
 20
0.6184846712501625
 30
0.0
 10
10.46410161513775
 20
0.502595319103155
 30
0.0
 10
10.46410161513775
 20
0.2051915359641326
 30
0.0
 10
10.46410161513775
 20
0.0259814151357652
 30
0.0
 10
10.46410161513775
 20
-0.1489122835598598
 30
0.0
  0
SPLINE
  5
ED
330
1F
100
AcDbEntity
  8
0
  6
Continuous
 62
   131
370
    15
100
AcDbSpline
210
0.0
220
0.0
230
1.0
 70
    24
 71
     3
 72
     8
 73
     4
 74
     0
 42
0.000000001
 43
0.00000001
 40
0.0
 40
0.0
 40
0.0
 40
0.0
 40
1.0
 40
1.0
 40
1.0
 40
1.0
 10
10.4641016151378
 20
-0.83405297419135
 30
0.0
 10
10.4641016151378
 20
-0.8869239238629945
 30
0.0
 10
10.4641016151378
 20
-0.9396033823731486
 30
0.0
 10
10.4641016151378
 20
-0.9910751051347931
 30
0.0
  0
SPLINE
  5
EE
330
1F
100
AcDbEntity
  8
0
  6
Continuous
 62
   131
370
    15
100
AcDbSpline
210
0.0
220
0.0
230
1.0
 70
    24
 71
     3
 72
    10
 73
     6
 74
     0
 42
0.000000001
 43
0.00000001
 40
0.0
 40
0.0
 40
0.0
 40
0.0
 40
0.5
 40
0.5
 40
1.0
 40
1.0
 40
1.0
 40
1.0
 10
10.46410161514192
 20
0.9893441273587235
 30
0.0
 10
10.46410161514192
 20
0.9425233034875642
 30
0.0
 10
10.46410161514192
 20
0.8901524380710287
 30
0.0
 10
10.46410161514192
 20
0.785758665320649
 30
0.0
 10
10.46410161514192
 20
0.7340170078282254
 30
0.0
 10
10.46410161514192
 20
0.6877662150307798
 30
0.0
  0
LINE
  5
EF
330
1F
100
AcDbEntity
  8
중심선
 62
     1
100
AcDbLine
 10
-36.53589838486226
 20
-0.0000000000000046
 30
0.0
 11
27.96410161513774
 21
0.0000000000000024
 31
0.0
  0
CIRCLE
  5
F0
330
1F
100
AcDbEntity
  8
외형선
100
AcDbCircle
 10
0.0000000000000104
 20
0.0
 30
0.0
 40
3.000000000000005
  0
INSERT
  5
F1
330
1F
100
AcDbEntity
  8
0
  6
Continuous
 62
     7
100
AcDbBlockReference
 66
     1
  2
블럭10
 10
-22.93944368806589
 20
-52.04609937292004
 30
0.0
  0
ATTRIB
  5
F2
330
F1
100
AcDbEntity
  8
FORMAT
 62
     2
100
AcDbText
 10
-39.05870472750145
 20
-49.97073246008785
 30
0.0
 40
4.233333333333333
  1
SEME7002016E [ 2 FLUTE ]
 41
0.75
  7
SLDTEXTSTYLE0
 11
-39.05870472750145
 21
-52.08739912675452
 31
0.0
100
AcDbAttribute
  2
AUTOATTR0
 70
     0
 74
     1
  0
SEQEND
  5
F3
330
F1
100
AcDbEntity
  8
0
  6
Continuous
 62
     7
  0
HATCH
  5
F4
330
1F
100
AcDbEntity
  8
중심선
100
AcDbHatch
 10
0.0
 20
0.0
 30
0.0
210
0.0
220
0.0
230
1.0
  2
SOLID
 70
     1
 71
     0
 91
        1
 92
        0
 93
        4
 72
     1
 10
-17.22453438368504
 20
-35.7989250712761
 11
-20.67080962752232
 21
-35.7989250712761
 72
     1
 10
-20.67080962752232
 20
-35.7989250712761
 11
-22.79903948672635
 21
-38.3352506518487
 72
     1
 10
-22.79903948672635
 20
-38.3352506518487
 11
-19.35273115777591
 21
-38.33521122254621
 72
     1
 10
-19.35273115777591
 20
-38.33521122254621
 11
-17.22453438368504
 21
-35.7989250712761
 97
        0
 75
     0
 76
     1
 98
        1
 10
0.0
 20
0.0
  0
HATCH
  5
F5
330
1F
100
AcDbEntity
  8
중심선
100
AcDbHatch
 10
0.0
 20
0.0
 30
0.0
210
0.0
220
0.0
230
1.0
  2
SOLID
 70
     1
 71
     0
 91
        1
 92
        0
 93
        4
 72
     1
 10
-12.21177039264909
 20
-35.7989250712761
 11
-15.65804563648637
 21
-35.7989250712761
 72
     1
 10
-15.65804563648637
 20
-35.7989250712761
 11
-20.18918364484376
 21
-41.19892507127612
 72
     1
 10
-20.18918364484376
 20
-41.19892507127612
 11
-16.74290840100648
 21
-41.19892507127612
 72
     1
 10
-16.74290840100648
 20
-41.19892507127612
 11
-12.21177039264909
 21
-35.7989250712761
 97
        0
 75
     0
 76
     1
 98
        1
 10
0.0
 20
0.0
  0
HATCH
  5
F6
330
1F
100
AcDbEntity
  8
중심선
100
AcDbHatch
 10
0.0
 20
0.0
 30
0.0
210
0.0
220
0.0
230
1.0
  2
SOLID
 70
     1
 71
     0
 91
        1
 92
        0
 93
        4
 72
     1
 10
-7.199006401613195
 20
-35.79892507127613
 11
-10.64528164545031
 21
-35.7989250712761
 72
     1
 10
-10.64528164545031
 20
-35.7989250712761
 11
-17.69371854733956
 21
-44.19892507127612
 72
     1
 10
-17.69371854733956
 20
-44.19892507127612
 11
-14.24744330350228
 21
-44.19892507127612
 72
     1
 10
-14.24744330350228
 20
-44.19892507127612
 11
-7.199006401613195
 21
-35.79892507127613
 97
        0
 75
     0
 76
     1
 98
        1
 10
0.0
 20
0.0
  0
HATCH
  5
F7
330
1F
100
AcDbEntity
  8
중심선
100
AcDbHatch
 10
0.0
 20
0.0
 30
0.0
210
0.0
220
0.0
230
1.0
  2
SOLID
 70
     1
 71
     0
 91
        1
 92
        0
 93
        6
 72
     3
 10
-2.399115970600996
 20
-39.99892507132738
 11
3.960054785062284
 21
1.540850780301639E-10
 40
0.3939339440162633
 50
17.09539180608433
 51
320.0019657685079
 73
     0
 72
     1
 10
-0.7161163149004002
 20
-38.58681907591441
 11
1.589185558800638
 21
-36.65249236586649
 72
     3
 10
-2.399115970653842
 20
-39.99892507127625
 11
6.600054785286829
 21
-1.249000902703301E-13
 40
0.6363583540795982
 50
39.99873849337408
 51
368.4976242363724
 73
     1
 72
     1
 10
4.026216521246767
 20
-39.03892507120613
 11
-3.71904866381792
 21
-39.0389250712061
 72
     1
 10
-3.71904866381792
 20
-39.0389250712061
 11
-3.719073708263854
 21
-40.95892507120602
 72
     1
 10
-3.719073708263854
 20
-40.95892507120602
 11
0.7223060612081835
 21
-40.95892507120599
 97
        0
 75
     0
 76
     1
 98
        1
 10
0.0
 20
0.0
  0
DIMENSION
  5
F8
330
1F
100
AcDbEntity
  8
치수문자_일반주서
100
AcDbDimension
  2
_D
 10
39.6816345390145
 20
1.000000000000052
 30
0.0
 11
39.68163453901446
 21
10.6665000000001
 31
0.0
 70
   160
  1
%%c<>
 71
     2
 42
2.0
 52
-270.0
  3
SLDDIMSTYLE0
100
AcDbAlignedDimension
 13
26.46410161513774
 23
-0.9999999999999977
 33
0.0
 14
26.46410161513774
 24
1.000000000000002
 34
0.0
 50
90.0000000000002
100
AcDbRotatedDimension
  0
DIMENSION
  5
106
330
1F
100
AcDbEntity
  8
치수문자_일반주서
100
AcDbDimension
  2
_D_1
 10
26.46410161513774
 20
24.23841044024269
 30
0.0
 11
-3.535898384862259
 21
24.23841044024269
 31
0.0
 70
   160
  1
<>
 71
     2
 42
59.99999999999999
  3
SLDDIMSTYLE1
100
AcDbAlignedDimension
 13
-33.53589838486226
 23
2.449999999999996
 33
0.0
 14
26.46410161513774
 24
0.9991548152296488
 34
0.0
 50
-0.0000000000000068
100
AcDbRotatedDimension
  0
DIMENSION
  5
111
330
1F
100
AcDbEntity
  8
치수문자_일반주서
100
AcDbDimension
  2
_D_2
 10
26.46410161513774
 20
14.33634193353888
 30
0.0
 11
18.46410161513774
 21
14.33634193353888
 31
0.0
 70
   160
  1
<>
 71
     2
 42
16.0
  3
SLDDIMSTYLE0
100
AcDbAlignedDimension
 13
10.46410161513774
 23
0.9893441273713564
 33
0.0
 14
26.46410161513774
 24
0.9991548152296489
 34
0.0
100
AcDbRotatedDimension
  0
DIMENSION
  5
11D
330
1F
100
AcDbEntity
  8
치수문자_일반주서
100
AcDbDimension
  2
_D_3
 10
-41.60851878653647
 20
-3.000000000000032
 30
0.0
 11
-41.60851878653653
 21
12.66649999999997
 31
0.0
 70
   160
  1
%%c<>
 71
     2
 42
5.999999999999996
 52
-270.0
  3
SLDDIMSTYLE0
100
AcDbAlignedDimension
 13
-32.98589838486226
 23
2.999999999999996
 33
0.0
 14
-32.98589838486226
 24
-3.0
 34
0.0
 50
90.0000000000002
100
AcDbRotatedDimension
  0
INSERT
  5
130
330
1F
100
AcDbEntity
  8
외형선
100
AcDbBlockReference
  2
SW_DOWELSYMBOL_0
 10
0.0000000000000104
 20
0.0
 30
0.0
  0
ENDSEC
  0
SECTION
  2
OBJECTS
  0
DICTIONARY
  5
C
330
0
100
AcDbDictionary
281
     1
  3
ACAD_GROUP
350
D
  3
ACAD_IMAGE_VARS
350
154
  3
ACAD_LAYOUT
350
1A
  3
ACAD_MLINESTYLE
350
17
  3
ACAD_PLOTSETTINGS
350
19
  3
ACAD_PLOTSTYLENAME
350
E
  3
ACAD_SCALELIST
350
47
  3
APPDATA
350
152
  3
DWGPROPS
350
1A9
  0
DICTIONARY
  5
D
102
{ACAD_REACTORS
330
C
102
}
330
C
100
AcDbDictionary
281
     1
  0
RASTERVARIABLES
  5
154
102
{ACAD_REACTORS
330
C
102
}
330
C
100
AcDbRasterVariables
 90
        0
 70
     1
 71
     1
 72
     1
  0
DICTIONARY
  5
1A
102
{ACAD_REACTORS
330
C
102
}
330
C
100
AcDbDictionary
281
     1
  3
Layout1
350
1E
  3
Layout2
350
26
  3
Model
350
22
  0
DICTIONARY
  5
17
102
{ACAD_REACTORS
330
C
102
}
330
C
100
AcDbDictionary
281
     1
  3
Standard
350
18
  0
DICTIONARY
  5
19
102
{ACAD_REACTORS
330
C
102
}
330
C
100
AcDbDictionary
281
     1
  0
ACDBDICTIONARYWDFLT
  5
E
102
{ACAD_REACTORS
330
C
102
}
330
C
100
AcDbDictionary
281
     1
  3
Normal
350
F
100
AcDbDictionaryWithDefault
340
F
  0
DICTIONARY
  5
47
102
{ACAD_REACTORS
330
C
102
}
330
C
100
AcDbDictionary
281
     1
  3
A0
350
48
  3
A1
350
49
  3
A2
350
4A
  3
A3
350
4B
  3
A4
350
4C
  3
A5
350
4D
  3
A6
350
4E
  3
A7
350
4F
  3
A8
350
50
  3
A9
350
51
  3
B0
350
52
  3
B1
350
53
  3
B2
350
54
  3
B3
350
55
  3
B4
350
56
  3
B5
350
57
  3
B6
350
58
  3
B7
350
59
  3
B8
350
5A
  3
B9
350
5B
  3
C0
350
5C
  3
C1
350
5D
  3
C2
350
5E
  3
C3
350
5F
  3
C4
350
60
  3
C5
350
61
  3
C6
350
62
  3
C7
350
63
  3
C8
350
64
  3
C9
350
65
  3
D0
350
66
  3
D1
350
67
  3
D2
350
68
  0
DICTIONARY
  5
152
102
{ACAD_REACTORS
330
C
102
}
330
C
100
AcDbDictionary
281
     1
  0
XRECORD
  5
1A9
102
{ACAD_REACTORS
330
C
102
}
330
C
100
AcDbXrecord
280
     1
  1
DWGPROPS COOKIE
  2

  3

  4

  6

  7

  8
12014102
  9

300
=
301
=
302
=
303
=
304
=
305
=
306
=
307
=
308
=
309
=
 40
0.0
 41
2458262.160910741
 42
2458264.420944525
  1

 90
        0
  0
LAYOUT
  5
1E
102
{ACAD_REACTORS
330
1A
102
}
330
1A
100
AcDbPlotSettings
  1

  2
none_device
  4

  6

 40
0.0
 41
0.0
 42
0.0
 43
0.0
 44
0.0
 45
0.0
 46
0.0
 47
0.0
 48
0.0
 49
0.0
140
0.0
141
0.0
142
1.0
143
1.0
 70
   688
 72
     1
 73
     0
 74
     5
  7

 75
    16
147
1.0
148
0.0
149
0.0
100
AcDbLayout
  1
Layout1
 70
     1
 71
     1
 10
0.0
 20
0.0
 11
420.0
 21
297.0
 12
0.0
 22
0.0
 32
0.0
 14
1.000000000000000E+20
 24
1.000000000000000E+20
 34
1.000000000000000E+20
 15
-1.000000000000000E+20
 25
-1.000000000000000E+20
 35
-1.000000000000000E+20
146
0.0
 13
0.0
 23
0.0
 33
0.0
 16
1.0
 26
0.0
 36
0.0
 17
0.0
 27
1.0
 37
0.0
 76
     0
330
1B
  0
LAYOUT
  5
26
102
{ACAD_REACTORS
330
1A
102
}
330
1A
100
AcDbPlotSettings
  1

  2
none_device
  4

  6

 40
0.0
 41
0.0
 42
0.0
 43
0.0
 44
0.0
 45
0.0
 46
0.0
 47
0.0
 48
0.0
 49
0.0
140
0.0
141
0.0
142
1.0
143
1.0
 70
   688
 72
     1
 73
     0
 74
     5
  7

 75
    16
147
1.0
148
0.0
149
0.0
100
AcDbLayout
  1
Layout2
 70
     1
 71
     2
 10
0.0
 20
0.0
 11
0.0
 21
0.0
 12
0.0
 22
0.0
 32
0.0
 14
0.0
 24
0.0
 34
0.0
 15
0.0
 25
0.0
 35
0.0
146
0.0
 13
0.0
 23
0.0
 33
0.0
 16
1.0
 26
0.0
 36
0.0
 17
0.0
 27
1.0
 37
0.0
 76
     0
330
23
  0
LAYOUT
  5
22
102
{ACAD_REACTORS
330
1A
102
}
330
1A
100
AcDbPlotSettings
  1

  2
none_device
  4
ANSI_A_(11.00_x_8.50_Inches)
  6

 40
6.35
 41
19.05
 42
6.35000508
 43
19.05000254
 44
279.4
 45
215.9
 46
137.6958576136051
 47
118.4377884955873
 48
0.0
 49
0.0
140
0.0
141
0.0
142
0.1058944507156154
143
1.0
 70
  1696
 72
     0
 73
     0
 74
     0
  7

 75
     0
147
0.0235690232323232
148
0.0
149
0.0
100
AcDbLayout
  1
Model
 70
     1
 71
     0
 10
0.0
 20
0.0
 11
420.0
 21
297.0
 12
0.0
 22
0.0
 32
0.0
 14
-45.98351878653654
 24
-49.97073246008785
 34
0.0
 15
40.23196787234785
 25
28.61341044024268
 35
0.0
146
0.0
 13
0.0
 23
0.0
 33
0.0
 16
1.0
 26
0.0
 36
0.0
 17
0.0
 27
1.0
 37
0.0
 76
     0
330
1F
331
29
  0
MLINESTYLE
  5
18
102
{ACAD_REACTORS
330
17
102
}
330
17
100
AcDbMlineStyle
  2
Standard
 70
     0
  3

 62
   256
 51
90.0
 52
90.0
 71
     2
 49
0.5
 62
   256
  6
BYLAYER
 49
-0.5
 62
   256
  6
BYLAYER
  0
ACDBPLACEHOLDER
  5
F
102
{ACAD_REACTORS
330
E
102
}
330
E
  0
SCALE
  5
48
102
{ACAD_REACTORS
330
47
102
}
330
47
100
AcDbScale
 70
     0
300
1:1
140
1.0
141
1.0
290
     1
  0
SCALE
  5
49
102
{ACAD_REACTORS
330
47
102
}
330
47
100
AcDbScale
 70
     0
300
1:2
140
1.0
141
2.0
290
     0
  0
SCALE
  5
4A
102
{ACAD_REACTORS
330
47
102
}
330
47
100
AcDbScale
 70
     0
300
1:4
140
1.0
141
4.0
290
     0
  0
SCALE
  5
4B
102
{ACAD_REACTORS
330
47
102
}
330
47
100
AcDbScale
 70
     0
300
1:5
140
1.0
141
5.0
290
     0
  0
SCALE
  5
4C
102
{ACAD_REACTORS
330
47
102
}
330
47
100
AcDbScale
 70
     0
300
1:8
140
1.0
141
8.0
290
     0
  0
SCALE
  5
4D
102
{ACAD_REACTORS
330
47
102
}
330
47
100
AcDbScale
 70
     0
300
1:10
140
1.0
141
10.0
290
     0
  0
SCALE
  5
4E
102
{ACAD_REACTORS
330
47
102
}
330
47
100
AcDbScale
 70
     0
300
1:16
140
1.0
141
16.0
290
     0
  0
SCALE
  5
4F
102
{ACAD_REACTORS
330
47
102
}
330
47
100
AcDbScale
 70
     0
300
1:20
140
1.0
141
20.0
290
     0
  0
SCALE
  5
50
102
{ACAD_REACTORS
330
47
102
}
330
47
100
AcDbScale
 70
     0
300
1:30
140
1.0
141
30.0
290
     0
  0
SCALE
  5
51
102
{ACAD_REACTORS
330
47
102
}
330
47
100
AcDbScale
 70
     0
300
1:40
140
1.0
141
40.0
290
     0
  0
SCALE
  5
52
102
{ACAD_REACTORS
330
47
102
}
330
47
100
AcDbScale
 70
     0
300
1:50
140
1.0
141
50.0
290
     0
  0
SCALE
  5
53
102
{ACAD_REACTORS
330
47
102
}
330
47
100
AcDbScale
 70
     0
300
1:100
140
1.0
141
100.0
290
     0
  0
SCALE
  5
54
102
{ACAD_REACTORS
330
47
102
}
330
47
100
AcDbScale
 70
     0
300
2:1
140
2.0
141
1.0
290
     0
  0
SCALE
  5
55
102
{ACAD_REACTORS
330
47
102
}
330
47
100
AcDbScale
 70
     0
300
4:1
140
4.0
141
1.0
290
     0
  0
SCALE
  5
56
102
{ACAD_REACTORS
330
47
102
}
330
47
100
AcDbScale
 70
     0
300
8:1
140
8.0
141
1.0
290
     0
  0
SCALE
  5
57
102
{ACAD_REACTORS
330
47
102
}
330
47
100
AcDbScale
 70
     0
300
10:1
140
10.0
141
1.0
290
     0
  0
SCALE
  5
58
102
{ACAD_REACTORS
330
47
102
}
330
47
100
AcDbScale
 70
     0
300
100:1
140
100.0
141
1.0
290
     0
  0
SCALE
  5
59
102
{ACAD_REACTORS
330
47
102
}
330
47
100
AcDbScale
 70
     0
300
1/128" = 1'-0"
140
0.0078125
141
12.0
290
     0
  0
SCALE
  5
5A
102
{ACAD_REACTORS
330
47
102
}
330
47
100
AcDbScale
 70
     0
300
1/64" = 1'-0"
140
0.015625
141
12.0
290
     0
  0
SCALE
  5
5B
102
{ACAD_REACTORS
330
47
102
}
330
47
100
AcDbScale
 70
     0
300
1/32" = 1'-0"
140
0.03125
141
12.0
290
     0
  0
SCALE
  5
5C
102
{ACAD_REACTORS
330
47
102
}
330
47
100
AcDbScale
 70
     0
300
1/16" = 1'-0"
140
0.0625
141
12.0
290
     0
  0
SCALE
  5
5D
102
{ACAD_REACTORS
330
47
102
}
330
47
100
AcDbScale
 70
     0
300
3/32" = 1'-0"
140
0.09375
141
12.0
290
     0
  0
SCALE
  5
5E
102
{ACAD_REACTORS
330
47
102
}
330
47
100
AcDbScale
 70
     0
300
1/8" = 1'-0"
140
0.125
141
12.0
290
     0
  0
SCALE
  5
5F
102
{ACAD_REACTORS
330
47
102
}
330
47
100
AcDbScale
 70
     0
300
3/16" = 1'-0"
140
0.1875
141
12.0
290
     0
  0
SCALE
  5
60
102
{ACAD_REACTORS
330
47
102
}
330
47
100
AcDbScale
 70
     0
300
1/4" = 1'-0"
140
0.25
141
12.0
290
     0
  0
SCALE
  5
61
102
{ACAD_REACTORS
330
47
102
}
330
47
100
AcDbScale
 70
     0
300
3/8" = 1'-0"
140
0.375
141
12.0
290
     0
  0
SCALE
  5
62
102
{ACAD_REACTORS
330
47
102
}
330
47
100
AcDbScale
 70
     0
300
1/2" = 1'-0"
140
0.5
141
12.0
290
     0
  0
SCALE
  5
63
102
{ACAD_REACTORS
330
47
102
}
330
47
100
AcDbScale
 70
     0
300
3/4" = 1'-0"
140
0.75
141
12.0
290
     0
  0
SCALE
  5
64
102
{ACAD_REACTORS
330
47
102
}
330
47
100
AcDbScale
 70
     0
300
1" = 1'-0"
140
1.0
141
12.0
290
     0
  0
SCALE
  5
65
102
{ACAD_REACTORS
330
47
102
}
330
47
100
AcDbScale
 70
     0
300
1-1/2" = 1'-0"
140
1.5
141
12.0
290
     0
  0
SCALE
  5
66
102
{ACAD_REACTORS
330
47
102
}
330
47
100
AcDbScale
 70
     0
300
3" = 1'-0"
140
3.0
141
12.0
290
     0
  0
SCALE
  5
67
102
{ACAD_REACTORS
330
47
102
}
330
47
100
AcDbScale
 70
     0
300
6" = 1'-0"
140
6.0
141
12.0
290
     0
  0
SCALE
  5
68
102
{ACAD_REACTORS
330
47
102
}
330
47
100
AcDbScale
 70
     0
300
1'-0" = 1'-0"
140
12.0
141
12.0
290
     0
  0
ENDSEC
  0
EOF
