  0
SECTION
  2
HEADER
  9
$ACADVER
  1
AC1015
  9
$ACADMAINTVER
 70
     6
  9
$DWGCODEPAGE
  3
ANSI_949
  9
$INSBASE
 10
0.0
 20
0.0
 30
0.0
  9
$EXTMIN
 10
-54.3794219172823
 20
-49.97073246008785
 30
0.0
  9
$EXTMAX
 10
36.73336252680538
 20
28.61341044024269
 30
0.0
  9
$LIMMIN
 10
0.0
 20
0.0
  9
$LIMMAX
 10
420.0
 20
297.0
  9
$ORTHOMODE
 70
     0
  9
$REGENMODE
 70
     1
  9
$FILLMODE
 70
     1
  9
$QTEXTMODE
 70
     0
  9
$MIRRTEXT
 70
     1
  9
$LTSCALE
 40
1.0
  9
$ATTMODE
 70
     1
  9
$TEXTSIZE
 40
3.5
  9
$TRACEWID
 40
1.0
  9
$TEXTSTYLE
  7
Standard
  9
$CLAYER
  8
0
  9
$CELTYPE
  6
ByLayer
  9
$CECOLOR
 62
   256
  9
$CELTSCALE
 40
1.0
  9
$DISPSILH
 70
     0
  9
$DIMSCALE
 40
1.0
  9
$DIMASZ
 40
3.302
  9
$DIMEXO
 40
1.0
  9
$DIMDLI
 40
3.75
  9
$DIMRND
 40
0.0
  9
$DIMDLE
 40
0.0
  9
$DIMEXE
 40
1.0
  9
$DIMTP
 40
0.0
  9
$DIMTM
 40
0.0
  9
$DIMTXT
 40
3.5
  9
$DIMCEN
 40
2.5
  9
$DIMTSZ
 40
0.0
  9
$DIMTOL
 70
     0
  9
$DIMLIM
 70
     0
  9
$DIMTIH
 70
     1
  9
$DIMTOH
 70
     1
  9
$DIMSE1
 70
     0
  9
$DIMSE2
 70
     0
  9
$DIMTAD
 70
     1
  9
$DIMZIN
 70
     0
  9
$DIMBLK
  1

  9
$DIMASO
 70
     1
  9
$DIMSHO
 70
     1
  9
$DIMPOST
  1

  9
$DIMAPOST
  1

  9
$DIMALT
 70
     0
  9
$DIMALTD
 70
     3
  9
$DIMALTF
 40
0.0393700787401575
  9
$DIMLFAC
 40
1.0
  9
$DIMTOFL
 70
     1
  9
$DIMTVP
 40
0.0
  9
$DIMTIX
 70
     0
  9
$DIMSOXD
 70
     0
  9
$DIMSAH
 70
     0
  9
$DIMBLK1
  1

  9
$DIMBLK2
  1

  9
$DIMSTYLE
  2
ISO-25
  9
$DIMCLRD
 70
     0
  9
$DIMCLRE
 70
     0
  9
$DIMCLRT
 70
     0
  9
$DIMTFAC
 40
1.0
  9
$DIMGAP
 40
1.524
  9
$DIMJUST
 70
     0
  9
$DIMSD1
 70
     0
  9
$DIMSD2
 70
     0
  9
$DIMTOLJ
 70
     0
  9
$DIMTZIN
 70
     0
  9
$DIMALTZ
 70
     0
  9
$DIMALTTZ
 70
     0
  9
$DIMUPT
 70
     0
  9
$DIMDEC
 70
     2
  9
$DIMTDEC
 70
     2
  9
$DIMALTU
 70
     2
  9
$DIMALTTD
 70
     3
  9
$DIMTXSTY
  7
Standard
  9
$DIMAUNIT
 70
     0
  9
$DIMADEC
 70
     2
  9
$DIMALTRND
 40
0.0
  9
$DIMAZIN
 70
     0
  9
$DIMDSEP
 70
    44
  9
$DIMATFIT
 70
     3
  9
$DIMFRAC
 70
     0
  9
$DIMLDRBLK
  1

  9
$DIMLUNIT
 70
     2
  9
$DIMLWD
 70
    -2
  9
$DIMLWE
 70
    -2
  9
$DIMTMOVE
 70
     0
  9
$LUNITS
 70
     2
  9
$LUPREC
 70
     2
  9
$SKETCHINC
 40
1.0
  9
$FILLETRAD
 40
10.0
  9
$AUNITS
 70
     0
  9
$AUPREC
 70
     2
  9
$MENU
  1
.
  9
$ELEVATION
 40
0.0
  9
$PELEVATION
 40
0.0
  9
$THICKNESS
 40
0.0
  9
$LIMCHECK
 70
     0
  9
$CHAMFERA
 40
0.0
  9
$CHAMFERB
 40
0.0
  9
$CHAMFERC
 40
0.0
  9
$CHAMFERD
 40
0.0
  9
$SKPOLY
 70
     0
  9
$TDCREATE
 40
2458262.536286042
  9
$TDUCREATE
 40
2458262.161286042
  9
$TDUPDATE
 40
2458264.797416273
  9
$TDUUPDATE
 40
2458264.422416273
  9
$TDINDWG
 40
0.0185688079
  9
$TDUSRTIMER
 40
2458264.421914641
  9
$USRTIMER
 70
     1
  9
$ANGBASE
 50
0.0
  9
$ANGDIR
 70
     0
  9
$PDMODE
 70
     0
  9
$PDSIZE
 40
-1.0
  9
$PLINEWID
 40
0.0
  9
$SPLFRAME
 70
     0
  9
$SPLINETYPE
 70
     6
  9
$SPLINESEGS
 70
     8
  9
$HANDSEED
  5
192
  9
$SURFTAB1
 70
     6
  9
$SURFTAB2
 70
     6
  9
$SURFTYPE
 70
     6
  9
$SURFU
 70
     6
  9
$SURFV
 70
     6
  9
$UCSBASE
  2

  9
$UCSNAME
  2

  9
$UCSORG
 10
0.0
 20
0.0
 30
0.0
  9
$UCSXDIR
 10
1.0
 20
0.0
 30
0.0
  9
$UCSYDIR
 10
0.0
 20
1.0
 30
0.0
  9
$UCSORTHOREF
  2

  9
$UCSORTHOVIEW
 70
     0
  9
$UCSORGTOP
 10
0.0
 20
0.0
 30
0.0
  9
$UCSORGBOTTOM
 10
0.0
 20
0.0
 30
0.0
  9
$UCSORGLEFT
 10
0.0
 20
0.0
 30
0.0
  9
$UCSORGRIGHT
 10
0.0
 20
0.0
 30
0.0
  9
$UCSORGFRONT
 10
0.0
 20
0.0
 30
0.0
  9
$UCSORGBACK
 10
0.0
 20
0.0
 30
0.0
  9
$PUCSBASE
  2

  9
$PUCSNAME
  2

  9
$PUCSORG
 10
0.0
 20
0.0
 30
0.0
  9
$PUCSXDIR
 10
1.0
 20
0.0
 30
0.0
  9
$PUCSYDIR
 10
0.0
 20
1.0
 30
0.0
  9
$PUCSORTHOREF
  2

  9
$PUCSORTHOVIEW
 70
     0
  9
$PUCSORGTOP
 10
0.0
 20
0.0
 30
0.0
  9
$PUCSORGBOTTOM
 10
0.0
 20
0.0
 30
0.0
  9
$PUCSORGLEFT
 10
0.0
 20
0.0
 30
0.0
  9
$PUCSORGRIGHT
 10
0.0
 20
0.0
 30
0.0
  9
$PUCSORGFRONT
 10
0.0
 20
0.0
 30
0.0
  9
$PUCSORGBACK
 10
0.0
 20
0.0
 30
0.0
  9
$USERI1
 70
     0
  9
$USERI2
 70
     0
  9
$USERI3
 70
     0
  9
$USERI4
 70
     0
  9
$USERI5
 70
     0
  9
$USERR1
 40
0.0
  9
$USERR2
 40
0.0
  9
$USERR3
 40
0.0
  9
$USERR4
 40
0.0
  9
$USERR5
 40
0.0
  9
$WORLDVIEW
 70
     1
  9
$SHADEDGE
 70
     3
  9
$SHADEDIF
 70
    70
  9
$TILEMODE
 70
     1
  9
$MAXACTVP
 70
    64
  9
$PINSBASE
 10
0.0
 20
0.0
 30
0.0
  9
$PLIMCHECK
 70
     0
  9
$PEXTMIN
 10
1.000000000000000E+20
 20
1.000000000000000E+20
 30
1.000000000000000E+20
  9
$PEXTMAX
 10
-1.000000000000000E+20
 20
-1.000000000000000E+20
 30
-1.000000000000000E+20
  9
$PLIMMIN
 10
0.0
 20
0.0
  9
$PLIMMAX
 10
0.0
 20
0.0
  9
$UNITMODE
 70
     0
  9
$VISRETAIN
 70
     1
  9
$PLINEGEN
 70
     0
  9
$PSLTSCALE
 70
     1
  9
$TREEDEPTH
 70
  3020
  9
$CMLSTYLE
  2
Standard
  9
$CMLJUST
 70
     0
  9
$CMLSCALE
 40
20.0
  9
$PROXYGRAPHICS
 70
     1
  9
$MEASUREMENT
 70
     1
  9
$CELWEIGHT
370
    -1
  9
$ENDCAPS
280
     0
  9
$JOINSTYLE
280
     0
  9
$LWDISPLAY
290
     1
  9
$INSUNITS
 70
     4
  9
$HYPERLINKBASE
  1

  9
$STYLESHEET
  1

  9
$XEDIT
290
     1
  9
$CEPSNTYPE
380
     0
  9
$PSTYLEMODE
290
     1
  9
$FINGERPRINTGUID
  2
{A25B0C37-AC39-4E3F-AEDF-704D3362C8CB}
  9
$VERSIONGUID
  2
{FAEB1C32-E019-11D5-929B-00C0DF256EC4}
  9
$EXTNAMES
290
     1
  9
$PSVPSCALE
 40
0.0
  9
$OLESTARTUP
290
     0
  0
ENDSEC
  0
SECTION
  2
CLASSES
  0
CLASS
  1
ACDBDICTIONARYWDFLT
  2
AcDbDictionaryWithDefault
  3
ObjectDBX Classes
 90
        0
280
     0
281
     0
  0
CLASS
  1
VISUALSTYLE
  2
AcDbVisualStyle
  3
ObjectDBX Classes
 90
     4095
280
     0
281
     0
  0
CLASS
  1
MATERIAL
  2
AcDbMaterial
  3
ObjectDBX Classes
 90
     1153
280
     0
281
     0
  0
CLASS
  1
SCALE
  2
AcDbScale
  3
ObjectDBX Classes
 90
     1153
280
     0
281
     0
  0
CLASS
  1
SUN
  2
AcDbSun
  3
SCENEOE
 90
     1153
280
     0
281
     0
  0
CLASS
  1
ACDBPLACEHOLDER
  2
AcDbPlaceHolder
  3
ObjectDBX Classes
 90
        0
280
     0
281
     0
  0
CLASS
  1
LAYOUT
  2
AcDbLayout
  3
ObjectDBX Classes
 90
        0
280
     0
281
     0
  0
CLASS
  1
TABLESTYLE
  2
AcDbTableStyle
  3
ObjectDBX Classes
 90
     4095
280
     0
281
     0
  0
CLASS
  1
MLEADERSTYLE
  2
AcDbMLeaderStyle
  3
ACDB_MLEADERSTYLE_CLASS
 90
     4095
280
     0
281
     0
  0
CLASS
  1
RASTERVARIABLES
  2
AcDbRasterVariables
  3
ISM
 90
        0
280
     0
281
     0
  0
ENDSEC
  0
SECTION
  2
TABLES
  0
TABLE
  2
VPORT
  5
8
330
0
100
AcDbSymbolTable
 70
     1
  0
VPORT
  5
29
330
8
100
AcDbSymbolTableRecord
100
AcDbViewportTableRecord
  2
*Active
 70
     0
 10
0.0
 20
0.0
 11
1.0
 21
1.0
 12
-8.82302969523846
 22
-10.67866100992259
 13
0.0
 23
0.0
 14
10.0
 24
10.0
 15
10.0
 25
10.0
 16
0.0
 26
0.0
 36
1.0
 17
0.0
 27
0.0
 37
0.0
 40
80.15582575833714
 41
1.679075738125802
 42
50.0
 43
0.0
 44
0.0
 50
0.0
 51
0.0
 71
    16
 72
  2000
 73
     1
 74
     3
 75
     0
 76
     0
 77
     0
 78
     0
281
     0
 65
     1
110
0.0
120
0.0
130
0.0
111
1.0
121
0.0
131
0.0
112
0.0
122
1.0
132
0.0
 79
     0
146
0.0
  0
ENDTAB
  0
TABLE
  2
LTYPE
  5
5
330
0
100
AcDbSymbolTable
 70
     6
  0
LTYPE
  5
14
330
5
100
AcDbSymbolTableRecord
100
AcDbLinetypeTableRecord
  2
ByBlock
 70
     0
  3

 72
    65
 73
     0
 40
0.0
  0
LTYPE
  5
15
330
5
100
AcDbSymbolTableRecord
100
AcDbLinetypeTableRecord
  2
ByLayer
 70
     0
  3

 72
    65
 73
     0
 40
0.0
  0
LTYPE
  5
16
330
5
100
AcDbSymbolTableRecord
100
AcDbLinetypeTableRecord
  2
Continuous
 70
     0
  3
Solid line
 72
    65
 73
     0
 40
0.0
  0
LTYPE
  5
6A
330
5
100
AcDbSymbolTableRecord
100
AcDbLinetypeTableRecord
  2
HIDDEN
 70
     0
  3
Hidden __ __ __ __ __ __ __ __ __ __ __ __ __ __
 72
    65
 73
     2
 40
1.905
 49
1.27
 74
     0
 49
-0.635
 74
     0
  0
LTYPE
  5
6B
330
5
100
AcDbSymbolTableRecord
100
AcDbLinetypeTableRecord
  2
PHANTOM
 70
     0
  3
Phantom ______  __  __  ______  __  __  ______
 72
    65
 73
     6
 40
12.7
 49
6.35
 74
     0
 49
-1.27
 74
     0
 49
1.27
 74
     0
 49
-1.27
 74
     0
 49
1.27
 74
     0
 49
-1.27
 74
     0
  0
LTYPE
  5
6C
330
5
100
AcDbSymbolTableRecord
100
AcDbLinetypeTableRecord
  2
CENTER
 70
     0
  3
Center ____ _ ____ _ ____ _ ____ _ ____ _ ____
 72
    65
 73
     4
 40
10.16
 49
6.35
 74
     0
 49
-1.27
 74
     0
 49
1.27
 74
     0
 49
-1.27
 74
     0
  0
LTYPE
  5
6D
330
5
100
AcDbSymbolTableRecord
100
AcDbLinetypeTableRecord
  2
CENTERX2
 70
     0
  3
Center (2x) ________  __  ________  __  _____
 72
    65
 73
     4
 40
20.32
 49
12.7
 74
     0
 49
-2.54
 74
     0
 49
2.54
 74
     0
 49
-2.54
 74
     0
  0
LTYPE
  5
6E
330
5
100
AcDbSymbolTableRecord
100
AcDbLinetypeTableRecord
  2
DOT2
 70
     0
  3
Dot (.5x) ........................................
 72
    65
 73
     2
 40
0.635
 49
0.0
 74
     0
 49
-0.635
 74
     0
  0
ENDTAB
  0
TABLE
  2
LAYER
  5
2
330
0
100
AcDbSymbolTable
 70
    17
  0
LAYER
  5
10
330
2
100
AcDbSymbolTableRecord
100
AcDbLayerTableRecord
  2
0
 70
     0
 62
     7
  6
Continuous
370
    -3
390
F
  0
LAYER
  5
6F
330
2
100
AcDbSymbolTableRecord
100
AcDbLayerTableRecord
  2
FORMAT
 70
     0
 62
     2
  6
Continuous
370
    -3
390
F
  0
LAYER
  5
70
330
2
100
AcDbSymbolTableRecord
100
AcDbLayerTableRecord
  2
외형선
 70
     0
 62
   100
  6
Continuous
370
    30
390
F
  0
LAYER
  5
71
330
2
100
AcDbSymbolTableRecord
100
AcDbLayerTableRecord
  2
숨은선
 70
     0
 62
     2
  6
HIDDEN
370
    15
390
F
  0
LAYER
  5
72
330
2
100
AcDbSymbolTableRecord
100
AcDbLayerTableRecord
  2
중심선
 70
     0
 62
     1
  6
CENTERX2
370
    -3
390
F
  0
LAYER
  5
73
330
2
100
AcDbSymbolTableRecord
100
AcDbLayerTableRecord
  2
파단선
 70
     0
 62
     4
  6
Continuous
370
    -3
390
F
  0
LAYER
  5
74
330
2
100
AcDbSymbolTableRecord
100
AcDbLayerTableRecord
  2
해칭선
 70
     0
 62
     4
  6
Continuous
370
    -3
390
F
  0
LAYER
  5
75
330
2
100
AcDbSymbolTableRecord
100
AcDbLayerTableRecord
  2
가는실선
 70
     0
 62
     4
  6
Continuous
370
    -3
390
F
  0
LAYER
  5
76
330
2
100
AcDbSymbolTableRecord
100
AcDbLayerTableRecord
  2
치수_보조선
 70
     0
 62
     4
  6
Continuous
370
    -3
390
F
  0
LAYER
  5
77
330
2
100
AcDbSymbolTableRecord
100
AcDbLayerTableRecord
  2
치수문자_일반주서
 70
     0
 62
     7
  6
Continuous
370
    15
390
F
  0
LAYER
  5
78
330
2
100
AcDbSymbolTableRecord
100
AcDbLayerTableRecord
  2
개별주서
 70
     0
 62
   100
  6
Continuous
370
    30
390
F
  0
LAYER
  5
79
330
2
100
AcDbSymbolTableRecord
100
AcDbLayerTableRecord
  2
중간선
 70
     0
 62
     2
  6
Continuous
370
    15
390
F
  0
LAYER
  5
7A
330
2
100
AcDbSymbolTableRecord
100
AcDbLayerTableRecord
  2
윤곽선
 70
     0
 62
     3
  6
Continuous
370
    40
390
F
  0
LAYER
  5
7B
330
2
100
AcDbSymbolTableRecord
100
AcDbLayerTableRecord
  2
중심마크
 70
     0
 62
   100
  6
Continuous
370
    30
390
F
  0
LAYER
  5
7C
330
2
100
AcDbSymbolTableRecord
100
AcDbLayerTableRecord
  2
가상선
 70
     0
 62
     4
  6
PHANTOM
370
    -3
390
F
  0
LAYER
  5
7D
330
2
100
AcDbSymbolTableRecord
100
AcDbLayerTableRecord
  2
특수지정선
 70
     0
 62
     5
  6
CENTERX2
370
    60
390
F
  0
LAYER
  5
13E
330
2
100
AcDbSymbolTableRecord
100
AcDbLayerTableRecord
  2
Defpoints
 70
     0
 62
     7
  6
Continuous
290
     0
370
    -3
390
F
  0
ENDTAB
  0
TABLE
  2
STYLE
  5
3
330
0
100
AcDbSymbolTable
 70
     2
  0
STYLE
  5
11
330
3
100
AcDbSymbolTableRecord
100
AcDbTextStyleTableRecord
  2
Standard
 70
     0
 40
0.0
 41
1.0
 50
0.0
 71
     0
 42
3.5
  3
txt
  4

  0
STYLE
  5
93
330
3
100
AcDbSymbolTableRecord
100
AcDbTextStyleTableRecord
  2
SLDTEXTSTYLE0
 70
     0
 40
0.0
 41
0.75
 50
0.0
 71
     0
 42
3.5
  3
TXT
  4

  0
ENDTAB
  0
TABLE
  2
VIEW
  5
6
330
0
100
AcDbSymbolTable
 70
     0
  0
ENDTAB
  0
TABLE
  2
UCS
  5
7
330
0
100
AcDbSymbolTable
 70
     0
  0
ENDTAB
  0
TABLE
  2
APPID
  5
9
330
0
100
AcDbSymbolTable
 70
     1
  0
APPID
  5
12
330
9
100
AcDbSymbolTableRecord
100
AcDbRegAppTableRecord
  2
ACAD
 70
     0
  0
ENDTAB
  0
TABLE
  2
DIMSTYLE
  5
A
330
0
100
AcDbSymbolTable
 70
     4
100
AcDbDimStyleTable
  0
DIMSTYLE
105
27
330
A
100
AcDbSymbolTableRecord
100
AcDbDimStyleTableRecord
  2
ISO-25
 70
     0
 41
2.5
 42
0.625
 43
3.75
 44
1.25
 73
     0
 74
     0
 77
     1
 78
     8
140
2.5
141
2.5
143
0.03937007874016
147
0.625
171
     3
172
     1
178
     0
271
     2
272
     2
274
     3
278
    44
283
     0
284
     8
340
11
  0
DIMSTYLE
105
E1
102
{ACAD_REACTORS
330
E0
102
}
330
A
100
AcDbSymbolTableRecord
100
AcDbDimStyleTableRecord
  2
SLDDIMSTYLE0
 70
     0
 41
3.302
 44
0.0
 45
0.000000001
 73
     0
 74
     0
 77
     1
 78
     4
 79
     1
140
3.5
147
0.875
172
     1
173
     1
178
     0
271
     2
272
     2
276
     2
284
    12
289
     0
340
93
  0
DIMSTYLE
105
EF
102
{ACAD_REACTORS
330
EE
102
}
330
A
100
AcDbSymbolTableRecord
100
AcDbDimStyleTableRecord
  2
SLDDIMSTYLE1
 70
     0
 41
3.302
 44
0.0
 45
0.000000001
 73
     0
 74
     0
 77
     1
 78
    12
 79
     3
140
3.5
147
0.875
173
     1
178
     0
271
     2
272
     2
276
     2
284
    12
340
93
  0
DIMSTYLE
105
FA
102
{ACAD_REACTORS
330
F9
330
106
102
}
330
A
100
AcDbSymbolTableRecord
100
AcDbDimStyleTableRecord
  2
SLDDIMSTYLE2
 70
     0
 41
3.302
 44
0.0
 45
0.000000001
 73
     0
 74
     0
 77
     1
 78
    12
 79
     3
140
3.5
147
0.875
172
     1
173
     1
178
     0
271
     2
272
     2
276
     2
284
    12
289
     0
340
93
  0
ENDTAB
  0
TABLE
  2
BLOCK_RECORD
  5
1
330
0
100
AcDbSymbolTable
 70
     7
  0
BLOCK_RECORD
  5
1F
330
1
100
AcDbSymbolTableRecord
100
AcDbBlockTableRecord
  2
*Model_Space
340
22
  0
BLOCK_RECORD
  5
1B
330
1
100
AcDbSymbolTableRecord
100
AcDbBlockTableRecord
  2
*Paper_Space
340
1E
  0
BLOCK_RECORD
  5
23
330
1
100
AcDbSymbolTableRecord
100
AcDbBlockTableRecord
  2
*Paper_Space0
340
26
  0
BLOCK_RECORD
  5
7E
330
1
100
AcDbSymbolTableRecord
100
AcDbBlockTableRecord
  2
블럭10
340
0
102
{BLKREFS
331
D9
102
}
  0
BLOCK_RECORD
  5
E2
330
1
100
AcDbSymbolTableRecord
100
AcDbBlockTableRecord
  2
_D
340
0
  0
BLOCK_RECORD
  5
F0
330
1
100
AcDbSymbolTableRecord
100
AcDbBlockTableRecord
  2
_D_1
340
0
  0
BLOCK_RECORD
  5
FB
330
1
100
AcDbSymbolTableRecord
100
AcDbBlockTableRecord
  2
_D_2
340
0
  0
BLOCK_RECORD
  5
107
330
1
100
AcDbSymbolTableRecord
100
AcDbBlockTableRecord
  2
_D_3
340
0
  0
BLOCK_RECORD
  5
113
330
1
100
AcDbSymbolTableRecord
100
AcDbBlockTableRecord
  2
SW_DOWELSYMBOL_0
340
0
102
{BLKREFS
331
119
102
}
  0
ENDTAB
  0
ENDSEC
  0
SECTION
  2
BLOCKS
  0
BLOCK
  5
20
330
1F
100
AcDbEntity
  8
0
100
AcDbBlockBegin
  2
*Model_Space
 70
     0
 10
0.0
 20
0.0
 30
0.0
  3
*Model_Space
  1

  0
ENDBLK
  5
21
330
1F
100
AcDbEntity
  8
0
100
AcDbBlockEnd
  0
BLOCK
  5
1C
330
1B
100
AcDbEntity
 67
     1
  8
0
100
AcDbBlockBegin
  2
*Paper_Space
 70
     0
 10
0.0
 20
0.0
 30
0.0
  3
*Paper_Space
  1

  0
ENDBLK
  5
1D
330
1B
100
AcDbEntity
 67
     1
  8
0
100
AcDbBlockEnd
  0
BLOCK
  5
24
330
23
100
AcDbEntity
  8
0
100
AcDbBlockBegin
  2
*Paper_Space0
 70
     0
 10
0.0
 20
0.0
 30
0.0
  3
*Paper_Space0
  1

  0
ENDBLK
  5
25
330
23
100
AcDbEntity
  8
0
100
AcDbBlockEnd
  0
BLOCK
  5
7F
330
7E
100
AcDbEntity
  8
0
100
AcDbBlockBegin
  2
블럭10
 70
     2
 10
0.0
 20
0.0
 30
0.0
  3
블럭10
  1

  0
ELLIPSE
  5
81
330
7E
100
AcDbEntity
  8
중심선
100
AcDbEllipse
 10
20.54032771741204
 20
12.0471743016438
 30
0.0
 11
6.600054785286829
 21
-1.261213355974178E-13
 31
0.0
210
0.0
220
0.0
230
1.0
 40
0.636358354079598
 41
0.9219305317359503
 42
6.513795318482858
  0
ELLIPSE
  5
82
330
7E
100
AcDbEntity
  8
중심선
100
AcDbEllipse
 10
20.54032771746488
 20
12.04717430159265
 30
0.0
 11
3.960054785062283
 21
1.540847449632565E-10
 31
0.0
210
0.0
220
0.0
230
1.0
 40
0.3939339440162632
 41
1.131841032648279
 42
5.62031148352944
  0
LINE
  5
83
330
7E
100
AcDbEntity
  8
중심선
100
AcDbLine
 10
2.268634060543552
 20
16.24717430164393
 30
0.0
 11
5.714909304380834
 21
16.24717430164393
 31
0.0
  0
LINE
  5
84
330
7E
100
AcDbEntity
  8
중심선
100
AcDbLine
 10
5.245725140726316
 20
7.84717430164391
 30
0.0
 11
8.692000384563599
 21
7.84717430164391
 31
0.0
  0
LINE
  5
85
330
7E
100
AcDbEntity
  8
중심선
100
AcDbLine
 10
15.74043728645272
 20
16.24717430164393
 30
0.0
 11
8.692000384563599
 21
7.84717430164391
 31
0.0
  0
LINE
  5
86
330
7E
100
AcDbEntity
  8
중심선
100
AcDbLine
 10
0.1404042013395286
 20
13.71084872107135
 30
0.0
 11
3.58671253028996
 21
13.71088815037384
 31
0.0
  0
LINE
  5
87
330
7E
100
AcDbEntity
  8
중심선
100
AcDbLine
 10
2.750260043222114
 20
10.84717430164391
 30
0.0
 11
6.196535287059397
 21
10.84717430164391
 31
0.0
  0
LINE
  5
88
330
7E
100
AcDbEntity
  8
중심선
100
AcDbLine
 10
12.29416204261559
 20
16.24717430164393
 30
0.0
 11
5.245725140726316
 21
7.84717430164391
 31
0.0
  0
LINE
  5
89
330
7E
100
AcDbEntity
  8
중심선
100
AcDbLine
 10
10.72767329541681
 20
16.24717430164393
 30
0.0
 11
6.196535287059397
 21
10.84717430164391
 31
0.0
  0
LINE
  5
8A
330
7E
100
AcDbEntity
  8
중심선
100
AcDbLine
 10
7.28139805157953
 20
16.24717430164393
 30
0.0
 11
2.750260043222114
 21
10.84717430164391
 31
0.0
  0
LINE
  5
8B
330
7E
100
AcDbEntity
  8
중심선
100
AcDbLine
 10
5.714909304380834
 20
16.24717430164393
 30
0.0
 11
3.58671253028996
 21
13.71088815037384
 31
0.0
  0
LINE
  5
8C
330
7E
100
AcDbEntity
  8
중심선
100
AcDbLine
 10
2.268634060543552
 20
16.24717430164393
 30
0.0
 11
0.1404042013395286
 21
13.71084872107135
 31
0.0
  0
LINE
  5
8D
330
7E
100
AcDbEntity
  8
중심선
100
AcDbLine
 10
7.28139805157953
 20
16.24717430164393
 30
0.0
 11
10.72767329541681
 21
16.24717430164393
 31
0.0
  0
LINE
  5
8E
330
7E
100
AcDbEntity
  8
중심선
100
AcDbLine
 10
12.29416204261559
 20
16.24717430164393
 30
0.0
 11
15.74043728645272
 21
16.24717430164393
 31
0.0
  0
LINE
  5
8F
330
7E
100
AcDbEntity
  8
중심선
100
AcDbLine
 10
19.22036997980202
 20
11.08717430171403
 30
0.0
 11
23.66174974927406
 21
11.08717430171406
 31
0.0
  0
LINE
  5
90
330
7E
100
AcDbEntity
  8
중심선
100
AcDbLine
 10
19.22039502424796
 20
13.00717430171391
 30
0.0
 11
19.22036997980202
 21
11.08717430171403
 31
0.0
  0
LINE
  5
91
330
7E
100
AcDbEntity
  8
중심선
100
AcDbLine
 10
19.22039502424796
 20
13.00717430171391
 30
0.0
 11
26.96566020931264
 21
13.00717430171391
 31
0.0
  0
LINE
  5
92
330
7E
100
AcDbEntity
  8
중심선
100
AcDbLine
 10
22.22332737316547
 20
13.45928029700563
 30
0.0
 11
24.52862924686651
 21
15.39360700705356
 31
0.0
  0
ATTDEF
  5
94
330
7E
100
AcDbEntity
  8
FORMAT
 62
     2
100
AcDbText
 10
-16.11926103943555
 20
2.075366912832191
 30
0.0
 40
4.233333333333333
  1
SEME7002512E [ 2 FLUTE ]
 41
0.75
  7
SLDTEXTSTYLE0
 11
-16.11926103943555
 21
-0.0412997538344756
 31
0.0
100
AcDbAttributeDefinition
  3

  2
AUTOATTR0
 70
     0
 74
     1
  0
ENDBLK
  5
80
330
7E
100
AcDbEntity
  8
0
100
AcDbBlockEnd
  0
BLOCK
  5
E3
330
E2
100
AcDbEntity
  8
0
100
AcDbBlockBegin
  2
_D
 70
     0
 10
0.0
 20
0.0
 30
0.0
  3
_D
  1

  0
LINE
  5
E5
330
E2
100
AcDbEntity
  8
치수문자_일반주서
 62
     0
370
    -2
100
AcDbLine
 10
21.59358891324552
 20
-1.249999999999998
 30
0.0
 11
36.18302919347204
 21
-1.249999999999943
 31
0.0
  0
LINE
  5
E6
330
E2
100
AcDbEntity
  8
치수문자_일반주서
 62
     0
370
    -2
100
AcDbLine
 10
21.59358891324552
 20
1.250000000000002
 30
0.0
 11
36.18302919347204
 21
1.250000000000057
 31
0.0
  0
LINE
  5
E7
330
E2
100
AcDbEntity
  8
치수문자_일반주서
 62
     0
370
    -2
100
AcDbLine
 10
36.18302919347204
 20
-1.249999999999943
 30
0.0
 11
36.18302919347199
 21
19.6665000000001
 31
0.0
  0
LINE
  5
E8
330
E2
100
AcDbEntity
  8
치수문자_일반주서
 62
     0
370
    -2
100
AcDbLine
 10
36.18302919347204
 20
-1.249999999999943
 30
0.0
 11
36.18302919347204
 21
1.250000000000057
 31
0.0
  0
LINE
  5
E9
330
E2
100
AcDbEntity
  8
치수문자_일반주서
 62
     0
370
    -2
100
AcDbLine
 10
36.18302919347205
 20
-4.551999999999943
 30
0.0
 11
36.18302919347206
 21
-7.853999999999942
 31
0.0
  0
LINE
  5
EA
330
E2
100
AcDbEntity
  8
치수문자_일반주서
 62
     0
370
    -2
100
AcDbLine
 10
36.18302919347203
 20
4.552000000000056
 30
0.0
 11
36.18302919347202
 21
7.854000000000056
 31
0.0
  0
SOLID
  5
EB
330
E2
100
AcDbEntity
  8
치수문자_일반주서
 62
     0
100
AcDbTrace
 10
36.73336252680539
 20
-4.551999999999941
 30
0.0
 11
35.63269586013872
 21
-4.551999999999945
 31
0.0
 12
36.18302919347204
 22
-1.249999999999943
 32
0.0
 13
36.18302919347204
 23
-1.249999999999943
 33
0.0
  0
SOLID
  5
EC
330
E2
100
AcDbEntity
  8
치수문자_일반주서
 62
     0
100
AcDbTrace
 10
35.6326958601387
 20
4.552000000000055
 30
0.0
 11
36.73336252680537
 21
4.552000000000058
 31
0.0
 12
36.18302919347204
 22
1.250000000000057
 32
0.0
 13
36.18302919347204
 23
1.250000000000057
 33
0.0
  0
MTEXT
  5
ED
330
E2
100
AcDbEntity
  8
치수문자_일반주서
 62
     0
100
AcDbMText
 10
31.808029193472
 20
13.76025000000009
 30
0.0
 40
3.5
 41
0.0
 71
     2
 72
     1
  1
\A1;%%c2.50
  7
SLDTEXTSTYLE0
 11
-2.842170943040400E-15
 21
1.0
 31
0.0
 73
     1
 44
1.0
  0
POINT
  5
143
330
E2
100
AcDbEntity
  8
Defpoints
 62
     0
100
AcDbPoint
 10
21.53108891324552
 20
-1.249999999999998
 30
0.0
  0
POINT
  5
144
330
E2
100
AcDbEntity
  8
Defpoints
 62
     0
100
AcDbPoint
 10
21.53108891324552
 20
1.250000000000002
 30
0.0
  0
POINT
  5
145
330
E2
100
AcDbEntity
  8
Defpoints
 62
     0
100
AcDbPoint
 10
36.18302919347204
 20
1.250000000000057
 30
0.0
  0
ENDBLK
  5
E4
330
E2
100
AcDbEntity
  8
0
100
AcDbBlockEnd
  0
BLOCK
  5
F1
330
F0
100
AcDbEntity
  8
0
100
AcDbBlockBegin
  2
_D_1
 70
     0
 10
0.0
 20
0.0
 30
0.0
  3
_D_1
  1

  0
LINE
  5
F3
330
F0
100
AcDbEntity
  8
치수문자_일반주서
 62
     0
370
    -2
100
AcDbLine
 10
-38.46891108675447
 20
2.512499999999994
 30
0.0
 11
-38.46891108675447
 21
24.23841044024269
 31
0.0
  0
LINE
  5
F4
330
F0
100
AcDbEntity
  8
치수문자_일반주서
 62
     0
370
    -2
100
AcDbLine
 10
21.53108891324552
 20
1.311176086539877
 30
0.0
 11
21.53108891324552
 21
24.23841044024269
 31
0.0
  0
LINE
  5
F5
330
F0
100
AcDbEntity
  8
치수문자_일반주서
 62
     0
370
    -2
100
AcDbLine
 10
-35.16691108675447
 20
24.23841044024269
 30
0.0
 11
18.22908891324552
 21
24.23841044024269
 31
0.0
  0
SOLID
  5
F6
330
F0
100
AcDbEntity
  8
치수문자_일반주서
 62
     0
100
AcDbTrace
 10
-35.16691108675447
 20
24.78874377357602
 30
0.0
 11
-35.16691108675447
 21
23.68807710690935
 31
0.0
 12
-38.46891108675447
 22
24.23841044024269
 32
0.0
 13
-38.46891108675447
 23
24.23841044024269
 33
0.0
  0
SOLID
  5
F7
330
F0
100
AcDbEntity
  8
치수문자_일반주서
 62
     0
100
AcDbTrace
 10
18.22908891324552
 20
23.68807710690935
 30
0.0
 11
18.22908891324552
 21
24.78874377357602
 31
0.0
 12
21.53108891324552
 22
24.23841044024269
 32
0.0
 13
21.53108891324552
 23
24.23841044024269
 33
0.0
  0
MTEXT
  5
F8
330
F0
100
AcDbEntity
  8
치수문자_일반주서
 62
     0
100
AcDbMText
 10
-8.468911086754476
 20
28.61341044024269
 30
0.0
 40
3.5
 41
0.0
 71
     2
 72
     1
  1
\A1;60
  7
SLDTEXTSTYLE0
 73
     1
 44
1.0
  0
POINT
  5
13F
330
F0
100
AcDbEntity
  8
Defpoints
 62
     0
100
AcDbPoint
 10
-38.46891108675447
 20
2.449999999999994
 30
0.0
  0
POINT
  5
140
330
F0
100
AcDbEntity
  8
Defpoints
 62
     0
100
AcDbPoint
 10
21.53108891324552
 20
1.248676086539877
 30
0.0
  0
POINT
  5
141
330
F0
100
AcDbEntity
  8
Defpoints
 62
     0
100
AcDbPoint
 10
21.53108891324552
 20
24.23841044024269
 30
0.0
  0
ENDBLK
  5
F2
330
F0
100
AcDbEntity
  8
0
100
AcDbBlockEnd
  0
BLOCK
  5
FC
330
FB
100
AcDbEntity
  8
0
100
AcDbBlockBegin
  2
_D_2
 70
     0
 10
0.0
 20
0.0
 30
0.0
  3
_D_2
  1

  0
LINE
  5
FE
330
FB
100
AcDbEntity
  8
치수문자_일반주서
 62
     0
370
    -2
100
AcDbLine
 10
9.531088913245515
 20
1.203873318360085
 30
0.0
 11
9.531088913245515
 21
14.48837112452762
 31
0.0
  0
LINE
  5
FF
330
FB
100
AcDbEntity
  8
치수문자_일반주서
 62
     0
370
    -2
100
AcDbLine
 10
21.53108891324552
 20
1.311443519037058
 30
0.0
 11
21.53108891324552
 21
14.48837112452762
 31
0.0
  0
LINE
  5
100
330
FB
100
AcDbEntity
  8
치수문자_일반주서
 62
     0
370
    -2
100
AcDbLine
 10
12.83308891324551
 20
14.48837112452762
 30
0.0
 11
18.22908891324552
 21
14.48837112452762
 31
0.0
  0
SOLID
  5
101
330
FB
100
AcDbEntity
  8
치수문자_일반주서
 62
     0
100
AcDbTrace
 10
12.83308891324551
 20
15.03870445786095
 30
0.0
 11
12.83308891324551
 21
13.93803779119428
 31
0.0
 12
9.531088913245515
 22
14.48837112452762
 32
0.0
 13
9.531088913245515
 23
14.48837112452762
 33
0.0
  0
SOLID
  5
102
330
FB
100
AcDbEntity
  8
치수문자_일반주서
 62
     0
100
AcDbTrace
 10
18.22908891324552
 20
13.93803779119428
 30
0.0
 11
18.22908891324552
 21
15.03870445786095
 31
0.0
 12
21.53108891324552
 22
14.48837112452762
 32
0.0
 13
21.53108891324552
 23
14.48837112452762
 33
0.0
  0
MTEXT
  5
103
330
FB
100
AcDbEntity
  8
치수문자_일반주서
 62
     0
100
AcDbMText
 10
15.5310889132455
 20
18.86337112452762
 30
0.0
 40
3.5
 41
0.0
 71
     2
 72
     1
  1
\A1;12
  7
SLDTEXTSTYLE0
 73
     1
 44
1.0
  0
POINT
  5
104
330
FB
100
AcDbEntity
  8
Defpoints
 62
     0
100
AcDbPoint
 10
9.531088913245515
 20
1.141373318360085
 30
0.0
  0
POINT
  5
105
330
FB
100
AcDbEntity
  8
Defpoints
 62
     0
100
AcDbPoint
 10
21.53108891324552
 20
1.248943519037058
 30
0.0
  0
POINT
  5
142
330
FB
100
AcDbEntity
  8
Defpoints
 62
     0
100
AcDbPoint
 10
21.53108891324552
 20
14.48837112452762
 30
0.0
  0
ENDBLK
  5
FD
330
FB
100
AcDbEntity
  8
0
100
AcDbBlockEnd
  0
BLOCK
  5
108
330
107
100
AcDbEntity
  8
0
100
AcDbBlockBegin
  2
_D_3
 70
     0
 10
0.0
 20
0.0
 30
0.0
  3
_D_3
  1

  0
LINE
  5
10A
330
107
100
AcDbEntity
  8
치수문자_일반주서
 62
     0
370
    -2
100
AcDbLine
 10
-37.98141108675448
 20
2.999999999999994
 30
0.0
 11
-50.00442191728227
 21
2.999999999999948
 31
0.0
  0
LINE
  5
10B
330
107
100
AcDbEntity
  8
치수문자_일반주서
 62
     0
370
    -2
100
AcDbLine
 10
-37.98141108675448
 20
-3.0
 30
0.0
 11
-50.00442191728224
 21
-3.000000000000046
 31
0.0
  0
LINE
  5
10C
330
107
100
AcDbEntity
  8
치수문자_일반주서
 62
     0
370
    -2
100
AcDbLine
 10
-50.00442191728227
 20
2.999999999999948
 30
0.0
 11
-50.00442191728231
 21
15.72899999999995
 31
0.0
  0
LINE
  5
10D
330
107
100
AcDbEntity
  8
치수문자_일반주서
 62
     0
370
    -2
100
AcDbLine
 10
-50.00442191728227
 20
2.999999999999948
 30
0.0
 11
-50.00442191728224
 21
-3.000000000000046
 31
0.0
  0
LINE
  5
10E
330
107
100
AcDbEntity
  8
치수문자_일반주서
 62
     0
370
    -2
100
AcDbLine
 10
-50.00442191728228
 20
6.301999999999948
 30
0.0
 11
-50.00442191728229
 21
9.603999999999948
 31
0.0
  0
LINE
  5
10F
330
107
100
AcDbEntity
  8
치수문자_일반주서
 62
     0
370
    -2
100
AcDbLine
 10
-50.00442191728223
 20
-6.302000000000046
 30
0.0
 11
-50.00442191728222
 21
-9.604000000000045
 31
0.0
  0
SOLID
  5
110
330
107
100
AcDbEntity
  8
치수문자_일반주서
 62
     0
100
AcDbTrace
 10
-50.55475525061561
 20
6.301999999999946
 30
0.0
 11
-49.45408858394894
 21
6.30199999999995
 31
0.0
 12
-50.00442191728227
 22
2.999999999999948
 32
0.0
 13
-50.00442191728227
 23
2.999999999999948
 33
0.0
  0
SOLID
  5
111
330
107
100
AcDbEntity
  8
치수문자_일반주서
 62
     0
100
AcDbTrace
 10
-49.4540885839489
 20
-6.302000000000044
 30
0.0
 11
-50.55475525061556
 21
-6.302000000000048
 31
0.0
 12
-50.00442191728224
 22
-3.000000000000046
 32
0.0
 13
-50.00442191728224
 23
-3.000000000000046
 33
0.0
  0
MTEXT
  5
112
330
107
100
AcDbEntity
  8
치수문자_일반주서
 62
     0
100
AcDbMText
 10
-54.3794219172823
 20
12.66649999999993
 30
0.0
 40
3.5
 41
0.0
 71
     2
 72
     1
  1
\A1;%%c6
  7
SLDTEXTSTYLE0
 11
-3.552713678800505E-15
 21
1.0
 31
0.0
 73
     1
 44
1.0
  0
POINT
  5
146
330
107
100
AcDbEntity
  8
Defpoints
 62
     0
100
AcDbPoint
 10
-37.91891108675448
 20
2.999999999999994
 30
0.0
  0
POINT
  5
147
330
107
100
AcDbEntity
  8
Defpoints
 62
     0
100
AcDbPoint
 10
-37.91891108675448
 20
-3.0
 30
0.0
  0
POINT
  5
148
330
107
100
AcDbEntity
  8
Defpoints
 62
     0
100
AcDbPoint
 10
-50.00442191728224
 20
-3.000000000000045
 30
0.0
  0
ENDBLK
  5
109
330
107
100
AcDbEntity
  8
0
100
AcDbBlockEnd
  0
BLOCK
  5
114
330
113
100
AcDbEntity
  8
0
100
AcDbBlockBegin
  2
SW_DOWELSYMBOL_0
 70
     0
 10
0.0
 20
0.0
 30
0.0
  3
SW_DOWELSYMBOL_0
  1

  0
CIRCLE
  5
116
330
113
100
AcDbEntity
  8
외형선
 62
     0
100
AcDbCircle
 10
0.0
 20
0.0
 30
0.0
 40
3.000000000000004
  0
HATCH
  5
117
330
113
100
AcDbEntity
  8
0
  6
Continuous
 62
     0
370
    30
100
AcDbHatch
 10
0.0
 20
0.0
 30
0.0
210
0.0
220
0.0
230
1.0
  2
SOLID
 70
     1
 71
     0
 91
        1
 92
        0
 93
        3
 72
     2
 10
0.0000000000000104
 20
0.0
 40
3.000000000000004
 50
0.0
 51
90.0
 73
     1
 72
     1
 10
0.0000000000000104
 20
3.000000000000004
 11
0.0000000000000104
 21
0.0
 72
     1
 10
0.0000000000000104
 20
0.0
 11
3.000000000000015
 21
0.0
 97
        0
 75
     0
 76
     1
 98
        1
 10
0.0
 20
0.0
  0
HATCH
  5
118
330
113
100
AcDbEntity
  8
0
  6
Continuous
 62
     0
370
    30
100
AcDbHatch
 10
0.0
 20
0.0
 30
0.0
210
0.0
220
0.0
230
1.0
  2
SOLID
 70
     1
 71
     0
 91
        1
 92
        0
 93
        3
 72
     2
 10
0.0000000000000104
 20
0.0
 40
3.000000000000004
 50
180.0
 51
270.0000000000007
 73
     1
 72
     1
 10
0.0000000000000104
 20
-3.000000000000004
 11
0.0000000000000104
 21
0.0
 72
     1
 10
0.0000000000000104
 20
0.0
 11
-2.999999999999994
 21
0.0
 97
        0
 75
     0
 76
     1
 98
        1
 10
0.0
 20
0.0
  0
ENDBLK
  5
115
330
113
100
AcDbEntity
  8
0
100
AcDbBlockEnd
  0
ENDSEC
  0
SECTION
  2
ENTITIES
  0
SPLINE
  5
95
330
1F
100
AcDbEntity
  8
0
  6
Continuous
 62
     1
370
    15
100
AcDbSpline
210
0.0
220
0.0
230
1.0
 70
     8
 71
     3
 72
     9
 73
     5
 74
     0
 42
0.000000001
 43
0.00000001
 40
0.0
 40
0.0
 40
0.0
 40
0.0
 40
0.5000190848796787
 40
1.0
 40
1.0
 40
1.0
 40
1.0
 10
11.49198540535176
 20
0.3201050025794852
 30
0.0
 10
11.43385466491905
 20
0.3476979125827202
 30
0.0
 10
11.317597621557
 20
0.4028816262401196
 30
0.0
 10
11.20143177871103
 20
0.4634906439227747
 30
0.0
 10
11.14335107429919
 20
0.4937939960482925
 30
0.0
  0
LINE
  5
96
330
1F
100
AcDbEntity
  8
0
  6
Continuous
 62
     1
370
    15
100
AcDbLine
 10
17.96726244303336
 20
0.4824089664413336
 30
0.0
 11
17.94473810765735
 21
0.4939849634396786
 31
0.0
  0
SPLINE
  5
97
330
1F
100
AcDbEntity
  8
0
  6
Continuous
 62
     1
370
    15
100
AcDbSpline
210
0.0
220
0.0
230
1.0
 70
     8
 71
     3
 72
     9
 73
     5
 74
     0
 42
0.000000001
 43
0.00000001
 40
0.0
 40
0.0
 40
0.0
 40
0.0
 40
0.5344961492048013
 40
1.0
 40
1.0
 40
1.0
 40
1.0
 10
18.29396938562649
 20
0.3199946430850915
 30
0.0
 10
18.23573802621634
 20
0.3476021161125732
 30
0.0
 10
18.12679176065992
 20
0.3992535135427602
 30
0.0
 10
18.01793546694223
 20
0.4559953998595052
 30
0.0
 10
17.96726244303336
 20
0.4824089664413336
 30
0.0
  0
LINE
  5
98
330
1F
100
AcDbEntity
  8
0
  6
Continuous
 62
     1
370
    15
100
AcDbLine
 10
14.81867454400974
 20
-1.250000000000001
 30
0.0
 11
15.42388276364601
 21
-1.250000000000001
 31
0.0
  0
LINE
  5
99
330
1F
100
AcDbEntity
  8
0
  6
Continuous
 62
     1
370
    15
100
AcDbLine
 10
15.42388276364602
 20
1.250000000000001
 30
0.0
 11
14.81867454400973
 21
1.250000000000001
 31
0.0
  0
SPLINE
  5
9A
330
1F
100
AcDbEntity
  8
0
  6
Continuous
 62
     1
370
    15
100
AcDbSpline
210
0.0
220
0.0
230
1.0
 70
     8
 71
     3
 72
    15
 73
    11
 74
     0
 42
0.000000001
 43
0.00000001
 40
0.0
 40
0.0
 40
0.0
 40
0.0
 40
0.1649776498667663
 40
0.2784379908400613
 40
0.3737401790245246
 40
0.485292760243355
 40
0.5976198616580175
 40
0.691908086298663
 40
0.8119362014920495
 40
0.9999999999999999
 40
0.9999999999999999
 40
0.9999999999999999
 40
0.9999999999999999
 10
9.53108891324553
 20
-1.010839922174987
 30
0.0
 10
9.617248931416118
 20
-1.004779661712418
 30
0.0
 10
9.762663915624803
 20
-0.9945515687038928
 30
0.0
 10
9.954821768283523
 20
-0.9857976514338566
 30
0.0
 10
10.11592583732023
 20
-0.9803615617289222
 30
0.0
 10
10.2803856230257
 20
-0.9768345132519821
 30
0.0
 10
10.44458427318668
 20
-0.9758173279597047
 30
0.0
 10
10.61322136908007
 20
-0.9770855534135994
 30
0.0
 10
10.82076730785961
 20
-0.9812596130645238
 30
0.0
 10
10.97983656578919
 20
-0.9887344009868757
 30
0.0
 10
11.07693476130067
 20
-0.9932971205754255
 30
0.0
  0
LINE
  5
9B
330
1F
100
AcDbEntity
  8
0
  6
Continuous
 62
     1
370
    15
100
AcDbLine
 10
17.87854519817712
 20
0.9932897827492212
 30
0.0
 11
16.83702081779232
 21
0.9838513983082501
 31
0.0
  0
SPLINE
  5
9C
330
1F
100
AcDbEntity
  8
0
  6
Continuous
 62
     1
370
    15
100
AcDbSpline
210
0.0
220
0.0
230
1.0
 70
     8
 71
     3
 72
     9
 73
     5
 74
     0
 42
0.000000001
 43
0.00000001
 40
0.0
 40
0.0
 40
0.0
 40
0.0
 40
0.4375464973257948
 40
1.0
 40
1.0
 40
1.0
 40
1.0
 10
16.00031382372764
 20
-1.04014100184215
 30
0.0
 10
16.27426090806426
 20
-1.016675073669217
 30
0.0
 10
16.90035913079243
 20
-0.9630443662670249
 30
0.0
 10
17.5264168443247
 20
-0.9824020088659428
 30
0.0
 10
17.87854519817712
 20
-0.9932897827492196
 30
0.0
  0
SPLINE
  5
9D
330
1F
100
AcDbEntity
  8
0
  6
Continuous
 62
     1
370
    15
100
AcDbSpline
210
0.0
220
0.0
230
1.0
 70
     8
 71
     3
 72
    13
 73
     9
 74
     0
 42
0.000000001
 43
0.00000001
 40
0.0
 40
0.0
 40
0.0
 40
0.0
 40
0.2848196456225185
 40
0.4666003259307179
 40
0.6093983494822289
 40
0.7795159663364696
 40
0.9992882313766848
 40
1.0
 40
1.0
 40
1.0
 40
1.0
 10
11.07693476130067
 20
0.9932971205754263
 30
0.0
 10
10.97983766862813
 20
0.9887321421954723
 30
0.0
 10
10.82077021740332
 20
0.9812536538513917
 30
0.0
 10
10.61321504140818
 20
0.977098513502597
 30
0.0
 10
10.44460406553274
 20
0.9757767900540262
 30
0.0
 10
10.26296351877351
 20
0.977150885974586
 30
0.0
 10
10.13049375402099
 20
0.979509741130382
 30
0.0
 10
10.05653002800871
 20
0.9824651017076974
 30
0.0
 10
10.05629125761539
 20
0.9824746422304033
 30
0.0
  0
SPLINE
  5
9E
330
1F
100
AcDbEntity
  8
0
  6
Continuous
 62
     1
370
    15
100
AcDbSpline
210
0.0
220
0.0
230
1.0
 70
     8
 71
     3
 72
    13
 73
     9
 74
     0
 42
0.000000001
 43
0.00000001
 40
0.0
 40
0.0
 40
0.0
 40
0.0
 40
0.3027851708237995
 40
0.5141228943458398
 40
0.653042781325424
 40
0.7916854971529164
 40
0.9400902568218437
 40
1.0
 40
1.0
 40
1.0
 40
1.0
 10
18.88283821575566
 20
-0.9401830672389583
 30
0.0
 10
18.97852793263666
 20
-0.9259084409816799
 30
0.0
 10
19.14100707277468
 20
-0.9016704238187861
 30
0.0
 10
19.34625174113621
 20
-0.8771727908425567
 30
0.0
 10
19.50031027059148
 20
-0.8614785299606311
 30
0.0
 10
19.63461108920954
 20
-0.8499328381312758
 30
0.0
 10
19.7440530250449
 20
-0.8417167017623971
 30
0.0
 10
19.80968963870694
 20
-0.8382184565854109
 30
0.0
 10
19.82856625369934
 20
-0.8372123865938206
 30
0.0
  0
SPLINE
  5
9F
330
1F
100
AcDbEntity
  8
0
  6
Continuous
 62
     1
370
    15
100
AcDbSpline
210
0.0
220
0.0
230
1.0
 70
     8
 71
     3
 72
    18
 73
    14
 74
     0
 42
0.000000001
 43
0.00000001
 40
0.0
 40
0.0
 40
0.0
 40
0.0
 40
0.129652087671298
 40
0.2190947571695056
 40
0.2751835075274099
 40
0.327714793268372
 40
0.3806341464510948
 40
0.4346319434742582
 40
0.6069887856848378
 40
0.6585606784015171
 40
0.7403103308955804
 40
0.853483065748892
 40
1.0
 40
1.0
 40
1.0
 40
1.0
 10
14.26410967619002
 20
0.8549126336198122
 30
0.0
 10
14.16953782922851
 20
0.8476145576818218
 30
0.0
 10
14.00972400580875
 20
0.8352817815255874
 30
0.0
 10
13.80999800999778
 20
0.8270272223808567
 30
0.0
 10
13.66582900149458
 20
0.8235483629270891
 30
0.0
 10
13.54825352178129
 20
0.822375246110902
 30
0.0
 10
13.43220487997981
 20
0.8227664215472636
 30
0.0
 10
13.22908815263783
 20
0.8262350337082981
 30
0.0
 10
13.02703571366359
 20
0.8356828351619161
 30
0.0
 10
12.80452043658748
 20
0.8520714400471463
 30
0.0
 10
12.62539019562482
 20
0.8681905608188994
 30
0.0
 10
12.37749074429602
 20
0.8961865145691164
 30
0.0
 10
12.18790267176499
 20
0.924329069214474
 30
0.0
 10
12.08093706449375
 20
0.9402071010316505
 30
0.0
  0
SPLINE
  5
A0
330
1F
100
AcDbEntity
  8
0
  6
Continuous
 62
     1
370
    15
100
AcDbSpline
210
0.0
220
0.0
230
1.0
 70
     8
 71
     3
 72
    13
 73
     9
 74
     0
 42
0.000000001
 43
0.00000001
 40
0.0
 40
0.0
 40
0.0
 40
0.0
 40
0.3049753847920147
 40
0.5177501308642269
 40
0.659527018969444
 40
0.8129370673825573
 40
0.9861144342133197
 40
1.0
 40
1.0
 40
1.0
 40
1.0
 10
12.08093706449375
 20
-0.9402071010316498
 30
0.0
 10
12.17668924733769
 20
-0.9259211611582411
 30
0.0
 10
12.3392456622818
 20
-0.9016682292568022
 30
0.0
 10
12.54517042505357
 20
-0.8771002222777584
 30
0.0
 10
12.70417699394783
 20
-0.8608954204519801
 30
0.0
 10
12.85088115045482
 20
-0.8485194108542271
 30
0.0
 10
12.95758478426643
 20
-0.8405201259289318
 30
0.0
 10
13.01611706660956
 20
-0.8376027294949258
 30
0.0
 10
13.02046188172471
 20
-0.8373861729620875
 30
0.0
  0
SPLINE
  5
A1
330
1F
100
AcDbEntity
  8
0
  6
Continuous
 62
     1
370
    15
100
AcDbSpline
210
0.0
220
0.0
230
1.0
 70
     8
 71
     3
 72
    17
 73
    13
 74
     0
 42
0.000000001
 43
0.00000001
 40
0.0
 40
0.0
 40
0.0
 40
0.0
 40
0.1047671404177509
 40
0.1848132172765747
 40
0.2618539624127465
 40
0.3203273462761376
 40
0.3793473966750258
 40
0.4395219909583241
 40
0.6178486844834924
 40
0.6997505485795038
 40
0.826297175429829
 40
1.0
 40
1.0
 40
1.0
 40
1.0
 10
21.08740502307737
 20
0.856717645086576
 30
0.0
 10
21.00981609232238
 20
0.85046838139403
 30
0.0
 10
20.87294626977399
 20
0.839444442742809
 30
0.0
 10
20.68000107281531
 20
0.8295325948865272
 30
0.0
 10
20.5214601354473
 20
0.8244720480306963
 30
0.0
 10
20.37872175100149
 20
0.8224516831584752
 30
0.0
 10
20.24827942668087
 20
0.8225610356487443
 30
0.0
 10
20.03004203083847
 20
0.8261070551679868
 30
0.0
 10
19.79516097752359
 20
0.8372917740695764
 30
0.0
 10
19.51119526229939
 20
0.8598529340083697
 30
0.0
 10
19.23151365792578
 20
0.8888577999920478
 30
0.0
 10
19.01062726168145
 20
0.9213724309275878
 30
0.0
 10
18.88283821575566
 20
0.94018306723896
 30
0.0
  0
LINE
  5
A2
330
1F
100
AcDbEntity
  8
0
  6
Continuous
 62
   131
370
    15
100
AcDbLine
 10
2.0
 20
-3.0
 30
0.0
 11
8.531088913245519
 21
-1.25
 31
0.0
  0
LINE
  5
A3
330
1F
100
AcDbEntity
  8
0
  6
Continuous
 62
   131
370
    15
100
AcDbLine
 10
8.531088913245519
 20
1.25
 30
0.0
 11
2.0
 21
2.999999999999999
 31
0.0
  0
LINE
  5
A4
330
1F
100
AcDbEntity
  8
0
  6
Continuous
 62
   131
370
    15
100
AcDbLine
 10
2.0
 20
2.999999999999998
 30
0.0
 11
-37.91891108675448
 21
2.999999999999996
 31
0.0
  0
LINE
  5
A5
330
1F
100
AcDbEntity
  8
0
  6
Continuous
 62
   131
370
    15
100
AcDbLine
 10
-37.91891108675448
 20
-3.000000000000001
 30
0.0
 11
2.0
 21
-2.999999999999999
 31
0.0
  0
LINE
  5
A6
330
1F
100
AcDbEntity
  8
0
  6
Continuous
 62
   131
370
    15
100
AcDbLine
 10
-37.91891108675448
 20
2.999999999999994
 30
0.0
 11
-38.46891108675447
 21
2.449999999999994
 31
0.0
  0
LINE
  5
A7
330
1F
100
AcDbEntity
  8
0
  6
Continuous
 62
   131
370
    15
100
AcDbLine
 10
-38.46891108675447
 20
-2.45
 30
0.0
 11
-37.91891108675448
 21
-3.0
 31
0.0
  0
LINE
  5
A8
330
1F
100
AcDbEntity
  8
0
  6
Continuous
 62
   131
370
    15
100
AcDbLine
 10
8.641140153171989
 20
1.25
 30
0.0
 11
8.531088913245519
 21
1.25
 31
0.0
  0
LINE
  5
A9
330
1F
100
AcDbEntity
  8
0
  6
Continuous
 62
   131
370
    15
100
AcDbLine
 10
8.531088913245519
 20
-1.25
 30
0.0
 11
8.641140153171989
 21
-1.25
 31
0.0
  0
SPLINE
  5
AA
330
1F
100
AcDbEntity
  8
0
  6
Continuous
 62
   131
370
    15
100
AcDbSpline
210
0.0
220
0.0
230
1.0
 70
     8
 71
     3
 72
     9
 73
     5
 74
     0
 42
0.000000001
 43
0.00000001
 40
0.0
 40
0.0
 40
0.0
 40
0.0
 40
0.5021216670991501
 40
1.0
 40
1.0
 40
1.0
 40
1.0
 10
9.198181511203192
 20
-1.040179392817542
 30
0.0
 10
9.253966816200485
 20
-1.034765052202314
 30
0.0
 10
9.365065995249221
 20
-1.023982126529125
 30
0.0
 10
9.47590471582534
 20
-1.015208246791665
 30
0.0
 10
9.531088913246645
 20
-1.010839922174904
 30
0.0
  0
SPLINE
  5
AB
330
1F
100
AcDbEntity
  8
0
  6
Continuous
 62
     1
370
    15
100
AcDbSpline
210
0.0
220
0.0
230
1.0
 70
     8
 71
     3
 72
    19
 73
    15
 74
     0
 42
0.000000001
 43
0.00000001
 40
0.0
 40
0.0
 40
0.0
 40
0.0
 40
0.0633842333859169
 40
0.1515768423227569
 40
0.2397090807988873
 40
0.3278315705035587
 40
0.4159950548908579
 40
0.5042497661027523
 40
0.5926163519840634
 40
0.6808925477167076
 40
0.7605889328720067
 40
0.840232399383912
 40
0.9200132410843403
 40
1.0
 40
1.0
 40
1.0
 40
1.0
 10
16.83702081779232
 20
-0.9838513983082486
 30
0.0
 10
16.68261549865111
 20
-1.037219836671265
 30
0.0
 10
16.31337113829473
 20
-1.164844940496536
 30
0.0
 10
15.72963913405483
 20
-1.253976468827753
 30
0.0
 10
15.08572652497561
 20
-1.253655440346191
 30
0.0
 10
14.44190728463347
 20
-1.139989360934346
 30
0.0
 10
13.79772446934616
 20
-0.9268709859794714
 30
0.0
 10
13.15282596586535
 20
-0.6318691380817053
 30
0.0
 10
12.50740383953104
 20
-0.2815622080798456
 30
0.0
 10
11.88297141601424
 20
0.0816099619680997
 30
0.0
 10
11.28020570624212
 20
0.4258562915569404
 30
0.0
 10
10.69819631123411
 20
0.7262625008790952
 30
0.0
 10
10.11525740085469
 20
0.9801937643379643
 30
0.0
 10
9.725978983548249
 20
1.087600656395223
 30
0.0
 10
9.531088913245565
 20
1.141373318360074
 30
0.0
  0
SPLINE
  5
AC
330
1F
100
AcDbEntity
  8
0
  6
Continuous
 62
     1
370
    15
100
AcDbSpline
210
0.0
220
0.0
230
1.0
 70
     8
 71
     3
 72
    14
 73
    10
 74
     0
 42
0.000000001
 43
0.00000001
 40
0.0
 40
0.0
 40
0.0
 40
0.0
 40
0.0243138504093097
 40
0.2024481759796289
 40
0.3805791868010353
 40
0.558699142832394
 40
0.7368003327752793
 40
0.9148750940303988
 40
1.0
 40
1.0
 40
1.0
 40
1.0
 10
16.00175548173025
 20
-1.031687122082972
 30
0.0
 10
15.96508338638495
 20
-1.038030283402394
 30
0.0
 10
15.65973484277609
 20
-1.090846329295718
 30
0.0
 10
15.0857094368658
 20
-1.053370791942648
 30
0.0
 10
14.27971171515784
 20
-0.9065780606853343
 30
0.0
 10
13.47374049102091
 20
-0.6219787059267935
 30
0.0
 10
12.6679799662829
 20
-0.2569535319455267
 30
0.0
 10
12.0021293357251
 20
0.077880369760816
 30
0.0
 10
11.60558596078641
 20
0.2644075583237669
 30
0.0
 10
11.47733459230842
 20
0.3247347979233463
 30
0.0
  0
SPLINE
  5
AD
330
1F
100
AcDbEntity
  8
0
  6
Continuous
 62
     1
370
    15
100
AcDbSpline
210
0.0
220
0.0
230
1.0
 70
     8
 71
     3
 72
    17
 73
    13
 74
     0
 42
0.000000001
 43
0.00000001
 40
0.0
 40
0.0
 40
0.0
 40
0.0
 40
0.1056755725665285
 40
0.2112071833428684
 40
0.3166542182261428
 40
0.4220771148593512
 40
0.5275366122952555
 40
0.6330929927744458
 40
0.738796824561681
 40
0.8444380595709512
 40
0.9499474082128057
 40
0.9999999999999999
 40
0.9999999999999999
 40
0.9999999999999999
 40
0.9999999999999999
 10
21.53108891324552
 20
-1.186176086539874
 30
0.0
 10
21.31589456753417
 20
-1.13684498060731
 30
0.0
 10
20.88579903528247
 20
-1.038249972488038
 30
0.0
 10
20.24121577238617
 20
-0.7709387047896281
 30
0.0
 10
19.59723258423864
 20
-0.4433805011176256
 30
0.0
 10
18.95343223300164
 20
-0.0748894780834007
 30
0.0
 10
18.30935667203988
 20
0.2998107577578473
 30
0.0
 10
17.66461493932939
 20
0.6479968824438993
 30
0.0
 10
17.01922285868512
 20
0.9405198282306624
 30
0.0
 10
16.37406662762227
 20
1.144475435140627
 30
0.0
 10
15.84236857595289
 20
1.248041511133809
 30
0.0
 10
15.52575445192775
 20
1.239101068445468
 30
0.0
 10
15.42388276364602
 20
1.236224450121975
 30
0.0
  0
LINE
  5
AE
330
1F
100
AcDbEntity
  8
0
  6
Continuous
 62
     1
370
    15
100
AcDbLine
 10
10.05565036972455
 20
-0.9826685412837731
 30
0.0
 11
9.531088913245565
 21
-1.141373318360074
 31
0.0
  0
SPLINE
  5
AF
330
1F
100
AcDbEntity
  8
0
  6
Continuous
 62
   131
370
    15
100
AcDbSpline
210
0.0
220
0.0
230
1.0
 70
    24
 71
     3
 72
    10
 73
     6
 74
     0
 42
0.000000001
 43
0.00000001
 40
0.0
 40
0.0
 40
0.0
 40
0.0
 40
0.3626800698472916
 40
0.8447819176855973
 40
1.0
 40
1.0
 40
1.0
 40
1.0
 10
9.531088913245519
 20
-1.010839922174997
 30
0.0
 10
9.531088913245519
 20
-1.027542947996137
 30
0.0
 10
9.531088913245519
 20
-1.066448902189528
 30
0.0
 10
9.531088913245519
 20
-1.109099992860894
 30
0.0
 10
9.531088913245519
 20
-1.13505260740998
 30
0.0
 10
9.531088913245519
 20
-1.14137331836027
 30
0.0
  0
SPLINE
  5
B0
330
1F
100
AcDbEntity
  8
0
  6
Continuous
 62
     1
370
    15
100
AcDbSpline
210
0.0
220
0.0
230
1.0
 70
     8
 71
     3
 72
    12
 73
     8
 74
     0
 42
0.000000001
 43
0.00000001
 40
0.0
 40
0.0
 40
0.0
 40
0.0
 40
0.2481131821192815
 40
0.4962960654935574
 40
0.744538355556869
 40
0.9928296054902871
 40
0.9999999999999999
 40
0.9999999999999999
 40
0.9999999999999999
 40
0.9999999999999999
 10
21.53108891324552
 20
-0.9862153304602682
 30
0.0
 10
21.26274574182997
 20
-0.9240058147980774
 30
0.0
 10
20.72598401462931
 20
-0.7995693072506386
 30
0.0
 10
19.92069622353435
 20
-0.4656199617767862
 30
0.0
 10
19.11518808321667
 20
-0.0845824519703786
 30
0.0
 10
18.57035497191827
 20
0.2003853491025568
 30
0.0
 10
18.29402595472594
 20
0.3194173059804153
 30
0.0
 10
18.28626984686845
 20
0.3227583401773017
 30
0.0
  0
LINE
  5
B1
330
1F
100
AcDbEntity
  8
0
  6
Continuous
 62
     1
370
    15
100
AcDbLine
 10
21.53108891324552
 20
-1.186176086539875
 30
0.0
 11
21.53108891324552
 21
-0.9862153304602682
 31
0.0
  0
SPLINE
  5
B2
330
1F
100
AcDbEntity
  8
0
  6
Continuous
 62
     1
370
    15
100
AcDbSpline
210
0.0
220
0.0
230
1.0
 70
     8
 71
     3
 72
    16
 73
    12
 74
     0
 42
0.000000001
 43
0.00000001
 40
0.0
 40
0.0
 40
0.0
 40
0.0
 40
0.1105175222934346
 40
0.2207504868643301
 40
0.330793645624621
 40
0.4409099779735784
 40
0.5628836629506602
 40
0.6849821678821978
 40
0.8069260586453763
 40
0.9287439254865466
 40
1.0
 40
1.0
 40
1.0
 40
1.0
 10
9.531088913245519
 20
0.9562184223171247
 30
0.0
 10
9.725975634482023
 20
0.8772227428270897
 30
0.0
 10
10.11524728755188
 20
0.7194347799255745
 30
0.0
 10
10.69817597227361
 20
0.4122180390233401
 30
0.0
 10
11.28017519455708
 20
0.0802368343229292
 30
0.0
 10
11.88293523335375
 20
-0.2707435583397969
 30
0.0
 10
12.50736627786964
 20
-0.6119919073488127
 30
0.0
 10
13.15279122527044
 20
-0.9119332655085594
 30
0.0
 10
13.79769158488372
 20
-1.126900745881673
 30
0.0
 10
14.35287033291082
 20
-1.242471598841143
 30
0.0
 10
14.69310658886949
 20
-1.238177898795063
 30
0.0
 10
14.81867454400974
 20
-1.23659326128119
 30
0.0
  0
SPLINE
  5
B3
330
1F
100
AcDbEntity
  8
0
  6
Continuous
 62
     1
370
    15
100
AcDbSpline
210
0.0
220
0.0
230
1.0
 70
     8
 71
     3
 72
    10
 73
     6
 74
     0
 42
0.000000001
 43
0.00000001
 40
0.0
 40
0.0
 40
0.0
 40
0.0
 40
0.240958145055661
 40
0.6202203967941806
 40
1.0
 40
1.0
 40
1.0
 40
1.0
 10
19.83165123628439
 20
0.838468099668158
 30
0.0
 10
19.96811566542923
 20
0.896804001634911
 30
0.0
 10
20.31937178243226
 20
1.046959192515917
 30
0.0
 10
20.88579769749529
 20
1.199704180418417
 30
0.0
 10
21.31589412558504
 20
1.23252294990493
 30
0.0
 10
21.53108891324552
 20
1.248943519037057
 30
0.0
  0
SPLINE
  5
B4
330
1F
100
AcDbEntity
  8
0
  6
Continuous
 62
     1
370
    15
100
AcDbSpline
210
0.0
220
0.0
230
1.0
 70
    24
 71
     3
 72
    10
 73
     6
 74
     0
 42
0.000000001
 43
0.00000001
 40
0.0
 40
0.0
 40
0.0
 40
0.0
 40
0.5
 40
0.5
 40
1.0
 40
1.0
 40
1.0
 40
1.0
 10
21.53108891324552
 20
0.8750000000000018
 30
0.0
 10
21.53108891324552
 20
0.9280403210091444
 30
0.0
 10
21.53108891324552
 20
0.9896780860838982
 30
0.0
 10
21.53108891324552
 20
1.118993951201072
 30
0.0
 10
21.53108891324552
 20
1.186341794751843
 30
0.0
 10
21.53108891324552
 20
1.248943519037058
 30
0.0
  0
LINE
  5
B5
330
1F
100
AcDbEntity
  8
0
  6
Continuous
 62
     1
370
    15
100
AcDbLine
 10
21.53108891324552
 20
0.8750000000000018
 30
0.0
 11
21.08335951098137
 21
0.8417112465854742
 31
0.0
  0
SPLINE
  5
B6
330
1F
100
AcDbEntity
  8
0
  6
Continuous
 62
     1
370
    15
100
AcDbSpline
210
0.0
220
0.0
230
1.0
 70
     8
 71
     3
 72
    10
 73
     6
 74
     0
 42
0.000000001
 43
0.00000001
 40
0.0
 40
0.0
 40
0.0
 40
0.0
 40
0.2706685786598217
 40
0.6556810546121151
 40
1.0
 40
1.0
 40
1.0
 40
1.0
 10
11.62274334486403
 20
-0.1177694232724101
 30
0.0
 10
11.43401886442853
 20
-0.042021512827659
 30
0.0
 10
10.97684327731102
 20
0.1414740005821173
 30
0.0
 10
10.27959110551418
 20
0.4200285760927827
 30
0.0
 10
9.771133059318867
 20
0.573274408802301
 30
0.0
 10
9.531088913245672
 20
0.6456220986998111
 30
0.0
  0
SPLINE
  5
B7
330
1F
100
AcDbEntity
  8
0
  6
Continuous
 62
   131
370
    15
100
AcDbSpline
210
0.0
220
0.0
230
1.0
 70
    24
 71
     3
 72
    10
 73
     6
 74
     0
 42
0.000000001
 43
0.00000001
 40
0.0
 40
0.0
 40
0.0
 40
0.0
 40
0.5
 40
0.5
 40
1.0
 40
1.0
 40
1.0
 40
1.0
 10
9.531088913245519
 20
0.9562184223171237
 30
0.0
 10
9.531088913245519
 20
0.9208390843845538
 30
0.0
 10
9.531088913245519
 20
0.8737107121987265
 30
0.0
 10
9.531088913245519
 20
0.7658338933813373
 30
0.0
 10
9.531088913245519
 20
0.7054273135914227
 30
0.0
 10
9.531088913245519
 20
0.6456220986998534
 30
0.0
  0
SPLINE
  5
B8
330
1F
100
AcDbEntity
  8
0
  6
Continuous
 62
     1
370
    15
100
AcDbSpline
210
0.0
220
0.0
230
1.0
 70
     8
 71
     3
 72
    21
 73
    17
 74
     0
 42
0.000000001
 43
0.00000001
 40
0.0
 40
0.0
 40
0.0
 40
0.0
 40
0.0152822110561986
 40
0.0910694167333623
 40
0.1667782994962933
 40
0.2424519922245014
 40
0.3181340666897097
 40
0.3938679899784791
 40
0.4696965836545587
 40
0.5455700755484112
 40
0.6213377297321279
 40
0.6970358507855975
 40
0.7727077056362691
 40
0.8483968890226963
 40
0.9241467793156805
 40
1.0
 40
1.0
 40
1.0
 40
1.0
 10
13.02295333646696
 20
0.8385233943539236
 30
0.0
 10
13.0663104423465
 20
0.8586857181892044
 30
0.0
 10
13.32468315616229
 20
0.9788365958937383
 30
0.0
 10
13.79768679045311
 20
1.126215397888833
 30
0.0
 10
14.44187861974282
 20
1.25042687567008
 30
0.0
 10
15.08569987733203
 20
1.258649386593405
 30
0.0
 10
15.72961142977354
 20
1.157798710795176
 30
0.0
 10
16.37404333294569
 20
0.9546224607450838
 30
0.0
 10
17.01920458680992
 20
0.6675494120448489
 30
0.0
 10
17.66459870947833
 20
0.3218965121288372
 30
0.0
 10
18.3093431944787
 20
-0.0523561896601428
 30
0.0
 10
18.95342136386504
 20
-0.4216915790449393
 30
0.0
 10
19.59722443371871
 20
-0.7544660959968746
 30
0.0
 10
20.2412103495322
 20
-1.018811637498146
 30
0.0
 10
20.88579633620875
 20
-1.201474764743715
 30
0.0
 10
21.31589367161671
 20
-1.233113412797678
 30
0.0
 10
21.53108891324552
 20
-1.248943519037055
 30
0.0
  0
SPLINE
  5
B9
330
1F
100
AcDbEntity
  8
0
  6
Continuous
 62
     1
370
    15
100
AcDbSpline
210
0.0
220
0.0
230
1.0
 70
     8
 71
     3
 72
    14
 73
    10
 74
     0
 42
0.000000001
 43
0.00000001
 40
0.0
 40
0.0
 40
0.0
 40
0.0
 40
0.0275732337038779
 40
0.2212697097372752
 40
0.4149886913189586
 40
0.6087214526452946
 40
0.8024592318065765
 40
0.996193253731302
 40
1.0
 40
1.0
 40
1.0
 40
1.0
 10
18.42424037657349
 20
-0.1165405421390406
 30
0.0
 10
18.38600292072462
 20
-0.1017788855964765
 30
0.0
 10
18.07915495187056
 20
0.0166804686270049
 30
0.0
 10
17.50365172463849
 20
0.2575131221627034
 30
0.0
 10
16.69771542349622
 20
0.5492584502220071
 30
0.0
 10
15.89171430019583
 20
0.771882534888821
 30
0.0
 10
15.08569134668718
 20
0.8747751704267107
 30
0.0
 10
14.54305956881133
 20
0.8971576335461476
 30
0.0
 10
14.2691095149257
 20
0.8546043486728033
 30
0.0
 10
14.2638303092459
 20
0.8537843176488588
 30
0.0
  0
LINE
  5
BA
330
1F
100
AcDbEntity
  8
0
  6
Continuous
 62
   131
370
    15
100
AcDbLine
 10
9.531088913245519
 20
0.956218422317124
 30
0.0
 11
9.531088913245519
 21
1.14137331836027
 31
0.0
  0
LINE
  5
BB
330
1F
100
AcDbEntity
  8
0
  6
Continuous
 62
     1
370
    15
100
AcDbLine
 10
21.53108891324552
 20
-1.249999999999998
 30
0.0
 11
21.53108891324552
 21
-1.186176086539876
 31
0.0
  0
SPLINE
  5
BC
330
1F
100
AcDbEntity
  8
0
  6
Continuous
 62
     1
370
    15
100
AcDbSpline
210
0.0
220
0.0
230
1.0
 70
     8
 71
     3
 72
     8
 73
     4
 74
     0
 42
0.000000001
 43
0.00000001
 40
0.0
 40
0.0
 40
0.0
 40
0.0
 40
1.0
 40
1.0
 40
1.0
 40
1.0
 10
20.75746022104593
 20
0.3498421875512345
 30
0.0
 10
20.70141017463651
 20
0.4161899107336673
 30
0.0
 10
20.6527951521936
 20
0.4796034014034091
 30
0.0
 10
20.61444860073683
 20
0.538566412246624
 30
0.0
  0
LINE
  5
BD
330
1F
100
AcDbEntity
  8
0
  6
Continuous
 62
     1
370
    15
100
AcDbLine
 10
20.61444860073684
 20
0.5385664122466248
 30
0.0
 11
21.53108891324552
 21
0.0000000000000018
 31
0.0
  0
LINE
  5
BE
330
1F
100
AcDbEntity
  8
0
  6
Continuous
 62
     1
370
    15
100
AcDbLine
 10
21.53108891324552
 20
0.0000000000000018
 30
0.0
 11
21.53108891324552
 21
-0.3340536825370543
 31
0.0
  0
SPLINE
  5
BF
330
1F
100
AcDbEntity
  8
0
  6
Continuous
 62
     1
370
    15
100
AcDbSpline
210
0.0
220
0.0
230
1.0
 70
     8
 71
     3
 72
    10
 73
     6
 74
     0
 42
0.000000001
 43
0.00000001
 40
0.0
 40
0.0
 40
0.0
 40
0.0
 40
0.5
 40
0.5
 40
1.0
 40
1.0
 40
1.0
 40
1.0
 10
21.53108891324552
 20
-0.3340536825370543
 30
0.0
 10
21.397168043983
 20
-0.2287670726147508
 30
0.0
 10
21.26548608421277
 20
-0.1191601491570761
 30
0.0
 10
21.00670370523318
 20
0.1088944712534357
 30
0.0
 10
20.87838694235549
 20
0.2285417807442853
 30
0.0
 10
20.75746022104475
 20
0.3498421875484976
 30
0.0
  0
SPLINE
  5
C0
330
1F
100
AcDbEntity
  8
0
  6
Continuous
 62
   131
370
    15
100
AcDbSpline
210
0.0
220
0.0
230
1.0
 70
    24
 71
     3
 72
    10
 73
     6
 74
     0
 42
0.000000001
 43
0.00000001
 40
0.0
 40
0.0
 40
0.0
 40
0.0
 40
0.3203348370540892
 40
0.7896813603674413
 40
1.0
 40
1.0
 40
1.0
 40
1.0
 10
9.531088913245519
 20
-0.674960539480059
 30
0.0
 10
9.531088913245519
 20
-0.7376434578508396
 30
0.0
 10
9.531088913245519
 20
-0.8921678071412704
 30
0.0
 10
9.531088913245519
 20
-1.008344208335816
 30
0.0
 10
9.531088913245519
 20
-0.9983563303404871
 30
0.0
 10
9.531088913245519
 20
-0.9952656365293042
 30
0.0
  0
SPLINE
  5
C1
330
1F
100
AcDbEntity
  8
0
  6
Continuous
 62
     1
370
    15
100
AcDbSpline
210
0.0
220
0.0
230
1.0
 70
     8
 71
     3
 72
    12
 73
     8
 74
     0
 42
0.000000001
 43
0.00000001
 40
0.0
 40
0.0
 40
0.0
 40
0.0
 40
0.1457157726021917
 40
0.2907846746333042
 40
0.5705013032117886
 40
0.8502738730561731
 40
1.0
 40
1.0
 40
1.0
 40
1.0
 10
20.75746022085774
 20
0.3498421876333821
 30
0.0
 10
20.61762798026037
 20
0.4089236636470075
 30
0.0
 10
20.33858425109347
 20
0.5268243374908699
 30
0.0
 10
19.79180614067779
 20
0.7297896711758437
 30
0.0
 10
19.11507795996832
 20
0.9151780722540342
 30
0.0
 10
18.4343841836589
 20
1.016921632773077
 30
0.0
 10
18.02206834954863
 20
0.9866738807877437
 30
0.0
 10
17.87854519817712
 20
0.9932897827492212
 30
0.0
  0
SPLINE
  5
C2
330
1F
100
AcDbEntity
  8
0
  6
Continuous
 62
     1
370
    15
100
AcDbSpline
210
0.0
220
0.0
230
1.0
 70
     8
 71
     3
 72
    11
 73
     7
 74
     0
 42
0.000000001
 43
0.00000001
 40
0.0
 40
0.0
 40
0.0
 40
0.0
 40
0.0879141841499926
 40
0.4030909871982701
 40
0.7181932327825051
 40
1.0
 40
1.0
 40
1.0
 40
1.0
 10
12.08682616104469
 20
-0.9264080929723043
 30
0.0
 10
12.01192516543608
 20
-0.9420191300364279
 30
0.0
 10
11.66850030682054
 20
-1.013596525677503
 30
0.0
 10
11.05664114024718
 20
-1.008204472951012
 30
0.0
 10
10.27958400265913
 20
-0.9085304403998923
 30
0.0
 10
9.77113351722572
 20
-0.749867102209712
 30
0.0
 10
9.5310889132456
 20
-0.6749605394800879
 30
0.0
  0
SPLINE
  5
C3
330
1F
100
AcDbEntity
  8
0
  6
Continuous
 62
     1
370
    15
100
AcDbSpline
210
0.0
220
0.0
230
1.0
 70
    24
 71
     3
 72
    10
 73
     6
 74
     0
 42
0.000000001
 43
0.00000001
 40
0.0
 40
0.0
 40
0.0
 40
0.0
 40
0.5
 40
0.5
 40
1.0
 40
1.0
 40
1.0
 40
1.0
 10
21.53108891324552
 20
-0.986215330460268
 30
0.0
 10
21.53108891324552
 20
-0.9106142362547544
 30
0.0
 10
21.53108891324552
 20
-0.815089354883084
 30
0.0
 10
21.53108891324552
 20
-0.5930031989383482
 30
0.0
 10
21.53108891324552
 20
-0.4666343038141355
 30
0.0
 10
21.53108891324552
 20
-0.3340536825370942
 30
0.0
  0
SPLINE
  5
C4
330
1F
100
AcDbEntity
  8
0
  6
Continuous
 62
     1
370
    15
100
AcDbSpline
210
0.0
220
0.0
230
1.0
 70
     8
 71
     3
 72
    17
 73
    13
 74
     0
 42
0.000000001
 43
0.00000001
 40
0.0
 40
0.0
 40
0.0
 40
0.0
 40
0.0742736612320079
 40
0.1774138865834506
 40
0.280565783820925
 40
0.3837248275924712
 40
0.4868864739158311
 40
0.5900461720169532
 40
0.6931993762063584
 40
0.7963415577271612
 40
0.8994682165087958
 40
1.0
 40
1.0
 40
1.0
 40
1.0
 10
18.88982533475028
 20
-0.9258931048240827
 30
0.0
 10
18.69639417721725
 20
-0.9553375282193884
 30
0.0
 10
18.23435456754897
 20
-1.025669992058113
 30
0.0
 10
17.50365551449874
 20
-0.9778442798060636
 30
0.0
 10
16.69771854690498
 20
-0.8080627493949473
 30
0.0
 10
15.89171769820116
 20
-0.5231431209868371
 30
0.0
 10
15.08569401387164
 20
-0.1677492923080251
 30
0.0
 10
14.2796875427832
 20
0.2107340066496354
 30
0.0
 10
13.47373836656169
 20
0.5610140855647598
 30
0.0
 10
12.66788715711581
 20
0.8317202690627288
 30
0.0
 10
11.86887714628429
 20
0.9975300213777214
 30
0.0
 10
11.33850146637152
 20
0.9935614850520671
 30
0.0
 10
11.07669246681844
 20
0.9916024990644732
 30
0.0
  0
SPLINE
  5
C5
330
1F
100
AcDbEntity
  8
0
  6
Continuous
 62
   131
370
    15
100
AcDbSpline
210
0.0
220
0.0
230
1.0
 70
    24
 71
     3
 72
    10
 73
     6
 74
     0
 42
0.000000001
 43
0.00000001
 40
0.0
 40
0.0
 40
0.0
 40
0.0
 40
0.5
 40
0.5
 40
1.0
 40
1.0
 40
1.0
 40
1.0
 10
9.531088913245437
 20
0.6456220986998762
 30
0.0
 10
9.531088913245437
 20
0.4647828029258921
 30
0.0
 10
9.531088913245437
 20
0.2390060844557504
 30
0.0
 10
9.531088913245437
 20
-0.2304051328802259
 30
0.0
 10
9.531088913245437
 20
-0.4704025931461448
 30
0.0
 10
9.531088913245437
 20
-0.6749605394800307
 30
0.0
  0
SPLINE
  5
C6
330
1F
100
AcDbEntity
  8
0
  6
Continuous
 62
     1
370
    15
100
AcDbSpline
210
0.0
220
0.0
230
1.0
 70
     8
 71
     3
 72
     8
 73
     4
 74
     0
 42
0.000000001
 43
0.00000001
 40
0.0
 40
0.0
 40
0.0
 40
0.0
 40
1.0
 40
1.0
 40
1.0
 40
1.0
 10
21.53108891324552
 20
0.8750000000000018
 30
0.0
 10
21.21997735594946
 20
0.7904410596396075
 30
0.0
 10
20.91188634014845
 20
0.6841909977156533
 30
0.0
 10
20.61444860073585
 20
0.5385664122473538
 30
0.0
  0
LINE
  5
C7
330
1F
100
AcDbEntity
  8
0
  6
Continuous
 62
     1
370
    15
100
AcDbLine
 10
21.53108891324552
 20
0.0000000000000018
 30
0.0
 11
21.53108891324552
 21
0.8750000000000018
 31
0.0
  0
LINE
  5
C8
330
1F
100
AcDbEntity
  8
0
  6
Continuous
 62
   131
370
    15
100
AcDbLine
 10
8.531088913245519
 20
1.25
 30
0.0
 11
8.531088913245519
 21
-1.25
 31
0.0
  0
LINE
  5
C9
330
1F
100
AcDbEntity
  8
0
  6
Continuous
 62
   131
370
    15
100
AcDbLine
 10
2.0
 20
3.0
 30
0.0
 11
2.0
 21
-3.0
 31
0.0
  0
LINE
  5
CA
330
1F
100
AcDbEntity
  8
0
  6
Continuous
 62
   131
370
    15
100
AcDbLine
 10
-37.91891108675448
 20
2.999999999999994
 30
0.0
 11
-37.91891108675448
 21
-3.000000000000001
 31
0.0
  0
LINE
  5
CB
330
1F
100
AcDbEntity
  8
0
  6
Continuous
 62
   131
370
    15
100
AcDbLine
 10
-38.46891108675447
 20
2.449999999999994
 30
0.0
 11
-38.46891108675447
 21
-2.450000000000002
 31
0.0
  0
SPLINE
  5
CC
330
1F
100
AcDbEntity
  8
0
  6
Continuous
 62
   131
370
    15
100
AcDbSpline
210
0.0
220
0.0
230
1.0
 70
     8
 71
     3
 72
    10
 73
     6
 74
     0
 42
0.000000001
 43
0.00000001
 40
0.0
 40
0.0
 40
0.0
 40
0.0
 40
0.5
 40
0.5
 40
1.0
 40
1.0
 40
1.0
 40
1.0
 10
9.531088913245519
 20
-1.141373318360085
 30
0.0
 10
9.383329673379667
 20
-1.176283268050927
 30
0.0
 10
9.236213789932421
 20
-1.203121957494908
 30
0.0
 10
8.9368446211929
 20
-1.239694262875243
 30
0.0
 10
8.788215643332105
 20
-1.24922876096067
 30
0.0
 10
8.64119359001813
 20
-1.249954894513071
 30
0.0
  0
SPLINE
  5
CD
330
1F
100
AcDbEntity
  8
0
  6
Continuous
 62
   131
370
    15
100
AcDbSpline
210
0.0
220
0.0
230
1.0
 70
     8
 71
     3
 72
    10
 73
     6
 74
     0
 42
0.000000001
 43
0.00000001
 40
0.0
 40
0.0
 40
0.0
 40
0.0
 40
0.5
 40
0.5
 40
1.0
 40
1.0
 40
1.0
 40
1.0
 10
9.531088913245515
 20
1.141373318360085
 30
0.0
 10
9.383329673379667
 20
1.176283268050928
 30
0.0
 10
9.236213789932421
 20
1.203121957494909
 30
0.0
 10
8.9368446211929
 20
1.239694262875244
 30
0.0
 10
8.788215643332105
 20
1.249228760960671
 30
0.0
 10
8.64119359001813
 20
1.249954894513072
 30
0.0
  0
SPLINE
  5
CE
330
1F
100
AcDbEntity
  8
0
  6
Continuous
 62
   131
370
    15
100
AcDbSpline
210
0.0
220
0.0
230
1.0
 70
     8
 71
     3
 72
    10
 73
     6
 74
     0
 42
0.000000001
 43
0.00000001
 40
0.0
 40
0.0
 40
0.0
 40
0.0
 40
0.5
 40
0.5
 40
1.0
 40
1.0
 40
1.0
 40
1.0
 10
9.531088913245519
 20
0.9562184223171234
 30
0.0
 10
9.383320722608161
 20
1.011365196953147
 30
0.0
 10
9.2361956877584
 20
1.059712801509397
 30
0.0
 10
8.93680831894552
 20
1.141275850638689
 30
0.0
 10
8.788171966730271
 20
1.174111437117221
 30
0.0
 10
8.641140153171985
 20
1.198414870989505
 30
0.0
  0
LINE
  5
CF
330
1F
100
AcDbEntity
  8
0
  6
Continuous
 62
   131
370
    15
100
AcDbLine
 10
8.641140153171989
 20
-1.249955348462633
 30
0.0
 11
8.641140153171989
 21
1.198536216253361
 31
0.0
  0
SPLINE
  5
D0
330
1F
100
AcDbEntity
  8
0
  6
Continuous
 62
   131
370
    15
100
AcDbSpline
210
0.0
220
0.0
230
1.0
 70
    24
 71
     3
 72
    10
 73
     6
 74
     0
 42
0.000000001
 43
0.00000001
 40
0.0
 40
0.0
 40
0.0
 40
0.0
 40
0.5
 40
0.5
 40
1.0
 40
1.0
 40
1.0
 40
1.0
 10
9.531088913245437
 20
0.6456220986998762
 30
0.0
 10
9.531088913245437
 20
0.4647828029258921
 30
0.0
 10
9.531088913245437
 20
0.2390060844557504
 30
0.0
 10
9.531088913245437
 20
-0.2304051328802259
 30
0.0
 10
9.531088913245437
 20
-0.4704025931461448
 30
0.0
 10
9.531088913245437
 20
-0.6749605394800307
 30
0.0
  0
SPLINE
  5
D1
330
1F
100
AcDbEntity
  8
0
  6
Continuous
 62
   131
370
    15
100
AcDbSpline
210
0.0
220
0.0
230
1.0
 70
     8
 71
     3
 72
    10
 73
     6
 74
     0
 42
0.000000001
 43
0.00000001
 40
0.0
 40
0.0
 40
0.0
 40
0.0
 40
0.4999999999999999
 40
0.4999999999999999
 40
1.0
 40
1.0
 40
1.0
 40
1.0
 10
9.5310889132456
 20
-0.6749605394800872
 30
0.0
 10
9.383323995734997
 20
-0.6244194850212887
 30
0.0
 10
9.236202307383238
 20
-0.5692052123865714
 30
0.0
 10
8.93682159398351
 20
-0.4508595910692655
 30
0.0
 10
8.788187938471552
 20
-0.3881959811645647
 30
0.0
 10
8.641159694045498
 20
-0.3234890900567536
 30
0.0
  0
SPLINE
  5
D2
330
1F
100
AcDbEntity
  8
0
  6
Continuous
 62
   131
370
    15
100
AcDbSpline
210
0.0
220
0.0
230
1.0
 70
     8
 71
     3
 72
    10
 73
     6
 74
     0
 42
0.000000001
 43
0.00000001
 40
0.0
 40
0.0
 40
0.0
 40
0.0
 40
0.5
 40
0.5
 40
1.0
 40
1.0
 40
1.0
 40
1.0
 10
9.531088913245672
 20
0.6456220986998112
 30
0.0
 10
9.383322882738167
 20
0.6860763037798511
 30
0.0
 10
9.23620005644084
 20
0.72193542616654
 30
0.0
 10
8.93681707992764
 20
0.7833375420807653
 30
0.0
 10
8.788182507431781
 20
0.8085975877784266
 30
0.0
 10
8.641153049354433
 20
0.8279537872843526
 30
0.0
  0
SPLINE
  5
D3
330
1F
100
AcDbEntity
  8
0
  6
Continuous
 62
   131
370
    15
100
AcDbSpline
210
0.0
220
0.0
230
1.0
 70
    24
 71
     3
 72
    10
 73
     6
 74
     0
 42
0.000000001
 43
0.00000001
 40
0.0
 40
0.0
 40
0.0
 40
0.0
 40
0.3199544217887678
 40
0.788743570250744
 40
1.0
 40
1.0
 40
1.0
 40
1.0
 10
9.531088913245519
 20
-0.674960539480059
 30
0.0
 10
9.531088913245519
 20
-0.7376472658448925
 30
0.0
 10
9.531088913245519
 20
-0.8921810025062121
 30
0.0
 10
9.531088913245515
 20
-1.008419416151658
 30
0.0
 10
9.531088913245515
 20
-0.998380090584056
 30
0.0
 10
9.531088913245519
 20
-0.9952613700975838
 30
0.0
  0
SPLINE
  5
D4
330
1F
100
AcDbEntity
  8
0
  6
Continuous
 62
   131
370
    15
100
AcDbSpline
210
0.0
220
0.0
230
1.0
 70
     8
 71
     3
 72
     9
 73
     5
 74
     0
 42
0.000000001
 43
0.00000001
 40
0.0
 40
0.0
 40
0.0
 40
0.0
 40
0.2014756279107529
 40
1.0
 40
1.0
 40
1.0
 40
1.0
 10
9.198181511203192
 20
-1.040179392817542
 30
0.0
 10
9.161421521904888
 20
-1.040968634832964
 30
0.0
 10
8.97556837900451
 20
-1.066000305242601
 30
0.0
 10
8.789652194506015
 20
-1.063261289485542
 30
0.0
 10
8.64119359001813
 20
-1.061074118647994
 30
0.0
  0
SPLINE
  5
D5
330
1F
100
AcDbEntity
  8
0
  6
Continuous
 62
   131
370
    15
100
AcDbSpline
210
0.0
220
0.0
230
1.0
 70
    24
 71
     3
 72
    10
 73
     6
 74
     0
 42
0.000000001
 43
0.00000001
 40
0.0
 40
0.0
 40
0.0
 40
0.0
 40
0.5
 40
0.5
 40
1.0
 40
1.0
 40
1.0
 40
1.0
 10
9.531088913245515
 20
0.9562184223171248
 30
0.0
 10
9.531088913245515
 20
0.9208390843845548
 30
0.0
 10
9.531088913245515
 20
0.8737107121987273
 30
0.0
 10
9.531088913245515
 20
0.7658338933813378
 30
0.0
 10
9.531088913245515
 20
0.7054273135914235
 30
0.0
 10
9.531088913245515
 20
0.6456220986998539
 30
0.0
  0
SPLINE
  5
D6
330
1F
100
AcDbEntity
  8
0
  6
Continuous
 62
   131
370
    15
100
AcDbSpline
210
0.0
220
0.0
230
1.0
 70
    24
 71
     3
 72
    10
 73
     6
 74
     0
 42
0.000000001
 43
0.00000001
 40
0.0
 40
0.0
 40
0.0
 40
0.0
 40
0.3626800698472957
 40
0.8447819176856056
 40
1.0
 40
1.0
 40
1.0
 40
1.0
 10
9.531088913245519
 20
-1.010839922174997
 30
0.0
 10
9.531088913245519
 20
-1.027542947996137
 30
0.0
 10
9.531088913245519
 20
-1.066448902189529
 30
0.0
 10
9.531088913245522
 20
-1.109099992860894
 30
0.0
 10
9.531088913245519
 20
-1.13505260740998
 30
0.0
 10
9.531088913245515
 20
-1.14137331836027
 30
0.0
  0
LINE
  5
D7
330
1F
100
AcDbEntity
  8
중심선
 62
     1
100
AcDbLine
 10
-41.46891108675447
 20
-0.0000000000000046
 30
0.0
 11
23.03108891324552
 21
0.0000000000000019
 31
0.0
  0
CIRCLE
  5
D8
330
1F
100
AcDbEntity
  8
외형선
100
AcDbCircle
 10
0.0000000000000104
 20
0.0
 30
0.0
 40
3.000000000000005
  0
INSERT
  5
D9
330
1F
100
AcDbEntity
  8
0
  6
Continuous
 62
     7
100
AcDbBlockReference
 66
     1
  2
블럭10
 10
-22.93944368806589
 20
-52.04609937292004
 30
0.0
  0
ATTRIB
  5
DA
330
D9
100
AcDbEntity
  8
FORMAT
 62
     2
100
AcDbText
 10
-39.05870472750145
 20
-49.97073246008785
 30
0.0
 40
4.233333333333333
  1
SEME7002512E [ 2 FLUTE ]
 41
0.75
  7
SLDTEXTSTYLE0
 11
-39.05870472750145
 21
-52.08739912675452
 31
0.0
100
AcDbAttribute
  2
AUTOATTR0
 70
     0
 74
     1
  0
SEQEND
  5
DB
330
D9
100
AcDbEntity
  8
0
  6
Continuous
 62
     7
  0
HATCH
  5
DC
330
1F
100
AcDbEntity
  8
중심선
100
AcDbHatch
 10
0.0
 20
0.0
 30
0.0
210
0.0
220
0.0
230
1.0
  2
SOLID
 70
     1
 71
     0
 91
        1
 92
        0
 93
        4
 72
     1
 10
-17.22453438368504
 20
-35.7989250712761
 11
-20.67080962752232
 21
-35.7989250712761
 72
     1
 10
-20.67080962752232
 20
-35.7989250712761
 11
-22.79903948672635
 21
-38.3352506518487
 72
     1
 10
-22.79903948672635
 20
-38.3352506518487
 11
-19.35273115777591
 21
-38.33521122254621
 72
     1
 10
-19.35273115777591
 20
-38.33521122254621
 11
-17.22453438368504
 21
-35.7989250712761
 97
        0
 75
     0
 76
     1
 98
        1
 10
0.0
 20
0.0
  0
HATCH
  5
DD
330
1F
100
AcDbEntity
  8
중심선
100
AcDbHatch
 10
0.0
 20
0.0
 30
0.0
210
0.0
220
0.0
230
1.0
  2
SOLID
 70
     1
 71
     0
 91
        1
 92
        0
 93
        4
 72
     1
 10
-12.21177039264909
 20
-35.7989250712761
 11
-15.65804563648637
 21
-35.7989250712761
 72
     1
 10
-15.65804563648637
 20
-35.7989250712761
 11
-20.18918364484376
 21
-41.19892507127612
 72
     1
 10
-20.18918364484376
 20
-41.19892507127612
 11
-16.74290840100648
 21
-41.19892507127612
 72
     1
 10
-16.74290840100648
 20
-41.19892507127612
 11
-12.21177039264909
 21
-35.7989250712761
 97
        0
 75
     0
 76
     1
 98
        1
 10
0.0
 20
0.0
  0
HATCH
  5
DE
330
1F
100
AcDbEntity
  8
중심선
100
AcDbHatch
 10
0.0
 20
0.0
 30
0.0
210
0.0
220
0.0
230
1.0
  2
SOLID
 70
     1
 71
     0
 91
        1
 92
        0
 93
        4
 72
     1
 10
-7.199006401613195
 20
-35.79892507127613
 11
-10.64528164545031
 21
-35.7989250712761
 72
     1
 10
-10.64528164545031
 20
-35.7989250712761
 11
-17.69371854733956
 21
-44.19892507127612
 72
     1
 10
-17.69371854733956
 20
-44.19892507127612
 11
-14.24744330350228
 21
-44.19892507127612
 72
     1
 10
-14.24744330350228
 20
-44.19892507127612
 11
-7.199006401613195
 21
-35.79892507127613
 97
        0
 75
     0
 76
     1
 98
        1
 10
0.0
 20
0.0
  0
HATCH
  5
DF
330
1F
100
AcDbEntity
  8
중심선
100
AcDbHatch
 10
0.0
 20
0.0
 30
0.0
210
0.0
220
0.0
230
1.0
  2
SOLID
 70
     1
 71
     0
 91
        1
 92
        0
 93
        6
 72
     3
 10
-2.399115970600996
 20
-39.99892507132738
 11
3.960054785062284
 21
1.540850780301639E-10
 40
0.3939339440162633
 50
17.09539180608433
 51
320.0019657685079
 73
     0
 72
     1
 10
-0.7161163149004002
 20
-38.58681907591441
 11
1.589185558800638
 21
-36.65249236586649
 72
     3
 10
-2.399115970653842
 20
-39.99892507127625
 11
6.600054785286829
 21
-1.249000902703301E-13
 40
0.6363583540795982
 50
39.99873849337408
 51
368.4976242363724
 73
     1
 72
     1
 10
4.026216521246767
 20
-39.03892507120613
 11
-3.71904866381792
 21
-39.0389250712061
 72
     1
 10
-3.71904866381792
 20
-39.0389250712061
 11
-3.719073708263854
 21
-40.95892507120602
 72
     1
 10
-3.719073708263854
 20
-40.95892507120602
 11
0.7223060612081835
 21
-40.95892507120599
 97
        0
 75
     0
 76
     1
 98
        1
 10
0.0
 20
0.0
  0
DIMENSION
  5
E0
330
1F
100
AcDbEntity
  8
치수문자_일반주서
100
AcDbDimension
  2
_D
 10
36.18302919347204
 20
1.250000000000057
 30
0.0
 11
36.183029193472
 21
13.7602500000001
 31
0.0
 70
   160
  1
%%c<>
 71
     2
 42
2.5
 52
-270.0
  3
SLDDIMSTYLE0
100
AcDbAlignedDimension
 13
21.53108891324552
 23
-1.249999999999998
 33
0.0
 14
21.53108891324552
 24
1.250000000000002
 34
0.0
 50
90.0000000000002
100
AcDbRotatedDimension
  0
DIMENSION
  5
EE
330
1F
100
AcDbEntity
  8
치수문자_일반주서
100
AcDbDimension
  2
_D_1
 10
21.53108891324552
 20
24.23841044024269
 30
0.0
 11
-8.468911086754476
 21
24.23841044024269
 31
0.0
 70
   160
  1
<>
 71
     2
 42
59.99999999999999
  3
SLDDIMSTYLE1
100
AcDbAlignedDimension
 13
-38.46891108675447
 23
2.449999999999994
 33
0.0
 14
21.53108891324552
 24
1.248676086539877
 34
0.0
 50
-0.0000000000000034
100
AcDbRotatedDimension
  0
DIMENSION
  5
F9
330
1F
100
AcDbEntity
  8
치수문자_일반주서
100
AcDbDimension
  2
_D_2
 10
21.53108891324552
 20
14.48837112452762
 30
0.0
 11
15.5310889132455
 21
14.48837112452762
 31
0.0
 70
   160
  1
<>
 71
     2
 42
12.00000000000001
  3
SLDDIMSTYLE2
100
AcDbAlignedDimension
 13
9.531088913245515
 23
1.141373318360085
 33
0.0
 14
21.53108891324552
 24
1.248943519037058
 34
0.0
 50
0.0000000000000848
100
AcDbRotatedDimension
  0
DIMENSION
  5
106
330
1F
100
AcDbEntity
  8
치수문자_일반주서
100
AcDbDimension
  2
_D_3
 10
-50.00442191728224
 20
-3.000000000000046
 30
0.0
 11
-50.0044219172823
 21
12.66649999999995
 31
0.0
 70
   160
  1
%%c<>
 71
     2
 42
5.999999999999995
 52
-270.0
  3
SLDDIMSTYLE2
100
AcDbAlignedDimension
 13
-37.91891108675448
 23
2.999999999999994
 33
0.0
 14
-37.91891108675448
 24
-3.0
 34
0.0
 50
90.0000000000002
100
AcDbRotatedDimension
  0
INSERT
  5
119
330
1F
100
AcDbEntity
  8
외형선
100
AcDbBlockReference
  2
SW_DOWELSYMBOL_0
 10
0.0000000000000104
 20
0.0
 30
0.0
  0
ENDSEC
  0
SECTION
  2
OBJECTS
  0
DICTIONARY
  5
C
330
0
100
AcDbDictionary
281
     1
  3
ACAD_GROUP
350
D
  3
ACAD_IMAGE_VARS
350
13D
  3
ACAD_LAYOUT
350
1A
  3
ACAD_MLINESTYLE
350
17
  3
ACAD_PLOTSETTINGS
350
19
  3
ACAD_PLOTSTYLENAME
350
E
  3
ACAD_SCALELIST
350
47
  3
APPDATA
350
13B
  3
DWGPROPS
350
191
  0
DICTIONARY
  5
D
102
{ACAD_REACTORS
330
C
102
}
330
C
100
AcDbDictionary
281
     1
  0
RASTERVARIABLES
  5
13D
102
{ACAD_REACTORS
330
C
102
}
330
C
100
AcDbRasterVariables
 90
        0
 70
     1
 71
     1
 72
     1
  0
DICTIONARY
  5
1A
102
{ACAD_REACTORS
330
C
102
}
330
C
100
AcDbDictionary
281
     1
  3
Layout1
350
1E
  3
Layout2
350
26
  3
Model
350
22
  0
DICTIONARY
  5
17
102
{ACAD_REACTORS
330
C
102
}
330
C
100
AcDbDictionary
281
     1
  3
Standard
350
18
  0
DICTIONARY
  5
19
102
{ACAD_REACTORS
330
C
102
}
330
C
100
AcDbDictionary
281
     1
  0
ACDBDICTIONARYWDFLT
  5
E
102
{ACAD_REACTORS
330
C
102
}
330
C
100
AcDbDictionary
281
     1
  3
Normal
350
F
100
AcDbDictionaryWithDefault
340
F
  0
DICTIONARY
  5
47
102
{ACAD_REACTORS
330
C
102
}
330
C
100
AcDbDictionary
281
     1
  3
A0
350
48
  3
A1
350
49
  3
A2
350
4A
  3
A3
350
4B
  3
A4
350
4C
  3
A5
350
4D
  3
A6
350
4E
  3
A7
350
4F
  3
A8
350
50
  3
A9
350
51
  3
B0
350
52
  3
B1
350
53
  3
B2
350
54
  3
B3
350
55
  3
B4
350
56
  3
B5
350
57
  3
B6
350
58
  3
B7
350
59
  3
B8
350
5A
  3
B9
350
5B
  3
C0
350
5C
  3
C1
350
5D
  3
C2
350
5E
  3
C3
350
5F
  3
C4
350
60
  3
C5
350
61
  3
C6
350
62
  3
C7
350
63
  3
C8
350
64
  3
C9
350
65
  3
D0
350
66
  3
D1
350
67
  3
D2
350
68
  0
DICTIONARY
  5
13B
102
{ACAD_REACTORS
330
C
102
}
330
C
100
AcDbDictionary
281
     1
  0
XRECORD
  5
191
102
{ACAD_REACTORS
330
C
102
}
330
C
100
AcDbXrecord
280
     1
  1
DWGPROPS COOKIE
  2

  3

  4

  6

  7

  8
12014102
  9

300
=
301
=
302
=
303
=
304
=
305
=
306
=
307
=
308
=
309
=
 40
0.0
 41
2458262.161286042
 42
2458264.422416273
  1

 90
        0
  0
LAYOUT
  5
1E
102
{ACAD_REACTORS
330
1A
102
}
330
1A
100
AcDbPlotSettings
  1

  2
none_device
  4

  6

 40
0.0
 41
0.0
 42
0.0
 43
0.0
 44
0.0
 45
0.0
 46
0.0
 47
0.0
 48
0.0
 49
0.0
140
0.0
141
0.0
142
1.0
143
1.0
 70
   688
 72
     1
 73
     0
 74
     5
  7

 75
    16
147
1.0
148
0.0
149
0.0
100
AcDbLayout
  1
Layout1
 70
     1
 71
     1
 10
0.0
 20
0.0
 11
420.0
 21
297.0
 12
0.0
 22
0.0
 32
0.0
 14
1.000000000000000E+20
 24
1.000000000000000E+20
 34
1.000000000000000E+20
 15
-1.000000000000000E+20
 25
-1.000000000000000E+20
 35
-1.000000000000000E+20
146
0.0
 13
0.0
 23
0.0
 33
0.0
 16
1.0
 26
0.0
 36
0.0
 17
0.0
 27
1.0
 37
0.0
 76
     0
330
1B
  0
LAYOUT
  5
26
102
{ACAD_REACTORS
330
1A
102
}
330
1A
100
AcDbPlotSettings
  1

  2
none_device
  4

  6

 40
0.0
 41
0.0
 42
0.0
 43
0.0
 44
0.0
 45
0.0
 46
0.0
 47
0.0
 48
0.0
 49
0.0
140
0.0
141
0.0
142
1.0
143
1.0
 70
   688
 72
     1
 73
     0
 74
     5
  7

 75
    16
147
1.0
148
0.0
149
0.0
100
AcDbLayout
  1
Layout2
 70
     1
 71
     2
 10
0.0
 20
0.0
 11
0.0
 21
0.0
 12
0.0
 22
0.0
 32
0.0
 14
0.0
 24
0.0
 34
0.0
 15
0.0
 25
0.0
 35
0.0
146
0.0
 13
0.0
 23
0.0
 33
0.0
 16
1.0
 26
0.0
 36
0.0
 17
0.0
 27
1.0
 37
0.0
 76
     0
330
23
  0
LAYOUT
  5
22
102
{ACAD_REACTORS
330
1A
102
}
330
1A
100
AcDbPlotSettings
  1

  2
none_device
  4
ANSI_A_(11.00_x_8.50_Inches)
  6

 40
6.35
 41
19.05
 42
6.35000508
 43
19.05000254
 44
279.4
 45
215.9
 46
143.0752957099583
 47
118.4377884955873
 48
0.0
 49
0.0
140
0.0
141
0.0
142
0.1058944507156154
143
1.0
 70
  1696
 72
     0
 73
     0
 74
     0
  7

 75
     0
147
0.0235690232323232
148
0.0
149
0.0
100
AcDbLayout
  1
Model
 70
     1
 71
     0
 10
0.0
 20
0.0
 11
420.0
 21
297.0
 12
0.0
 22
0.0
 32
0.0
 14
-54.3794219172823
 24
-49.97073246008785
 34
0.0
 15
36.73336252680538
 25
28.61341044024269
 35
0.0
146
0.0
 13
0.0
 23
0.0
 33
0.0
 16
1.0
 26
0.0
 36
0.0
 17
0.0
 27
1.0
 37
0.0
 76
     0
330
1F
331
29
  0
MLINESTYLE
  5
18
102
{ACAD_REACTORS
330
17
102
}
330
17
100
AcDbMlineStyle
  2
Standard
 70
     0
  3

 62
   256
 51
90.0
 52
90.0
 71
     2
 49
0.5
 62
   256
  6
BYLAYER
 49
-0.5
 62
   256
  6
BYLAYER
  0
ACDBPLACEHOLDER
  5
F
102
{ACAD_REACTORS
330
E
102
}
330
E
  0
SCALE
  5
48
102
{ACAD_REACTORS
330
47
102
}
330
47
100
AcDbScale
 70
     0
300
1:1
140
1.0
141
1.0
290
     1
  0
SCALE
  5
49
102
{ACAD_REACTORS
330
47
102
}
330
47
100
AcDbScale
 70
     0
300
1:2
140
1.0
141
2.0
290
     0
  0
SCALE
  5
4A
102
{ACAD_REACTORS
330
47
102
}
330
47
100
AcDbScale
 70
     0
300
1:4
140
1.0
141
4.0
290
     0
  0
SCALE
  5
4B
102
{ACAD_REACTORS
330
47
102
}
330
47
100
AcDbScale
 70
     0
300
1:5
140
1.0
141
5.0
290
     0
  0
SCALE
  5
4C
102
{ACAD_REACTORS
330
47
102
}
330
47
100
AcDbScale
 70
     0
300
1:8
140
1.0
141
8.0
290
     0
  0
SCALE
  5
4D
102
{ACAD_REACTORS
330
47
102
}
330
47
100
AcDbScale
 70
     0
300
1:10
140
1.0
141
10.0
290
     0
  0
SCALE
  5
4E
102
{ACAD_REACTORS
330
47
102
}
330
47
100
AcDbScale
 70
     0
300
1:16
140
1.0
141
16.0
290
     0
  0
SCALE
  5
4F
102
{ACAD_REACTORS
330
47
102
}
330
47
100
AcDbScale
 70
     0
300
1:20
140
1.0
141
20.0
290
     0
  0
SCALE
  5
50
102
{ACAD_REACTORS
330
47
102
}
330
47
100
AcDbScale
 70
     0
300
1:30
140
1.0
141
30.0
290
     0
  0
SCALE
  5
51
102
{ACAD_REACTORS
330
47
102
}
330
47
100
AcDbScale
 70
     0
300
1:40
140
1.0
141
40.0
290
     0
  0
SCALE
  5
52
102
{ACAD_REACTORS
330
47
102
}
330
47
100
AcDbScale
 70
     0
300
1:50
140
1.0
141
50.0
290
     0
  0
SCALE
  5
53
102
{ACAD_REACTORS
330
47
102
}
330
47
100
AcDbScale
 70
     0
300
1:100
140
1.0
141
100.0
290
     0
  0
SCALE
  5
54
102
{ACAD_REACTORS
330
47
102
}
330
47
100
AcDbScale
 70
     0
300
2:1
140
2.0
141
1.0
290
     0
  0
SCALE
  5
55
102
{ACAD_REACTORS
330
47
102
}
330
47
100
AcDbScale
 70
     0
300
4:1
140
4.0
141
1.0
290
     0
  0
SCALE
  5
56
102
{ACAD_REACTORS
330
47
102
}
330
47
100
AcDbScale
 70
     0
300
8:1
140
8.0
141
1.0
290
     0
  0
SCALE
  5
57
102
{ACAD_REACTORS
330
47
102
}
330
47
100
AcDbScale
 70
     0
300
10:1
140
10.0
141
1.0
290
     0
  0
SCALE
  5
58
102
{ACAD_REACTORS
330
47
102
}
330
47
100
AcDbScale
 70
     0
300
100:1
140
100.0
141
1.0
290
     0
  0
SCALE
  5
59
102
{ACAD_REACTORS
330
47
102
}
330
47
100
AcDbScale
 70
     0
300
1/128" = 1'-0"
140
0.0078125
141
12.0
290
     0
  0
SCALE
  5
5A
102
{ACAD_REACTORS
330
47
102
}
330
47
100
AcDbScale
 70
     0
300
1/64" = 1'-0"
140
0.015625
141
12.0
290
     0
  0
SCALE
  5
5B
102
{ACAD_REACTORS
330
47
102
}
330
47
100
AcDbScale
 70
     0
300
1/32" = 1'-0"
140
0.03125
141
12.0
290
     0
  0
SCALE
  5
5C
102
{ACAD_REACTORS
330
47
102
}
330
47
100
AcDbScale
 70
     0
300
1/16" = 1'-0"
140
0.0625
141
12.0
290
     0
  0
SCALE
  5
5D
102
{ACAD_REACTORS
330
47
102
}
330
47
100
AcDbScale
 70
     0
300
3/32" = 1'-0"
140
0.09375
141
12.0
290
     0
  0
SCALE
  5
5E
102
{ACAD_REACTORS
330
47
102
}
330
47
100
AcDbScale
 70
     0
300
1/8" = 1'-0"
140
0.125
141
12.0
290
     0
  0
SCALE
  5
5F
102
{ACAD_REACTORS
330
47
102
}
330
47
100
AcDbScale
 70
     0
300
3/16" = 1'-0"
140
0.1875
141
12.0
290
     0
  0
SCALE
  5
60
102
{ACAD_REACTORS
330
47
102
}
330
47
100
AcDbScale
 70
     0
300
1/4" = 1'-0"
140
0.25
141
12.0
290
     0
  0
SCALE
  5
61
102
{ACAD_REACTORS
330
47
102
}
330
47
100
AcDbScale
 70
     0
300
3/8" = 1'-0"
140
0.375
141
12.0
290
     0
  0
SCALE
  5
62
102
{ACAD_REACTORS
330
47
102
}
330
47
100
AcDbScale
 70
     0
300
1/2" = 1'-0"
140
0.5
141
12.0
290
     0
  0
SCALE
  5
63
102
{ACAD_REACTORS
330
47
102
}
330
47
100
AcDbScale
 70
     0
300
3/4" = 1'-0"
140
0.75
141
12.0
290
     0
  0
SCALE
  5
64
102
{ACAD_REACTORS
330
47
102
}
330
47
100
AcDbScale
 70
     0
300
1" = 1'-0"
140
1.0
141
12.0
290
     0
  0
SCALE
  5
65
102
{ACAD_REACTORS
330
47
102
}
330
47
100
AcDbScale
 70
     0
300
1-1/2" = 1'-0"
140
1.5
141
12.0
290
     0
  0
SCALE
  5
66
102
{ACAD_REACTORS
330
47
102
}
330
47
100
AcDbScale
 70
     0
300
3" = 1'-0"
140
3.0
141
12.0
290
     0
  0
SCALE
  5
67
102
{ACAD_REACTORS
330
47
102
}
330
47
100
AcDbScale
 70
     0
300
6" = 1'-0"
140
6.0
141
12.0
290
     0
  0
SCALE
  5
68
102
{ACAD_REACTORS
330
47
102
}
330
47
100
AcDbScale
 70
     0
300
1'-0" = 1'-0"
140
12.0
141
12.0
290
     0
  0
ENDSEC
  0
EOF
