  0
SECTION
  2
HEADER
  9
$ACADVER
  1
AC1015
  9
$ACADMAINTVER
 70
     6
  9
$DWGCODEPAGE
  3
ANSI_949
  9
$INSBASE
 10
0.0
 20
0.0
 30
0.0
  9
$EXTMIN
 10
-50.7903691083666
 20
-49.97073246008785
 30
0.0
  9
$EXTMAX
 10
38.98035704348963
 20
28.61341044024269
 30
0.0
  9
$LIMMIN
 10
0.0
 20
0.0
  9
$LIMMAX
 10
420.0
 20
297.0
  9
$ORTHOMODE
 70
     0
  9
$REGENMODE
 70
     1
  9
$FILLMODE
 70
     1
  9
$QTEXTMODE
 70
     0
  9
$MIRRTEXT
 70
     1
  9
$LTSCALE
 40
1.0
  9
$ATTMODE
 70
     1
  9
$TEXTSIZE
 40
3.5
  9
$TRACEWID
 40
1.0
  9
$TEXTSTYLE
  7
Standard
  9
$CLAYER
  8
0
  9
$CELTYPE
  6
ByLayer
  9
$CECOLOR
 62
   256
  9
$CELTSCALE
 40
1.0
  9
$DISPSILH
 70
     0
  9
$DIMSCALE
 40
1.0
  9
$DIMASZ
 40
3.302
  9
$DIMEXO
 40
1.0
  9
$DIMDLI
 40
3.75
  9
$DIMRND
 40
0.0
  9
$DIMDLE
 40
0.0
  9
$DIMEXE
 40
1.0
  9
$DIMTP
 40
0.0
  9
$DIMTM
 40
0.0
  9
$DIMTXT
 40
3.5
  9
$DIMCEN
 40
2.5
  9
$DIMTSZ
 40
0.0
  9
$DIMTOL
 70
     0
  9
$DIMLIM
 70
     0
  9
$DIMTIH
 70
     1
  9
$DIMTOH
 70
     1
  9
$DIMSE1
 70
     0
  9
$DIMSE2
 70
     0
  9
$DIMTAD
 70
     1
  9
$DIMZIN
 70
     0
  9
$DIMBLK
  1

  9
$DIMASO
 70
     1
  9
$DIMSHO
 70
     1
  9
$DIMPOST
  1

  9
$DIMAPOST
  1

  9
$DIMALT
 70
     0
  9
$DIMALTD
 70
     3
  9
$DIMALTF
 40
0.0393700787401575
  9
$DIMLFAC
 40
1.0
  9
$DIMTOFL
 70
     1
  9
$DIMTVP
 40
0.0
  9
$DIMTIX
 70
     0
  9
$DIMSOXD
 70
     0
  9
$DIMSAH
 70
     0
  9
$DIMBLK1
  1

  9
$DIMBLK2
  1

  9
$DIMSTYLE
  2
ISO-25
  9
$DIMCLRD
 70
     0
  9
$DIMCLRE
 70
     0
  9
$DIMCLRT
 70
     0
  9
$DIMTFAC
 40
1.0
  9
$DIMGAP
 40
1.524
  9
$DIMJUST
 70
     0
  9
$DIMSD1
 70
     0
  9
$DIMSD2
 70
     0
  9
$DIMTOLJ
 70
     0
  9
$DIMTZIN
 70
     0
  9
$DIMALTZ
 70
     0
  9
$DIMALTTZ
 70
     0
  9
$DIMUPT
 70
     0
  9
$DIMDEC
 70
     2
  9
$DIMTDEC
 70
     2
  9
$DIMALTU
 70
     2
  9
$DIMALTTD
 70
     3
  9
$DIMTXSTY
  7
Standard
  9
$DIMAUNIT
 70
     0
  9
$DIMADEC
 70
     2
  9
$DIMALTRND
 40
0.0
  9
$DIMAZIN
 70
     0
  9
$DIMDSEP
 70
    44
  9
$DIMATFIT
 70
     3
  9
$DIMFRAC
 70
     0
  9
$DIMLDRBLK
  1

  9
$DIMLUNIT
 70
     2
  9
$DIMLWD
 70
    -2
  9
$DIMLWE
 70
    -2
  9
$DIMTMOVE
 70
     0
  9
$LUNITS
 70
     2
  9
$LUPREC
 70
     2
  9
$SKETCHINC
 40
1.0
  9
$FILLETRAD
 40
10.0
  9
$AUNITS
 70
     0
  9
$AUPREC
 70
     2
  9
$MENU
  1
.
  9
$ELEVATION
 40
0.0
  9
$PELEVATION
 40
0.0
  9
$THICKNESS
 40
0.0
  9
$LIMCHECK
 70
     0
  9
$CHAMFERA
 40
0.0
  9
$CHAMFERB
 40
0.0
  9
$CHAMFERC
 40
0.0
  9
$CHAMFERD
 40
0.0
  9
$SKPOLY
 70
     0
  9
$TDCREATE
 40
2458262.536473947
  9
$TDUCREATE
 40
2458262.161473947
  9
$TDUPDATE
 40
2458264.79789706
  9
$TDUUPDATE
 40
2458264.42289706
  9
$TDINDWG
 40
0.0022628125
  9
$TDUSRTIMER
 40
2458264.422524039
  9
$USRTIMER
 70
     1
  9
$ANGBASE
 50
0.0
  9
$ANGDIR
 70
     0
  9
$PDMODE
 70
     0
  9
$PDSIZE
 40
-1.0
  9
$PLINEWID
 40
0.0
  9
$SPLFRAME
 70
     0
  9
$SPLINETYPE
 70
     6
  9
$SPLINESEGS
 70
     8
  9
$HANDSEED
  5
19C
  9
$SURFTAB1
 70
     6
  9
$SURFTAB2
 70
     6
  9
$SURFTYPE
 70
     6
  9
$SURFU
 70
     6
  9
$SURFV
 70
     6
  9
$UCSBASE
  2

  9
$UCSNAME
  2

  9
$UCSORG
 10
0.0
 20
0.0
 30
0.0
  9
$UCSXDIR
 10
1.0
 20
0.0
 30
0.0
  9
$UCSYDIR
 10
0.0
 20
1.0
 30
0.0
  9
$UCSORTHOREF
  2

  9
$UCSORTHOVIEW
 70
     0
  9
$UCSORGTOP
 10
0.0
 20
0.0
 30
0.0
  9
$UCSORGBOTTOM
 10
0.0
 20
0.0
 30
0.0
  9
$UCSORGLEFT
 10
0.0
 20
0.0
 30
0.0
  9
$UCSORGRIGHT
 10
0.0
 20
0.0
 30
0.0
  9
$UCSORGFRONT
 10
0.0
 20
0.0
 30
0.0
  9
$UCSORGBACK
 10
0.0
 20
0.0
 30
0.0
  9
$PUCSBASE
  2

  9
$PUCSNAME
  2

  9
$PUCSORG
 10
0.0
 20
0.0
 30
0.0
  9
$PUCSXDIR
 10
1.0
 20
0.0
 30
0.0
  9
$PUCSYDIR
 10
0.0
 20
1.0
 30
0.0
  9
$PUCSORTHOREF
  2

  9
$PUCSORTHOVIEW
 70
     0
  9
$PUCSORGTOP
 10
0.0
 20
0.0
 30
0.0
  9
$PUCSORGBOTTOM
 10
0.0
 20
0.0
 30
0.0
  9
$PUCSORGLEFT
 10
0.0
 20
0.0
 30
0.0
  9
$PUCSORGRIGHT
 10
0.0
 20
0.0
 30
0.0
  9
$PUCSORGFRONT
 10
0.0
 20
0.0
 30
0.0
  9
$PUCSORGBACK
 10
0.0
 20
0.0
 30
0.0
  9
$USERI1
 70
     0
  9
$USERI2
 70
     0
  9
$USERI3
 70
     0
  9
$USERI4
 70
     0
  9
$USERI5
 70
     0
  9
$USERR1
 40
0.0
  9
$USERR2
 40
0.0
  9
$USERR3
 40
0.0
  9
$USERR4
 40
0.0
  9
$USERR5
 40
0.0
  9
$WORLDVIEW
 70
     1
  9
$SHADEDGE
 70
     3
  9
$SHADEDIF
 70
    70
  9
$TILEMODE
 70
     1
  9
$MAXACTVP
 70
    64
  9
$PINSBASE
 10
0.0
 20
0.0
 30
0.0
  9
$PLIMCHECK
 70
     0
  9
$PEXTMIN
 10
1.000000000000000E+20
 20
1.000000000000000E+20
 30
1.000000000000000E+20
  9
$PEXTMAX
 10
-1.000000000000000E+20
 20
-1.000000000000000E+20
 30
-1.000000000000000E+20
  9
$PLIMMIN
 10
0.0
 20
0.0
  9
$PLIMMAX
 10
0.0
 20
0.0
  9
$UNITMODE
 70
     0
  9
$VISRETAIN
 70
     1
  9
$PLINEGEN
 70
     0
  9
$PSLTSCALE
 70
     1
  9
$TREEDEPTH
 70
  3020
  9
$CMLSTYLE
  2
Standard
  9
$CMLJUST
 70
     0
  9
$CMLSCALE
 40
20.0
  9
$PROXYGRAPHICS
 70
     1
  9
$MEASUREMENT
 70
     1
  9
$CELWEIGHT
370
    -1
  9
$ENDCAPS
280
     0
  9
$JOINSTYLE
280
     0
  9
$LWDISPLAY
290
     1
  9
$INSUNITS
 70
     4
  9
$HYPERLINKBASE
  1

  9
$STYLESHEET
  1

  9
$XEDIT
290
     1
  9
$CEPSNTYPE
380
     0
  9
$PSTYLEMODE
290
     1
  9
$FINGERPRINTGUID
  2
{7DDB9F74-8A1C-44E6-A33B-50E9870FF5C0}
  9
$VERSIONGUID
  2
{FAEB1C32-E019-11D5-929B-00C0DF256EC4}
  9
$EXTNAMES
290
     1
  9
$PSVPSCALE
 40
0.0
  9
$OLESTARTUP
290
     0
  0
ENDSEC
  0
SECTION
  2
CLASSES
  0
CLASS
  1
ACDBDICTIONARYWDFLT
  2
AcDbDictionaryWithDefault
  3
ObjectDBX Classes
 90
        0
280
     0
281
     0
  0
CLASS
  1
VISUALSTYLE
  2
AcDbVisualStyle
  3
ObjectDBX Classes
 90
     4095
280
     0
281
     0
  0
CLASS
  1
MATERIAL
  2
AcDbMaterial
  3
ObjectDBX Classes
 90
     1153
280
     0
281
     0
  0
CLASS
  1
SCALE
  2
AcDbScale
  3
ObjectDBX Classes
 90
     1153
280
     0
281
     0
  0
CLASS
  1
SUN
  2
AcDbSun
  3
SCENEOE
 90
     1153
280
     0
281
     0
  0
CLASS
  1
ACDBPLACEHOLDER
  2
AcDbPlaceHolder
  3
ObjectDBX Classes
 90
        0
280
     0
281
     0
  0
CLASS
  1
LAYOUT
  2
AcDbLayout
  3
ObjectDBX Classes
 90
        0
280
     0
281
     0
  0
CLASS
  1
TABLESTYLE
  2
AcDbTableStyle
  3
ObjectDBX Classes
 90
     4095
280
     0
281
     0
  0
CLASS
  1
MLEADERSTYLE
  2
AcDbMLeaderStyle
  3
ACDB_MLEADERSTYLE_CLASS
 90
     4095
280
     0
281
     0
  0
CLASS
  1
RASTERVARIABLES
  2
AcDbRasterVariables
  3
ISM
 90
        0
280
     0
281
     0
  0
ENDSEC
  0
SECTION
  2
TABLES
  0
TABLE
  2
VPORT
  5
8
330
0
100
AcDbSymbolTable
 70
     1
  0
VPORT
  5
29
330
8
100
AcDbSymbolTableRecord
100
AcDbViewportTableRecord
  2
*Active
 70
     0
 10
0.0
 20
0.0
 11
1.0
 21
1.0
 12
-5.905006032438493
 22
-10.67866100992259
 13
0.0
 23
0.0
 14
10.0
 24
10.0
 15
10.0
 25
10.0
 16
0.0
 26
0.0
 36
1.0
 17
0.0
 27
0.0
 37
0.0
 40
80.15582575833714
 41
1.679075738125802
 42
50.0
 43
0.0
 44
0.0
 50
0.0
 51
0.0
 71
    16
 72
  2000
 73
     1
 74
     3
 75
     0
 76
     0
 77
     0
 78
     0
281
     0
 65
     1
110
0.0
120
0.0
130
0.0
111
1.0
121
0.0
131
0.0
112
0.0
122
1.0
132
0.0
 79
     0
146
0.0
  0
ENDTAB
  0
TABLE
  2
LTYPE
  5
5
330
0
100
AcDbSymbolTable
 70
     6
  0
LTYPE
  5
14
330
5
100
AcDbSymbolTableRecord
100
AcDbLinetypeTableRecord
  2
ByBlock
 70
     0
  3

 72
    65
 73
     0
 40
0.0
  0
LTYPE
  5
15
330
5
100
AcDbSymbolTableRecord
100
AcDbLinetypeTableRecord
  2
ByLayer
 70
     0
  3

 72
    65
 73
     0
 40
0.0
  0
LTYPE
  5
16
330
5
100
AcDbSymbolTableRecord
100
AcDbLinetypeTableRecord
  2
Continuous
 70
     0
  3
Solid line
 72
    65
 73
     0
 40
0.0
  0
LTYPE
  5
6A
330
5
100
AcDbSymbolTableRecord
100
AcDbLinetypeTableRecord
  2
HIDDEN
 70
     0
  3
Hidden __ __ __ __ __ __ __ __ __ __ __ __ __ __
 72
    65
 73
     2
 40
1.905
 49
1.27
 74
     0
 49
-0.635
 74
     0
  0
LTYPE
  5
6B
330
5
100
AcDbSymbolTableRecord
100
AcDbLinetypeTableRecord
  2
PHANTOM
 70
     0
  3
Phantom ______  __  __  ______  __  __  ______
 72
    65
 73
     6
 40
12.7
 49
6.35
 74
     0
 49
-1.27
 74
     0
 49
1.27
 74
     0
 49
-1.27
 74
     0
 49
1.27
 74
     0
 49
-1.27
 74
     0
  0
LTYPE
  5
6C
330
5
100
AcDbSymbolTableRecord
100
AcDbLinetypeTableRecord
  2
CENTER
 70
     0
  3
Center ____ _ ____ _ ____ _ ____ _ ____ _ ____
 72
    65
 73
     4
 40
10.16
 49
6.35
 74
     0
 49
-1.27
 74
     0
 49
1.27
 74
     0
 49
-1.27
 74
     0
  0
LTYPE
  5
6D
330
5
100
AcDbSymbolTableRecord
100
AcDbLinetypeTableRecord
  2
CENTERX2
 70
     0
  3
Center (2x) ________  __  ________  __  _____
 72
    65
 73
     4
 40
20.32
 49
12.7
 74
     0
 49
-2.54
 74
     0
 49
2.54
 74
     0
 49
-2.54
 74
     0
  0
LTYPE
  5
6E
330
5
100
AcDbSymbolTableRecord
100
AcDbLinetypeTableRecord
  2
DOT2
 70
     0
  3
Dot (.5x) ........................................
 72
    65
 73
     2
 40
0.635
 49
0.0
 74
     0
 49
-0.635
 74
     0
  0
ENDTAB
  0
TABLE
  2
LAYER
  5
2
330
0
100
AcDbSymbolTable
 70
    17
  0
LAYER
  5
10
330
2
100
AcDbSymbolTableRecord
100
AcDbLayerTableRecord
  2
0
 70
     0
 62
     7
  6
Continuous
370
    -3
390
F
  0
LAYER
  5
6F
330
2
100
AcDbSymbolTableRecord
100
AcDbLayerTableRecord
  2
FORMAT
 70
     0
 62
     2
  6
Continuous
370
    -3
390
F
  0
LAYER
  5
70
330
2
100
AcDbSymbolTableRecord
100
AcDbLayerTableRecord
  2
외형선
 70
     0
 62
   100
  6
Continuous
370
    30
390
F
  0
LAYER
  5
71
330
2
100
AcDbSymbolTableRecord
100
AcDbLayerTableRecord
  2
숨은선
 70
     0
 62
     2
  6
HIDDEN
370
    15
390
F
  0
LAYER
  5
72
330
2
100
AcDbSymbolTableRecord
100
AcDbLayerTableRecord
  2
중심선
 70
     0
 62
     1
  6
CENTERX2
370
    -3
390
F
  0
LAYER
  5
73
330
2
100
AcDbSymbolTableRecord
100
AcDbLayerTableRecord
  2
파단선
 70
     0
 62
     4
  6
Continuous
370
    -3
390
F
  0
LAYER
  5
74
330
2
100
AcDbSymbolTableRecord
100
AcDbLayerTableRecord
  2
해칭선
 70
     0
 62
     4
  6
Continuous
370
    -3
390
F
  0
LAYER
  5
75
330
2
100
AcDbSymbolTableRecord
100
AcDbLayerTableRecord
  2
가는실선
 70
     0
 62
     4
  6
Continuous
370
    -3
390
F
  0
LAYER
  5
76
330
2
100
AcDbSymbolTableRecord
100
AcDbLayerTableRecord
  2
치수_보조선
 70
     0
 62
     4
  6
Continuous
370
    -3
390
F
  0
LAYER
  5
77
330
2
100
AcDbSymbolTableRecord
100
AcDbLayerTableRecord
  2
치수문자_일반주서
 70
     0
 62
     7
  6
Continuous
370
    15
390
F
  0
LAYER
  5
78
330
2
100
AcDbSymbolTableRecord
100
AcDbLayerTableRecord
  2
개별주서
 70
     0
 62
   100
  6
Continuous
370
    30
390
F
  0
LAYER
  5
79
330
2
100
AcDbSymbolTableRecord
100
AcDbLayerTableRecord
  2
중간선
 70
     0
 62
     2
  6
Continuous
370
    15
390
F
  0
LAYER
  5
7A
330
2
100
AcDbSymbolTableRecord
100
AcDbLayerTableRecord
  2
윤곽선
 70
     0
 62
     3
  6
Continuous
370
    40
390
F
  0
LAYER
  5
7B
330
2
100
AcDbSymbolTableRecord
100
AcDbLayerTableRecord
  2
중심마크
 70
     0
 62
   100
  6
Continuous
370
    30
390
F
  0
LAYER
  5
7C
330
2
100
AcDbSymbolTableRecord
100
AcDbLayerTableRecord
  2
가상선
 70
     0
 62
     4
  6
PHANTOM
370
    -3
390
F
  0
LAYER
  5
7D
330
2
100
AcDbSymbolTableRecord
100
AcDbLayerTableRecord
  2
특수지정선
 70
     0
 62
     5
  6
CENTERX2
370
    60
390
F
  0
LAYER
  5
147
330
2
100
AcDbSymbolTableRecord
100
AcDbLayerTableRecord
  2
Defpoints
 70
     0
 62
     7
  6
Continuous
290
     0
370
    -3
390
F
  0
ENDTAB
  0
TABLE
  2
STYLE
  5
3
330
0
100
AcDbSymbolTable
 70
     2
  0
STYLE
  5
11
330
3
100
AcDbSymbolTableRecord
100
AcDbTextStyleTableRecord
  2
Standard
 70
     0
 40
0.0
 41
1.0
 50
0.0
 71
     0
 42
3.5
  3
txt
  4

  0
STYLE
  5
93
330
3
100
AcDbSymbolTableRecord
100
AcDbTextStyleTableRecord
  2
SLDTEXTSTYLE0
 70
     0
 40
0.0
 41
0.75
 50
0.0
 71
     0
 42
3.5
  3
TXT
  4

  0
ENDTAB
  0
TABLE
  2
VIEW
  5
6
330
0
100
AcDbSymbolTable
 70
     0
  0
ENDTAB
  0
TABLE
  2
UCS
  5
7
330
0
100
AcDbSymbolTable
 70
     0
  0
ENDTAB
  0
TABLE
  2
APPID
  5
9
330
0
100
AcDbSymbolTable
 70
     1
  0
APPID
  5
12
330
9
100
AcDbSymbolTableRecord
100
AcDbRegAppTableRecord
  2
ACAD
 70
     0
  0
ENDTAB
  0
TABLE
  2
DIMSTYLE
  5
A
330
0
100
AcDbSymbolTable
 70
     4
100
AcDbDimStyleTable
  0
DIMSTYLE
105
27
330
A
100
AcDbSymbolTableRecord
100
AcDbDimStyleTableRecord
  2
ISO-25
 70
     0
 41
2.5
 42
0.625
 43
3.75
 44
1.25
 73
     0
 74
     0
 77
     1
 78
     8
140
2.5
141
2.5
143
0.03937007874016
147
0.625
171
     3
172
     1
178
     0
271
     2
272
     2
274
     3
278
    44
283
     0
284
     8
340
11
  0
DIMSTYLE
105
EA
102
{ACAD_REACTORS
330
E9
102
}
330
A
100
AcDbSymbolTableRecord
100
AcDbDimStyleTableRecord
  2
SLDDIMSTYLE0
 70
     0
 41
3.302
 44
0.0
 45
0.000000001
 73
     0
 74
     0
 77
     1
 78
     4
 79
     1
140
3.5
147
0.875
172
     1
173
     1
178
     0
271
     2
272
     2
276
     2
284
    12
289
     0
340
93
  0
DIMSTYLE
105
F8
102
{ACAD_REACTORS
330
F7
102
}
330
A
100
AcDbSymbolTableRecord
100
AcDbDimStyleTableRecord
  2
SLDDIMSTYLE1
 70
     0
 41
3.302
 44
0.0
 45
0.000000001
 73
     0
 74
     0
 77
     1
 78
    12
 79
     3
140
3.5
147
0.875
173
     1
178
     0
271
     2
272
     2
276
     2
284
    12
340
93
  0
DIMSTYLE
105
103
102
{ACAD_REACTORS
330
102
330
10F
102
}
330
A
100
AcDbSymbolTableRecord
100
AcDbDimStyleTableRecord
  2
SLDDIMSTYLE2
 70
     0
 41
3.302
 44
0.0
 45
0.000000001
 73
     0
 74
     0
 77
     1
 78
    12
 79
     3
140
3.5
147
0.875
172
     1
173
     1
178
     0
271
     2
272
     2
276
     2
284
    12
289
     0
340
93
  0
ENDTAB
  0
TABLE
  2
BLOCK_RECORD
  5
1
330
0
100
AcDbSymbolTable
 70
     7
  0
BLOCK_RECORD
  5
1F
330
1
100
AcDbSymbolTableRecord
100
AcDbBlockTableRecord
  2
*Model_Space
340
22
  0
BLOCK_RECORD
  5
1B
330
1
100
AcDbSymbolTableRecord
100
AcDbBlockTableRecord
  2
*Paper_Space
340
1E
  0
BLOCK_RECORD
  5
23
330
1
100
AcDbSymbolTableRecord
100
AcDbBlockTableRecord
  2
*Paper_Space0
340
26
  0
BLOCK_RECORD
  5
7E
330
1
100
AcDbSymbolTableRecord
100
AcDbBlockTableRecord
  2
블럭10
340
0
102
{BLKREFS
331
E2
102
}
  0
BLOCK_RECORD
  5
EB
330
1
100
AcDbSymbolTableRecord
100
AcDbBlockTableRecord
  2
_D
340
0
  0
BLOCK_RECORD
  5
F9
330
1
100
AcDbSymbolTableRecord
100
AcDbBlockTableRecord
  2
_D_1
340
0
  0
BLOCK_RECORD
  5
104
330
1
100
AcDbSymbolTableRecord
100
AcDbBlockTableRecord
  2
_D_2
340
0
  0
BLOCK_RECORD
  5
110
330
1
100
AcDbSymbolTableRecord
100
AcDbBlockTableRecord
  2
_D_3
340
0
  0
BLOCK_RECORD
  5
11C
330
1
100
AcDbSymbolTableRecord
100
AcDbBlockTableRecord
  2
SW_DOWELSYMBOL_0
340
0
102
{BLKREFS
331
122
102
}
  0
ENDTAB
  0
ENDSEC
  0
SECTION
  2
BLOCKS
  0
BLOCK
  5
20
330
1F
100
AcDbEntity
  8
0
100
AcDbBlockBegin
  2
*Model_Space
 70
     0
 10
0.0
 20
0.0
 30
0.0
  3
*Model_Space
  1

  0
ENDBLK
  5
21
330
1F
100
AcDbEntity
  8
0
100
AcDbBlockEnd
  0
BLOCK
  5
1C
330
1B
100
AcDbEntity
 67
     1
  8
0
100
AcDbBlockBegin
  2
*Paper_Space
 70
     0
 10
0.0
 20
0.0
 30
0.0
  3
*Paper_Space
  1

  0
ENDBLK
  5
1D
330
1B
100
AcDbEntity
 67
     1
  8
0
100
AcDbBlockEnd
  0
BLOCK
  5
24
330
23
100
AcDbEntity
  8
0
100
AcDbBlockBegin
  2
*Paper_Space0
 70
     0
 10
0.0
 20
0.0
 30
0.0
  3
*Paper_Space0
  1

  0
ENDBLK
  5
25
330
23
100
AcDbEntity
  8
0
100
AcDbBlockEnd
  0
BLOCK
  5
7F
330
7E
100
AcDbEntity
  8
0
100
AcDbBlockBegin
  2
블럭10
 70
     2
 10
0.0
 20
0.0
 30
0.0
  3
블럭10
  1

  0
ELLIPSE
  5
81
330
7E
100
AcDbEntity
  8
중심선
100
AcDbEllipse
 10
20.54032771741204
 20
12.0471743016438
 30
0.0
 11
6.600054785286829
 21
-1.261213355974178E-13
 31
0.0
210
0.0
220
0.0
230
1.0
 40
0.636358354079598
 41
0.9219305317359503
 42
6.513795318482858
  0
ELLIPSE
  5
82
330
7E
100
AcDbEntity
  8
중심선
100
AcDbEllipse
 10
20.54032771746488
 20
12.04717430159265
 30
0.0
 11
3.960054785062283
 21
1.540847449632565E-10
 31
0.0
210
0.0
220
0.0
230
1.0
 40
0.3939339440162632
 41
1.131841032648279
 42
5.62031148352944
  0
LINE
  5
83
330
7E
100
AcDbEntity
  8
중심선
100
AcDbLine
 10
2.268634060543552
 20
16.24717430164393
 30
0.0
 11
5.714909304380834
 21
16.24717430164393
 31
0.0
  0
LINE
  5
84
330
7E
100
AcDbEntity
  8
중심선
100
AcDbLine
 10
5.245725140726316
 20
7.84717430164391
 30
0.0
 11
8.692000384563599
 21
7.84717430164391
 31
0.0
  0
LINE
  5
85
330
7E
100
AcDbEntity
  8
중심선
100
AcDbLine
 10
15.74043728645272
 20
16.24717430164393
 30
0.0
 11
8.692000384563599
 21
7.84717430164391
 31
0.0
  0
LINE
  5
86
330
7E
100
AcDbEntity
  8
중심선
100
AcDbLine
 10
0.1404042013395286
 20
13.71084872107135
 30
0.0
 11
3.58671253028996
 21
13.71088815037384
 31
0.0
  0
LINE
  5
87
330
7E
100
AcDbEntity
  8
중심선
100
AcDbLine
 10
2.750260043222114
 20
10.84717430164391
 30
0.0
 11
6.196535287059397
 21
10.84717430164391
 31
0.0
  0
LINE
  5
88
330
7E
100
AcDbEntity
  8
중심선
100
AcDbLine
 10
12.29416204261559
 20
16.24717430164393
 30
0.0
 11
5.245725140726316
 21
7.84717430164391
 31
0.0
  0
LINE
  5
89
330
7E
100
AcDbEntity
  8
중심선
100
AcDbLine
 10
10.72767329541681
 20
16.24717430164393
 30
0.0
 11
6.196535287059397
 21
10.84717430164391
 31
0.0
  0
LINE
  5
8A
330
7E
100
AcDbEntity
  8
중심선
100
AcDbLine
 10
7.28139805157953
 20
16.24717430164393
 30
0.0
 11
2.750260043222114
 21
10.84717430164391
 31
0.0
  0
LINE
  5
8B
330
7E
100
AcDbEntity
  8
중심선
100
AcDbLine
 10
5.714909304380834
 20
16.24717430164393
 30
0.0
 11
3.58671253028996
 21
13.71088815037384
 31
0.0
  0
LINE
  5
8C
330
7E
100
AcDbEntity
  8
중심선
100
AcDbLine
 10
2.268634060543552
 20
16.24717430164393
 30
0.0
 11
0.1404042013395286
 21
13.71084872107135
 31
0.0
  0
LINE
  5
8D
330
7E
100
AcDbEntity
  8
중심선
100
AcDbLine
 10
7.28139805157953
 20
16.24717430164393
 30
0.0
 11
10.72767329541681
 21
16.24717430164393
 31
0.0
  0
LINE
  5
8E
330
7E
100
AcDbEntity
  8
중심선
100
AcDbLine
 10
12.29416204261559
 20
16.24717430164393
 30
0.0
 11
15.74043728645272
 21
16.24717430164393
 31
0.0
  0
LINE
  5
8F
330
7E
100
AcDbEntity
  8
중심선
100
AcDbLine
 10
19.22036997980202
 20
11.08717430171403
 30
0.0
 11
23.66174974927406
 21
11.08717430171406
 31
0.0
  0
LINE
  5
90
330
7E
100
AcDbEntity
  8
중심선
100
AcDbLine
 10
19.22039502424796
 20
13.00717430171391
 30
0.0
 11
19.22036997980202
 21
11.08717430171403
 31
0.0
  0
LINE
  5
91
330
7E
100
AcDbEntity
  8
중심선
100
AcDbLine
 10
19.22039502424796
 20
13.00717430171391
 30
0.0
 11
26.96566020931264
 21
13.00717430171391
 31
0.0
  0
LINE
  5
92
330
7E
100
AcDbEntity
  8
중심선
100
AcDbLine
 10
22.22332737316547
 20
13.45928029700563
 30
0.0
 11
24.52862924686651
 21
15.39360700705356
 31
0.0
  0
ATTDEF
  5
94
330
7E
100
AcDbEntity
  8
FORMAT
 62
     2
100
AcDbText
 10
-16.11926103943555
 20
2.075366912832191
 30
0.0
 40
4.233333333333333
  1
SEME7002516E [ 2 FLUTE ]
 41
0.75
  7
SLDTEXTSTYLE0
 11
-16.11926103943555
 21
-0.0412997538344756
 31
0.0
100
AcDbAttributeDefinition
  3

  2
AUTOATTR0
 70
     0
 74
     1
  0
ENDBLK
  5
80
330
7E
100
AcDbEntity
  8
0
100
AcDbBlockEnd
  0
BLOCK
  5
EC
330
EB
100
AcDbEntity
  8
0
100
AcDbBlockBegin
  2
_D
 70
     0
 10
0.0
 20
0.0
 30
0.0
  3
_D
  1

  0
LINE
  5
EE
330
EB
100
AcDbEntity
  8
치수문자_일반주서
 62
     0
370
    -2
100
AcDbLine
 10
25.59358891324552
 20
-1.249999999999997
 30
0.0
 11
38.43002371015627
 21
-1.24999999999995
 31
0.0
  0
LINE
  5
EF
330
EB
100
AcDbEntity
  8
치수문자_일반주서
 62
     0
370
    -2
100
AcDbLine
 10
25.59358891324552
 20
1.250000000000003
 30
0.0
 11
38.43002371015626
 21
1.25000000000005
 31
0.0
  0
LINE
  5
F0
330
EB
100
AcDbEntity
  8
치수문자_일반주서
 62
     0
370
    -2
100
AcDbLine
 10
38.43002371015627
 20
-1.24999999999995
 30
0.0
 11
38.43002371015621
 21
19.6665000000001
 31
0.0
  0
LINE
  5
F1
330
EB
100
AcDbEntity
  8
치수문자_일반주서
 62
     0
370
    -2
100
AcDbLine
 10
38.43002371015627
 20
-1.24999999999995
 30
0.0
 11
38.43002371015626
 21
1.25000000000005
 31
0.0
  0
LINE
  5
F2
330
EB
100
AcDbEntity
  8
치수문자_일반주서
 62
     0
370
    -2
100
AcDbLine
 10
38.43002371015628
 20
-4.55199999999995
 30
0.0
 11
38.43002371015628
 21
-7.853999999999949
 31
0.0
  0
LINE
  5
F3
330
EB
100
AcDbEntity
  8
치수문자_일반주서
 62
     0
370
    -2
100
AcDbLine
 10
38.43002371015626
 20
4.552000000000049
 30
0.0
 11
38.43002371015625
 21
7.854000000000049
 31
0.0
  0
SOLID
  5
F4
330
EB
100
AcDbEntity
  8
치수문자_일반주서
 62
     0
100
AcDbTrace
 10
38.98035704348961
 20
-4.551999999999948
 30
0.0
 11
37.87969037682294
 21
-4.551999999999952
 31
0.0
 12
38.43002371015627
 22
-1.24999999999995
 32
0.0
 13
38.43002371015627
 23
-1.24999999999995
 33
0.0
  0
SOLID
  5
F5
330
EB
100
AcDbEntity
  8
치수문자_일반주서
 62
     0
100
AcDbTrace
 10
37.87969037682292
 20
4.552000000000048
 30
0.0
 11
38.98035704348959
 21
4.552000000000051
 31
0.0
 12
38.43002371015626
 22
1.25000000000005
 32
0.0
 13
38.43002371015626
 23
1.25000000000005
 33
0.0
  0
MTEXT
  5
F6
330
EB
100
AcDbEntity
  8
치수문자_일반주서
 62
     0
100
AcDbMText
 10
34.05502371015623
 20
13.76025000000009
 30
0.0
 40
3.5
 41
0.0
 71
     2
 72
     1
  1
\A1;%%c2.50
  7
SLDTEXTSTYLE0
 11
-2.842170943040401E-15
 21
1.0
 31
0.0
 73
     1
 44
1.0
  0
POINT
  5
148
330
EB
100
AcDbEntity
  8
Defpoints
 62
     0
100
AcDbPoint
 10
25.53108891324552
 20
-1.249999999999997
 30
0.0
  0
POINT
  5
149
330
EB
100
AcDbEntity
  8
Defpoints
 62
     0
100
AcDbPoint
 10
25.53108891324552
 20
1.250000000000003
 30
0.0
  0
POINT
  5
14A
330
EB
100
AcDbEntity
  8
Defpoints
 62
     0
100
AcDbPoint
 10
38.43002371015626
 20
1.250000000000051
 30
0.0
  0
ENDBLK
  5
ED
330
EB
100
AcDbEntity
  8
0
100
AcDbBlockEnd
  0
BLOCK
  5
FA
330
F9
100
AcDbEntity
  8
0
100
AcDbBlockBegin
  2
_D_1
 70
     0
 10
0.0
 20
0.0
 30
0.0
  3
_D_1
  1

  0
LINE
  5
FC
330
F9
100
AcDbEntity
  8
치수문자_일반주서
 62
     0
370
    -2
100
AcDbLine
 10
-34.46891108675448
 20
2.512499999999996
 30
0.0
 11
-34.46891108675448
 21
24.23841044024269
 31
0.0
  0
LINE
  5
FD
330
F9
100
AcDbEntity
  8
치수문자_일반주서
 62
     0
370
    -2
100
AcDbLine
 10
25.53108891324552
 20
1.311176086539878
 30
0.0
 11
25.53108891324552
 21
24.23841044024269
 31
0.0
  0
LINE
  5
FE
330
F9
100
AcDbEntity
  8
치수문자_일반주서
 62
     0
370
    -2
100
AcDbLine
 10
-31.16691108675448
 20
24.23841044024269
 30
0.0
 11
22.22908891324552
 21
24.23841044024269
 31
0.0
  0
SOLID
  5
FF
330
F9
100
AcDbEntity
  8
치수문자_일반주서
 62
     0
100
AcDbTrace
 10
-31.16691108675448
 20
24.78874377357602
 30
0.0
 11
-31.16691108675448
 21
23.68807710690935
 31
0.0
 12
-34.46891108675448
 22
24.23841044024269
 32
0.0
 13
-34.46891108675448
 23
24.23841044024269
 33
0.0
  0
SOLID
  5
100
330
F9
100
AcDbEntity
  8
치수문자_일반주서
 62
     0
100
AcDbTrace
 10
22.22908891324552
 20
23.68807710690935
 30
0.0
 11
22.22908891324552
 21
24.78874377357602
 31
0.0
 12
25.53108891324552
 22
24.23841044024269
 32
0.0
 13
25.53108891324552
 23
24.23841044024269
 33
0.0
  0
MTEXT
  5
101
330
F9
100
AcDbEntity
  8
치수문자_일반주서
 62
     0
100
AcDbMText
 10
-4.468911086754478
 20
28.61341044024269
 30
0.0
 40
3.5
 41
0.0
 71
     2
 72
     1
  1
\A1;60
  7
SLDTEXTSTYLE0
 73
     1
 44
1.0
  0
POINT
  5
14E
330
F9
100
AcDbEntity
  8
Defpoints
 62
     0
100
AcDbPoint
 10
-34.46891108675448
 20
2.449999999999996
 30
0.0
  0
POINT
  5
14F
330
F9
100
AcDbEntity
  8
Defpoints
 62
     0
100
AcDbPoint
 10
25.53108891324552
 20
1.248676086539878
 30
0.0
  0
POINT
  5
150
330
F9
100
AcDbEntity
  8
Defpoints
 62
     0
100
AcDbPoint
 10
25.53108891324552
 20
24.23841044024269
 30
0.0
  0
ENDBLK
  5
FB
330
F9
100
AcDbEntity
  8
0
100
AcDbBlockEnd
  0
BLOCK
  5
105
330
104
100
AcDbEntity
  8
0
100
AcDbBlockBegin
  2
_D_2
 70
     0
 10
0.0
 20
0.0
 30
0.0
  3
_D_2
  1

  0
LINE
  5
107
330
104
100
AcDbEntity
  8
치수문자_일반주서
 62
     0
370
    -2
100
AcDbLine
 10
9.531088913245451
 20
0.9569636391629173
 30
0.0
 11
9.531088913245451
 21
14.24146144533072
 31
0.0
  0
LINE
  5
108
330
104
100
AcDbEntity
  8
치수문자_일반주서
 62
     0
370
    -2
100
AcDbLine
 10
25.53108891324552
 20
1.311176086539878
 30
0.0
 11
25.53108891324552
 21
14.24146144533072
 31
0.0
  0
LINE
  5
109
330
104
100
AcDbEntity
  8
치수문자_일반주서
 62
     0
370
    -2
100
AcDbLine
 10
12.83308891324545
 20
14.24146144533072
 30
0.0
 11
22.22908891324552
 21
14.24146144533072
 31
0.0
  0
SOLID
  5
10A
330
104
100
AcDbEntity
  8
치수문자_일반주서
 62
     0
100
AcDbTrace
 10
12.83308891324545
 20
14.79179477866405
 30
0.0
 11
12.83308891324545
 21
13.69112811199738
 31
0.0
 12
9.531088913245451
 22
14.24146144533072
 32
0.0
 13
9.531088913245451
 23
14.24146144533072
 33
0.0
  0
SOLID
  5
10B
330
104
100
AcDbEntity
  8
치수문자_일반주서
 62
     0
100
AcDbTrace
 10
22.22908891324552
 20
13.69112811199738
 30
0.0
 11
22.22908891324552
 21
14.79179477866405
 31
0.0
 12
25.53108891324552
 22
14.24146144533072
 32
0.0
 13
25.53108891324552
 23
14.24146144533072
 33
0.0
  0
MTEXT
  5
10C
330
104
100
AcDbEntity
  8
치수문자_일반주서
 62
     0
100
AcDbMText
 10
17.53108891324499
 20
18.61646144533072
 30
0.0
 40
3.5
 41
0.0
 71
     2
 72
     1
  1
\A1;16
  7
SLDTEXTSTYLE0
 73
     1
 44
1.0
  0
POINT
  5
10D
330
104
100
AcDbEntity
  8
Defpoints
 62
     0
100
AcDbPoint
 10
9.531088913245451
 20
0.8944636391629173
 30
0.0
  0
POINT
  5
10E
330
104
100
AcDbEntity
  8
Defpoints
 62
     0
100
AcDbPoint
 10
25.53108891324552
 20
1.248676086539878
 30
0.0
  0
POINT
  5
151
330
104
100
AcDbEntity
  8
Defpoints
 62
     0
100
AcDbPoint
 10
25.53108891324552
 20
14.24146144533072
 30
0.0
  0
ENDBLK
  5
106
330
104
100
AcDbEntity
  8
0
100
AcDbBlockEnd
  0
BLOCK
  5
111
330
110
100
AcDbEntity
  8
0
100
AcDbBlockBegin
  2
_D_3
 70
     0
 10
0.0
 20
0.0
 30
0.0
  3
_D_3
  1

  0
LINE
  5
113
330
110
100
AcDbEntity
  8
치수문자_일반주서
 62
     0
370
    -2
100
AcDbLine
 10
-33.98141108675448
 20
2.999999999999996
 30
0.0
 11
-46.41536910836655
 21
2.999999999999948
 31
0.0
  0
LINE
  5
114
330
110
100
AcDbEntity
  8
치수문자_일반주서
 62
     0
370
    -2
100
AcDbLine
 10
-33.98141108675448
 20
-3.0
 30
0.0
 11
-46.41536910836653
 21
-3.000000000000048
 31
0.0
  0
LINE
  5
115
330
110
100
AcDbEntity
  8
치수문자_일반주서
 62
     0
370
    -2
100
AcDbLine
 10
-46.41536910836655
 20
2.999999999999948
 30
0.0
 11
-46.4153691083666
 21
15.72899999999995
 31
0.0
  0
LINE
  5
116
330
110
100
AcDbEntity
  8
치수문자_일반주서
 62
     0
370
    -2
100
AcDbLine
 10
-46.41536910836655
 20
2.999999999999948
 30
0.0
 11
-46.41536910836653
 21
-3.000000000000048
 31
0.0
  0
LINE
  5
117
330
110
100
AcDbEntity
  8
치수문자_일반주서
 62
     0
370
    -2
100
AcDbLine
 10
-46.41536910836657
 20
6.301999999999948
 30
0.0
 11
-46.41536910836658
 21
9.603999999999948
 31
0.0
  0
LINE
  5
118
330
110
100
AcDbEntity
  8
치수문자_일반주서
 62
     0
370
    -2
100
AcDbLine
 10
-46.41536910836652
 20
-6.302000000000048
 30
0.0
 11
-46.41536910836651
 21
-9.604000000000047
 31
0.0
  0
SOLID
  5
119
330
110
100
AcDbEntity
  8
치수문자_일반주서
 62
     0
100
AcDbTrace
 10
-46.9657024416999
 20
6.301999999999946
 30
0.0
 11
-45.86503577503323
 21
6.30199999999995
 31
0.0
 12
-46.41536910836655
 22
2.999999999999948
 32
0.0
 13
-46.41536910836655
 23
2.999999999999948
 33
0.0
  0
SOLID
  5
11A
330
110
100
AcDbEntity
  8
치수문자_일반주서
 62
     0
100
AcDbTrace
 10
-45.86503577503318
 20
-6.302000000000046
 30
0.0
 11
-46.96570244169985
 21
-6.302000000000049
 31
0.0
 12
-46.41536910836653
 22
-3.000000000000048
 32
0.0
 13
-46.41536910836653
 23
-3.000000000000048
 33
0.0
  0
MTEXT
  5
11B
330
110
100
AcDbEntity
  8
치수문자_일반주서
 62
     0
100
AcDbMText
 10
-50.79036910836659
 20
12.66649999999994
 30
0.0
 40
3.5
 41
0.0
 71
     2
 72
     1
  1
\A1;%%c6
  7
SLDTEXTSTYLE0
 11
-3.552713678800503E-15
 21
1.0
 31
0.0
 73
     1
 44
1.0
  0
POINT
  5
14B
330
110
100
AcDbEntity
  8
Defpoints
 62
     0
100
AcDbPoint
 10
-33.91891108675448
 20
2.999999999999996
 30
0.0
  0
POINT
  5
14C
330
110
100
AcDbEntity
  8
Defpoints
 62
     0
100
AcDbPoint
 10
-33.91891108675448
 20
-3.0
 30
0.0
  0
POINT
  5
14D
330
110
100
AcDbEntity
  8
Defpoints
 62
     0
100
AcDbPoint
 10
-46.41536910836653
 20
-3.000000000000047
 30
0.0
  0
ENDBLK
  5
112
330
110
100
AcDbEntity
  8
0
100
AcDbBlockEnd
  0
BLOCK
  5
11D
330
11C
100
AcDbEntity
  8
0
100
AcDbBlockBegin
  2
SW_DOWELSYMBOL_0
 70
     0
 10
0.0
 20
0.0
 30
0.0
  3
SW_DOWELSYMBOL_0
  1

  0
CIRCLE
  5
11F
330
11C
100
AcDbEntity
  8
외형선
 62
     0
100
AcDbCircle
 10
0.0
 20
0.0
 30
0.0
 40
3.000000000000004
  0
HATCH
  5
120
330
11C
100
AcDbEntity
  8
0
  6
Continuous
 62
     0
370
    30
100
AcDbHatch
 10
0.0
 20
0.0
 30
0.0
210
0.0
220
0.0
230
1.0
  2
SOLID
 70
     1
 71
     0
 91
        1
 92
        0
 93
        3
 72
     2
 10
0.0000000000000104
 20
0.0
 40
3.000000000000004
 50
0.0
 51
90.0
 73
     1
 72
     1
 10
0.0000000000000104
 20
3.000000000000004
 11
0.0000000000000104
 21
0.0
 72
     1
 10
0.0000000000000104
 20
0.0
 11
3.000000000000015
 21
0.0
 97
        0
 75
     0
 76
     1
 98
        1
 10
0.0
 20
0.0
  0
HATCH
  5
121
330
11C
100
AcDbEntity
  8
0
  6
Continuous
 62
     0
370
    30
100
AcDbHatch
 10
0.0
 20
0.0
 30
0.0
210
0.0
220
0.0
230
1.0
  2
SOLID
 70
     1
 71
     0
 91
        1
 92
        0
 93
        3
 72
     2
 10
0.0000000000000104
 20
0.0
 40
3.000000000000004
 50
180.0
 51
270.0000000000007
 73
     1
 72
     1
 10
0.0000000000000104
 20
-3.000000000000004
 11
0.0000000000000104
 21
0.0
 72
     1
 10
0.0000000000000104
 20
0.0
 11
-2.999999999999994
 21
0.0
 97
        0
 75
     0
 76
     1
 98
        1
 10
0.0
 20
0.0
  0
ENDBLK
  5
11E
330
11C
100
AcDbEntity
  8
0
100
AcDbBlockEnd
  0
ENDSEC
  0
SECTION
  2
ENTITIES
  0
LINE
  5
95
330
1F
100
AcDbEntity
  8
0
  6
Continuous
 62
     1
370
    15
100
AcDbLine
 10
15.16420233289417
 20
0.4830802877610307
 30
0.0
 11
15.14318649693185
 21
0.4938811588983082
 31
0.0
  0
SPLINE
  5
96
330
1F
100
AcDbEntity
  8
0
  6
Continuous
 62
     1
370
    15
100
AcDbSpline
210
0.0
220
0.0
230
1.0
 70
     8
 71
     3
 72
     9
 73
     5
 74
     0
 42
0.000000001
 43
0.00000001
 40
0.0
 40
0.0
 40
0.0
 40
0.0
 40
0.5321427246755389
 40
1.0
 40
1.0
 40
1.0
 40
1.0
 10
15.49148904992203
 20
0.3203367376302806
 30
0.0
 10
15.43341278742011
 20
0.3478793088235578
 30
0.0
 10
15.32427615957778
 20
0.3996371736145694
 30
0.0
 10
15.21522344077838
 20
0.4564840589004817
 30
0.0
 10
15.16420233289417
 20
0.4830802877610307
 30
0.0
  0
SPLINE
  5
97
330
1F
100
AcDbEntity
  8
0
  6
Continuous
 62
     1
370
    15
100
AcDbSpline
210
0.0
220
0.0
230
1.0
 70
     8
 71
     3
 72
     9
 73
     5
 74
     0
 42
0.000000001
 43
0.00000001
 40
0.0
 40
0.0
 40
0.0
 40
0.0
 40
0.5000244993596571
 40
1.0
 40
1.0
 40
1.0
 40
1.0
 10
22.29332209864131
 20
0.3202968528037827
 30
0.0
 10
22.23522417607158
 20
0.3478782092169641
 30
0.0
 10
22.11903402410075
 20
0.4030382192734766
 30
0.0
 10
22.00293419562335
 20
0.4636177582562983
 30
0.0
 10
21.94488712575611
 20
0.4939060435877957
 30
0.0
  0
LINE
  5
98
330
1F
100
AcDbEntity
  8
0
  6
Continuous
 62
     1
370
    15
100
AcDbLine
 10
14.82610966179852
 20
0.3378005574817832
 30
0.0
 11
14.78687117233268
 21
0.3593700671713116
 31
0.0
  0
LINE
  5
99
330
1F
100
AcDbEntity
  8
0
  6
Continuous
 62
     1
370
    15
100
AcDbLine
 10
21.78339476259467
 20
0.2525759812444802
 30
0.0
 11
21.58891294857088
 21
0.3592074344081929
 31
0.0
  0
LINE
  5
9A
330
1F
100
AcDbEntity
  8
0
  6
Continuous
 62
     1
370
    15
100
AcDbLine
 10
18.81877784895001
 20
-1.250000000000001
 30
0.0
 11
19.42405936931667
 21
-1.250000000000001
 31
0.0
  0
LINE
  5
9B
330
1F
100
AcDbEntity
  8
0
  6
Continuous
 62
     1
370
    15
100
AcDbLine
 10
12.6221257869287
 20
1.250000000000002
 30
0.0
 11
12.01669305722013
 21
1.250000000000002
 31
0.0
  0
LINE
  5
9C
330
1F
100
AcDbEntity
  8
0
  6
Continuous
 62
     1
370
    15
100
AcDbLine
 10
12.01669305722014
 20
-1.250000000000001
 30
0.0
 11
12.6221257869287
 21
-1.250000000000001
 31
0.0
  0
LINE
  5
9D
330
1F
100
AcDbEntity
  8
0
  6
Continuous
 62
     1
370
    15
100
AcDbLine
 10
19.42405936931666
 20
1.250000000000002
 30
0.0
 11
18.81877784895002
 21
1.250000000000002
 31
0.0
  0
SPLINE
  5
9E
330
1F
100
AcDbEntity
  8
0
  6
Continuous
 62
     1
370
    15
100
AcDbSpline
210
0.0
220
0.0
230
1.0
 70
     8
 71
     3
 72
    10
 73
     6
 74
     0
 42
0.000000001
 43
0.00000001
 40
0.0
 40
0.0
 40
0.0
 40
0.0
 40
0.4444173363265962
 40
0.6517729262137776
 40
1.0
 40
1.0
 40
1.0
 40
1.0
 10
13.19893169141241
 20
-1.040104497614026
 30
0.0
 10
13.47833984015397
 20
-1.017016862175867
 30
0.0
 10
13.88811383371267
 20
-0.9831570316092487
 30
0.0
 10
14.50994205325124
 20
-0.971912189933257
 30
0.0
 10
14.85849709956858
 20
-0.9850587168349402
 30
0.0
 10
15.07696378646985
 20
-0.9932986726376581
 30
0.0
  0
SPLINE
  5
9F
330
1F
100
AcDbEntity
  8
0
  6
Continuous
 62
     1
370
    15
100
AcDbSpline
210
0.0
220
0.0
230
1.0
 70
     8
 71
     3
 72
     9
 73
     5
 74
     0
 42
0.000000001
 43
0.00000001
 40
0.0
 40
0.0
 40
0.0
 40
0.0
 40
0.8106695258249407
 40
1.0
 40
1.0
 40
1.0
 40
1.0
 10
21.87824426972003
 20
0.9932736716149728
 30
0.0
 10
21.59357208389572
 20
0.9822219223373928
 30
0.0
 10
21.24241519843783
 20
0.9685890560145417
 30
0.0
 10
20.89450644725741
 20
0.9823855091973043
 30
0.0
 10
20.82863671842676
 20
0.9849975982203305
 30
0.0
  0
SPLINE
  5
A0
330
1F
100
AcDbEntity
  8
0
  6
Continuous
 62
     1
370
    15
100
AcDbSpline
210
0.0
220
0.0
230
1.0
 70
     8
 71
     3
 72
    14
 73
    10
 74
     0
 42
0.000000001
 43
0.00000001
 40
0.0
 40
0.0
 40
0.0
 40
0.0
 40
0.2015761279873576
 40
0.3551337572846281
 40
0.4582229443051361
 40
0.5282169920047061
 40
0.6493841471762435
 40
0.8079041138546375
 40
1.0
 40
1.0
 40
1.0
 40
1.0
 10
19.9998763895815
 20
-1.040184653202941
 30
0.0
 10
20.12627585365506
 20
-1.028451436042714
 30
0.0
 10
20.34896450753186
 20
-1.007780032455634
 30
0.0
 10
20.63572680797926
 20
-0.9910261122620695
 30
0.0
 10
20.84007892458529
 20
-0.9827237125456753
 30
0.0
 10
21.02409479626428
 20
-0.9777359927538583
 30
0.0
 10
21.24262663141078
 20
-0.975280690955778
 30
0.0
 10
21.53796734012019
 20
-0.9779229058488726
 30
0.0
 10
21.75780132803893
 20
-0.98784018134544
 30
0.0
 10
21.87824426972002
 20
-0.9932736716149698
 30
0.0
  0
SPLINE
  5
A1
330
1F
100
AcDbEntity
  8
0
  6
Continuous
 62
     1
370
    15
100
AcDbSpline
210
0.0
220
0.0
230
1.0
 70
     8
 71
     3
 72
    12
 73
     8
 74
     0
 42
0.000000001
 43
0.00000001
 40
0.0
 40
0.0
 40
0.0
 40
0.0
 40
0.3604042186691981
 40
0.6352419624320814
 40
0.8181541336141519
 40
0.9430680855237136
 40
1.0
 40
1.0
 40
1.0
 40
1.0
 10
15.07696378646985
 20
0.9932986726376603
 30
0.0
 10
14.95053400020654
 20
0.9876487032721128
 30
0.0
 10
14.72769114383728
 20
0.9776901693772982
 30
0.0
 10
14.44119598765535
 20
0.9753498303307108
 30
0.0
 10
14.23741692644565
 20
0.9777021812499446
 30
0.0
 10
14.10983315963927
 20
0.9804381778923185
 30
0.0
 10
14.04619598163494
 20
0.9830909308892299
 30
0.0
 10
14.02627259020648
 20
0.9839214491173783
 30
0.0
  0
SPLINE
  5
A2
330
1F
100
AcDbEntity
  8
0
  6
Continuous
 62
     1
370
    15
100
AcDbSpline
210
0.0
220
0.0
230
1.0
 70
     8
 71
     3
 72
     9
 73
     5
 74
     0
 42
0.000000001
 43
0.00000001
 40
0.0
 40
0.0
 40
0.0
 40
0.0
 40
0.8805721083997842
 40
1.0
 40
1.0
 40
1.0
 40
1.0
 10
9.531088913245103
 20
-0.9036836014176296
 30
0.0
 10
9.732141927632913
 20
-0.87840245282945
 30
0.0
 10
9.960462825456002
 20
-0.849692539868294
 30
0.0
 10
10.18506567832685
 20
-0.8402295617876909
 30
0.0
 10
10.21188952349261
 20
-0.8390994182672655
 30
0.0
  0
SPLINE
  5
A3
330
1F
100
AcDbEntity
  8
0
  6
Continuous
 62
     1
370
    15
100
AcDbSpline
210
0.0
220
0.0
230
1.0
 70
     8
 71
     3
 72
    10
 73
     6
 74
     0
 42
0.000000001
 43
0.00000001
 40
0.0
 40
0.0
 40
0.0
 40
0.0
 40
0.5132829276545067
 40
0.9162857738634897
 40
1.0
 40
1.0
 40
1.0
 40
1.0
 10
22.88242339674362
 20
-0.9402479905340111
 30
0.0
 10
23.04520662326761
 20
-0.9169222840539936
 30
0.0
 10
23.33579870543391
 20
-0.8752824556836604
 30
0.0
 10
23.65239947917718
 20
-0.8462241075518465
 30
0.0
 10
23.80652978178282
 20
-0.8387910841068322
 30
0.0
 10
23.83303984222643
 20
-0.837512621030624
 30
0.0
  0
SPLINE
  5
A4
330
1F
100
AcDbEntity
  8
0
  6
Continuous
 62
     1
370
    15
100
AcDbSpline
210
0.0
220
0.0
230
1.0
 70
     8
 71
     3
 72
    11
 73
     7
 74
     0
 42
0.000000001
 43
0.00000001
 40
0.0
 40
0.0
 40
0.0
 40
0.0
 40
0.3801833474125512
 40
0.5344546524934043
 40
0.6543972295190397
 40
1.0
 40
1.0
 40
1.0
 40
1.0
 10
18.26424867080658
 20
0.8549245482285471
 30
0.0
 10
17.98731175946728
 20
0.8380717471754563
 30
0.0
 10
17.5979990193913
 20
0.8143803940647265
 30
0.0
 10
17.12269924400955
 20
0.8304956671917487
 30
0.0
 10
16.6720238472248
 20
0.8583381763553916
 30
0.0
 10
16.33308442817588
 20
0.9052777227892367
 30
0.0
 10
16.08146897787464
 20
0.9401238175457236
 30
0.0
  0
SPLINE
  5
A5
330
1F
100
AcDbEntity
  8
0
  6
Continuous
 62
     1
370
    15
100
AcDbSpline
210
0.0
220
0.0
230
1.0
 70
     8
 71
     3
 72
     9
 73
     5
 74
     0
 42
0.000000001
 43
0.00000001
 40
0.0
 40
0.0
 40
0.0
 40
0.0
 40
0.5908793203537231
 40
1.0
 40
1.0
 40
1.0
 40
1.0
 10
16.08146897787465
 20
-0.9401238175457208
 30
0.0
 10
16.26581576484996
 20
-0.9132872384116143
 30
0.0
 10
16.57780296870904
 20
-0.8678692009043256
 30
0.0
 10
16.88979211103567
 20
-0.8467212434474392
 30
0.0
 10
17.01743332098659
 20
-0.8380691767195471
 30
0.0
  0
SPLINE
  5
A6
330
1F
100
AcDbEntity
  8
0
  6
Continuous
 62
     1
370
    15
100
AcDbSpline
210
0.0
220
0.0
230
1.0
 70
     8
 71
     3
 72
    16
 73
    12
 74
     0
 42
0.000000001
 43
0.00000001
 40
0.0
 40
0.0
 40
0.0
 40
0.0
 40
0.1614479189084324
 40
0.2834351364139265
 40
0.3924373911947482
 40
0.5045386027114097
 40
0.5752505628276936
 40
0.6276430134938352
 40
0.7063526625867713
 40
0.8301472275620104
 40
1.0
 40
1.0
 40
1.0
 40
1.0
 10
25.05365402357767
 20
0.853852830018065
 30
0.0
 10
24.93706733720049
 20
0.845250707550677
 30
0.0
 10
24.73238979424554
 20
0.8301489721335963
 30
0.0
 10
24.44900945616329
 20
0.8224033060997797
 30
0.0
 10
24.20019185888057
 20
0.8222762695585221
 30
0.0
 10
23.98917175015253
 20
0.8283358749172237
 30
0.0
 10
23.81891618888907
 20
0.8371327555060969
 30
0.0
 10
23.67267795058076
 20
0.8468626083831886
 30
0.0
 10
23.48830768109172
 20
0.862085935616587
 30
0.0
 10
23.21919408852527
 20
0.890572768278044
 30
0.0
 10
23.00583531069836
 20
0.9220441669699634
 30
0.0
 10
22.88242339674363
 20
0.9402479905340143
 30
0.0
  0
SPLINE
  5
A7
330
1F
100
AcDbEntity
  8
0
  6
Continuous
 62
     1
370
    15
100
AcDbSpline
210
0.0
220
0.0
230
1.0
 70
     8
 71
     3
 72
    11
 73
     7
 74
     0
 42
0.000000001
 43
0.00000001
 40
0.0
 40
0.0
 40
0.0
 40
0.0
 40
0.279910922467425
 40
0.4835917892670755
 40
0.6905215328056813
 40
1.0
 40
1.0
 40
1.0
 40
1.0
 10
11.4622365371572
 20
0.8549018707555264
 30
0.0
 10
11.28218096623795
 20
0.8424258254332475
 30
0.0
 10
10.97110558932594
 20
0.8208714215279117
 30
0.0
 10
10.52530655004838
 20
0.8221852601308482
 30
0.0
 10
10.06719932072961
 20
0.8414936074375425
 30
0.0
 10
9.731981640527767
 20
0.8803796003649862
 30
0.0
 10
9.531088913245103
 20
0.9036836014176309
 30
0.0
  0
LINE
  5
A8
330
1F
100
AcDbEntity
  8
0
  6
Continuous
 62
   131
370
    15
100
AcDbLine
 10
2.0
 20
-3.0
 30
0.0
 11
8.531088913245519
 21
-1.249999999999999
 31
0.0
  0
LINE
  5
A9
330
1F
100
AcDbEntity
  8
0
  6
Continuous
 62
   131
370
    15
100
AcDbLine
 10
8.531088913245519
 20
1.250000000000001
 30
0.0
 11
2.0
 21
3.0
 31
0.0
  0
LINE
  5
AA
330
1F
100
AcDbEntity
  8
0
  6
Continuous
 62
   131
370
    15
100
AcDbLine
 10
2.0
 20
2.999999999999999
 30
0.0
 11
-33.91891108675448
 21
2.999999999999997
 31
0.0
  0
LINE
  5
AB
330
1F
100
AcDbEntity
  8
0
  6
Continuous
 62
   131
370
    15
100
AcDbLine
 10
-33.91891108675448
 20
-3.000000000000001
 30
0.0
 11
2.0
 21
-2.999999999999999
 31
0.0
  0
LINE
  5
AC
330
1F
100
AcDbEntity
  8
0
  6
Continuous
 62
   131
370
    15
100
AcDbLine
 10
-33.91891108675448
 20
2.999999999999996
 30
0.0
 11
-34.46891108675448
 21
2.449999999999995
 31
0.0
  0
LINE
  5
AD
330
1F
100
AcDbEntity
  8
0
  6
Continuous
 62
   131
370
    15
100
AcDbLine
 10
-34.46891108675448
 20
-2.45
 30
0.0
 11
-33.91891108675448
 21
-3.0
 31
0.0
  0
SPLINE
  5
AE
330
1F
100
AcDbEntity
  8
0
  6
Continuous
 62
   131
370
    15
100
AcDbSpline
210
0.0
220
0.0
230
1.0
 70
     8
 71
     3
 72
     9
 73
     5
 74
     0
 42
0.000000001
 43
0.00000001
 40
0.0
 40
0.0
 40
0.0
 40
0.0
 40
0.4989997119554125
 40
1.0
 40
1.0
 40
1.0
 40
1.0
 10
8.772852832081089
 20
0.2812442641388486
 30
0.0
 10
8.750957741466447
 20
0.2912748794438972
 30
0.0
 10
8.707079779034679
 20
0.3113763245243804
 30
0.0
 10
8.663215997169925
 20
0.3322285835764821
 30
0.0
 10
8.641240229820955
 20
0.3426755713679653
 30
0.0
  0
LINE
  5
AF
330
1F
100
AcDbEntity
  8
0
  6
Continuous
 62
   131
370
    15
100
AcDbLine
 10
8.64116275163968
 20
1.250000000000001
 30
0.0
 11
8.531088913245519
 21
1.250000000000001
 31
0.0
  0
LINE
  5
B0
330
1F
100
AcDbEntity
  8
0
  6
Continuous
 62
   131
370
    15
100
AcDbLine
 10
8.531088913245519
 20
-1.249999999999999
 30
0.0
 11
8.64116275163968
 21
-1.249999999999999
 31
0.0
  0
SPLINE
  5
B1
330
1F
100
AcDbEntity
  8
0
  6
Continuous
 62
   131
370
    15
100
AcDbSpline
210
0.0
220
0.0
230
1.0
 70
     8
 71
     3
 72
     9
 73
     5
 74
     0
 42
0.000000001
 43
0.00000001
 40
0.0
 40
0.0
 40
0.0
 40
0.0
 40
0.5005372629865916
 40
1.0
 40
1.0
 40
1.0
 40
1.0
 10
9.2876332827643
 20
-0.938878392610688
 30
0.0
 10
9.328337238263245
 20
-0.932654143197929
 30
0.0
 10
9.409657768239523
 20
-0.9202190062500418
 30
0.0
 10
9.490640871059313
 20
-0.909191453231017
 30
0.0
 10
9.531088913245519
 20
-0.9036836014175744
 30
0.0
  0
SPLINE
  5
B2
330
1F
100
AcDbEntity
  8
0
  6
Continuous
 62
   131
370
    15
100
AcDbSpline
210
0.0
220
0.0
230
1.0
 70
     8
 71
     3
 72
     9
 73
     5
 74
     0
 42
0.000000001
 43
0.00000001
 40
0.0
 40
0.0
 40
0.0
 40
0.0
 40
0.4994627370134123
 40
1.0
 40
1.0
 40
1.0
 40
1.0
 10
9.531088913245519
 20
0.9036836014175758
 30
0.0
 10
9.490640871059288
 20
0.9091914532310218
 30
0.0
 10
9.409657768239459
 20
0.9202190062500533
 30
0.0
 10
9.328337238263131
 20
0.9326541431979483
 30
0.0
 10
9.287633282764165
 20
0.9388783926107109
 30
0.0
  0
SPLINE
  5
B3
330
1F
100
AcDbEntity
  8
0
  6
Continuous
 62
     1
370
    15
100
AcDbSpline
210
0.0
220
0.0
230
1.0
 70
     8
 71
     3
 72
    20
 73
    16
 74
     0
 42
0.000000001
 43
0.00000001
 40
0.0
 40
0.0
 40
0.0
 40
0.0
 40
0.0277710397005611
 40
0.1134496109429731
 40
0.19913154870905
 40
0.2848214593689181
 40
0.370523927314388
 40
0.456243502401749
 40
0.5419846875965808
 40
0.6277519268916198
 40
0.7135426956914352
 40
0.7993122766260277
 40
0.8850554404700829
 40
0.9707766258312398
 40
1.0
 40
1.0
 40
1.0
 40
1.0
 10
20.83253302896013
 20
-0.983541070474844
 30
0.0
 10
20.75653691426495
 20
-1.013202811180803
 30
0.0
 10
20.44607933909638
 20
-1.13437627026863
 30
0.0
 10
19.9011548209148
 20
-1.236979019397103
 30
0.0
 10
19.19772807206772
 20
-1.266427408512833
 30
0.0
 10
18.49422320921737
 20
-1.156158802854759
 30
0.0
 10
17.790594559878
 20
-0.9267154478826647
 30
0.0
 10
17.08679774287416
 20
-0.599668570687805
 30
0.0
 10
16.38278745602591
 20
-0.2099483642612636
 30
0.0
 10
15.67854256925025
 20
0.2020089461302096
 30
0.0
 10
14.97415949892174
 20
0.5921379889782249
 30
0.0
 10
14.26989346681869
 20
0.9225075931443057
 30
0.0
 10
13.56588127285406
 20
1.147888501865899
 30
0.0
 10
13.01659238296527
 20
1.254091080806224
 30
0.0
 10
12.70208562707698
 20
1.239974674727378
 30
0.0
 10
12.6221257869287
 20
1.236385735690616
 30
0.0
  0
SPLINE
  5
B4
330
1F
100
AcDbEntity
  8
0
  6
Continuous
 62
     1
370
    15
100
AcDbSpline
210
0.0
220
0.0
230
1.0
 70
     8
 71
     3
 72
    17
 73
    13
 74
     0
 42
0.000000001
 43
0.00000001
 40
0.0
 40
0.0
 40
0.0
 40
0.0
 40
0.0613137974990609
 40
0.1777662589740941
 40
0.2945083354633576
 40
0.4116117806969696
 40
0.5281255552560477
 40
0.6446970318946809
 40
0.7618423826167074
 40
0.8784906407588844
 40
0.9949643886127872
 40
1.0
 40
1.0
 40
1.0
 40
1.0
 10
20.0012614806828
 20
-1.032238192073601
 30
0.0
 10
19.90883580235381
 20
-1.042868783163287
 30
0.0
 10
19.64086729053657
 20
-1.073689911290698
 30
0.0
 10
19.19737063678149
 20
-1.05653340568317
 30
0.0
 10
18.66950564659003
 20
-0.9849410447927186
 30
0.0
 10
18.14109400686894
 20
-0.8526128191899944
 30
0.0
 10
17.61366142057177
 20
-0.6699024666241923
 30
0.0
 10
17.08610418867473
 20
-0.4474017348217378
 30
0.0
 10
16.55763470336831
 20
-0.1990515553992102
 30
0.0
 10
16.02990611477117
 20
0.0594534250346809
 30
0.0
 10
15.67131234487554
 20
0.2400970898248457
 30
0.0
 10
15.48813672736976
 20
0.3215801408083913
 30
0.0
 10
15.48054553249282
 20
0.3249569751688077
 30
0.0
  0
SPLINE
  5
B5
330
1F
100
AcDbEntity
  8
0
  6
Continuous
 62
     1
370
    15
100
AcDbSpline
210
0.0
220
0.0
230
1.0
 70
     8
 71
     3
 72
    16
 73
    12
 74
     0
 42
0.000000001
 43
0.00000001
 40
0.0
 40
0.0
 40
0.0
 40
0.0
 40
0.115325493122157
 40
0.230612764968413
 40
0.3458677404492574
 40
0.4610964323619626
 40
0.5763049253847917
 40
0.691499359653905
 40
0.8066859140165907
 40
0.9218707890576875
 40
1.0
 40
1.0
 40
1.0
 40
1.0
 10
25.53108891324552
 20
-1.186176086539874
 30
0.0
 10
25.29628151851773
 20
-1.131270629178755
 30
0.0
 10
24.82674454913449
 20
-1.021477911271268
 30
0.0
 10
24.12260453538413
 20
-0.7164369362169203
 30
0.0
 10
23.41869709786492
 20
-0.3453236997779706
 30
0.0
 10
22.71498313159256
 20
0.0644074502541176
 30
0.0
 10
22.01141677461959
 20
0.4663696723211442
 30
0.0
 10
21.30795355684824
 20
0.8209714824033119
 30
0.0
 10
20.60454764612608
 20
1.084621541889271
 30
0.0
 10
19.97659183509756
 20
1.235067063394919
 30
0.0
 10
19.5830941513886
 20
1.235473066219916
 30
0.0
 10
19.42405936931666
 20
1.250000000000002
 30
0.0
  0
SPLINE
  5
B6
330
1F
100
AcDbEntity
  8
0
  6
Continuous
 62
     1
370
    15
100
AcDbSpline
210
0.0
220
0.0
230
1.0
 70
     8
 71
     3
 72
    14
 73
    10
 74
     0
 42
0.000000001
 43
0.00000001
 40
0.0
 40
0.0
 40
0.0
 40
0.0
 40
0.1025256995249686
 40
0.2590482639035191
 40
0.4072575299159348
 40
0.5554149394324993
 40
0.7035628856233398
 40
0.8517438379381337
 40
1.0
 40
1.0
 40
1.0
 40
1.0
 10
14.02684262783281
 20
-0.9837368557398486
 30
0.0
 10
13.87316624575774
 20
-1.03779132580233
 30
0.0
 10
13.48487725905517
 20
-1.174368951615071
 30
0.0
 10
12.87443703849436
 20
-1.259917359774916
 30
0.0
 10
12.19579973402573
 20
-1.246018690509467
 30
0.0
 10
11.52973007106851
 20
-1.111475632138598
 30
0.0
 10
10.86371705179573
 20
-0.8731496035974926
 30
0.0
 10
10.19753174462931
 20
-0.5536157396351445
 30
0.0
 10
9.753274094916982
 20
-0.3030163924543238
 30
0.0
 10
9.53108891324204
 20
-0.1776849287934333
 30
0.0
  0
SPLINE
  5
B7
330
1F
100
AcDbEntity
  8
0
  6
Continuous
 62
   131
370
    15
100
AcDbSpline
210
0.0
220
0.0
230
1.0
 70
    24
 71
     3
 72
     8
 73
     4
 74
     0
 42
0.000000001
 43
0.00000001
 40
0.0
 40
0.0
 40
0.0
 40
0.0
 40
1.0
 40
1.0
 40
1.0
 40
1.0
 10
9.531088913245522
 20
-0.0873689626441543
 30
0.0
 10
9.531088913245522
 20
-0.1125653931354237
 30
0.0
 10
9.531088913245522
 20
-0.1428424206897322
 30
0.0
 10
9.531088913245522
 20
-0.1776849287903015
 30
0.0
  0
SPLINE
  5
B8
330
1F
100
AcDbEntity
  8
0
  6
Continuous
 62
     1
370
    15
100
AcDbSpline
210
0.0
220
0.0
230
1.0
 70
     8
 71
     3
 72
    14
 73
    10
 74
     0
 42
0.000000001
 43
0.00000001
 40
0.0
 40
0.0
 40
0.0
 40
0.0
 40
0.1625235538249767
 40
0.3243771871137509
 40
0.4865800523682984
 40
0.6493572076645119
 40
0.8113129400112447
 40
0.9732954052328857
 40
1.0
 40
1.0
 40
1.0
 40
1.0
 10
25.53108891324552
 20
-0.9862153304602671
 30
0.0
 10
25.35479206239126
 20
-0.9484420278887085
 30
0.0
 10
25.00292505461771
 20
-0.8730511239379249
 30
0.0
 10
24.47565983405479
 20
-0.6920584687404444
 30
0.0
 10
23.9478596339661
 20
-0.4745805862935566
 30
0.0
 10
23.41942149487052
 20
-0.2283629124376644
 30
0.0
 10
22.89193266869355
 20
0.0302452243162989
 30
0.0
 10
22.51196071579555
 20
0.2209712855928946
 30
0.0
 10
22.30725699262245
 20
0.312709577154926
 30
0.0
 10
22.27828558369286
 20
0.3256931590758984
 30
0.0
  0
SPLINE
  5
B9
330
1F
100
AcDbEntity
  8
0
  6
Continuous
 62
     1
370
    15
100
AcDbSpline
210
0.0
220
0.0
230
1.0
 70
     8
 71
     3
 72
    15
 73
    11
 74
     0
 42
0.000000001
 43
0.00000001
 40
0.0
 40
0.0
 40
0.0
 40
0.0
 40
0.0921141079089376
 40
0.235652204196601
 40
0.3793087806428144
 40
0.523649610125195
 40
0.6673385209687872
 40
0.8108597611191775
 40
0.9550788246027121
 40
1.0
 40
1.0
 40
1.0
 40
1.0
 10
13.20014300173524
 20
-1.032750021618611
 30
0.0
 10
13.08741553612307
 20
-1.044458919074975
 30
0.0
 10
12.79902892143355
 20
-1.074413369668275
 30
0.0
 10
12.33537736184521
 20
-1.051614395595718
 30
0.0
 10
11.80777238855205
 20
-0.9725612202920356
 30
0.0
 10
11.27929872572207
 20
-0.834175969582374
 30
0.0
 10
10.75160991110793
 20
-0.6465764891134236
 30
0.0
 10
10.22440203933204
 20
-0.4198596362002984
 30
0.0
 10
9.816810584665745
 20
-0.2278781478602948
 30
0.0
 10
9.585924749200199
 20
-0.1143355507658696
 30
0.0
 10
9.531088913245519
 20
-0.0873689626441527
 30
0.0
  0
LINE
  5
BA
330
1F
100
AcDbEntity
  8
0
  6
Continuous
 62
     1
370
    15
100
AcDbLine
 10
25.53108891324552
 20
-1.186176086539875
 30
0.0
 11
25.53108891324552
 21
-0.9862153304602671
 31
0.0
  0
SPLINE
  5
BB
330
1F
100
AcDbEntity
  8
0
  6
Continuous
 62
     1
370
    15
100
AcDbSpline
210
0.0
220
0.0
230
1.0
 70
     8
 71
     3
 72
    20
 73
    16
 74
     0
 42
0.000000001
 43
0.00000001
 40
0.0
 40
0.0
 40
0.0
 40
0.0
 40
0.0757506367385936
 40
0.1531426292504836
 40
0.2305395753764694
 40
0.3079636301055125
 40
0.3897323142544376
 40
0.4715219652720886
 40
0.5533368162384089
 40
0.6351718489467691
 40
0.7169844177883793
 40
0.7987721404201894
 40
0.880539255169793
 40
0.962290056595897
 40
1.0
 40
1.0
 40
1.0
 40
1.0
 10
10.21188952349262
 20
0.8390994182672681
 30
0.0
 10
10.42917543016055
 20
0.9250249907820394
 30
0.0
 10
10.86845536863861
 20
1.09873796088122
 30
0.0
 10
11.52969395159813
 20
1.236915074887433
 30
0.0
 10
12.19575376208241
 20
1.265796203175562
 30
0.0
 10
12.87438337265083
 20
1.172376829566819
 30
0.0
 10
13.56582163461708
 20
0.95992510035543
 30
0.0
 10
14.2698438548054
 20
0.6429210421204334
 30
0.0
 10
14.97411149325085
 20
0.2585950894912782
 30
0.0
 10
15.67849822301129
 20
-0.1529185220357413
 30
0.0
 10
16.38274594140482
 20
-0.5479441733128552
 30
0.0
 10
17.08675947915368
 20
-0.8874643474889883
 30
0.0
 10
17.79055860940977
 20
-1.126730233726362
 30
0.0
 10
18.36787557265093
 20
-1.248431872327361
 30
0.0
 10
18.71059292266992
 20
-1.237181087886893
 30
0.0
 10
18.81877784895001
 20
-1.233629574416047
 30
0.0
  0
SPLINE
  5
BC
330
1F
100
AcDbEntity
  8
0
  6
Continuous
 62
     1
370
    15
100
AcDbSpline
210
0.0
220
0.0
230
1.0
 70
     8
 71
     3
 72
    10
 73
     6
 74
     0
 42
0.000000001
 43
0.00000001
 40
0.0
 40
0.0
 40
0.0
 40
0.0
 40
0.1711751317061093
 40
0.5855188901484768
 40
1.0
 40
1.0
 40
1.0
 40
1.0
 10
23.83165970532514
 20
0.8369146290655999
 30
0.0
 10
23.92861862873375
 20
0.8804795556041564
 30
0.0
 10
24.26027475575619
 20
1.029497039522617
 30
0.0
 10
24.8267425710483
 20
1.190849918771825
 30
0.0
 10
25.29628086215802
 20
1.229576846362386
 30
0.0
 10
25.53108891324552
 20
1.248943519037058
 30
0.0
  0
SPLINE
  5
BD
330
1F
100
AcDbEntity
  8
0
  6
Continuous
 62
     1
370
    15
100
AcDbSpline
210
0.0
220
0.0
230
1.0
 70
    24
 71
     3
 72
    10
 73
     6
 74
     0
 42
0.000000001
 43
0.00000001
 40
0.0
 40
0.0
 40
0.0
 40
0.0
 40
0.5
 40
0.5
 40
1.0
 40
1.0
 40
1.0
 40
1.0
 10
25.53108891324552
 20
0.8750000000000027
 30
0.0
 10
25.53108891324552
 20
0.9280403210091449
 30
0.0
 10
25.53108891324552
 20
0.9896780860838998
 30
0.0
 10
25.53108891324552
 20
1.118993951201073
 30
0.0
 10
25.53108891324552
 20
1.186341794751845
 30
0.0
 10
25.53108891324552
 20
1.248943519037059
 30
0.0
  0
LINE
  5
BE
330
1F
100
AcDbEntity
  8
0
  6
Continuous
 62
     1
370
    15
100
AcDbLine
 10
25.53108891324552
 20
0.8750000000000027
 30
0.0
 11
25.05124501441826
 21
0.8437670650278185
 31
0.0
  0
SPLINE
  5
BF
330
1F
100
AcDbEntity
  8
0
  6
Continuous
 62
     1
370
    15
100
AcDbSpline
210
0.0
220
0.0
230
1.0
 70
     8
 71
     3
 72
    13
 73
     9
 74
     0
 42
0.000000001
 43
0.00000001
 40
0.0
 40
0.0
 40
0.0
 40
0.0
 40
0.1560632005715626
 40
0.3252944892089568
 40
0.4944690975952352
 40
0.6635965421717842
 40
0.8326864709374432
 40
1.0
 40
1.0
 40
1.0
 40
1.0
 10
15.62357177149236
 20
-0.118660394094915
 30
0.0
 10
15.40707137131635
 20
-0.0310528402198929
 30
0.0
 10
14.95580299522987
 20
0.1515542983255815
 30
0.0
 10
14.26986739059631
 20
0.4181540871673172
 30
0.0
 10
13.56583428049864
 20
0.6475893954350153
 30
0.0
 10
12.86201729387943
 20
0.8076458329391328
 30
0.0
 10
12.16079741497009
 20
0.8893504697751897
 30
0.0
 10
11.69418280081563
 20
0.8660255482789843
 30
0.0
 10
11.46210748770689
 20
0.854424671891352
 30
0.0
  0
SPLINE
  5
C0
330
1F
100
AcDbEntity
  8
0
  6
Continuous
 62
     1
370
    15
100
AcDbSpline
210
0.0
220
0.0
230
1.0
 70
     8
 71
     3
 72
    11
 73
     7
 74
     0
 42
0.000000001
 43
0.00000001
 40
0.0
 40
0.0
 40
0.0
 40
0.0
 40
0.2681305504732998
 40
0.5361250516353276
 40
0.8040598625369195
 40
0.9999999999999999
 40
0.9999999999999999
 40
0.9999999999999999
 40
0.9999999999999999
 10
9.531088913245519
 20
-0.5124943443607582
 30
0.0
 10
9.753270199216505
 20
-0.6249875950832611
 30
0.0
 10
10.19752003648173
 20
-0.8499170175074069
 30
0.0
 10
10.86369414634441
 20
-1.09084218811446
 30
0.0
 10
11.47003342811298
 20
-1.233524060699249
 30
0.0
 10
11.85435581278082
 20
-1.236952632492573
 30
0.0
 10
12.01669305722014
 20
-1.238400856482366
 30
0.0
  0
SPLINE
  5
C1
330
1F
100
AcDbEntity
  8
0
  6
Continuous
 62
     1
370
    15
100
AcDbSpline
210
0.0
220
0.0
230
1.0
 70
     8
 71
     3
 72
    20
 73
    16
 74
     0
 42
0.000000001
 43
0.00000001
 40
0.0
 40
0.0
 40
0.0
 40
0.0
 40
0.008106058224583
 40
0.0907735993664118
 40
0.1734246475410407
 40
0.2560635898010359
 40
0.3386948464890713
 40
0.4213228591315129
 40
0.5039520782077135
 40
0.586586950866691
 40
0.6692319086633829
 40
0.7518913553864858
 40
0.8345696550489514
 40
0.9172711201106025
 40
1.0
 40
1.0
 40
1.0
 40
1.0
 10
17.01779812528535
 20
0.8382412378097676
 30
0.0
 10
17.04080293470735
 20
0.8492033196620419
 30
0.0
 10
17.29841635125547
 20
0.971959361959204
 30
0.0
 10
17.79055677560936
 20
1.126121609390115
 30
0.0
 10
18.49419160924968
 20
1.259308439518146
 30
0.0
 10
19.19769889170222
 20
1.25239624705655
 30
0.0
 10
19.90112876774977
 20
1.116550562472584
 30
0.0
 10
20.6045252348965
 20
0.8632060165311822
 30
0.0
 10
21.30793410184848
 20
0.5196494795896337
 30
0.0
 10
22.01140065263914
 20
0.1215805994567419
 30
0.0
 10
22.71497024547175
 20
-0.2890480887589041
 30
0.0
 10
23.41868746680302
 20
-0.6701107539318621
 30
0.0
 10
24.12259813664123
 20
-0.9784995349936896
 30
0.0
 10
24.82674136128057
 20
-1.193796469982141
 30
0.0
 10
25.29628045885756
 20
-1.230559138603678
 30
0.0
 10
25.53108891324552
 20
-1.248943519037055
 30
0.0
  0
SPLINE
  5
C2
330
1F
100
AcDbEntity
  8
0
  6
Continuous
 62
     1
370
    15
100
AcDbSpline
210
0.0
220
0.0
230
1.0
 70
     8
 71
     3
 72
    14
 73
    10
 74
     0
 42
0.000000001
 43
0.00000001
 40
0.0
 40
0.0
 40
0.0
 40
0.0
 40
0.0993103058522207
 40
0.2683370075215696
 40
0.4373511295104605
 40
0.6063625678858852
 40
0.775381226291744
 40
0.9444169879918205
 40
1.0
 40
1.0
 40
1.0
 40
1.0
 10
22.42469358671837
 20
-0.1175892042116177
 30
0.0
 10
22.2869216613625
 20
-0.0625074421181341
 30
0.0
 10
21.91466114063173
 20
0.0863237902735434
 30
0.0
 10
21.307941225144
 20
0.3304156217103607
 30
0.0
 10
20.60453101862683
 20
0.5764963056607731
 30
0.0
 10
19.90113391470367
 20
0.764372386129513
 30
0.0
 10
19.19770260157356
 20
0.865911700778809
 30
0.0
 10
18.65162285836834
 20
0.8922544316922493
 30
0.0
 10
18.34000965585111
 20
0.8542631066538626
 30
0.0
 10
18.26289944777955
 20
0.844861967822262
 30
0.0
  0
LINE
  5
C3
330
1F
100
AcDbEntity
  8
0
  6
Continuous
 62
   131
370
    15
100
AcDbLine
 10
9.531088913245519
 20
-0.5124943443607576
 30
0.0
 11
9.531088913245515
 21
-0.1776849287848228
 31
0.0
  0
LINE
  5
C4
330
1F
100
AcDbEntity
  8
0
  6
Continuous
 62
     1
370
    15
100
AcDbLine
 10
25.53108891324552
 20
-1.248943519037056
 30
0.0
 11
25.53108891324552
 21
-1.186176086539877
 31
0.0
  0
SPLINE
  5
C5
330
1F
100
AcDbEntity
  8
0
  6
Continuous
 62
     1
370
    15
100
AcDbSpline
210
0.0
220
0.0
230
1.0
 70
     8
 71
     3
 72
     8
 73
     4
 74
     0
 42
0.000000001
 43
0.00000001
 40
0.0
 40
0.0
 40
0.0
 40
0.0
 40
1.0
 40
1.0
 40
1.0
 40
1.0
 10
24.75746022104591
 20
0.3498421875512455
 30
0.0
 10
24.7014101746365
 20
0.4161899107336748
 30
0.0
 10
24.65279515219359
 20
0.4796034014034115
 30
0.0
 10
24.61444860073683
 20
0.5385664122466234
 30
0.0
  0
LINE
  5
C6
330
1F
100
AcDbEntity
  8
0
  6
Continuous
 62
     1
370
    15
100
AcDbLine
 10
24.61444860073684
 20
0.5385664122466236
 30
0.0
 11
25.53108891324552
 21
0.0000000000000027
 31
0.0
  0
LINE
  5
C7
330
1F
100
AcDbEntity
  8
0
  6
Continuous
 62
     1
370
    15
100
AcDbLine
 10
25.53108891324552
 20
0.0000000000000027
 30
0.0
 11
25.53108891324552
 21
-0.3340536825370533
 31
0.0
  0
SPLINE
  5
C8
330
1F
100
AcDbEntity
  8
0
  6
Continuous
 62
     1
370
    15
100
AcDbSpline
210
0.0
220
0.0
230
1.0
 70
     8
 71
     3
 72
    10
 73
     6
 74
     0
 42
0.000000001
 43
0.00000001
 40
0.0
 40
0.0
 40
0.0
 40
0.0
 40
0.5
 40
0.5
 40
1.0
 40
1.0
 40
1.0
 40
1.0
 10
25.53108891324552
 20
-0.3340536825370534
 30
0.0
 10
25.3971680439853
 20
-0.2287670726165669
 30
0.0
 10
25.26548608421732
 20
-0.1191601491608531
 30
0.0
 10
25.00670370524204
 20
0.1088944712454105
 30
0.0
 10
24.87838694236644
 20
0.228541780733936
 30
0.0
 10
24.75746022105723
 20
0.3498421875359756
 30
0.0
  0
SPLINE
  5
C9
330
1F
100
AcDbEntity
  8
0
  6
Continuous
 62
     1
370
    15
100
AcDbSpline
210
0.0
220
0.0
230
1.0
 70
     8
 71
     3
 72
    13
 73
     9
 74
     0
 42
0.000000001
 43
0.00000001
 40
0.0
 40
0.0
 40
0.0
 40
0.0
 40
0.0978054279509065
 40
0.2810665162565917
 40
0.4649855412348661
 40
0.7093235911522121
 40
0.953616267967842
 40
1.0
 40
1.0
 40
1.0
 40
1.0
 10
24.75746022104592
 20
0.3498421875512397
 30
0.0
 10
24.66364211197002
 20
0.3898791963335638
 30
0.0
 10
24.3940340786308
 20
0.5049348002559851
 30
0.0
 10
23.94781499642984
 20
0.6743652369320489
 30
0.0
 10
23.36060054145319
 20
0.8549750673275065
 30
0.0
 10
22.71499019447027
 20
0.975023475142345
 30
0.0
 10
22.20136779495258
 20
1.02075568235261
 30
0.0
 10
21.92232619610112
 20
0.9901531178597915
 30
0.0
 10
21.87779905061225
 20
0.9852698142695265
 30
0.0
  0
SPLINE
  5
CA
330
1F
100
AcDbEntity
  8
0
  6
Continuous
 62
     1
370
    15
100
AcDbSpline
210
0.0
220
0.0
230
1.0
 70
     8
 71
     3
 72
    19
 73
    15
 74
     0
 42
0.000000001
 43
0.00000001
 40
0.0
 40
0.0
 40
0.0
 40
0.0
 40
0.008047672996229
 40
0.0884300556662747
 40
0.1691936970055568
 40
0.2498431248198401
 40
0.3302084871498202
 40
0.4108032473536785
 40
0.4916101189364395
 40
0.598991674673482
 40
0.7063560596303995
 40
0.8137093547679549
 40
0.9068078022042337
 40
1.0
 40
1.0
 40
1.0
 40
1.0
 10
16.08238121895905
 20
-0.937490612455389
 30
0.0
 10
16.06481069610793
 20
-0.941059052554971
 30
0.0
 10
15.87174093363891
 20
-0.980270058866445
 30
0.0
 10
15.50257480816608
 20
-1.003220391731808
 30
0.0
 10
14.97429188352406
 20
-0.9974184716324873
 30
0.0
 10
14.44627039354324
 20
-0.9272049643554573
 30
0.0
 10
13.91901971127069
 20
-0.803256412101066
 30
0.0
 10
13.39107711175939
 20
-0.6316007762377303
 30
0.0
 10
12.80390707765796
 20
-0.4000293324130157
 30
0.0
 10
12.15837901088007
 20
-0.1086108614876414
 30
0.0
 10
11.45488081111412
 20
0.2205343180598592
 30
0.0
 10
10.7824778358393
 20
0.5114375777005873
 30
0.0
 10
10.14143127676212
 20
0.7477291448680222
 30
0.0
 10
9.734604612627116
 20
0.8455357340806339
 30
0.0
 10
9.531088913245451
 20
0.8944636391629174
 30
0.0
  0
SPLINE
  5
CB
330
1F
100
AcDbEntity
  8
0
  6
Continuous
 62
     1
370
    15
100
AcDbSpline
210
0.0
220
0.0
230
1.0
 70
    24
 71
     3
 72
    10
 73
     6
 74
     0
 42
0.000000001
 43
0.00000001
 40
0.0
 40
0.0
 40
0.0
 40
0.0
 40
0.5
 40
0.5
 40
1.0
 40
1.0
 40
1.0
 40
1.0
 10
25.53108891324552
 20
-0.9862153304602669
 30
0.0
 10
25.53108891324552
 20
-0.9106142362547531
 30
0.0
 10
25.53108891324553
 20
-0.815089354883083
 30
0.0
 10
25.53108891324552
 20
-0.5930031989383474
 30
0.0
 10
25.53108891324552
 20
-0.4666343038141346
 30
0.0
 10
25.53108891324552
 20
-0.3340536825370934
 30
0.0
  0
SPLINE
  5
CC
330
1F
100
AcDbEntity
  8
0
  6
Continuous
 62
   131
370
    15
100
AcDbSpline
210
0.0
220
0.0
230
1.0
 70
    24
 71
     3
 72
    10
 73
     6
 74
     0
 42
0.000000001
 43
0.00000001
 40
0.0
 40
0.0
 40
0.0
 40
0.0
 40
0.5
 40
0.5
 40
1.0
 40
1.0
 40
1.0
 40
1.0
 10
9.531088913245277
 20
0.8944636391629541
 30
0.0
 10
9.531088913245277
 20
0.7888988361101625
 30
0.0
 10
9.531088913245277
 20
0.6426132689866215
 30
0.0
 10
9.531088913245277
 20
0.2994141223574632
 30
0.0
 10
9.531088913245277
 20
0.1039778061449008
 30
0.0
 10
9.531088913245277
 20
-0.087368962644033
 30
0.0
  0
SPLINE
  5
CD
330
1F
100
AcDbEntity
  8
0
  6
Continuous
 62
     1
370
    15
100
AcDbSpline
210
0.0
220
0.0
230
1.0
 70
     8
 71
     3
 72
    20
 73
    16
 74
     0
 42
0.000000001
 43
0.00000001
 40
0.0
 40
0.0
 40
0.0
 40
0.0
 40
0.0219185089332676
 40
0.1120044793927183
 40
0.2020788032662613
 40
0.2921465984355195
 40
0.3822130010740094
 40
0.4722831512599397
 40
0.5623621785658183
 40
0.652455187710441
 40
0.7425672443582166
 40
0.8104033525711964
 40
0.8779476470185481
 40
0.9453894250578403
 40
1.0
 40
1.0
 40
1.0
 40
1.0
 10
22.88612217901333
 20
-0.930640001989982
 30
0.0
 10
22.82906062216968
 20
-0.942347672318753
 30
0.0
 10
22.53747372695389
 20
-1.002174347758582
 30
0.0
 10
22.01141008443516
 20
-1.011341350489984
 30
0.0
 10
21.30794235978153
 20
-0.9466089439035368
 30
0.0
 10
20.60453381886564
 20
-0.7750180458956702
 30
0.0
 10
19.90113757293513
 20
-0.5243555106506431
 30
0.0
 10
19.19770679116234
 20
-0.2182311196756221
 30
0.0
 10
18.49420317620724
 20
0.1106125031724869
 30
0.0
 10
17.7905548069084
 20
0.4279134875952664
 30
0.0
 10
17.1448673029598
 20
0.6779965500375004
 30
0.0
 10
16.55764359116757
 20
0.8515042995758505
 30
0.0
 10
16.02990412369639
 20
0.9562902050176244
 30
0.0
 10
15.53676399614368
 20
1.007274990053568
 30
0.0
 10
15.21897722194531
 20
0.9943823037097561
 30
0.0
 10
15.0767880873317
 20
0.9886136561041546
 30
0.0
  0
SPLINE
  5
CE
330
1F
100
AcDbEntity
  8
0
  6
Continuous
 62
   131
370
    15
100
AcDbSpline
210
0.0
220
0.0
230
1.0
 70
    24
 71
     3
 72
    10
 73
     6
 74
     0
 42
0.000000001
 43
0.00000001
 40
0.0
 40
0.0
 40
0.0
 40
0.0
 40
0.2691050167771473
 40
0.7149872753479612
 40
1.0
 40
1.0
 40
1.0
 40
1.0
 10
9.531088913245515
 20
-0.512494344360758
 30
0.0
 10
9.531088913245515
 20
-0.5776080960104626
 30
0.0
 10
9.531088913245515
 20
-0.7506093445091478
 30
0.0
 10
9.531088913245515
 20
-0.8862383996104328
 30
0.0
 10
9.531088913245515
 20
-0.886218337499474
 30
0.0
 10
9.531088913245515
 20
-0.8862105142731038
 30
0.0
  0
SPLINE
  5
CF
330
1F
100
AcDbEntity
  8
0
  6
Continuous
 62
     1
370
    15
100
AcDbSpline
210
0.0
220
0.0
230
1.0
 70
     8
 71
     3
 72
     8
 73
     4
 74
     0
 42
0.000000001
 43
0.00000001
 40
0.0
 40
0.0
 40
0.0
 40
0.0
 40
1.0
 40
1.0
 40
1.0
 40
1.0
 10
25.53108891324552
 20
0.8750000000000027
 30
0.0
 10
25.21997735594946
 20
0.7904410596396084
 30
0.0
 10
24.91188634014845
 20
0.6841909977156536
 30
0.0
 10
24.61444860073585
 20
0.5385664122473539
 30
0.0
  0
LINE
  5
D0
330
1F
100
AcDbEntity
  8
0
  6
Continuous
 62
     1
370
    15
100
AcDbLine
 10
25.53108891324552
 20
0.0000000000000027
 30
0.0
 11
25.53108891324552
 21
0.8750000000000027
 31
0.0
  0
LINE
  5
D1
330
1F
100
AcDbEntity
  8
0
  6
Continuous
 62
   131
370
    15
100
AcDbLine
 10
8.531088913245519
 20
1.250000000000001
 30
0.0
 11
8.531088913245519
 21
-1.249999999999999
 31
0.0
  0
LINE
  5
D2
330
1F
100
AcDbEntity
  8
0
  6
Continuous
 62
   131
370
    15
100
AcDbLine
 10
2.0
 20
3.0
 30
0.0
 11
2.0
 21
-3.0
 31
0.0
  0
LINE
  5
D3
330
1F
100
AcDbEntity
  8
0
  6
Continuous
 62
   131
370
    15
100
AcDbLine
 10
-33.91891108675448
 20
2.999999999999996
 30
0.0
 11
-33.91891108675448
 21
-3.000000000000001
 31
0.0
  0
LINE
  5
D4
330
1F
100
AcDbEntity
  8
0
  6
Continuous
 62
   131
370
    15
100
AcDbLine
 10
-34.46891108675448
 20
2.449999999999996
 30
0.0
 11
-34.46891108675448
 21
-2.450000000000002
 31
0.0
  0
SPLINE
  5
D5
330
1F
100
AcDbEntity
  8
0
  6
Continuous
 62
   131
370
    15
100
AcDbSpline
210
0.0
220
0.0
230
1.0
 70
    24
 71
     3
 72
     8
 73
     4
 74
     0
 42
0.000000001
 43
0.00000001
 40
0.0
 40
0.0
 40
0.0
 40
0.0
 40
1.0
 40
1.0
 40
1.0
 40
1.0
 10
9.531088913245522
 20
-0.0873689626441543
 30
0.0
 10
9.531088913245522
 20
-0.1125653931354238
 30
0.0
 10
9.531088913245522
 20
-0.1428424206897324
 30
0.0
 10
9.531088913245522
 20
-0.1776849287903017
 30
0.0
  0
SPLINE
  5
D6
330
1F
100
AcDbEntity
  8
0
  6
Continuous
 62
   131
370
    15
100
AcDbSpline
210
0.0
220
0.0
230
1.0
 70
     8
 71
     3
 72
    10
 73
     6
 74
     0
 42
0.000000001
 43
0.00000001
 40
0.0
 40
0.0
 40
0.0
 40
0.0
 40
0.5
 40
0.5
 40
1.0
 40
1.0
 40
1.0
 40
1.0
 10
9.531088913245519
 20
-0.1776849287954236
 30
0.0
 10
9.383157960959036
 20
-0.0930183956531227
 30
0.0
 10
9.232597546513446
 20
-0.0065957179713968
 30
0.0
 10
8.935670173438584
 20
0.1643379533960697
 30
0.0
 10
8.790324946959931
 20
0.2486578745044918
 30
0.0
 10
8.641240229820955
 20
0.331346723881987
 30
0.0
  0
SPLINE
  5
D7
330
1F
100
AcDbEntity
  8
0
  6
Continuous
 62
   131
370
    15
100
AcDbSpline
210
0.0
220
0.0
230
1.0
 70
     8
 71
     3
 72
     9
 73
     5
 74
     0
 42
0.000000001
 43
0.00000001
 40
0.0
 40
0.0
 40
0.0
 40
0.0
 40
0.5759966915125818
 40
0.9999999999999999
 40
0.9999999999999999
 40
0.9999999999999999
 40
0.9999999999999999
 10
9.531088913245519
 20
-0.0873689626441527
 30
0.0
 10
9.382053291764386
 20
-0.014208249188579
 30
0.0
 10
9.123309407160185
 20
0.1128076079050647
 30
0.0
 10
8.865023099107301
 20
0.2359555291821107
 30
0.0
 10
8.755508849955877
 20
0.2881706552369263
 30
0.0
  0
SPLINE
  5
D8
330
1F
100
AcDbEntity
  8
0
  6
Continuous
 62
   131
370
    15
100
AcDbSpline
210
0.0
220
0.0
230
1.0
 70
     8
 71
     3
 72
    10
 73
     6
 74
     0
 42
0.000000001
 43
0.00000001
 40
0.0
 40
0.0
 40
0.0
 40
0.0
 40
0.5
 40
0.5
 40
1.0
 40
1.0
 40
1.0
 40
1.0
 10
9.531088913245519
 20
-0.5124943443607567
 30
0.0
 10
9.383145147880658
 20
-0.4344720812996062
 30
0.0
 10
9.232571465463465
 20
-0.3523553587673072
 30
0.0
 10
8.935619099255021
 20
-0.1850703612123677
 30
0.0
 10
8.790260801767737
 20
-0.1001309055573725
 30
0.0
 10
8.64116275163968
 20
-0.0143724582998558
 30
0.0
  0
LINE
  5
D9
330
1F
100
AcDbEntity
  8
0
  6
Continuous
 62
   131
370
    15
100
AcDbLine
 10
8.64116275163968
 20
-1.249999999999999
 30
0.0
 11
8.64116275163968
 21
-0.0139454360952834
 31
0.0
  0
LINE
  5
DA
330
1F
100
AcDbEntity
  8
0
  6
Continuous
 62
   131
370
    15
100
AcDbLine
 10
8.64116275163968
 20
0.3313983786560248
 30
0.0
 11
8.64116275163968
 21
1.250000000000001
 31
0.0
  0
LINE
  5
DB
330
1F
100
AcDbEntity
  8
0
  6
Continuous
 62
   131
370
    15
100
AcDbLine
 10
8.822508673983823
 20
-0.1185047844103784
 30
0.0
 11
8.641181405168098
 21
-0.0460245793640606
 31
0.0
  0
SPLINE
  5
DC
330
1F
100
AcDbEntity
  8
0
  6
Continuous
 62
   131
370
    15
100
AcDbSpline
210
0.0
220
0.0
230
1.0
 70
     8
 71
     3
 72
    10
 73
     6
 74
     0
 42
0.000000001
 43
0.00000001
 40
0.0
 40
0.0
 40
0.0
 40
0.0
 40
0.4999999999999999
 40
0.4999999999999999
 40
1.0
 40
1.0
 40
1.0
 40
1.0
 10
9.531088913245451
 20
0.8944636391629172
 30
0.0
 10
9.383149824059188
 20
0.9250623032865118
 30
0.0
 10
9.232580983839942
 20
0.9494902283341375
 30
0.0
 10
8.935637738933877
 20
0.9844239016862106
 30
0.0
 10
8.790284211833729
 20
0.9950063450854902
 30
0.0
 10
8.641191027603124
 20
0.9986154542039071
 30
0.0
  0
SPLINE
  5
DD
330
1F
100
AcDbEntity
  8
0
  6
Continuous
 62
   131
370
    15
100
AcDbSpline
210
0.0
220
0.0
230
1.0
 70
    24
 71
     3
 72
    10
 73
     6
 74
     0
 42
0.000000001
 43
0.00000001
 40
0.0
 40
0.0
 40
0.0
 40
0.0
 40
0.5
 40
0.5
 40
1.0
 40
1.0
 40
1.0
 40
1.0
 10
9.531088913245277
 20
0.8944636391629541
 30
0.0
 10
9.531088913245277
 20
0.7888988361101625
 30
0.0
 10
9.531088913245277
 20
0.6426132689866215
 30
0.0
 10
9.531088913245277
 20
0.2994141223574632
 30
0.0
 10
9.531088913245277
 20
0.1039778061449008
 30
0.0
 10
9.531088913245277
 20
-0.087368962644033
 30
0.0
  0
SPLINE
  5
DE
330
1F
100
AcDbEntity
  8
0
  6
Continuous
 62
   131
370
    15
100
AcDbSpline
210
0.0
220
0.0
230
1.0
 70
     8
 71
     3
 72
     9
 73
     5
 74
     0
 42
0.000000001
 43
0.00000001
 40
0.0
 40
0.0
 40
0.0
 40
0.0
 40
0.3170415740420363
 40
1.0
 40
1.0
 40
1.0
 40
1.0
 10
9.289939889279285
 20
-0.933574419095333
 30
0.0
 10
9.221318094896542
 20
-0.945689354231197
 30
0.0
 10
9.004873943715154
 20
-0.9839018037260943
 30
0.0
 10
8.788776558002837
 20
-0.9926445333448826
 30
0.0
 10
8.641191027603124
 20
-0.9986154542039061
 30
0.0
  0
SPLINE
  5
DF
330
1F
100
AcDbEntity
  8
0
  6
Continuous
 62
   131
370
    15
100
AcDbSpline
210
0.0
220
0.0
230
1.0
 70
    24
 71
     3
 72
    10
 73
     6
 74
     0
 42
0.000000001
 43
0.00000001
 40
0.0
 40
0.0
 40
0.0
 40
0.0
 40
0.2686736085041562
 40
0.7138410632506822
 40
1.0
 40
1.0
 40
1.0
 40
1.0
 10
9.531088913245515
 20
-0.512494344360758
 30
0.0
 10
9.531088913245515
 20
-0.5776114794587431
 30
0.0
 10
9.531088913245515
 20
-0.7506217174682753
 30
0.0
 10
9.531088913245515
 20
-0.8863807682634526
 30
0.0
 10
9.531088913245515
 20
-0.8863193532114336
 30
0.0
 10
9.531088913245515
 20
-0.8862953222641154
 30
0.0
  0
LINE
  5
E0
330
1F
100
AcDbEntity
  8
중심선
 62
     1
100
AcDbLine
 10
-37.46891108675448
 20
-0.0000000000000041
 30
0.0
 11
27.03108891324552
 21
0.0000000000000029
 31
0.0
  0
CIRCLE
  5
E1
330
1F
100
AcDbEntity
  8
외형선
100
AcDbCircle
 10
0.0000000000000104
 20
0.0
 30
0.0
 40
3.000000000000005
  0
INSERT
  5
E2
330
1F
100
AcDbEntity
  8
0
  6
Continuous
 62
     7
100
AcDbBlockReference
 66
     1
  2
블럭10
 10
-22.93944368806589
 20
-52.04609937292004
 30
0.0
  0
ATTRIB
  5
E3
330
E2
100
AcDbEntity
  8
FORMAT
 62
     2
100
AcDbText
 10
-39.05870472750145
 20
-49.97073246008785
 30
0.0
 40
4.233333333333333
  1
SEME7002516E [ 2 FLUTE ]
 41
0.75
  7
SLDTEXTSTYLE0
 11
-39.05870472750145
 21
-52.08739912675452
 31
0.0
100
AcDbAttribute
  2
AUTOATTR0
 70
     0
 74
     1
  0
SEQEND
  5
E4
330
E2
100
AcDbEntity
  8
0
  6
Continuous
 62
     7
  0
HATCH
  5
E5
330
1F
100
AcDbEntity
  8
중심선
100
AcDbHatch
 10
0.0
 20
0.0
 30
0.0
210
0.0
220
0.0
230
1.0
  2
SOLID
 70
     1
 71
     0
 91
        1
 92
        0
 93
        4
 72
     1
 10
-17.22453438368504
 20
-35.7989250712761
 11
-20.67080962752232
 21
-35.7989250712761
 72
     1
 10
-20.67080962752232
 20
-35.7989250712761
 11
-22.79903948672635
 21
-38.3352506518487
 72
     1
 10
-22.79903948672635
 20
-38.3352506518487
 11
-19.35273115777591
 21
-38.33521122254621
 72
     1
 10
-19.35273115777591
 20
-38.33521122254621
 11
-17.22453438368504
 21
-35.7989250712761
 97
        0
 75
     0
 76
     1
 98
        1
 10
0.0
 20
0.0
  0
HATCH
  5
E6
330
1F
100
AcDbEntity
  8
중심선
100
AcDbHatch
 10
0.0
 20
0.0
 30
0.0
210
0.0
220
0.0
230
1.0
  2
SOLID
 70
     1
 71
     0
 91
        1
 92
        0
 93
        4
 72
     1
 10
-12.21177039264909
 20
-35.7989250712761
 11
-15.65804563648637
 21
-35.7989250712761
 72
     1
 10
-15.65804563648637
 20
-35.7989250712761
 11
-20.18918364484376
 21
-41.19892507127612
 72
     1
 10
-20.18918364484376
 20
-41.19892507127612
 11
-16.74290840100648
 21
-41.19892507127612
 72
     1
 10
-16.74290840100648
 20
-41.19892507127612
 11
-12.21177039264909
 21
-35.7989250712761
 97
        0
 75
     0
 76
     1
 98
        1
 10
0.0
 20
0.0
  0
HATCH
  5
E7
330
1F
100
AcDbEntity
  8
중심선
100
AcDbHatch
 10
0.0
 20
0.0
 30
0.0
210
0.0
220
0.0
230
1.0
  2
SOLID
 70
     1
 71
     0
 91
        1
 92
        0
 93
        4
 72
     1
 10
-7.199006401613195
 20
-35.79892507127613
 11
-10.64528164545031
 21
-35.7989250712761
 72
     1
 10
-10.64528164545031
 20
-35.7989250712761
 11
-17.69371854733956
 21
-44.19892507127612
 72
     1
 10
-17.69371854733956
 20
-44.19892507127612
 11
-14.24744330350228
 21
-44.19892507127612
 72
     1
 10
-14.24744330350228
 20
-44.19892507127612
 11
-7.199006401613195
 21
-35.79892507127613
 97
        0
 75
     0
 76
     1
 98
        1
 10
0.0
 20
0.0
  0
HATCH
  5
E8
330
1F
100
AcDbEntity
  8
중심선
100
AcDbHatch
 10
0.0
 20
0.0
 30
0.0
210
0.0
220
0.0
230
1.0
  2
SOLID
 70
     1
 71
     0
 91
        1
 92
        0
 93
        6
 72
     3
 10
-2.399115970600996
 20
-39.99892507132738
 11
3.960054785062284
 21
1.540850780301639E-10
 40
0.3939339440162633
 50
17.09539180608433
 51
320.0019657685079
 73
     0
 72
     1
 10
-0.7161163149004002
 20
-38.58681907591441
 11
1.589185558800638
 21
-36.65249236586649
 72
     3
 10
-2.399115970653842
 20
-39.99892507127625
 11
6.600054785286829
 21
-1.249000902703301E-13
 40
0.6363583540795982
 50
39.99873849337408
 51
368.4976242363724
 73
     1
 72
     1
 10
4.026216521246767
 20
-39.03892507120613
 11
-3.71904866381792
 21
-39.0389250712061
 72
     1
 10
-3.71904866381792
 20
-39.0389250712061
 11
-3.719073708263854
 21
-40.95892507120602
 72
     1
 10
-3.719073708263854
 20
-40.95892507120602
 11
0.7223060612081835
 21
-40.95892507120599
 97
        0
 75
     0
 76
     1
 98
        1
 10
0.0
 20
0.0
  0
DIMENSION
  5
E9
330
1F
100
AcDbEntity
  8
치수문자_일반주서
100
AcDbDimension
  2
_D
 10
38.43002371015626
 20
1.25000000000005
 30
0.0
 11
38.43002371015623
 21
13.7602500000001
 31
0.0
 70
   160
  1
%%c<>
 71
     2
 42
2.5
 52
-270.0
  3
SLDDIMSTYLE0
100
AcDbAlignedDimension
 13
25.53108891324552
 23
-1.249999999999997
 33
0.0
 14
25.53108891324552
 24
1.250000000000003
 34
0.0
 50
90.0000000000002
100
AcDbRotatedDimension
  0
DIMENSION
  5
F7
330
1F
100
AcDbEntity
  8
치수문자_일반주서
100
AcDbDimension
  2
_D_1
 10
25.53108891324552
 20
24.23841044024269
 30
0.0
 11
-4.468911086754478
 21
24.23841044024269
 31
0.0
 70
   160
  1
<>
 71
     2
 42
60.0
  3
SLDDIMSTYLE1
100
AcDbAlignedDimension
 13
-34.46891108675448
 23
2.449999999999996
 33
0.0
 14
25.53108891324552
 24
1.248676086539878
 34
0.0
 50
-0.0000000000000034
100
AcDbRotatedDimension
  0
DIMENSION
  5
102
330
1F
100
AcDbEntity
  8
치수문자_일반주서
100
AcDbDimension
  2
_D_2
 10
25.53108891324552
 20
14.24146144533072
 30
0.0
 11
17.53108891324499
 21
14.24146144533072
 31
0.0
 70
   160
  1
<>
 71
     2
 42
16.00000000000008
  3
SLDDIMSTYLE2
100
AcDbAlignedDimension
 13
9.531088913245451
 23
0.8944636391629173
 33
0.0
 14
25.53108891324552
 24
1.248676086539878
 34
0.0
 50
0.000000000001991
100
AcDbRotatedDimension
  0
DIMENSION
  5
10F
330
1F
100
AcDbEntity
  8
치수문자_일반주서
100
AcDbDimension
  2
_D_3
 10
-46.41536910836653
 20
-3.000000000000048
 30
0.0
 11
-46.41536910836659
 21
12.66649999999995
 31
0.0
 70
   160
  1
%%c<>
 71
     2
 42
5.999999999999996
 52
-270.0
  3
SLDDIMSTYLE2
100
AcDbAlignedDimension
 13
-33.91891108675448
 23
2.999999999999996
 33
0.0
 14
-33.91891108675448
 24
-3.0
 34
0.0
 50
90.0000000000002
100
AcDbRotatedDimension
  0
INSERT
  5
122
330
1F
100
AcDbEntity
  8
외형선
100
AcDbBlockReference
  2
SW_DOWELSYMBOL_0
 10
0.0000000000000104
 20
0.0
 30
0.0
  0
ENDSEC
  0
SECTION
  2
OBJECTS
  0
DICTIONARY
  5
C
330
0
100
AcDbDictionary
281
     1
  3
ACAD_GROUP
350
D
  3
ACAD_IMAGE_VARS
350
146
  3
ACAD_LAYOUT
350
1A
  3
ACAD_MLINESTYLE
350
17
  3
ACAD_PLOTSETTINGS
350
19
  3
ACAD_PLOTSTYLENAME
350
E
  3
ACAD_SCALELIST
350
47
  3
APPDATA
350
144
  3
DWGPROPS
350
19B
  0
DICTIONARY
  5
D
102
{ACAD_REACTORS
330
C
102
}
330
C
100
AcDbDictionary
281
     1
  0
RASTERVARIABLES
  5
146
102
{ACAD_REACTORS
330
C
102
}
330
C
100
AcDbRasterVariables
 90
        0
 70
     1
 71
     1
 72
     1
  0
DICTIONARY
  5
1A
102
{ACAD_REACTORS
330
C
102
}
330
C
100
AcDbDictionary
281
     1
  3
Layout1
350
1E
  3
Layout2
350
26
  3
Model
350
22
  0
DICTIONARY
  5
17
102
{ACAD_REACTORS
330
C
102
}
330
C
100
AcDbDictionary
281
     1
  3
Standard
350
18
  0
DICTIONARY
  5
19
102
{ACAD_REACTORS
330
C
102
}
330
C
100
AcDbDictionary
281
     1
  0
ACDBDICTIONARYWDFLT
  5
E
102
{ACAD_REACTORS
330
C
102
}
330
C
100
AcDbDictionary
281
     1
  3
Normal
350
F
100
AcDbDictionaryWithDefault
340
F
  0
DICTIONARY
  5
47
102
{ACAD_REACTORS
330
C
102
}
330
C
100
AcDbDictionary
281
     1
  3
A0
350
48
  3
A1
350
49
  3
A2
350
4A
  3
A3
350
4B
  3
A4
350
4C
  3
A5
350
4D
  3
A6
350
4E
  3
A7
350
4F
  3
A8
350
50
  3
A9
350
51
  3
B0
350
52
  3
B1
350
53
  3
B2
350
54
  3
B3
350
55
  3
B4
350
56
  3
B5
350
57
  3
B6
350
58
  3
B7
350
59
  3
B8
350
5A
  3
B9
350
5B
  3
C0
350
5C
  3
C1
350
5D
  3
C2
350
5E
  3
C3
350
5F
  3
C4
350
60
  3
C5
350
61
  3
C6
350
62
  3
C7
350
63
  3
C8
350
64
  3
C9
350
65
  3
D0
350
66
  3
D1
350
67
  3
D2
350
68
  0
DICTIONARY
  5
144
102
{ACAD_REACTORS
330
C
102
}
330
C
100
AcDbDictionary
281
     1
  0
XRECORD
  5
19B
102
{ACAD_REACTORS
330
C
102
}
330
C
100
AcDbXrecord
280
     1
  1
DWGPROPS COOKIE
  2

  3

  4

  6

  7

  8
12014102
  9

300
=
301
=
302
=
303
=
304
=
305
=
306
=
307
=
308
=
309
=
 40
0.0
 41
2458262.161473947
 42
2458264.42289706
  1

 90
        0
  0
LAYOUT
  5
1E
102
{ACAD_REACTORS
330
1A
102
}
330
1A
100
AcDbPlotSettings
  1

  2
none_device
  4

  6

 40
0.0
 41
0.0
 42
0.0
 43
0.0
 44
0.0
 45
0.0
 46
0.0
 47
0.0
 48
0.0
 49
0.0
140
0.0
141
0.0
142
1.0
143
1.0
 70
   688
 72
     1
 73
     0
 74
     5
  7

 75
    16
147
1.0
148
0.0
149
0.0
100
AcDbLayout
  1
Layout1
 70
     1
 71
     1
 10
0.0
 20
0.0
 11
420.0
 21
297.0
 12
0.0
 22
0.0
 32
0.0
 14
1.000000000000000E+20
 24
1.000000000000000E+20
 34
1.000000000000000E+20
 15
-1.000000000000000E+20
 25
-1.000000000000000E+20
 35
-1.000000000000000E+20
146
0.0
 13
0.0
 23
0.0
 33
0.0
 16
1.0
 26
0.0
 36
0.0
 17
0.0
 27
1.0
 37
0.0
 76
     0
330
1B
  0
LAYOUT
  5
26
102
{ACAD_REACTORS
330
1A
102
}
330
1A
100
AcDbPlotSettings
  1

  2
none_device
  4

  6

 40
0.0
 41
0.0
 42
0.0
 43
0.0
 44
0.0
 45
0.0
 46
0.0
 47
0.0
 48
0.0
 49
0.0
140
0.0
141
0.0
142
1.0
143
1.0
 70
   688
 72
     1
 73
     0
 74
     5
  7

 75
    16
147
1.0
148
0.0
149
0.0
100
AcDbLayout
  1
Layout2
 70
     1
 71
     2
 10
0.0
 20
0.0
 11
0.0
 21
0.0
 12
0.0
 22
0.0
 32
0.0
 14
0.0
 24
0.0
 34
0.0
 15
0.0
 25
0.0
 35
0.0
146
0.0
 13
0.0
 23
0.0
 33
0.0
 16
1.0
 26
0.0
 36
0.0
 17
0.0
 27
1.0
 37
0.0
 76
     0
330
23
  0
LAYOUT
  5
22
102
{ACAD_REACTORS
330
1A
102
}
330
1A
100
AcDbPlotSettings
  1

  2
none_device
  4
ANSI_A_(11.00_x_8.50_Inches)
  6

 40
6.35
 41
19.05
 42
6.35000508
 43
19.05000254
 44
279.4
 45
215.9
 46
137.6958576136051
 47
118.4377884955873
 48
0.0
 49
0.0
140
0.0
141
0.0
142
0.1058944507156154
143
1.0
 70
  1696
 72
     0
 73
     0
 74
     0
  7

 75
     0
147
0.0235690232323232
148
0.0
149
0.0
100
AcDbLayout
  1
Model
 70
     1
 71
     0
 10
0.0
 20
0.0
 11
420.0
 21
297.0
 12
0.0
 22
0.0
 32
0.0
 14
-50.7903691083666
 24
-49.97073246008785
 34
0.0
 15
38.98035704348963
 25
28.61341044024269
 35
0.0
146
0.0
 13
0.0
 23
0.0
 33
0.0
 16
1.0
 26
0.0
 36
0.0
 17
0.0
 27
1.0
 37
0.0
 76
     0
330
1F
331
29
  0
MLINESTYLE
  5
18
102
{ACAD_REACTORS
330
17
102
}
330
17
100
AcDbMlineStyle
  2
Standard
 70
     0
  3

 62
   256
 51
90.0
 52
90.0
 71
     2
 49
0.5
 62
   256
  6
BYLAYER
 49
-0.5
 62
   256
  6
BYLAYER
  0
ACDBPLACEHOLDER
  5
F
102
{ACAD_REACTORS
330
E
102
}
330
E
  0
SCALE
  5
48
102
{ACAD_REACTORS
330
47
102
}
330
47
100
AcDbScale
 70
     0
300
1:1
140
1.0
141
1.0
290
     1
  0
SCALE
  5
49
102
{ACAD_REACTORS
330
47
102
}
330
47
100
AcDbScale
 70
     0
300
1:2
140
1.0
141
2.0
290
     0
  0
SCALE
  5
4A
102
{ACAD_REACTORS
330
47
102
}
330
47
100
AcDbScale
 70
     0
300
1:4
140
1.0
141
4.0
290
     0
  0
SCALE
  5
4B
102
{ACAD_REACTORS
330
47
102
}
330
47
100
AcDbScale
 70
     0
300
1:5
140
1.0
141
5.0
290
     0
  0
SCALE
  5
4C
102
{ACAD_REACTORS
330
47
102
}
330
47
100
AcDbScale
 70
     0
300
1:8
140
1.0
141
8.0
290
     0
  0
SCALE
  5
4D
102
{ACAD_REACTORS
330
47
102
}
330
47
100
AcDbScale
 70
     0
300
1:10
140
1.0
141
10.0
290
     0
  0
SCALE
  5
4E
102
{ACAD_REACTORS
330
47
102
}
330
47
100
AcDbScale
 70
     0
300
1:16
140
1.0
141
16.0
290
     0
  0
SCALE
  5
4F
102
{ACAD_REACTORS
330
47
102
}
330
47
100
AcDbScale
 70
     0
300
1:20
140
1.0
141
20.0
290
     0
  0
SCALE
  5
50
102
{ACAD_REACTORS
330
47
102
}
330
47
100
AcDbScale
 70
     0
300
1:30
140
1.0
141
30.0
290
     0
  0
SCALE
  5
51
102
{ACAD_REACTORS
330
47
102
}
330
47
100
AcDbScale
 70
     0
300
1:40
140
1.0
141
40.0
290
     0
  0
SCALE
  5
52
102
{ACAD_REACTORS
330
47
102
}
330
47
100
AcDbScale
 70
     0
300
1:50
140
1.0
141
50.0
290
     0
  0
SCALE
  5
53
102
{ACAD_REACTORS
330
47
102
}
330
47
100
AcDbScale
 70
     0
300
1:100
140
1.0
141
100.0
290
     0
  0
SCALE
  5
54
102
{ACAD_REACTORS
330
47
102
}
330
47
100
AcDbScale
 70
     0
300
2:1
140
2.0
141
1.0
290
     0
  0
SCALE
  5
55
102
{ACAD_REACTORS
330
47
102
}
330
47
100
AcDbScale
 70
     0
300
4:1
140
4.0
141
1.0
290
     0
  0
SCALE
  5
56
102
{ACAD_REACTORS
330
47
102
}
330
47
100
AcDbScale
 70
     0
300
8:1
140
8.0
141
1.0
290
     0
  0
SCALE
  5
57
102
{ACAD_REACTORS
330
47
102
}
330
47
100
AcDbScale
 70
     0
300
10:1
140
10.0
141
1.0
290
     0
  0
SCALE
  5
58
102
{ACAD_REACTORS
330
47
102
}
330
47
100
AcDbScale
 70
     0
300
100:1
140
100.0
141
1.0
290
     0
  0
SCALE
  5
59
102
{ACAD_REACTORS
330
47
102
}
330
47
100
AcDbScale
 70
     0
300
1/128" = 1'-0"
140
0.0078125
141
12.0
290
     0
  0
SCALE
  5
5A
102
{ACAD_REACTORS
330
47
102
}
330
47
100
AcDbScale
 70
     0
300
1/64" = 1'-0"
140
0.015625
141
12.0
290
     0
  0
SCALE
  5
5B
102
{ACAD_REACTORS
330
47
102
}
330
47
100
AcDbScale
 70
     0
300
1/32" = 1'-0"
140
0.03125
141
12.0
290
     0
  0
SCALE
  5
5C
102
{ACAD_REACTORS
330
47
102
}
330
47
100
AcDbScale
 70
     0
300
1/16" = 1'-0"
140
0.0625
141
12.0
290
     0
  0
SCALE
  5
5D
102
{ACAD_REACTORS
330
47
102
}
330
47
100
AcDbScale
 70
     0
300
3/32" = 1'-0"
140
0.09375
141
12.0
290
     0
  0
SCALE
  5
5E
102
{ACAD_REACTORS
330
47
102
}
330
47
100
AcDbScale
 70
     0
300
1/8" = 1'-0"
140
0.125
141
12.0
290
     0
  0
SCALE
  5
5F
102
{ACAD_REACTORS
330
47
102
}
330
47
100
AcDbScale
 70
     0
300
3/16" = 1'-0"
140
0.1875
141
12.0
290
     0
  0
SCALE
  5
60
102
{ACAD_REACTORS
330
47
102
}
330
47
100
AcDbScale
 70
     0
300
1/4" = 1'-0"
140
0.25
141
12.0
290
     0
  0
SCALE
  5
61
102
{ACAD_REACTORS
330
47
102
}
330
47
100
AcDbScale
 70
     0
300
3/8" = 1'-0"
140
0.375
141
12.0
290
     0
  0
SCALE
  5
62
102
{ACAD_REACTORS
330
47
102
}
330
47
100
AcDbScale
 70
     0
300
1/2" = 1'-0"
140
0.5
141
12.0
290
     0
  0
SCALE
  5
63
102
{ACAD_REACTORS
330
47
102
}
330
47
100
AcDbScale
 70
     0
300
3/4" = 1'-0"
140
0.75
141
12.0
290
     0
  0
SCALE
  5
64
102
{ACAD_REACTORS
330
47
102
}
330
47
100
AcDbScale
 70
     0
300
1" = 1'-0"
140
1.0
141
12.0
290
     0
  0
SCALE
  5
65
102
{ACAD_REACTORS
330
47
102
}
330
47
100
AcDbScale
 70
     0
300
1-1/2" = 1'-0"
140
1.5
141
12.0
290
     0
  0
SCALE
  5
66
102
{ACAD_REACTORS
330
47
102
}
330
47
100
AcDbScale
 70
     0
300
3" = 1'-0"
140
3.0
141
12.0
290
     0
  0
SCALE
  5
67
102
{ACAD_REACTORS
330
47
102
}
330
47
100
AcDbScale
 70
     0
300
6" = 1'-0"
140
6.0
141
12.0
290
     0
  0
SCALE
  5
68
102
{ACAD_REACTORS
330
47
102
}
330
47
100
AcDbScale
 70
     0
300
1'-0" = 1'-0"
140
12.0
141
12.0
290
     0
  0
ENDSEC
  0
EOF
