  0
SECTION
  2
HEADER
  9
$ACADVER
  1
AC1015
  9
$ACADMAINTVER
 70
     6
  9
$DWGCODEPAGE
  3
ANSI_949
  9
$INSBASE
 10
0.0
 20
0.0
 30
0.0
  9
$EXTMIN
 10
-40.79036910836658
 20
-49.97073246008785
 30
0.0
  9
$EXTMAX
 10
48.15139485644473
 20
28.61341044024269
 30
0.0
  9
$LIMMIN
 10
0.0
 20
0.0
  9
$LIMMAX
 10
420.0
 20
297.0
  9
$ORTHOMODE
 70
     0
  9
$REGENMODE
 70
     1
  9
$FILLMODE
 70
     1
  9
$QTEXTMODE
 70
     0
  9
$MIRRTEXT
 70
     1
  9
$LTSCALE
 40
1.0
  9
$ATTMODE
 70
     1
  9
$TEXTSIZE
 40
3.5
  9
$TRACEWID
 40
1.0
  9
$TEXTSTYLE
  7
Standard
  9
$CLAYER
  8
0
  9
$CELTYPE
  6
ByLayer
  9
$CECOLOR
 62
   256
  9
$CELTSCALE
 40
1.0
  9
$DISPSILH
 70
     0
  9
$DIMSCALE
 40
1.0
  9
$DIMASZ
 40
3.302
  9
$DIMEXO
 40
1.0
  9
$DIMDLI
 40
3.75
  9
$DIMRND
 40
0.0
  9
$DIMDLE
 40
0.0
  9
$DIMEXE
 40
1.0
  9
$DIMTP
 40
0.0
  9
$DIMTM
 40
0.0
  9
$DIMTXT
 40
3.5
  9
$DIMCEN
 40
2.5
  9
$DIMTSZ
 40
0.0
  9
$DIMTOL
 70
     0
  9
$DIMLIM
 70
     0
  9
$DIMTIH
 70
     1
  9
$DIMTOH
 70
     1
  9
$DIMSE1
 70
     0
  9
$DIMSE2
 70
     0
  9
$DIMTAD
 70
     1
  9
$DIMZIN
 70
     0
  9
$DIMBLK
  1

  9
$DIMASO
 70
     1
  9
$DIMSHO
 70
     1
  9
$DIMPOST
  1

  9
$DIMAPOST
  1

  9
$DIMALT
 70
     0
  9
$DIMALTD
 70
     3
  9
$DIMALTF
 40
0.0393700787401575
  9
$DIMLFAC
 40
1.0
  9
$DIMTOFL
 70
     1
  9
$DIMTVP
 40
0.0
  9
$DIMTIX
 70
     0
  9
$DIMSOXD
 70
     0
  9
$DIMSAH
 70
     0
  9
$DIMBLK1
  1

  9
$DIMBLK2
  1

  9
$DIMSTYLE
  2
ISO-25
  9
$DIMCLRD
 70
     0
  9
$DIMCLRE
 70
     0
  9
$DIMCLRT
 70
     0
  9
$DIMTFAC
 40
1.0
  9
$DIMGAP
 40
1.524
  9
$DIMJUST
 70
     0
  9
$DIMSD1
 70
     0
  9
$DIMSD2
 70
     0
  9
$DIMTOLJ
 70
     0
  9
$DIMTZIN
 70
     0
  9
$DIMALTZ
 70
     0
  9
$DIMALTTZ
 70
     0
  9
$DIMUPT
 70
     0
  9
$DIMDEC
 70
     2
  9
$DIMTDEC
 70
     2
  9
$DIMALTU
 70
     2
  9
$DIMALTTD
 70
     3
  9
$DIMTXSTY
  7
Standard
  9
$DIMAUNIT
 70
     0
  9
$DIMADEC
 70
     2
  9
$DIMALTRND
 40
0.0
  9
$DIMAZIN
 70
     0
  9
$DIMDSEP
 70
    44
  9
$DIMATFIT
 70
     3
  9
$DIMFRAC
 70
     0
  9
$DIMLDRBLK
  1

  9
$DIMLUNIT
 70
     2
  9
$DIMLWD
 70
    -2
  9
$DIMLWE
 70
    -2
  9
$DIMTMOVE
 70
     0
  9
$LUNITS
 70
     2
  9
$LUPREC
 70
     2
  9
$SKETCHINC
 40
1.0
  9
$FILLETRAD
 40
10.0
  9
$AUNITS
 70
     0
  9
$AUPREC
 70
     2
  9
$MENU
  1
.
  9
$ELEVATION
 40
0.0
  9
$PELEVATION
 40
0.0
  9
$THICKNESS
 40
0.0
  9
$LIMCHECK
 70
     0
  9
$CHAMFERA
 40
0.0
  9
$CHAMFERB
 40
0.0
  9
$CHAMFERC
 40
0.0
  9
$CHAMFERD
 40
0.0
  9
$SKPOLY
 70
     0
  9
$TDCREATE
 40
2458262.536849595
  9
$TDUCREATE
 40
2458262.161849595
  9
$TDUPDATE
 40
2458264.799176458
  9
$TDUUPDATE
 40
2458264.424176458
  9
$TDINDWG
 40
0.0022904977
  9
$TDUSRTIMER
 40
2458264.42355706
  9
$USRTIMER
 70
     1
  9
$ANGBASE
 50
0.0
  9
$ANGDIR
 70
     0
  9
$PDMODE
 70
     0
  9
$PDSIZE
 40
-1.0
  9
$PLINEWID
 40
0.0
  9
$SPLFRAME
 70
     0
  9
$SPLINETYPE
 70
     6
  9
$SPLINESEGS
 70
     8
  9
$HANDSEED
  5
1AF
  9
$SURFTAB1
 70
     6
  9
$SURFTAB2
 70
     6
  9
$SURFTYPE
 70
     6
  9
$SURFU
 70
     6
  9
$SURFV
 70
     6
  9
$UCSBASE
  2

  9
$UCSNAME
  2

  9
$UCSORG
 10
0.0
 20
0.0
 30
0.0
  9
$UCSXDIR
 10
1.0
 20
0.0
 30
0.0
  9
$UCSYDIR
 10
0.0
 20
1.0
 30
0.0
  9
$UCSORTHOREF
  2

  9
$UCSORTHOVIEW
 70
     0
  9
$UCSORGTOP
 10
0.0
 20
0.0
 30
0.0
  9
$UCSORGBOTTOM
 10
0.0
 20
0.0
 30
0.0
  9
$UCSORGLEFT
 10
0.0
 20
0.0
 30
0.0
  9
$UCSORGRIGHT
 10
0.0
 20
0.0
 30
0.0
  9
$UCSORGFRONT
 10
0.0
 20
0.0
 30
0.0
  9
$UCSORGBACK
 10
0.0
 20
0.0
 30
0.0
  9
$PUCSBASE
  2

  9
$PUCSNAME
  2

  9
$PUCSORG
 10
0.0
 20
0.0
 30
0.0
  9
$PUCSXDIR
 10
1.0
 20
0.0
 30
0.0
  9
$PUCSYDIR
 10
0.0
 20
1.0
 30
0.0
  9
$PUCSORTHOREF
  2

  9
$PUCSORTHOVIEW
 70
     0
  9
$PUCSORGTOP
 10
0.0
 20
0.0
 30
0.0
  9
$PUCSORGBOTTOM
 10
0.0
 20
0.0
 30
0.0
  9
$PUCSORGLEFT
 10
0.0
 20
0.0
 30
0.0
  9
$PUCSORGRIGHT
 10
0.0
 20
0.0
 30
0.0
  9
$PUCSORGFRONT
 10
0.0
 20
0.0
 30
0.0
  9
$PUCSORGBACK
 10
0.0
 20
0.0
 30
0.0
  9
$USERI1
 70
     0
  9
$USERI2
 70
     0
  9
$USERI3
 70
     0
  9
$USERI4
 70
     0
  9
$USERI5
 70
     0
  9
$USERR1
 40
0.0
  9
$USERR2
 40
0.0
  9
$USERR3
 40
0.0
  9
$USERR4
 40
0.0
  9
$USERR5
 40
0.0
  9
$WORLDVIEW
 70
     1
  9
$SHADEDGE
 70
     3
  9
$SHADEDIF
 70
    70
  9
$TILEMODE
 70
     1
  9
$MAXACTVP
 70
    64
  9
$PINSBASE
 10
0.0
 20
0.0
 30
0.0
  9
$PLIMCHECK
 70
     0
  9
$PEXTMIN
 10
1.000000000000000E+20
 20
1.000000000000000E+20
 30
1.000000000000000E+20
  9
$PEXTMAX
 10
-1.000000000000000E+20
 20
-1.000000000000000E+20
 30
-1.000000000000000E+20
  9
$PLIMMIN
 10
0.0
 20
0.0
  9
$PLIMMAX
 10
0.0
 20
0.0
  9
$UNITMODE
 70
     0
  9
$VISRETAIN
 70
     1
  9
$PLINEGEN
 70
     0
  9
$PSLTSCALE
 70
     1
  9
$TREEDEPTH
 70
  3020
  9
$CMLSTYLE
  2
Standard
  9
$CMLJUST
 70
     0
  9
$CMLSCALE
 40
20.0
  9
$PROXYGRAPHICS
 70
     1
  9
$MEASUREMENT
 70
     1
  9
$CELWEIGHT
370
    -1
  9
$ENDCAPS
280
     0
  9
$JOINSTYLE
280
     0
  9
$LWDISPLAY
290
     1
  9
$INSUNITS
 70
     4
  9
$HYPERLINKBASE
  1

  9
$STYLESHEET
  1

  9
$XEDIT
290
     1
  9
$CEPSNTYPE
380
     0
  9
$PSTYLEMODE
290
     1
  9
$FINGERPRINTGUID
  2
{D688166D-0ADE-49E0-A445-5A5FD40C0042}
  9
$VERSIONGUID
  2
{FAEB1C32-E019-11D5-929B-00C0DF256EC4}
  9
$EXTNAMES
290
     1
  9
$PSVPSCALE
 40
0.0
  9
$OLESTARTUP
290
     0
  0
ENDSEC
  0
SECTION
  2
CLASSES
  0
CLASS
  1
ACDBDICTIONARYWDFLT
  2
AcDbDictionaryWithDefault
  3
ObjectDBX Classes
 90
        0
280
     0
281
     0
  0
CLASS
  1
VISUALSTYLE
  2
AcDbVisualStyle
  3
ObjectDBX Classes
 90
     4095
280
     0
281
     0
  0
CLASS
  1
MATERIAL
  2
AcDbMaterial
  3
ObjectDBX Classes
 90
     1153
280
     0
281
     0
  0
CLASS
  1
SCALE
  2
AcDbScale
  3
ObjectDBX Classes
 90
     1153
280
     0
281
     0
  0
CLASS
  1
SUN
  2
AcDbSun
  3
SCENEOE
 90
     1153
280
     0
281
     0
  0
CLASS
  1
ACDBPLACEHOLDER
  2
AcDbPlaceHolder
  3
ObjectDBX Classes
 90
        0
280
     0
281
     0
  0
CLASS
  1
LAYOUT
  2
AcDbLayout
  3
ObjectDBX Classes
 90
        0
280
     0
281
     0
  0
CLASS
  1
TABLESTYLE
  2
AcDbTableStyle
  3
ObjectDBX Classes
 90
     4095
280
     0
281
     0
  0
CLASS
  1
MLEADERSTYLE
  2
AcDbMLeaderStyle
  3
ACDB_MLEADERSTYLE_CLASS
 90
     4095
280
     0
281
     0
  0
CLASS
  1
RASTERVARIABLES
  2
AcDbRasterVariables
  3
ISM
 90
        0
280
     0
281
     0
  0
ENDSEC
  0
SECTION
  2
TABLES
  0
TABLE
  2
VPORT
  5
8
330
0
100
AcDbSymbolTable
 70
     1
  0
VPORT
  5
29
330
8
100
AcDbSymbolTableRecord
100
AcDbViewportTableRecord
  2
*Active
 70
     0
 10
0.0
 20
0.0
 11
1.0
 21
1.0
 12
3.680512874039067
 22
-10.67866100992259
 13
0.0
 23
0.0
 14
10.0
 24
10.0
 15
10.0
 25
10.0
 16
0.0
 26
0.0
 36
1.0
 17
0.0
 27
0.0
 37
0.0
 40
80.15582575833716
 41
1.653401797175866
 42
50.0
 43
0.0
 44
0.0
 50
0.0
 51
0.0
 71
    16
 72
  2000
 73
     1
 74
     3
 75
     0
 76
     0
 77
     0
 78
     0
281
     0
 65
     1
110
0.0
120
0.0
130
0.0
111
1.0
121
0.0
131
0.0
112
0.0
122
1.0
132
0.0
 79
     0
146
0.0
  0
ENDTAB
  0
TABLE
  2
LTYPE
  5
5
330
0
100
AcDbSymbolTable
 70
     6
  0
LTYPE
  5
14
330
5
100
AcDbSymbolTableRecord
100
AcDbLinetypeTableRecord
  2
ByBlock
 70
     0
  3

 72
    65
 73
     0
 40
0.0
  0
LTYPE
  5
15
330
5
100
AcDbSymbolTableRecord
100
AcDbLinetypeTableRecord
  2
ByLayer
 70
     0
  3

 72
    65
 73
     0
 40
0.0
  0
LTYPE
  5
16
330
5
100
AcDbSymbolTableRecord
100
AcDbLinetypeTableRecord
  2
Continuous
 70
     0
  3
Solid line
 72
    65
 73
     0
 40
0.0
  0
LTYPE
  5
6A
330
5
100
AcDbSymbolTableRecord
100
AcDbLinetypeTableRecord
  2
HIDDEN
 70
     0
  3
Hidden __ __ __ __ __ __ __ __ __ __ __ __ __ __
 72
    65
 73
     2
 40
1.905
 49
1.27
 74
     0
 49
-0.635
 74
     0
  0
LTYPE
  5
6B
330
5
100
AcDbSymbolTableRecord
100
AcDbLinetypeTableRecord
  2
PHANTOM
 70
     0
  3
Phantom ______  __  __  ______  __  __  ______
 72
    65
 73
     6
 40
12.7
 49
6.35
 74
     0
 49
-1.27
 74
     0
 49
1.27
 74
     0
 49
-1.27
 74
     0
 49
1.27
 74
     0
 49
-1.27
 74
     0
  0
LTYPE
  5
6C
330
5
100
AcDbSymbolTableRecord
100
AcDbLinetypeTableRecord
  2
CENTER
 70
     0
  3
Center ____ _ ____ _ ____ _ ____ _ ____ _ ____
 72
    65
 73
     4
 40
10.16
 49
6.35
 74
     0
 49
-1.27
 74
     0
 49
1.27
 74
     0
 49
-1.27
 74
     0
  0
LTYPE
  5
6D
330
5
100
AcDbSymbolTableRecord
100
AcDbLinetypeTableRecord
  2
CENTERX2
 70
     0
  3
Center (2x) ________  __  ________  __  _____
 72
    65
 73
     4
 40
20.32
 49
12.7
 74
     0
 49
-2.54
 74
     0
 49
2.54
 74
     0
 49
-2.54
 74
     0
  0
LTYPE
  5
6E
330
5
100
AcDbSymbolTableRecord
100
AcDbLinetypeTableRecord
  2
DOT2
 70
     0
  3
Dot (.5x) ........................................
 72
    65
 73
     2
 40
0.635
 49
0.0
 74
     0
 49
-0.635
 74
     0
  0
ENDTAB
  0
TABLE
  2
LAYER
  5
2
330
0
100
AcDbSymbolTable
 70
    17
  0
LAYER
  5
10
330
2
100
AcDbSymbolTableRecord
100
AcDbLayerTableRecord
  2
0
 70
     0
 62
     7
  6
Continuous
370
    -3
390
F
  0
LAYER
  5
6F
330
2
100
AcDbSymbolTableRecord
100
AcDbLayerTableRecord
  2
FORMAT
 70
     0
 62
     2
  6
Continuous
370
    -3
390
F
  0
LAYER
  5
70
330
2
100
AcDbSymbolTableRecord
100
AcDbLayerTableRecord
  2
외형선
 70
     0
 62
   100
  6
Continuous
370
    30
390
F
  0
LAYER
  5
71
330
2
100
AcDbSymbolTableRecord
100
AcDbLayerTableRecord
  2
숨은선
 70
     0
 62
     2
  6
HIDDEN
370
    15
390
F
  0
LAYER
  5
72
330
2
100
AcDbSymbolTableRecord
100
AcDbLayerTableRecord
  2
중심선
 70
     0
 62
     1
  6
CENTERX2
370
    -3
390
F
  0
LAYER
  5
73
330
2
100
AcDbSymbolTableRecord
100
AcDbLayerTableRecord
  2
파단선
 70
     0
 62
     4
  6
Continuous
370
    -3
390
F
  0
LAYER
  5
74
330
2
100
AcDbSymbolTableRecord
100
AcDbLayerTableRecord
  2
해칭선
 70
     0
 62
     4
  6
Continuous
370
    -3
390
F
  0
LAYER
  5
75
330
2
100
AcDbSymbolTableRecord
100
AcDbLayerTableRecord
  2
가는실선
 70
     0
 62
     4
  6
Continuous
370
    -3
390
F
  0
LAYER
  5
76
330
2
100
AcDbSymbolTableRecord
100
AcDbLayerTableRecord
  2
치수_보조선
 70
     0
 62
     4
  6
Continuous
370
    -3
390
F
  0
LAYER
  5
77
330
2
100
AcDbSymbolTableRecord
100
AcDbLayerTableRecord
  2
치수문자_일반주서
 70
     0
 62
     7
  6
Continuous
370
    15
390
F
  0
LAYER
  5
78
330
2
100
AcDbSymbolTableRecord
100
AcDbLayerTableRecord
  2
개별주서
 70
     0
 62
   100
  6
Continuous
370
    30
390
F
  0
LAYER
  5
79
330
2
100
AcDbSymbolTableRecord
100
AcDbLayerTableRecord
  2
중간선
 70
     0
 62
     2
  6
Continuous
370
    15
390
F
  0
LAYER
  5
7A
330
2
100
AcDbSymbolTableRecord
100
AcDbLayerTableRecord
  2
윤곽선
 70
     0
 62
     3
  6
Continuous
370
    40
390
F
  0
LAYER
  5
7B
330
2
100
AcDbSymbolTableRecord
100
AcDbLayerTableRecord
  2
중심마크
 70
     0
 62
   100
  6
Continuous
370
    30
390
F
  0
LAYER
  5
7C
330
2
100
AcDbSymbolTableRecord
100
AcDbLayerTableRecord
  2
가상선
 70
     0
 62
     4
  6
PHANTOM
370
    -3
390
F
  0
LAYER
  5
7D
330
2
100
AcDbSymbolTableRecord
100
AcDbLayerTableRecord
  2
특수지정선
 70
     0
 62
     5
  6
CENTERX2
370
    60
390
F
  0
LAYER
  5
158
330
2
100
AcDbSymbolTableRecord
100
AcDbLayerTableRecord
  2
Defpoints
 70
     0
 62
     7
  6
Continuous
290
     0
370
    -3
390
F
  0
ENDTAB
  0
TABLE
  2
STYLE
  5
3
330
0
100
AcDbSymbolTable
 70
     2
  0
STYLE
  5
11
330
3
100
AcDbSymbolTableRecord
100
AcDbTextStyleTableRecord
  2
Standard
 70
     0
 40
0.0
 41
1.0
 50
0.0
 71
     0
 42
3.5
  3
txt
  4

  0
STYLE
  5
93
330
3
100
AcDbSymbolTableRecord
100
AcDbTextStyleTableRecord
  2
SLDTEXTSTYLE0
 70
     0
 40
0.0
 41
0.75
 50
0.0
 71
     0
 42
3.5
  3
TXT
  4

  0
ENDTAB
  0
TABLE
  2
VIEW
  5
6
330
0
100
AcDbSymbolTable
 70
     0
  0
ENDTAB
  0
TABLE
  2
UCS
  5
7
330
0
100
AcDbSymbolTable
 70
     0
  0
ENDTAB
  0
TABLE
  2
APPID
  5
9
330
0
100
AcDbSymbolTable
 70
     1
  0
APPID
  5
12
330
9
100
AcDbSymbolTableRecord
100
AcDbRegAppTableRecord
  2
ACAD
 70
     0
  0
ENDTAB
  0
TABLE
  2
DIMSTYLE
  5
A
330
0
100
AcDbSymbolTable
 70
     4
100
AcDbDimStyleTable
  0
DIMSTYLE
105
27
330
A
100
AcDbSymbolTableRecord
100
AcDbDimStyleTableRecord
  2
ISO-25
 70
     0
 41
2.5
 42
0.625
 43
3.75
 44
1.25
 73
     0
 74
     0
 77
     1
 78
     8
140
2.5
141
2.5
143
0.03937007874016
147
0.625
171
     3
172
     1
178
     0
271
     2
272
     2
274
     3
278
    44
283
     0
284
     8
340
11
  0
DIMSTYLE
105
FD
102
{ACAD_REACTORS
330
FC
102
}
330
A
100
AcDbSymbolTableRecord
100
AcDbDimStyleTableRecord
  2
SLDDIMSTYLE0
 70
     0
 41
3.302
 44
0.0
 45
0.000000001
 73
     0
 74
     0
 77
     1
 78
     4
 79
     1
140
3.5
147
0.875
172
     1
173
     1
178
     0
271
     2
272
     2
276
     2
284
    12
289
     0
340
93
  0
DIMSTYLE
105
10B
102
{ACAD_REACTORS
330
10A
330
115
102
}
330
A
100
AcDbSymbolTableRecord
100
AcDbDimStyleTableRecord
  2
SLDDIMSTYLE1
 70
     0
 41
3.302
 44
0.0
 45
0.000000001
 73
     0
 74
     0
 77
     1
 78
    12
 79
     3
140
3.5
147
0.875
173
     1
178
     0
271
     2
272
     2
276
     2
284
    12
340
93
  0
DIMSTYLE
105
120
102
{ACAD_REACTORS
330
11F
102
}
330
A
100
AcDbSymbolTableRecord
100
AcDbDimStyleTableRecord
  2
SLDDIMSTYLE2
 70
     0
 41
3.302
 44
0.0
 45
0.000000001
 73
     0
 74
     0
 77
     1
 78
    12
 79
     3
140
3.5
147
0.875
172
     1
173
     1
178
     0
271
     2
272
     2
276
     2
284
    12
289
     0
340
93
  0
ENDTAB
  0
TABLE
  2
BLOCK_RECORD
  5
1
330
0
100
AcDbSymbolTable
 70
     7
  0
BLOCK_RECORD
  5
1F
330
1
100
AcDbSymbolTableRecord
100
AcDbBlockTableRecord
  2
*Model_Space
340
22
  0
BLOCK_RECORD
  5
1B
330
1
100
AcDbSymbolTableRecord
100
AcDbBlockTableRecord
  2
*Paper_Space
340
1E
  0
BLOCK_RECORD
  5
23
330
1
100
AcDbSymbolTableRecord
100
AcDbBlockTableRecord
  2
*Paper_Space0
340
26
  0
BLOCK_RECORD
  5
7E
330
1
100
AcDbSymbolTableRecord
100
AcDbBlockTableRecord
  2
블럭10
340
0
102
{BLKREFS
331
F5
102
}
  0
BLOCK_RECORD
  5
FE
330
1
100
AcDbSymbolTableRecord
100
AcDbBlockTableRecord
  2
_D
340
0
  0
BLOCK_RECORD
  5
10C
330
1
100
AcDbSymbolTableRecord
100
AcDbBlockTableRecord
  2
_D_1
340
0
  0
BLOCK_RECORD
  5
116
330
1
100
AcDbSymbolTableRecord
100
AcDbBlockTableRecord
  2
_D_2
340
0
  0
BLOCK_RECORD
  5
121
330
1
100
AcDbSymbolTableRecord
100
AcDbBlockTableRecord
  2
_D_3
340
0
  0
BLOCK_RECORD
  5
12D
330
1
100
AcDbSymbolTableRecord
100
AcDbBlockTableRecord
  2
SW_DOWELSYMBOL_0
340
0
102
{BLKREFS
331
133
102
}
  0
ENDTAB
  0
ENDSEC
  0
SECTION
  2
BLOCKS
  0
BLOCK
  5
20
330
1F
100
AcDbEntity
  8
0
100
AcDbBlockBegin
  2
*Model_Space
 70
     0
 10
0.0
 20
0.0
 30
0.0
  3
*Model_Space
  1

  0
ENDBLK
  5
21
330
1F
100
AcDbEntity
  8
0
100
AcDbBlockEnd
  0
BLOCK
  5
1C
330
1B
100
AcDbEntity
 67
     1
  8
0
100
AcDbBlockBegin
  2
*Paper_Space
 70
     0
 10
0.0
 20
0.0
 30
0.0
  3
*Paper_Space
  1

  0
ENDBLK
  5
1D
330
1B
100
AcDbEntity
 67
     1
  8
0
100
AcDbBlockEnd
  0
BLOCK
  5
24
330
23
100
AcDbEntity
  8
0
100
AcDbBlockBegin
  2
*Paper_Space0
 70
     0
 10
0.0
 20
0.0
 30
0.0
  3
*Paper_Space0
  1

  0
ENDBLK
  5
25
330
23
100
AcDbEntity
  8
0
100
AcDbBlockEnd
  0
BLOCK
  5
7F
330
7E
100
AcDbEntity
  8
0
100
AcDbBlockBegin
  2
블럭10
 70
     2
 10
0.0
 20
0.0
 30
0.0
  3
블럭10
  1

  0
ELLIPSE
  5
81
330
7E
100
AcDbEntity
  8
중심선
100
AcDbEllipse
 10
20.54032771741204
 20
12.0471743016438
 30
0.0
 11
6.600054785286829
 21
-1.261213355974178E-13
 31
0.0
210
0.0
220
0.0
230
1.0
 40
0.636358354079598
 41
0.9219305317359503
 42
6.513795318482858
  0
ELLIPSE
  5
82
330
7E
100
AcDbEntity
  8
중심선
100
AcDbEllipse
 10
20.54032771746488
 20
12.04717430159265
 30
0.0
 11
3.960054785062283
 21
1.540847449632565E-10
 31
0.0
210
0.0
220
0.0
230
1.0
 40
0.3939339440162632
 41
1.131841032648279
 42
5.62031148352944
  0
LINE
  5
83
330
7E
100
AcDbEntity
  8
중심선
100
AcDbLine
 10
2.268634060543552
 20
16.24717430164393
 30
0.0
 11
5.714909304380834
 21
16.24717430164393
 31
0.0
  0
LINE
  5
84
330
7E
100
AcDbEntity
  8
중심선
100
AcDbLine
 10
5.245725140726316
 20
7.84717430164391
 30
0.0
 11
8.692000384563599
 21
7.84717430164391
 31
0.0
  0
LINE
  5
85
330
7E
100
AcDbEntity
  8
중심선
100
AcDbLine
 10
15.74043728645272
 20
16.24717430164393
 30
0.0
 11
8.692000384563599
 21
7.84717430164391
 31
0.0
  0
LINE
  5
86
330
7E
100
AcDbEntity
  8
중심선
100
AcDbLine
 10
0.1404042013395286
 20
13.71084872107135
 30
0.0
 11
3.58671253028996
 21
13.71088815037384
 31
0.0
  0
LINE
  5
87
330
7E
100
AcDbEntity
  8
중심선
100
AcDbLine
 10
2.750260043222114
 20
10.84717430164391
 30
0.0
 11
6.196535287059397
 21
10.84717430164391
 31
0.0
  0
LINE
  5
88
330
7E
100
AcDbEntity
  8
중심선
100
AcDbLine
 10
12.29416204261559
 20
16.24717430164393
 30
0.0
 11
5.245725140726316
 21
7.84717430164391
 31
0.0
  0
LINE
  5
89
330
7E
100
AcDbEntity
  8
중심선
100
AcDbLine
 10
10.72767329541681
 20
16.24717430164393
 30
0.0
 11
6.196535287059397
 21
10.84717430164391
 31
0.0
  0
LINE
  5
8A
330
7E
100
AcDbEntity
  8
중심선
100
AcDbLine
 10
7.28139805157953
 20
16.24717430164393
 30
0.0
 11
2.750260043222114
 21
10.84717430164391
 31
0.0
  0
LINE
  5
8B
330
7E
100
AcDbEntity
  8
중심선
100
AcDbLine
 10
5.714909304380834
 20
16.24717430164393
 30
0.0
 11
3.58671253028996
 21
13.71088815037384
 31
0.0
  0
LINE
  5
8C
330
7E
100
AcDbEntity
  8
중심선
100
AcDbLine
 10
2.268634060543552
 20
16.24717430164393
 30
0.0
 11
0.1404042013395286
 21
13.71084872107135
 31
0.0
  0
LINE
  5
8D
330
7E
100
AcDbEntity
  8
중심선
100
AcDbLine
 10
7.28139805157953
 20
16.24717430164393
 30
0.0
 11
10.72767329541681
 21
16.24717430164393
 31
0.0
  0
LINE
  5
8E
330
7E
100
AcDbEntity
  8
중심선
100
AcDbLine
 10
12.29416204261559
 20
16.24717430164393
 30
0.0
 11
15.74043728645272
 21
16.24717430164393
 31
0.0
  0
LINE
  5
8F
330
7E
100
AcDbEntity
  8
중심선
100
AcDbLine
 10
19.22036997980202
 20
11.08717430171403
 30
0.0
 11
23.66174974927406
 21
11.08717430171406
 31
0.0
  0
LINE
  5
90
330
7E
100
AcDbEntity
  8
중심선
100
AcDbLine
 10
19.22039502424796
 20
13.00717430171391
 30
0.0
 11
19.22036997980202
 21
11.08717430171403
 31
0.0
  0
LINE
  5
91
330
7E
100
AcDbEntity
  8
중심선
100
AcDbLine
 10
19.22039502424796
 20
13.00717430171391
 30
0.0
 11
26.96566020931264
 21
13.00717430171391
 31
0.0
  0
LINE
  5
92
330
7E
100
AcDbEntity
  8
중심선
100
AcDbLine
 10
22.22332737316547
 20
13.45928029700563
 30
0.0
 11
24.52862924686651
 21
15.39360700705356
 31
0.0
  0
ATTDEF
  5
94
330
7E
100
AcDbEntity
  8
FORMAT
 62
     2
100
AcDbText
 10
-16.11926103943555
 20
2.075366912832191
 30
0.0
 40
4.233333333333333
  1
SEME7002526E [ 2 FLUTE ]
 41
0.75
  7
SLDTEXTSTYLE0
 11
-16.11926103943555
 21
-0.0412997538344756
 31
0.0
100
AcDbAttributeDefinition
  3

  2
AUTOATTR0
 70
     0
 74
     1
  0
ENDBLK
  5
80
330
7E
100
AcDbEntity
  8
0
100
AcDbBlockEnd
  0
BLOCK
  5
FF
330
FE
100
AcDbEntity
  8
0
100
AcDbBlockBegin
  2
_D
 70
     0
 10
0.0
 20
0.0
 30
0.0
  3
_D
  1

  0
LINE
  5
101
330
FE
100
AcDbEntity
  8
치수문자_일반주서
 62
     0
370
    -2
100
AcDbLine
 10
35.59358891324551
 20
-1.249999999999996
 30
0.0
 11
47.60106152311139
 21
-1.249999999999952
 31
0.0
  0
LINE
  5
102
330
FE
100
AcDbEntity
  8
치수문자_일반주서
 62
     0
370
    -2
100
AcDbLine
 10
35.59358891324551
 20
1.250000000000004
 30
0.0
 11
47.60106152311138
 21
1.250000000000048
 31
0.0
  0
LINE
  5
103
330
FE
100
AcDbEntity
  8
치수문자_일반주서
 62
     0
370
    -2
100
AcDbLine
 10
47.60106152311139
 20
-1.249999999999952
 30
0.0
 11
47.60106152311133
 21
19.66650000000005
 31
0.0
  0
LINE
  5
104
330
FE
100
AcDbEntity
  8
치수문자_일반주서
 62
     0
370
    -2
100
AcDbLine
 10
47.60106152311139
 20
-1.249999999999952
 30
0.0
 11
47.60106152311138
 21
1.250000000000048
 31
0.0
  0
LINE
  5
105
330
FE
100
AcDbEntity
  8
치수문자_일반주서
 62
     0
370
    -2
100
AcDbLine
 10
47.6010615231114
 20
-4.551999999999952
 30
0.0
 11
47.6010615231114
 21
-7.853999999999951
 31
0.0
  0
LINE
  5
106
330
FE
100
AcDbEntity
  8
치수문자_일반주서
 62
     0
370
    -2
100
AcDbLine
 10
47.60106152311138
 20
4.552000000000048
 30
0.0
 11
47.60106152311137
 21
7.854000000000047
 31
0.0
  0
SOLID
  5
107
330
FE
100
AcDbEntity
  8
치수문자_일반주서
 62
     0
100
AcDbTrace
 10
48.15139485644473
 20
-4.55199999999995
 30
0.0
 11
47.05072818977806
 21
-4.551999999999953
 31
0.0
 12
47.60106152311139
 22
-1.249999999999952
 32
0.0
 13
47.60106152311139
 23
-1.249999999999952
 33
0.0
  0
SOLID
  5
108
330
FE
100
AcDbEntity
  8
치수문자_일반주서
 62
     0
100
AcDbTrace
 10
47.05072818977804
 20
4.552000000000046
 30
0.0
 11
48.15139485644471
 21
4.552000000000049
 31
0.0
 12
47.60106152311138
 22
1.250000000000048
 32
0.0
 13
47.60106152311138
 23
1.250000000000048
 33
0.0
  0
MTEXT
  5
109
330
FE
100
AcDbEntity
  8
치수문자_일반주서
 62
     0
100
AcDbMText
 10
43.22606152311135
 20
13.76025000000004
 30
0.0
 40
3.5
 41
0.0
 71
     2
 72
     1
  1
\A1;%%c2.50
  7
SLDTEXTSTYLE0
 11
-2.842170943040401E-15
 21
1.0
 31
0.0
 73
     1
 44
1.0
  0
POINT
  5
15C
330
FE
100
AcDbEntity
  8
Defpoints
 62
     0
100
AcDbPoint
 10
35.53108891324551
 20
-1.249999999999996
 30
0.0
  0
POINT
  5
15D
330
FE
100
AcDbEntity
  8
Defpoints
 62
     0
100
AcDbPoint
 10
35.53108891324551
 20
1.250000000000004
 30
0.0
  0
POINT
  5
15E
330
FE
100
AcDbEntity
  8
Defpoints
 62
     0
100
AcDbPoint
 10
47.60106152311138
 20
1.250000000000049
 30
0.0
  0
ENDBLK
  5
100
330
FE
100
AcDbEntity
  8
0
100
AcDbBlockEnd
  0
BLOCK
  5
10D
330
10C
100
AcDbEntity
  8
0
100
AcDbBlockBegin
  2
_D_1
 70
     0
 10
0.0
 20
0.0
 30
0.0
  3
_D_1
  1

  0
LINE
  5
10F
330
10C
100
AcDbEntity
  8
치수문자_일반주서
 62
     0
370
    -2
100
AcDbLine
 10
-24.46891108675447
 20
2.512499999999996
 30
0.0
 11
-24.46891108675447
 21
24.23841044024269
 31
0.0
  0
LINE
  5
110
330
10C
100
AcDbEntity
  8
치수문자_일반주서
 62
     0
370
    -2
100
AcDbLine
 10
35.53108891324551
 20
1.311443519037062
 30
0.0
 11
35.53108891324551
 21
24.23841044024269
 31
0.0
  0
LINE
  5
111
330
10C
100
AcDbEntity
  8
치수문자_일반주서
 62
     0
370
    -2
100
AcDbLine
 10
-21.16691108675447
 20
24.23841044024269
 30
0.0
 11
32.22908891324551
 21
24.23841044024269
 31
0.0
  0
SOLID
  5
112
330
10C
100
AcDbEntity
  8
치수문자_일반주서
 62
     0
100
AcDbTrace
 10
-21.16691108675447
 20
24.78874377357602
 30
0.0
 11
-21.16691108675447
 21
23.68807710690935
 31
0.0
 12
-24.46891108675447
 22
24.23841044024269
 32
0.0
 13
-24.46891108675447
 23
24.23841044024269
 33
0.0
  0
SOLID
  5
113
330
10C
100
AcDbEntity
  8
치수문자_일반주서
 62
     0
100
AcDbTrace
 10
32.22908891324551
 20
23.68807710690935
 30
0.0
 11
32.22908891324551
 21
24.78874377357602
 31
0.0
 12
35.53108891324551
 22
24.23841044024269
 32
0.0
 13
35.53108891324551
 23
24.23841044024269
 33
0.0
  0
MTEXT
  5
114
330
10C
100
AcDbEntity
  8
치수문자_일반주서
 62
     0
100
AcDbMText
 10
5.531088913245454
 20
28.61341044024269
 30
0.0
 40
3.5
 41
0.0
 71
     2
 72
     1
  1
\A1;60
  7
SLDTEXTSTYLE0
 73
     1
 44
1.0
  0
POINT
  5
162
330
10C
100
AcDbEntity
  8
Defpoints
 62
     0
100
AcDbPoint
 10
-24.46891108675447
 20
2.449999999999996
 30
0.0
  0
POINT
  5
163
330
10C
100
AcDbEntity
  8
Defpoints
 62
     0
100
AcDbPoint
 10
35.53108891324551
 20
1.248943519037062
 30
0.0
  0
POINT
  5
164
330
10C
100
AcDbEntity
  8
Defpoints
 62
     0
100
AcDbPoint
 10
35.53108891324551
 20
24.23841044024269
 30
0.0
  0
ENDBLK
  5
10E
330
10C
100
AcDbEntity
  8
0
100
AcDbBlockEnd
  0
BLOCK
  5
117
330
116
100
AcDbEntity
  8
0
100
AcDbBlockBegin
  2
_D_2
 70
     0
 10
0.0
 20
0.0
 30
0.0
  3
_D_2
  1

  0
LINE
  5
119
330
116
100
AcDbEntity
  8
치수문자_일반주서
 62
     0
370
    -2
100
AcDbLine
 10
9.531088913245519
 20
1.277738773444486
 30
0.0
 11
9.531088913245519
 21
14.56223657961189
 31
0.0
  0
LINE
  5
11A
330
116
100
AcDbEntity
  8
치수문자_일반주서
 62
     0
370
    -2
100
AcDbLine
 10
35.53108891324547
 20
1.311443519037059
 30
0.0
 11
35.53108891324547
 21
14.56223657961189
 31
0.0
  0
LINE
  5
11B
330
116
100
AcDbEntity
  8
치수문자_일반주서
 62
     0
370
    -2
100
AcDbLine
 10
12.83308891324552
 20
14.56223657961189
 30
0.0
 11
32.22908891324547
 21
14.56223657961189
 31
0.0
  0
SOLID
  5
11C
330
116
100
AcDbEntity
  8
치수문자_일반주서
 62
     0
100
AcDbTrace
 10
12.83308891324552
 20
15.11256991294522
 30
0.0
 11
12.83308891324552
 21
14.01190324627856
 31
0.0
 12
9.531088913245519
 22
14.56223657961189
 32
0.0
 13
9.531088913245519
 23
14.56223657961189
 33
0.0
  0
SOLID
  5
11D
330
116
100
AcDbEntity
  8
치수문자_일반주서
 62
     0
100
AcDbTrace
 10
32.22908891324547
 20
14.01190324627856
 30
0.0
 11
32.22908891324547
 21
15.11256991294522
 31
0.0
 12
35.53108891324547
 22
14.56223657961189
 32
0.0
 13
35.53108891324547
 23
14.56223657961189
 33
0.0
  0
MTEXT
  5
11E
330
116
100
AcDbEntity
  8
치수문자_일반주서
 62
     0
100
AcDbMText
 10
22.53108891324566
 20
18.93723657961189
 30
0.0
 40
3.5
 41
0.0
 71
     2
 72
     1
  1
\A1;26
  7
SLDTEXTSTYLE0
 73
     1
 44
1.0
  0
POINT
  5
15F
330
116
100
AcDbEntity
  8
Defpoints
 62
     0
100
AcDbPoint
 10
9.531088913245519
 20
1.215238773444486
 30
0.0
  0
POINT
  5
160
330
116
100
AcDbEntity
  8
Defpoints
 62
     0
100
AcDbPoint
 10
35.53108891324547
 20
1.248943519037059
 30
0.0
  0
POINT
  5
161
330
116
100
AcDbEntity
  8
Defpoints
 62
     0
100
AcDbPoint
 10
35.53108891324547
 20
14.56223657961189
 30
0.0
  0
ENDBLK
  5
118
330
116
100
AcDbEntity
  8
0
100
AcDbBlockEnd
  0
BLOCK
  5
122
330
121
100
AcDbEntity
  8
0
100
AcDbBlockBegin
  2
_D_3
 70
     0
 10
0.0
 20
0.0
 30
0.0
  3
_D_3
  1

  0
LINE
  5
124
330
121
100
AcDbEntity
  8
치수문자_일반주서
 62
     0
370
    -2
100
AcDbLine
 10
-23.98141108675446
 20
2.999999999999995
 30
0.0
 11
-36.41536910836654
 21
2.999999999999948
 31
0.0
  0
LINE
  5
125
330
121
100
AcDbEntity
  8
치수문자_일반주서
 62
     0
370
    -2
100
AcDbLine
 10
-23.98141108675446
 20
-3.0
 30
0.0
 11
-36.41536910836652
 21
-3.000000000000048
 31
0.0
  0
LINE
  5
126
330
121
100
AcDbEntity
  8
치수문자_일반주서
 62
     0
370
    -2
100
AcDbLine
 10
-36.41536910836654
 20
2.999999999999948
 30
0.0
 11
-36.41536910836659
 21
15.72899999999995
 31
0.0
  0
LINE
  5
127
330
121
100
AcDbEntity
  8
치수문자_일반주서
 62
     0
370
    -2
100
AcDbLine
 10
-36.41536910836654
 20
2.999999999999948
 30
0.0
 11
-36.41536910836652
 21
-3.000000000000048
 31
0.0
  0
LINE
  5
128
330
121
100
AcDbEntity
  8
치수문자_일반주서
 62
     0
370
    -2
100
AcDbLine
 10
-36.41536910836655
 20
6.301999999999948
 30
0.0
 11
-36.41536910836657
 21
9.603999999999948
 31
0.0
  0
LINE
  5
129
330
121
100
AcDbEntity
  8
치수문자_일반주서
 62
     0
370
    -2
100
AcDbLine
 10
-36.41536910836651
 20
-6.302000000000048
 30
0.0
 11
-36.41536910836649
 21
-9.604000000000047
 31
0.0
  0
SOLID
  5
12A
330
121
100
AcDbEntity
  8
치수문자_일반주서
 62
     0
100
AcDbTrace
 10
-36.96570244169989
 20
6.301999999999946
 30
0.0
 11
-35.86503577503322
 21
6.30199999999995
 31
0.0
 12
-36.41536910836654
 22
2.999999999999948
 32
0.0
 13
-36.41536910836654
 23
2.999999999999948
 33
0.0
  0
SOLID
  5
12B
330
121
100
AcDbEntity
  8
치수문자_일반주서
 62
     0
100
AcDbTrace
 10
-35.86503577503317
 20
-6.302000000000046
 30
0.0
 11
-36.96570244169984
 21
-6.302000000000049
 31
0.0
 12
-36.41536910836652
 22
-3.000000000000048
 32
0.0
 13
-36.41536910836652
 23
-3.000000000000048
 33
0.0
  0
MTEXT
  5
12C
330
121
100
AcDbEntity
  8
치수문자_일반주서
 62
     0
100
AcDbMText
 10
-40.79036910836658
 20
12.66649999999994
 30
0.0
 40
3.5
 41
0.0
 71
     2
 72
     1
  1
\A1;%%c6
  7
SLDTEXTSTYLE0
 11
-3.552713678800504E-15
 21
1.0
 31
0.0
 73
     1
 44
1.0
  0
POINT
  5
159
330
121
100
AcDbEntity
  8
Defpoints
 62
     0
100
AcDbPoint
 10
-23.91891108675446
 20
2.999999999999996
 30
0.0
  0
POINT
  5
15A
330
121
100
AcDbEntity
  8
Defpoints
 62
     0
100
AcDbPoint
 10
-23.91891108675446
 20
-3.0
 30
0.0
  0
POINT
  5
15B
330
121
100
AcDbEntity
  8
Defpoints
 62
     0
100
AcDbPoint
 10
-36.41536910836652
 20
-3.000000000000046
 30
0.0
  0
ENDBLK
  5
123
330
121
100
AcDbEntity
  8
0
100
AcDbBlockEnd
  0
BLOCK
  5
12E
330
12D
100
AcDbEntity
  8
0
100
AcDbBlockBegin
  2
SW_DOWELSYMBOL_0
 70
     0
 10
0.0
 20
0.0
 30
0.0
  3
SW_DOWELSYMBOL_0
  1

  0
CIRCLE
  5
130
330
12D
100
AcDbEntity
  8
외형선
 62
     0
100
AcDbCircle
 10
0.0
 20
0.0
 30
0.0
 40
3.000000000000004
  0
HATCH
  5
131
330
12D
100
AcDbEntity
  8
0
  6
Continuous
 62
     0
370
    30
100
AcDbHatch
 10
0.0
 20
0.0
 30
0.0
210
0.0
220
0.0
230
1.0
  2
SOLID
 70
     1
 71
     0
 91
        1
 92
        0
 93
        3
 72
     2
 10
0.0000000000000104
 20
0.0
 40
3.000000000000004
 50
0.0
 51
90.0
 73
     1
 72
     1
 10
0.0000000000000104
 20
3.000000000000004
 11
0.0000000000000104
 21
0.0
 72
     1
 10
0.0000000000000104
 20
0.0
 11
3.000000000000015
 21
0.0
 97
        0
 75
     0
 76
     1
 98
        1
 10
0.0
 20
0.0
  0
HATCH
  5
132
330
12D
100
AcDbEntity
  8
0
  6
Continuous
 62
     0
370
    30
100
AcDbHatch
 10
0.0
 20
0.0
 30
0.0
210
0.0
220
0.0
230
1.0
  2
SOLID
 70
     1
 71
     0
 91
        1
 92
        0
 93
        3
 72
     2
 10
0.0000000000000104
 20
0.0
 40
3.000000000000004
 50
180.0
 51
270.0000000000007
 73
     1
 72
     1
 10
0.0000000000000104
 20
-3.000000000000004
 11
0.0000000000000104
 21
0.0
 72
     1
 10
0.0000000000000104
 20
0.0
 11
-2.999999999999994
 21
0.0
 97
        0
 75
     0
 76
     1
 98
        1
 10
0.0
 20
0.0
  0
ENDBLK
  5
12F
330
12D
100
AcDbEntity
  8
0
100
AcDbBlockEnd
  0
ENDSEC
  0
SECTION
  2
ENTITIES
  0
LINE
  5
95
330
1F
100
AcDbEntity
  8
0
  6
Continuous
 62
     1
370
    15
100
AcDbLine
 10
31.96583979297098
 20
0.4831334868822707
 30
0.0
 11
31.94520637065099
 21
0.4937369654845032
 31
0.0
  0
SPLINE
  5
96
330
1F
100
AcDbEntity
  8
0
  6
Continuous
 62
     1
370
    15
100
AcDbSpline
210
0.0
220
0.0
230
1.0
 70
     8
 71
     3
 72
     9
 73
     5
 74
     0
 42
0.000000001
 43
0.00000001
 40
0.0
 40
0.0
 40
0.0
 40
0.0
 40
0.5315379205608045
 40
0.9999999999999999
 40
0.9999999999999999
 40
0.9999999999999999
 40
0.9999999999999999
 10
32.29333563264137
 20
0.3202905343195256
 30
0.0
 10
32.23528874024431
 20
0.3478184754994403
 30
0.0
 10
32.12608318754208
 20
0.3996077084310649
 30
0.0
 10
32.01695991032931
 20
0.4564874737451984
 30
0.0
 10
31.96583979297099
 20
0.4831334868822708
 30
0.0
  0
LINE
  5
97
330
1F
100
AcDbEntity
  8
0
  6
Continuous
 62
     1
370
    15
100
AcDbLine
 10
18.3654220587098
 20
0.4815616799820982
 30
0.0
 11
18.34096788980384
 21
0.494130590922876
 31
0.0
  0
SPLINE
  5
98
330
1F
100
AcDbEntity
  8
0
  6
Continuous
 62
     1
370
    15
100
AcDbSpline
210
0.0
220
0.0
230
1.0
 70
     8
 71
     3
 72
     9
 73
     5
 74
     0
 42
0.000000001
 43
0.00000001
 40
0.0
 40
0.0
 40
0.0
 40
0.0
 40
0.5376639188167524
 40
1.0
 40
1.0
 40
1.0
 40
1.0
 10
18.69029243786503
 20
0.3200794874420929
 30
0.0
 10
18.63204498733349
 20
0.3476937066303787
 30
0.0
 10
18.52371067570677
 20
0.3990533352419789
 30
0.0
 10
18.41546701063294
 20
0.4554756213373598
 30
0.0
 10
18.3654220587098
 20
0.4815616799820982
 30
0.0
  0
LINE
  5
99
330
1F
100
AcDbEntity
  8
0
  6
Continuous
 62
     1
370
    15
100
AcDbLine
 10
25.16684263558632
 20
0.4817269889475203
 30
0.0
 11
25.14295491208151
 21
0.4940038061392132
 31
0.0
  0
SPLINE
  5
9A
330
1F
100
AcDbEntity
  8
0
  6
Continuous
 62
     1
370
    15
100
AcDbSpline
210
0.0
220
0.0
230
1.0
 70
     8
 71
     3
 72
     9
 73
     5
 74
     0
 42
0.000000001
 43
0.00000001
 40
0.0
 40
0.0
 40
0.0
 40
0.0
 40
0.536734328518045
 40
1.0
 40
1.0
 40
1.0
 40
1.0
 10
25.49220752923361
 20
0.3200012921722069
 30
0.0
 10
25.43397251420882
 20
0.3476086268927573
 30
0.0
 10
25.32547374315838
 20
0.3990443805863504
 30
0.0
 10
25.21706478457781
 20
0.4555499147300109
 30
0.0
 10
25.16684263558633
 20
0.4817269889475203
 30
0.0
  0
SPLINE
  5
9B
330
1F
100
AcDbEntity
  8
0
  6
Continuous
 62
     1
370
    15
100
AcDbSpline
210
0.0
220
0.0
230
1.0
 70
     8
 71
     3
 72
     9
 73
     5
 74
     0
 42
0.000000001
 43
0.00000001
 40
0.0
 40
0.0
 40
0.0
 40
0.0
 40
0.5000287563181331
 40
1.0
 40
1.0
 40
1.0
 40
1.0
 10
11.88788692294256
 20
0.320386641431094
 30
0.0
 10
11.82985663896469
 20
0.3479373587095047
 30
0.0
 10
11.71380274557429
 20
0.4030356244198111
 30
0.0
 10
11.59783588967932
 20
0.4635423817258724
 30
0.0
 10
11.53985579651163
 20
0.4937940204273408
 30
0.0
  0
LINE
  5
9C
330
1F
100
AcDbEntity
  8
0
  6
Continuous
 62
     1
370
    15
100
AcDbLine
 10
11.37135548306498
 20
0.2562693923889222
 30
0.0
 11
11.18352670167508
 21
0.3592867168172376
 31
0.0
  0
LINE
  5
9D
330
1F
100
AcDbEntity
  8
0
  6
Continuous
 62
     1
370
    15
100
AcDbLine
 10
18.04278868850496
 20
0.3277075259855535
 30
0.0
 11
17.9852026647145
 21
0.3593263313667652
 31
0.0
  0
LINE
  5
9E
330
1F
100
AcDbEntity
  8
0
  6
Continuous
 62
     1
370
    15
100
AcDbLine
 10
31.7855480132764
 20
0.2513615666284224
 30
0.0
 11
31.58931608862656
 21
0.358984535599976
 31
0.0
  0
LINE
  5
9F
330
1F
100
AcDbEntity
  8
0
  6
Continuous
 62
     1
370
    15
100
AcDbLine
 10
28.81878284486664
 20
-1.250000000000002
 30
0.0
 11
29.42452433325504
 21
-1.250000000000002
 31
0.0
  0
LINE
  5
A0
330
1F
100
AcDbEntity
  8
0
  6
Continuous
 62
     1
370
    15
100
AcDbLine
 10
15.21506443572564
 20
-1.250000000000002
 30
0.0
 11
15.82041475516617
 21
-1.250000000000002
 31
0.0
  0
LINE
  5
A1
330
1F
100
AcDbEntity
  8
0
  6
Continuous
 62
     1
370
    15
100
AcDbLine
 10
22.62236981419533
 20
1.250000000000003
 30
0.0
 11
22.01624628539649
 21
1.250000000000003
 31
0.0
  0
LINE
  5
A2
330
1F
100
AcDbEntity
  8
0
  6
Continuous
 62
     1
370
    15
100
AcDbLine
 10
22.01624628539649
 20
-1.250000000000002
 30
0.0
 11
22.62236981419534
 21
-1.250000000000002
 31
0.0
  0
LINE
  5
A3
330
1F
100
AcDbEntity
  8
0
  6
Continuous
 62
     1
370
    15
100
AcDbLine
 10
15.82041475516618
 20
1.250000000000003
 30
0.0
 11
15.21506443572562
 21
1.250000000000003
 31
0.0
  0
LINE
  5
A4
330
1F
100
AcDbEntity
  8
0
  6
Continuous
 62
     1
370
    15
100
AcDbLine
 10
29.42452433325503
 20
1.250000000000003
 30
0.0
 11
28.81878284486664
 21
1.250000000000003
 31
0.0
  0
SPLINE
  5
A5
330
1F
100
AcDbEntity
  8
0
  6
Continuous
 62
     1
370
    15
100
AcDbSpline
210
0.0
220
0.0
230
1.0
 70
     8
 71
     3
 72
    17
 73
    13
 74
     0
 42
0.000000001
 43
0.00000001
 40
0.0
 40
0.0
 40
0.0
 40
0.0
 40
0.1309846025327812
 40
0.2306634007444536
 40
0.3201994771358662
 40
0.3838675627142939
 40
0.4416428647709941
 40
0.4949476308438699
 40
0.5681593486667093
 40
0.6539893405666252
 40
0.7969118957652419
 40
1.0
 40
1.0
 40
1.0
 40
1.0
 10
9.760596430684213
 20
-1.0205348714016
 30
0.0
 10
9.831547693584824
 20
-1.015775787290826
 30
0.0
 10
9.95649260521039
 20
-1.007395057768475
 30
0.0
 10
10.13090296679626
 20
-0.9969281291883315
 30
0.0
 10
10.2750489671986
 20
-0.9893364872843688
 30
0.0
 10
10.3979118683783
 20
-0.9842564227478879
 30
0.0
 10
10.4991595382777
 20
-0.9809372035725747
 30
0.0
 10
10.60600297716102
 20
-0.9782873319078448
 30
0.0
 10
10.72907232788994
 20
-0.9763964702132655
 30
0.0
 10
10.90421084504456
 20
-0.9758519791182148
 30
0.0
 10
11.15449937507863
 20
-0.9788068926211183
 30
0.0
 10
11.35537577728436
 20
-0.9879323789473728
 30
0.0
 10
11.47327852564555
 20
-0.9932885079211281
 30
0.0
  0
SPLINE
  5
A6
330
1F
100
AcDbEntity
  8
0
  6
Continuous
 62
     1
370
    15
100
AcDbSpline
210
0.0
220
0.0
230
1.0
 70
     8
 71
     3
 72
    10
 73
     6
 74
     0
 42
0.000000001
 43
0.00000001
 40
0.0
 40
0.0
 40
0.0
 40
0.0
 40
0.5023289038872933
 40
0.6480978759088777
 40
0.9999999999999999
 40
0.9999999999999999
 40
0.9999999999999999
 40
0.9999999999999999
 10
23.19828582536731
 20
-1.04016898600595
 30
0.0
 10
23.51298973883689
 20
-1.014640215253014
 30
0.0
 10
23.91901642032287
 20
-0.9817033446658215
 30
0.0
 10
24.5445332859981
 20
-0.9730361242579816
 30
0.0
 10
24.85630826939018
 20
-0.9848994422046105
 30
0.0
 10
25.07676366603894
 20
-0.9932879679132477
 30
0.0
  0
LINE
  5
A7
330
1F
100
AcDbEntity
  8
0
  6
Continuous
 62
     1
370
    15
100
AcDbLine
 10
31.87871261885934
 20
0.993298737684174
 30
0.0
 11
30.8591700148781
 21
0.983584845469659
 31
0.0
  0
SPLINE
  5
A8
330
1F
100
AcDbEntity
  8
0
  6
Continuous
 62
     1
370
    15
100
AcDbSpline
210
0.0
220
0.0
230
1.0
 70
     8
 71
     3
 72
     9
 73
     5
 74
     0
 42
0.000000001
 43
0.00000001
 40
0.0
 40
0.0
 40
0.0
 40
0.0
 40
0.7525183271012947
 40
1.0
 40
1.0
 40
1.0
 40
1.0
 10
18.27475141888015
 20
0.9932737991612905
 30
0.0
 10
18.0069118785949
 20
0.9800925080605044
 30
0.0
 10
17.65098760321284
 20
0.9625762687530041
 30
0.0
 10
17.2950200394355
 20
0.9868213548662845
 30
0.0
 10
17.2069245912542
 20
0.9928215693371722
 30
0.0
  0
SPLINE
  5
A9
330
1F
100
AcDbEntity
  8
0
  6
Continuous
 62
     1
370
    15
100
AcDbSpline
210
0.0
220
0.0
230
1.0
 70
     8
 71
     3
 72
     9
 73
     5
 74
     0
 42
0.000000001
 43
0.00000001
 40
0.0
 40
0.0
 40
0.0
 40
0.0
 40
0.5721892948226134
 40
1.0
 40
1.0
 40
1.0
 40
1.0
 10
16.39639633534109
 20
-1.040183139361251
 30
0.0
 10
16.7546752949498
 20
-1.011231580625772
 30
0.0
 10
17.3808298959718
 20
-0.9606337120577237
 30
0.0
 10
18.00690835277766
 20
-0.98349394625068
 30
0.0
 10
18.27475141888014
 20
-0.9932737991612887
 30
0.0
  0
SPLINE
  5
AA
330
1F
100
AcDbEntity
  8
0
  6
Continuous
 62
     1
370
    15
100
AcDbSpline
210
0.0
220
0.0
230
1.0
 70
     8
 71
     3
 72
    10
 73
     6
 74
     0
 42
0.000000001
 43
0.00000001
 40
0.0
 40
0.0
 40
0.0
 40
0.0
 40
0.2601428298334955
 40
0.4432661595959027
 40
1.0
 40
1.0
 40
1.0
 40
1.0
 10
30.0004996646561
 20
-1.04012244391739
 30
0.0
 10
30.16332369681687
 20
-1.025496518298775
 30
0.0
 10
30.44076506805134
 20
-1.000574909336313
 30
0.0
 10
31.0669372005956
 20
-0.9694726663887875
 30
0.0
 10
31.53015024069144
 20
-0.9830682331797603
 30
0.0
 10
31.87871261885934
 20
-0.9932987376841708
 30
0.0
  0
SPLINE
  5
AB
330
1F
100
AcDbEntity
  8
0
  6
Continuous
 62
     1
370
    15
100
AcDbSpline
210
0.0
220
0.0
230
1.0
 70
     8
 71
     3
 72
    11
 73
     7
 74
     0
 42
0.000000001
 43
0.00000001
 40
0.0
 40
0.0
 40
0.0
 40
0.0
 40
0.3984802547812594
 40
0.6931589085496378
 40
0.9463745936123806
 40
1.0
 40
1.0
 40
1.0
 40
1.0
 10
25.07676366603894
 20
0.9932879679132498
 30
0.0
 10
24.94114617771933
 20
0.9872866836069258
 30
0.0
 10
24.705238704122
 20
0.9768474118243098
 30
0.0
 10
24.38318931658707
 20
0.9754686730939802
 30
0.0
 10
24.17865424724902
 20
0.9783577361332839
 30
0.0
 10
24.0742714794533
 20
0.9820612426212989
 30
0.0
 10
24.05602891514598
 20
0.9827084898317043
 30
0.0
  0
SPLINE
  5
AC
330
1F
100
AcDbEntity
  8
0
  6
Continuous
 62
     1
370
    15
100
AcDbSpline
210
0.0
220
0.0
230
1.0
 70
     8
 71
     3
 72
    12
 73
     8
 74
     0
 42
0.000000001
 43
0.00000001
 40
0.0
 40
0.0
 40
0.0
 40
0.0
 40
0.2973076073202807
 40
0.4785045284462533
 40
0.6677738807063446
 40
0.8551268142979106
 40
1.0
 40
1.0
 40
1.0
 40
1.0
 10
11.47327852564555
 20
0.9932885079211295
 30
0.0
 10
11.36983994741094
 20
0.9884777671094785
 30
0.0
 10
11.20335975355575
 20
0.9807350750058205
 30
0.0
 10
10.97129936253139
 20
0.9764526890112121
 30
0.0
 10
10.77719833486649
 20
0.9758429349760865
 30
0.0
 10
10.5960041658078
 20
0.9780051776053916
 30
0.0
 10
10.48053121629452
 20
0.9818934153450231
 30
0.0
 10
10.43017715595161
 20
0.9835889514735645
 30
0.0
  0
SPLINE
  5
AD
330
1F
100
AcDbEntity
  8
0
  6
Continuous
 62
     1
370
    15
100
AcDbSpline
210
0.0
220
0.0
230
1.0
 70
     8
 71
     3
 72
    12
 73
     8
 74
     0
 42
0.000000001
 43
0.00000001
 40
0.0
 40
0.0
 40
0.0
 40
0.0
 40
0.3165212906040855
 40
0.5319343244730669
 40
0.6796382326623609
 40
0.8492688814711745
 40
1.0
 40
1.0
 40
1.0
 40
1.0
 10
19.27943346643963
 20
-0.9401689013019456
 30
0.0
 10
19.37959195062685
 20
-0.9252622312687191
 30
0.0
 10
19.54791470555019
 20
-0.9002106164495898
 30
0.0
 10
19.76175018459609
 20
-0.8750074712477971
 30
0.0
 10
19.92981350333162
 20
-0.8584064935040048
 30
0.0
 10
20.07768349589528
 20
-0.845970800767819
 30
0.0
 10
20.17883969165513
 20
-0.8399766139183911
 30
0.0
 10
20.22643396814986
 20
-0.8371563320352134
 30
0.0
  0
SPLINE
  5
AE
330
1F
100
AcDbEntity
  8
0
  6
Continuous
 62
     1
370
    15
100
AcDbSpline
210
0.0
220
0.0
230
1.0
 70
     8
 71
     3
 72
    14
 73
    10
 74
     0
 42
0.000000001
 43
0.00000001
 40
0.0
 40
0.0
 40
0.0
 40
0.0
 40
0.2980594184163325
 40
0.5022765900781024
 40
0.6300796597279449
 40
0.7495471578376528
 40
0.8700543706336978
 40
0.9935715284815091
 40
1.0
 40
1.0
 40
1.0
 40
1.0
 10
32.88297456686959
 20
-0.9401617194788031
 30
0.0
 10
32.97770039123665
 20
-0.9260277799983909
 30
0.0
 10
33.13732817387214
 20
-0.9022098883702343
 30
0.0
 10
33.3364686219122
 20
-0.8782987232044361
 30
0.0
 10
33.47955040464843
 20
-0.8635560625317246
 30
0.0
 10
33.5961344600662
 20
-0.8530300000901961
 30
0.0
 10
33.71134832846881
 20
-0.8443493245227406
 30
0.0
 10
33.79074889762028
 20
-0.8386858385574867
 30
0.0
 10
33.83190512419599
 20
-0.8367539184744196
 30
0.0
 10
33.83394114211857
 20
-0.8366583454775397
 30
0.0
  0
SPLINE
  5
AF
330
1F
100
AcDbEntity
  8
0
  6
Continuous
 62
     1
370
    15
100
AcDbSpline
210
0.0
220
0.0
230
1.0
 70
     8
 71
     3
 72
    18
 73
    14
 74
     0
 42
0.000000001
 43
0.00000001
 40
0.0
 40
0.0
 40
0.0
 40
0.0
 40
0.1368231917067431
 40
0.2307938382030495
 40
0.2964778104449572
 40
0.3766459527479535
 40
0.469145350916526
 40
0.5481291769092095
 40
0.6278066277530904
 40
0.7001676425675095
 40
0.7666151401145783
 40
0.8621907544283123
 40
0.9999999999999999
 40
0.9999999999999999
 40
0.9999999999999999
 40
0.9999999999999999
 10
28.26457868136814
 20
0.854952822594181
 30
0.0
 10
28.16476379230757
 20
0.847289126645582
 30
0.0
 10
27.9963956884157
 20
0.8343619775217019
 30
0.0
 10
27.7811381474644
 20
0.826008249349397
 30
0.0
 10
27.60654185951485
 20
0.8225181593196137
 30
0.0
 10
27.43292024253206
 20
0.8223313660529428
 30
0.0
 10
27.24983737102525
 20
0.8261749817034367
 30
0.0
 10
27.06734471724054
 20
0.834103159651166
 30
0.0
 10
26.89910751706267
 20
0.844667783100091
 30
0.0
 10
26.74002770788914
 20
0.857586282047614
 30
0.0
 10
26.56939559033029
 20
0.8743513009561616
 30
0.0
 10
26.35176812542739
 20
0.899891692445994
 30
0.0
 10
26.18143844785547
 20
0.9252470127756771
 30
0.0
 10
26.08086206781016
 20
0.9402188390011549
 30
0.0
  0
SPLINE
  5
B0
330
1F
100
AcDbEntity
  8
0
  6
Continuous
 62
     1
370
    15
100
AcDbSpline
210
0.0
220
0.0
230
1.0
 70
     8
 71
     3
 72
    17
 73
    13
 74
     0
 42
0.000000001
 43
0.00000001
 40
0.0
 40
0.0
 40
0.0
 40
0.0
 40
0.129492816931166
 40
0.2188154011018814
 40
0.2749707835901418
 40
0.3291996206738355
 40
0.3857671147148342
 40
0.4473691018330062
 40
0.5515979737221987
 40
0.6612036358111706
 40
0.8022759373394581
 40
0.9999999999999999
 40
0.9999999999999999
 40
0.9999999999999999
 40
0.9999999999999999
 10
14.6605411882186
 20
0.854906352684108
 30
0.0
 10
14.56609813244541
 20
0.8476177829209725
 30
0.0
 10
14.40650939524711
 20
0.8353016455940093
 30
0.0
 10
14.20698078112771
 20
0.8270442351685496
 30
0.0
 10
14.06171579589756
 20
0.823529062220285
 30
0.0
 10
13.9402432527518
 20
0.8223350253480601
 30
0.0
 10
13.8147917392303
 20
0.8228604269601013
 30
0.0
 10
13.65306445994806
 20
0.8259950144763847
 30
0.0
 10
13.45300636204093
 20
0.8342113256826931
 30
0.0
 10
13.19454740840398
 20
0.8516921213523643
 30
0.0
 10
12.8689395756265
 20
0.8829848069187612
 30
0.0
 10
12.62207814611198
 20
0.9190629707034991
 30
0.0
 10
12.47800799094763
 20
0.9401184537926709
 30
0.0
  0
SPLINE
  5
B1
330
1F
100
AcDbEntity
  8
0
  6
Continuous
 62
     1
370
    15
100
AcDbSpline
210
0.0
220
0.0
230
1.0
 70
     8
 71
     3
 72
    13
 73
     9
 74
     0
 42
0.000000001
 43
0.00000001
 40
0.0
 40
0.0
 40
0.0
 40
0.0
 40
0.2984709827818276
 40
0.5030602200259018
 40
0.6318574861423466
 40
0.7562085879360817
 40
0.886050092790276
 40
1.0
 40
1.0
 40
1.0
 40
1.0
 10
12.47800799094763
 20
-0.9401184537926704
 30
0.0
 10
12.572618854827
 20
-0.9260016989517509
 30
0.0
 10
12.73208146508277
 20
-0.9022085056230855
 30
0.0
 10
12.93126524677261
 20
-0.8783031173282492
 30
0.0
 10
13.07598315375855
 20
-0.8633614261515314
 30
0.0
 10
13.19709580608675
 20
-0.8525656009748831
 30
0.0
 10
13.31349592283183
 20
-0.8435312110056323
 30
0.0
 10
13.39056865949567
 20
-0.8390258426778313
 30
0.0
 10
13.42659302605104
 20
-0.8369200002342757
 30
0.0
  0
SPLINE
  5
B2
330
1F
100
AcDbEntity
  8
0
  6
Continuous
 62
     1
370
    15
100
AcDbSpline
210
0.0
220
0.0
230
1.0
 70
     8
 71
     3
 72
    12
 73
     8
 74
     0
 42
0.000000001
 43
0.00000001
 40
0.0
 40
0.0
 40
0.0
 40
0.0
 40
0.3209628262320636
 40
0.5435619643504348
 40
0.6983206419724024
 40
0.866852119867865
 40
0.9999999999999999
 40
0.9999999999999999
 40
0.9999999999999999
 40
0.9999999999999999
 10
26.08086206781016
 20
-0.9402188390011523
 30
0.0
 10
26.18143819362075
 20
-0.9252506169478953
 30
0.0
 10
26.35176744063714
 20
-0.8999014004120862
 30
0.0
 10
26.56939716268652
 20
-0.8743290103633231
 30
0.0
 10
26.74002359634451
 20
-0.8576445695819476
 30
0.0
 10
26.88273441925276
 20
-0.845777736781712
 30
0.0
 10
26.97701743491687
 20
-0.8401901819155545
 30
0.0
 10
27.01862977375972
 20
-0.8377240831727868
 30
0.0
  0
SPLINE
  5
B3
330
1F
100
AcDbEntity
  8
0
  6
Continuous
 62
     1
370
    15
100
AcDbSpline
210
0.0
220
0.0
230
1.0
 70
     8
 71
     3
 72
    17
 73
    13
 74
     0
 42
0.000000001
 43
0.00000001
 40
0.0
 40
0.0
 40
0.0
 40
0.0
 40
0.1337322446170914
 40
0.2271324243663221
 40
0.2876689173613759
 40
0.347614186711785
 40
0.4120045581376368
 40
0.4847331740747087
 40
0.6046355511389682
 40
0.713186177121985
 40
0.8360199073146327
 40
1.0
 40
1.0
 40
1.0
 40
1.0
 10
35.08245454586106
 20
0.8563104423066766
 30
0.0
 10
34.98379234350987
 20
0.84857218568896
 30
0.0
 10
34.81622329329682
 20
0.83542943921833
 30
0.0
 10
34.6051170384846
 20
0.8267411611383019
 30
0.0
 10
34.44846678223708
 20
0.8231762818008996
 30
0.0
 10
34.3130236174928
 20
0.8222277825919094
 30
0.0
 10
34.16861250954997
 20
0.8235021935169828
 30
0.0
 10
33.98062570873026
 20
0.8285509246058004
 30
0.0
 10
33.76017719321646
 20
0.8399353567518508
 30
0.0
 10
33.50268717853152
 20
0.8604433469313433
 30
0.0
 10
33.2137921098889
 20
0.8913307620261361
 30
0.0
 10
33.00331224112248
 20
0.9223990464422883
 30
0.0
 10
32.88297456686959
 20
0.9401617194788063
 30
0.0
  0
SPLINE
  5
B4
330
1F
100
AcDbEntity
  8
0
  6
Continuous
 62
     1
370
    15
100
AcDbSpline
210
0.0
220
0.0
230
1.0
 70
     8
 71
     3
 72
    17
 73
    13
 74
     0
 42
0.000000001
 43
0.00000001
 40
0.0
 40
0.0
 40
0.0
 40
0.0
 40
0.1387317821544067
 40
0.2405806880665502
 40
0.3153878929056139
 40
0.3921782449106424
 40
0.4717564768180228
 40
0.5474165015040057
 40
0.6512107268429597
 40
0.7374227362537773
 40
0.8353970908318197
 40
1.0
 40
1.0
 40
1.0
 40
1.0
 10
21.46274317329218
 20
0.8549452941817103
 30
0.0
 10
21.36159995320528
 20
0.8471958404455744
 30
0.0
 10
21.18620319044555
 20
0.8337571828933744
 30
0.0
 10
20.9571933827453
 20
0.8252360875658237
 30
0.0
 10
20.77255978147135
 20
0.8222141371575176
 30
0.0
 10
20.60427805780705
 20
0.822771815059087
 30
0.0
 10
20.43554981169975
 20
0.8267133172139854
 30
0.0
 10
20.24732022383318
 20
0.8349330058161825
 30
0.0
 10
20.05376232004496
 20
0.8476084732470748
 30
0.0
 10
19.84401993981779
 20
0.8662279540095532
 30
0.0
 10
19.59096019130388
 20
0.8941572167380107
 30
0.0
 10
19.39947228951153
 20
0.9224394802867304
 30
0.0
 10
19.27943346643963
 20
0.9401689013019473
 30
0.0
  0
LINE
  5
B5
330
1F
100
AcDbEntity
  8
0
  6
Continuous
 62
   131
370
    15
100
AcDbLine
 10
2.0
 20
-3.0
 30
0.0
 11
8.531088913245519
 21
-1.25
 31
0.0
  0
LINE
  5
B6
330
1F
100
AcDbEntity
  8
0
  6
Continuous
 62
   131
370
    15
100
AcDbLine
 10
8.531088913245519
 20
1.25
 30
0.0
 11
2.0
 21
2.999999999999999
 31
0.0
  0
LINE
  5
B7
330
1F
100
AcDbEntity
  8
0
  6
Continuous
 62
   131
370
    15
100
AcDbLine
 10
2.0
 20
2.999999999999998
 30
0.0
 11
-23.91891108675446
 21
2.999999999999996
 31
0.0
  0
LINE
  5
B8
330
1F
100
AcDbEntity
  8
0
  6
Continuous
 62
   131
370
    15
100
AcDbLine
 10
-23.91891108675446
 20
-3.0
 30
0.0
 11
2.0
 21
-2.999999999999999
 31
0.0
  0
LINE
  5
B9
330
1F
100
AcDbEntity
  8
0
  6
Continuous
 62
   131
370
    15
100
AcDbLine
 10
-23.91891108675446
 20
2.999999999999996
 30
0.0
 11
-24.46891108675447
 21
2.449999999999995
 31
0.0
  0
LINE
  5
BA
330
1F
100
AcDbEntity
  8
0
  6
Continuous
 62
   131
370
    15
100
AcDbLine
 10
-24.46891108675447
 20
-2.45
 30
0.0
 11
-23.91891108675446
 21
-3.0
 31
0.0
  0
LINE
  5
BB
330
1F
100
AcDbEntity
  8
0
  6
Continuous
 62
   131
370
    15
100
AcDbLine
 10
9.01898615680117
 20
1.25
 30
0.0
 11
8.531088913245519
 21
1.25
 31
0.0
  0
LINE
  5
BC
330
1F
100
AcDbEntity
  8
0
  6
Continuous
 62
   131
370
    15
100
AcDbLine
 10
8.531088913245519
 20
-1.25
 30
0.0
 11
9.018986156801173
 21
-1.25
 31
0.0
  0
SPLINE
  5
BD
330
1F
100
AcDbEntity
  8
0
  6
Continuous
 62
     1
370
    15
100
AcDbSpline
210
0.0
220
0.0
230
1.0
 70
     8
 71
     3
 72
    17
 73
    13
 74
     0
 42
0.000000001
 43
0.00000001
 40
0.0
 40
0.0
 40
0.0
 40
0.0
 40
0.1102053748355442
 40
0.2203213498016154
 40
0.3303728284921074
 40
0.4403851676168605
 40
0.5503840003330374
 40
0.6603950554534602
 40
0.7704439752232213
 40
0.8805561343921059
 40
0.9907564632775845
 40
1.0
 40
1.0
 40
1.0
 40
1.0
 10
35.53108891324553
 20
-1.186176086539873
 30
0.0
 10
35.30670660123629
 20
-1.134257209765863
 30
0.0
 10
34.85812399873387
 20
-1.030461573408711
 30
0.0
 10
34.18561818813993
 20
-0.7457317527873426
 30
0.0
 10
33.51357421438939
 20
-0.3978732815073935
 30
0.0
 10
32.84181929294417
 20
-0.0099106564169317
 30
0.0
 10
32.17016224740047
 20
0.3786383157988595
 30
0.0
 10
31.49841685830214
 20
0.7302601859808301
 30
0.0
 10
30.82639105260577
 20
1.015437153372065
 30
0.0
 10
30.1539152160079
 20
1.190949949626058
 30
0.0
 10
29.68652935714299
 20
1.26640706164564
 30
0.0
 10
29.44334399249059
 20
1.246903834394433
 30
0.0
 10
29.42452433325503
 20
1.245394516219031
 30
0.0
  0
SPLINE
  5
BE
330
1F
100
AcDbEntity
  8
0
  6
Continuous
 62
     1
370
    15
100
AcDbSpline
210
0.0
220
0.0
230
1.0
 70
     8
 71
     3
 72
    20
 73
    16
 74
     0
 42
0.000000001
 43
0.00000001
 40
0.0
 40
0.0
 40
0.0
 40
0.0
 40
0.0745197536203372
 40
0.1563667775701739
 40
0.2381464306452551
 40
0.31987632356012
 40
0.4015752588289729
 40
0.4832622575327508
 40
0.5649564252772362
 40
0.6466768168862966
 40
0.7284423018553824
 40
0.8102714325711652
 40
0.8921212854229265
 40
0.9739039104373182
 40
1.0
 40
1.0
 40
1.0
 40
1.0
 10
24.04377748396663
 20
-0.9862590400489585
 30
0.0
 10
23.83948062489192
 20
-1.052166341832301
 30
0.0
 10
23.4107991012791
 20
-1.190461383046629
 30
0.0
 10
22.75784275354652
 20
-1.26630818560889
 30
0.0
 10
22.08528634191155
 20
-1.231856386612559
 30
0.0
 10
21.41320240869934
 20
-1.077308292714983
 30
0.0
 10
20.74142757205864
 20
-0.8203978942247364
 30
0.0
 10
20.06976914059536
 20
-0.4849015964052391
 30
0.0
 10
19.39804076633548
 20
-0.1031249877667094
 30
0.0
 10
18.72605246822507
 20
0.2887342255640865
 30
0.0
 10
18.05362561145033
 20
0.6524608226478458
 30
0.0
 10
17.38071859317023
 20
0.9560208365520197
 30
0.0
 10
16.70770874838937
 20
1.159637584859489
 30
0.0
 10
16.18762089745735
 20
1.25573099689651
 30
0.0
 10
15.89194047553373
 20
1.240602560837281
 30
0.0
 10
15.82041475516618
 20
1.23694296010981
 30
0.0
  0
SPLINE
  5
BF
330
1F
100
AcDbEntity
  8
0
  6
Continuous
 62
     1
370
    15
100
AcDbSpline
210
0.0
220
0.0
230
1.0
 70
     8
 71
     3
 72
     9
 73
     5
 74
     0
 42
0.000000001
 43
0.00000001
 40
0.0
 40
0.0
 40
0.0
 40
0.0
 40
0.3143150894937234
 40
1.0
 40
1.0
 40
1.0
 40
1.0
 10
10.43096116608709
 20
-0.9833106275489224
 30
0.0
 10
10.33667146633366
 20
-1.018885332847312
 30
0.0
 10
10.0366868238359
 20
-1.13206699827639
 30
0.0
 10
9.736750633244611
 20
-1.181407046734003
 30
0.0
 10
9.53108891324143
 20
-1.215238773445037
 30
0.0
  0
SPLINE
  5
C0
330
1F
100
AcDbEntity
  8
0
  6
Continuous
 62
   131
370
    15
100
AcDbSpline
210
0.0
220
0.0
230
1.0
 70
    24
 71
     3
 72
     8
 73
     4
 74
     0
 42
0.000000001
 43
0.00000001
 40
0.0
 40
0.0
 40
0.0
 40
0.0
 40
1.0
 40
1.0
 40
1.0
 40
1.0
 10
9.531088913245522
 20
-1.046072276005001
 30
0.0
 10
9.531088913245522
 20
-1.104992565142745
 30
0.0
 10
9.531088913245522
 20
-1.161755043266067
 30
0.0
 10
9.531088913245522
 20
-1.215238773444288
 30
0.0
  0
SPLINE
  5
C1
330
1F
100
AcDbEntity
  8
0
  6
Continuous
 62
     1
370
    15
100
AcDbSpline
210
0.0
220
0.0
230
1.0
 70
     8
 71
     3
 72
    13
 73
     9
 74
     0
 42
0.000000001
 43
0.00000001
 40
0.0
 40
0.0
 40
0.0
 40
0.0
 40
0.1724692656418953
 40
0.3443394125297391
 40
0.5162532527019225
 40
0.6888295600596333
 40
0.8611807954782292
 40
1.0
 40
1.0
 40
1.0
 40
1.0
 10
35.53108891324552
 20
-0.9862153304602665
 30
0.0
 10
35.34397475820506
 20
-0.9457348194320994
 30
0.0
 10
34.97039643987202
 20
-0.8649144174058925
 30
0.0
 10
34.41074264983127
 20
-0.6681778512619841
 30
0.0
 10
33.85096396834556
 20
-0.4313260736318505
 30
0.0
 10
33.29013489382584
 20
-0.1658607955205469
 30
0.0
 10
32.76540968974418
 20
0.0950765059782735
 30
0.0
 10
32.42807314649224
 20
0.2547197852826555
 30
0.0
 10
32.27758073275481
 20
0.3259397669895563
 30
0.0
  0
SPLINE
  5
C2
330
1F
100
AcDbEntity
  8
0
  6
Continuous
 62
     1
370
    15
100
AcDbSpline
210
0.0
220
0.0
230
1.0
 70
     8
 71
     3
 72
    16
 73
    12
 74
     0
 42
0.000000001
 43
0.00000001
 40
0.0
 40
0.0
 40
0.0
 40
0.0
 40
0.0607918135770863
 40
0.2463641204967573
 40
0.3699562241879904
 40
0.493492161444079
 40
0.617434392796599
 40
0.7414442461545907
 40
0.8650016054030305
 40
0.9885656111477189
 40
1.0
 40
1.0
 40
1.0
 40
1.0
 10
23.20103109128784
 20
-1.022763085141882
 30
0.0
 10
23.10924820555491
 20
-1.036762309186775
 30
0.0
 10
22.73729006531002
 20
-1.093495384193392
 30
0.0
 10
22.17851639287215
 20
-1.039069307240968
 30
0.0
 10
21.52597829916515
 20
-0.9074685173282345
 30
0.0
 10
20.96636280403808
 20
-0.7282160360047532
 30
0.0
 10
20.40573321228567
 20
-0.5025709562517422
 30
0.0
 10
19.84498680170982
 20
-0.2425245396707533
 30
0.0
 10
19.28526152996345
 20
0.0314116378799265
 30
0.0
 10
18.89539186368818
 20
0.2281146793782962
 30
0.0
 10
18.69165236511675
 20
0.3187103710579146
 30
0.0
 10
18.67439559211446
 20
0.3263838428062177
 30
0.0
  0
LINE
  5
C3
330
1F
100
AcDbEntity
  8
0
  6
Continuous
 62
     1
370
    15
100
AcDbLine
 10
9.763245927085102
 20
-1.006286637382469
 30
0.0
 11
9.531088913245497
 21
-1.046072276005003
 31
0.0
  0
LINE
  5
C4
330
1F
100
AcDbEntity
  8
0
  6
Continuous
 62
     1
370
    15
100
AcDbLine
 10
35.53108891324538
 20
-1.186176086539876
 30
0.0
 11
35.53108891324552
 21
-0.9862153304602665
 31
0.0
  0
SPLINE
  5
C5
330
1F
100
AcDbEntity
  8
0
  6
Continuous
 62
     1
370
    15
100
AcDbSpline
210
0.0
220
0.0
230
1.0
 70
     8
 71
     3
 72
    21
 73
    17
 74
     0
 42
0.000000001
 43
0.00000001
 40
0.0
 40
0.0
 40
0.0
 40
0.0
 40
0.0039656749810172
 40
0.0856033951976213
 40
0.1673064848948459
 40
0.2490168914214863
 40
0.3306603158062472
 40
0.4122549913051604
 40
0.4938197038111896
 40
0.5753734508062012
 40
0.6569353074268414
 40
0.7385242913682352
 40
0.8201592286475782
 40
0.9018586222279537
 40
0.9835722287985889
 40
1.0
 40
1.0
 40
1.0
 40
1.0
 10
30.8591700148781
 20
-0.9835848454696561
 30
0.0
 10
30.84828302558662
 20
-0.9881192183398662
 30
0.0
 10
30.61327555490607
 20
-1.085998574222528
 30
0.0
 10
30.15390815506621
 20
-1.192701268665531
 30
0.0
 10
29.48096805146249
 20
-1.271485339015426
 30
0.0
 10
28.8079835553933
 20
-1.218818689797333
 30
0.0
 10
28.1354515492573
 20
-1.05216231871501
 30
0.0
 10
27.46338797790898
 20
-0.7842140712895035
 30
0.0
 10
26.79162327242818
 20
-0.4415032642313535
 30
0.0
 10
26.11996585892576
 20
-0.0566084060996784
 30
0.0
 10
25.4482289109297
 20
0.333898478670952
 30
0.0
 10
24.77622320274904
 20
0.6917943182049018
 30
0.0
 10
24.10376793197498
 20
0.9863636554272295
 30
0.0
 10
23.43085043190633
 20
1.176230857926578
 30
0.0
 10
22.93693563160809
 20
1.261253439804257
 30
0.0
 10
22.66747458561542
 20
1.24334994676317
 30
0.0
 10
22.62236981419533
 20
1.240353101863884
 30
0.0
  0
SPLINE
  5
C6
330
1F
100
AcDbEntity
  8
0
  6
Continuous
 62
     1
370
    15
100
AcDbSpline
210
0.0
220
0.0
230
1.0
 70
     8
 71
     3
 72
    19
 73
    15
 74
     0
 42
0.000000001
 43
0.00000001
 40
0.0
 40
0.0
 40
0.0
 40
0.0
 40
0.0650383873712912
 40
0.152645761412759
 40
0.240198834157454
 40
0.3277177318765993
 40
0.4152228220709949
 40
0.5027345700065007
 40
0.5902733937866798
 40
0.6778595201315473
 40
0.7585416182561164
 40
0.8391315117286835
 40
0.9195873554335235
 40
1.0
 40
1.0
 40
1.0
 40
1.0
 10
17.2069245912542
 20
-0.9928215693371706
 30
0.0
 10
17.04046075537929
 20
-1.04886023967117
 30
0.0
 10
16.64976842732766
 20
-1.180383573004429
 30
0.0
 10
16.03512177885637
 20
-1.261916551057761
 30
0.0
 10
15.36301772547743
 20
-1.242598527032821
 30
0.0
 10
14.69123224290095
 20
-1.101215989655449
 30
0.0
 10
14.01957180994599
 20
-0.8554454796220621
 30
0.0
 10
13.34785364407236
 20
-0.5276543289560459
 30
0.0
 10
12.675874390449
 20
-0.1494376002159271
 30
0.0
 10
12.0213422568469
 20
0.2327760279149983
 30
0.0
 10
11.38434457418422
 20
0.583229481708187
 30
0.0
 10
10.7658044737138
 20
0.8749871666134494
 30
0.0
 10
10.14820101217834
 20
1.102949964351993
 30
0.0
 10
9.736756116830225
 20
1.177815871835644
 30
0.0
 10
9.53108891324143
 20
1.215238773445037
 30
0.0
  0
SPLINE
  5
C7
330
1F
100
AcDbEntity
  8
0
  6
Continuous
 62
     1
370
    15
100
AcDbSpline
210
0.0
220
0.0
230
1.0
 70
     8
 71
     3
 72
    14
 73
    10
 74
     0
 42
0.000000001
 43
0.00000001
 40
0.0
 40
0.0
 40
0.0
 40
0.0
 40
0.0158167773503273
 40
0.1394692961269199
 40
0.2635915706932868
 40
0.4489243544491329
 40
0.6342745818331591
 40
0.8197512220662626
 40
0.9999999999999999
 40
0.9999999999999999
 40
0.9999999999999999
 40
0.9999999999999999
 10
30.00114542749743
 20
-1.036202775564799
 30
0.0
 10
29.9772877169288
 20
-1.039833786224224
 30
0.0
 10
29.76691502048713
 20
-1.071851338831984
 30
0.0
 10
29.36928729009837
 20
-1.066213405764913
 30
0.0
 10
28.71540879517387
 20
-1.003453026523708
 30
0.0
 10
27.96843138753956
 20
-0.809175053258092
 30
0.0
 10
27.12882456698851
 20
-0.4746464084952373
 30
0.0
 10
26.29678432532662
 20
-0.068978638428268
 30
0.0
 10
25.74455319733478
 20
0.1974637838562921
 30
0.0
 10
25.47238456750198
 20
0.3287806642832022
 30
0.0
  0
SPLINE
  5
C8
330
1F
100
AcDbEntity
  8
0
  6
Continuous
 62
     1
370
    15
100
AcDbSpline
210
0.0
220
0.0
230
1.0
 70
     8
 71
     3
 72
    15
 73
    11
 74
     0
 42
0.000000001
 43
0.00000001
 40
0.0
 40
0.0
 40
0.0
 40
0.0
 40
0.04305280118469
 40
0.2289837874601334
 40
0.3526977153000044
 40
0.4765440718371937
 40
0.6008725623780332
 40
0.7865123225556153
 40
0.972200751707335
 40
1.0
 40
1.0
 40
1.0
 40
1.0
 10
16.39844506935298
 20
-1.026240282410406
 30
0.0
 10
16.33354879224122
 20
-1.036936157633127
 30
0.0
 10
15.98838669090973
 20
-1.0938240244224
 30
0.0
 10
15.45645160425283
 20
-1.048096556417579
 30
0.0
 10
14.80391977117269
 20
-0.928078717759315
 30
0.0
 10
14.24387576980808
 20
-0.7566775225134816
 30
0.0
 10
13.59007440593072
 20
-0.5003373069268541
 30
0.0
 10
12.84311087443204
 20
-0.1503380980678098
 30
0.0
 10
12.24161144539279
 20
0.1624390711185823
 30
0.0
 10
11.91983179313759
 20
0.3027948968480274
 30
0.0
 10
11.87793133051768
 20
0.3210712980693172
 30
0.0
  0
SPLINE
  5
C9
330
1F
100
AcDbEntity
  8
0
  6
Continuous
 62
     1
370
    15
100
AcDbSpline
210
0.0
220
0.0
230
1.0
 70
     8
 71
     3
 72
    16
 73
    12
 74
     0
 42
0.000000001
 43
0.00000001
 40
0.0
 40
0.0
 40
0.0
 40
0.0
 40
0.0685700078588169
 40
0.1376957977928271
 40
0.2649222162601406
 40
0.3920985851461814
 40
0.5192748502518222
 40
0.6464510759829712
 40
0.7736273245537773
 40
0.9007863471124018
 40
1.0
 40
1.0
 40
1.0
 40
1.0
 10
9.531088913245519
 20
1.087124696019709
 30
0.0
 10
9.660794934191316
 20
1.046573685455479
 30
0.0
 10
9.921258285303043
 20
0.9651429852805048
 30
0.0
 10
10.42338884729538
 20
0.7576570651696432
 30
0.0
 10
11.03635838452776
 20
0.4479888687111584
 30
0.0
 10
11.75940505404115
 20
0.0321068879497607
 30
0.0
 10
12.48232951147926
 20
-0.3866678770817795
 30
0.0
 10
13.20525812810006
 20
-0.7640014010009833
 30
0.0
 10
13.92816308290396
 20
-1.05233150355497
 30
0.0
 10
14.59805555191594
 20
-1.227461730127611
 30
0.0
 10
15.02704761837299
 20
-1.233787905821865
 30
0.0
 10
15.21506443572563
 20
-1.236560515184716
 30
0.0
  0
SPLINE
  5
CA
330
1F
100
AcDbEntity
  8
0
  6
Continuous
 62
     1
370
    15
100
AcDbSpline
210
0.0
220
0.0
230
1.0
 70
     8
 71
     3
 72
    20
 73
    16
 74
     0
 42
0.000000001
 43
0.00000001
 40
0.0
 40
0.0
 40
0.0
 40
0.0
 40
0.0259233965622336
 40
0.1094841856453959
 40
0.19541334277302
 40
0.279680723218744
 40
0.3634433739089695
 40
0.4472051928555896
 40
0.5309663620450286
 40
0.6147270308820121
 40
0.6984873210902519
 40
0.7822473313795136
 40
0.8660071419171198
 40
0.9521335644020494
 40
1.0
 40
1.0
 40
1.0
 40
1.0
 10
20.22662548376307
 20
0.8372418170436625
 30
0.0
 10
20.30087471590435
 20
0.871421089455984
 30
0.0
 10
20.61445695410637
 20
1.015772922250411
 30
0.0
 10
21.17418658391449
 20
1.174358103623107
 30
0.0
 10
21.90102266421073
 20
1.273269437718709
 30
0.0
 10
22.62842369510253
 20
1.222633264408889
 30
0.0
 10
23.34959057738491
 20
1.039734268626088
 30
0.0
 10
24.06928874078106
 20
0.7429125821201996
 30
0.0
 10
24.78896340857271
 20
0.3649027313166632
 30
0.0
 10
25.50861971903546
 20
-0.0532345439627749
 30
0.0
 10
26.22825754173991
 20
-0.4650988791122204
 30
0.0
 10
26.94789372693069
 20
-0.8277550832059895
 30
0.0
 10
27.67425879400442
 20
-1.095928813463721
 30
0.0
 10
28.29796145707765
 20
-1.241753062792634
 30
0.0
 10
28.68169959268823
 20
-1.235049378575666
 30
0.0
 10
28.81878284486664
 20
-1.232654613112554
 30
0.0
  0
SPLINE
  5
CB
330
1F
100
AcDbEntity
  8
0
  6
Continuous
 62
     1
370
    15
100
AcDbSpline
210
0.0
220
0.0
230
1.0
 70
     8
 71
     3
 72
    10
 73
     6
 74
     0
 42
0.000000001
 43
0.00000001
 40
0.0
 40
0.0
 40
0.0
 40
0.0
 40
0.2277667172810322
 40
0.6095432293316633
 40
1.0
 40
1.0
 40
1.0
 40
1.0
 10
33.83560241568461
 20
0.8373514506063242
 30
0.0
 10
33.96433834271365
 20
0.8937497831678525
 30
0.0
 10
34.30885800576634
 20
1.044681500360134
 30
0.0
 10
34.87385073272853
 20
1.197456002323405
 30
0.0
 10
35.31037394559184
 20
1.23165288388698
 30
0.0
 10
35.53108891324547
 20
1.248943519037058
 30
0.0
  0
SPLINE
  5
CC
330
1F
100
AcDbEntity
  8
0
  6
Continuous
 62
     1
370
    15
100
AcDbSpline
210
0.0
220
0.0
230
1.0
 70
    24
 71
     3
 72
    10
 73
     6
 74
     0
 42
0.000000001
 43
0.00000001
 40
0.0
 40
0.0
 40
0.0
 40
0.0
 40
0.5
 40
0.5
 40
1.0
 40
1.0
 40
1.0
 40
1.0
 10
35.53108891324552
 20
0.8750000000000033
 30
0.0
 10
35.53108891324551
 20
0.928040321009146
 30
0.0
 10
35.53108891324553
 20
0.9896780860839005
 30
0.0
 10
35.53108891324551
 20
1.118993951201075
 30
0.0
 10
35.53108891324552
 20
1.186341794751847
 30
0.0
 10
35.53108891324551
 20
1.248943519037062
 30
0.0
  0
LINE
  5
CD
330
1F
100
AcDbEntity
  8
0
  6
Continuous
 62
     1
370
    15
100
AcDbLine
 10
35.53108891324552
 20
0.8750000000000033
 30
0.0
 11
35.07829890210188
 21
0.8399194347852297
 31
0.0
  0
SPLINE
  5
CE
330
1F
100
AcDbEntity
  8
0
  6
Continuous
 62
     1
370
    15
100
AcDbSpline
210
0.0
220
0.0
230
1.0
 70
     8
 71
     3
 72
    13
 73
     9
 74
     0
 42
0.000000001
 43
0.00000001
 40
0.0
 40
0.0
 40
0.0
 40
0.0
 40
0.0414891235239106
 40
0.2435336154842425
 40
0.445595492133894
 40
0.647632117594215
 40
0.8496010461907719
 40
1.0
 40
1.0
 40
1.0
 40
1.0
 10
25.62097033912833
 20
-0.1153740717772324
 30
0.0
 10
25.56341647582839
 20
-0.0930696244787276
 30
0.0
 10
25.22558575721986
 20
0.0378534278931109
 30
0.0
 10
24.60742531657058
 20
0.2946252908374598
 30
0.0
 10
23.76654500069748
 20
0.5928535727955726
 30
0.0
 10
22.92577948408474
 20
0.8008502145858312
 30
0.0
 10
22.1567037272434
 20
0.8960532477506138
 30
0.0
 10
21.66793298186738
 20
0.8584059204361352
 30
0.0
 10
21.45931405707999
 20
0.8423371499138245
 30
0.0
  0
SPLINE
  5
CF
330
1F
100
AcDbEntity
  8
0
  6
Continuous
 62
     1
370
    15
100
AcDbSpline
210
0.0
220
0.0
230
1.0
 70
     8
 71
     3
 72
    11
 73
     7
 74
     0
 42
0.000000001
 43
0.00000001
 40
0.0
 40
0.0
 40
0.0
 40
0.0
 40
0.0099762966033802
 40
0.3463870731847172
 40
0.6829591478780418
 40
1.0
 40
1.0
 40
1.0
 40
1.0
 10
12.02857492312038
 20
-0.1215556311757726
 30
0.0
 10
12.02027027085564
 20
-0.1183936517175352
 30
0.0
 10
11.73192437395991
 20
-0.0086065379665301
 30
0.0
 10
11.16335418555098
 20
0.2315104495164312
 30
0.0
 10
10.33908445393202
 20
0.5396736948345984
 30
0.0
 10
9.79500134040411
 20
0.6763131570033635
 30
0.0
 10
9.531088913245512
 20
0.7425913619503626
 30
0.0
  0
SPLINE
  5
D0
330
1F
100
AcDbEntity
  8
0
  6
Continuous
 62
   131
370
    15
100
AcDbSpline
210
0.0
220
0.0
230
1.0
 70
    24
 71
     3
 72
    10
 73
     6
 74
     0
 42
0.000000001
 43
0.00000001
 40
0.0
 40
0.0
 40
0.0
 40
0.0
 40
0.4999999999999997
 40
0.4999999999999997
 40
1.0
 40
1.0
 40
1.0
 40
1.0
 10
9.531088913245505
 20
1.087124696019713
 30
0.0
 10
9.531088913245505
 20
1.042468310432738
 30
0.0
 10
9.531088913245505
 20
0.9873214126188802
 30
0.0
 10
9.531088913245505
 20
0.8678097624885114
 30
0.0
 10
9.531088913245501
 20
0.8038022313646462
 30
0.0
 10
9.531088913245505
 20
0.7425913619503643
 30
0.0
  0
SPLINE
  5
D1
330
1F
100
AcDbEntity
  8
0
  6
Continuous
 62
     1
370
    15
100
AcDbSpline
210
0.0
220
0.0
230
1.0
 70
     8
 71
     3
 72
    20
 73
    16
 74
     0
 42
0.000000001
 43
0.00000001
 40
0.0
 40
0.0
 40
0.0
 40
0.0
 40
0.0583644171862377
 40
0.1425254232959846
 40
0.2290845523857575
 40
0.3138819118899188
 40
0.3979975065062782
 40
0.482064064316419
 40
0.566076380617376
 40
0.6500175860706958
 40
0.7338660716119957
 40
0.8175940011320444
 40
0.9011824028926648
 40
0.9871399553253845
 40
1.0
 40
1.0
 40
1.0
 40
1.0
 10
13.4269165450604
 20
0.8370482633032796
 30
0.0
 10
13.59400891719475
 20
0.9077417030674184
 30
0.0
 10
14.00204710580521
 20
1.080374497368822
 30
0.0
 10
14.65786864065742
 20
1.229948849330558
 30
0.0
 10
15.38950934446369
 20
1.270749027647727
 30
0.0
 10
16.12090882068968
 20
1.163391197282489
 30
0.0
 10
16.84518004301574
 20
0.9288846070675285
 30
0.0
 10
17.56721213386075
 20
0.5924512350730722
 30
0.0
 10
18.28875623333039
 20
0.1911896995737765
 30
0.0
 10
19.00968936877434
 20
-0.2309601624637868
 30
0.0
 10
19.72982525740064
 20
-0.6263349043382255
 30
0.0
 10
20.44896935915002
 20
-0.9560256998507609
 30
0.0
 10
21.17418420957238
 20
-1.170362934149256
 30
0.0
 10
21.6964814007801
 20
-1.265873283240543
 30
0.0
 10
21.97942431605756
 20
-1.243881087475748
 30
0.0
 10
22.01624628539649
 20
-1.241019040347432
 30
0.0
  0
SPLINE
  5
D2
330
1F
100
AcDbEntity
  8
0
  6
Continuous
 62
     1
370
    15
100
AcDbSpline
210
0.0
220
0.0
230
1.0
 70
     8
 71
     3
 72
    19
 73
    15
 74
     0
 42
0.000000001
 43
0.00000001
 40
0.0
 40
0.0
 40
0.0
 40
0.0
 40
0.0762288023015022
 40
0.1631570526102248
 40
0.2487074448092365
 40
0.3336491735675419
 40
0.4185831272943365
 40
0.5035101832562702
 40
0.5908573166668839
 40
0.6764317436219839
 40
0.7613279748171992
 40
0.8461839524011587
 40
0.9222274945066472
 40
0.9999999999999999
 40
0.9999999999999999
 40
0.9999999999999999
 40
0.9999999999999999
 10
27.01862977375972
 20
0.8377240831727892
 30
0.0
 10
27.23491579925233
 20
0.9244926507135063
 30
0.0
 10
27.69784568106498
 20
1.110208591561702
 30
0.0
 10
28.40363252962611
 20
1.249382647514994
 30
0.0
 10
29.13404866945028
 20
1.260517112445734
 30
0.0
 10
29.85879705416338
 20
1.129115696923056
 30
0.0
 10
30.58178810615908
 20
0.8738437425192748
 30
0.0
 10
31.31156767812281
 20
0.5185177418364141
 30
0.0
 10
32.04331353142864
 20
0.103127604742301
 30
0.0
 10
32.77486261048818
 20
-0.3234725407720524
 30
0.0
 10
33.49932590486703
 20
-0.7105451398046237
 30
0.0
 10
34.1968362120117
 20
-1.005018405875905
 30
0.0
 10
34.8738533054023
 20
-1.199751470582894
 30
0.0
 10
35.310374809552
 20
-1.232423752375239
 30
0.0
 10
35.53108891324547
 20
-1.248943519037055
 30
0.0
  0
SPLINE
  5
D3
330
1F
100
AcDbEntity
  8
0
  6
Continuous
 62
     1
370
    15
100
AcDbSpline
210
0.0
220
0.0
230
1.0
 70
     8
 71
     3
 72
    13
 73
     9
 74
     0
 42
0.000000001
 43
0.00000001
 40
0.0
 40
0.0
 40
0.0
 40
0.0
 40
0.0596739628970394
 40
0.2619305699896016
 40
0.464164525647546
 40
0.6663333223565651
 40
0.8683949420238042
 40
1.0
 40
1.0
 40
1.0
 40
1.0
 10
32.41829782875035
 20
-0.1134339122819066
 30
0.0
 10
32.33559500734037
 20
-0.0811064615511678
 30
0.0
 10
31.97258246216983
 20
0.0607903923719234
 30
0.0
 10
31.32927919540575
 20
0.3251567615161261
 30
0.0
 10
30.48850029862712
 20
0.6174012262290591
 30
0.0
 10
29.64802125385109
 20
0.8144027601328319
 30
0.0
 10
28.90545569665282
 20
0.8976654309850992
 30
0.0
 10
28.44310471820331
 20
0.8562642241765854
 30
0.0
 10
28.26074390305105
 20
0.8399347295419984
 30
0.0
  0
SPLINE
  5
D4
330
1F
100
AcDbEntity
  8
0
  6
Continuous
 62
     1
370
    15
100
AcDbSpline
210
0.0
220
0.0
230
1.0
 70
     8
 71
     3
 72
    13
 73
     9
 74
     0
 42
0.000000001
 43
0.00000001
 40
0.0
 40
0.0
 40
0.0
 40
0.0
 40
0.0210189451436265
 40
0.2233064142873896
 40
0.4256512515772417
 40
0.628010872071516
 40
0.8303425794377262
 40
1.0
 40
1.0
 40
1.0
 40
1.0
 10
18.81352533092534
 20
-0.1138620912142693
 30
0.0
 10
18.7844121130419
 20
-0.1026756003444087
 30
0.0
 10
18.47511170574284
 20
0.016170285951871
 30
0.0
 10
17.88550094485427
 20
0.263833871740876
 30
0.0
 10
17.04469163436798
 20
0.5674742729110037
 30
0.0
 10
16.20381087911242
 20
0.7861555055456205
 30
0.0
 10
15.40821778958825
 20
0.8940481230434466
 30
0.0
 10
14.8929614072106
 20
0.8609828833275618
 30
0.0
 10
14.65796241880133
 20
0.8459024337678941
 30
0.0
  0
LINE
  5
D5
330
1F
100
AcDbEntity
  8
0
  6
Continuous
 62
   131
370
    15
100
AcDbLine
 10
9.531088913245519
 20
1.087124696019707
 30
0.0
 11
9.531088913245519
 21
1.215238773444562
 31
0.0
  0
LINE
  5
D6
330
1F
100
AcDbEntity
  8
0
  6
Continuous
 62
     1
370
    15
100
AcDbLine
 10
35.53108891324551
 20
-1.248943519037058
 30
0.0
 11
35.53108891324507
 21
-1.186176086539869
 31
0.0
  0
SPLINE
  5
D7
330
1F
100
AcDbEntity
  8
0
  6
Continuous
 62
     1
370
    15
100
AcDbSpline
210
0.0
220
0.0
230
1.0
 70
     8
 71
     3
 72
     8
 73
     4
 74
     0
 42
0.000000001
 43
0.00000001
 40
0.0
 40
0.0
 40
0.0
 40
0.0
 40
1.0
 40
1.0
 40
1.0
 40
1.0
 10
34.75746022104591
 20
0.3498421875512445
 30
0.0
 10
34.70141017463651
 20
0.4161899107336742
 30
0.0
 10
34.65279515219361
 20
0.479603401403414
 30
0.0
 10
34.61444860073684
 20
0.538566412246626
 30
0.0
  0
LINE
  5
D8
330
1F
100
AcDbEntity
  8
0
  6
Continuous
 62
     1
370
    15
100
AcDbLine
 10
34.61444860073684
 20
0.5385664122466266
 30
0.0
 11
35.53108891324552
 21
0.0000000000000035
 31
0.0
  0
LINE
  5
D9
330
1F
100
AcDbEntity
  8
0
  6
Continuous
 62
     1
370
    15
100
AcDbLine
 10
35.53108891324552
 20
0.0000000000000035
 30
0.0
 11
35.53108891324552
 21
-0.3340536825370525
 31
0.0
  0
SPLINE
  5
DA
330
1F
100
AcDbEntity
  8
0
  6
Continuous
 62
     1
370
    15
100
AcDbSpline
210
0.0
220
0.0
230
1.0
 70
     8
 71
     3
 72
    10
 73
     6
 74
     0
 42
0.000000001
 43
0.00000001
 40
0.0
 40
0.0
 40
0.0
 40
0.0
 40
0.5
 40
0.5
 40
1.0
 40
1.0
 40
1.0
 40
1.0
 10
35.53108891324552
 20
-0.3340536825370526
 30
0.0
 10
35.3971680439853
 20
-0.2287670726165658
 30
0.0
 10
35.26548608421732
 20
-0.1191601491608509
 30
0.0
 10
35.00670370524204
 20
0.1088944712454133
 30
0.0
 10
34.87838694236644
 20
0.2285417807339367
 30
0.0
 10
34.75746022105723
 20
0.3498421875359766
 30
0.0
  0
SPLINE
  5
DB
330
1F
100
AcDbEntity
  8
0
  6
Continuous
 62
     1
370
    15
100
AcDbSpline
210
0.0
220
0.0
230
1.0
 70
     8
 71
     3
 72
    12
 73
     8
 74
     0
 42
0.000000001
 43
0.00000001
 40
0.0
 40
0.0
 40
0.0
 40
0.0
 40
0.1578270642742875
 40
0.3148232856761866
 40
0.6066809155593964
 40
0.8986264984696756
 40
1.0
 40
1.0
 40
1.0
 40
1.0
 10
34.7574602160688
 20
0.3498421897238298
 30
0.0
 10
34.60599381056807
 20
0.4136810452920672
 30
0.0
 10
34.30385835827051
 20
0.5410226920255564
 30
0.0
 10
33.72249380839141
 20
0.7534195255012346
 30
0.0
 10
33.01083410071742
 20
0.9354979987051172
 30
0.0
 10
32.35315873430798
 20
1.024098328314721
 30
0.0
 10
31.97554042235562
 20
0.9861849390843362
 30
0.0
 10
31.87821361560017
 20
0.9764131960563253
 30
0.0
  0
SPLINE
  5
DC
330
1F
100
AcDbEntity
  8
0
  6
Continuous
 62
     1
370
    15
100
AcDbSpline
210
0.0
220
0.0
230
1.0
 70
     8
 71
     3
 72
    18
 73
    14
 74
     0
 42
0.000000001
 43
0.00000001
 40
0.0
 40
0.0
 40
0.0
 40
0.0
 40
0.0818157706774569
 40
0.189406436862595
 40
0.2970061191152671
 40
0.4045927040899908
 40
0.5121441766469635
 40
0.583767775511151
 40
0.6553583881667294
 40
0.727187775601042
 40
0.8346253923099949
 40
0.942135999871255
 40
1.0
 40
1.0
 40
1.0
 40
1.0
 10
26.08770060992666
 20
-0.9261257220141937
 30
0.0
 10
25.87457064946472
 20
-0.9572229660733628
 30
0.0
 10
25.38116716422584
 20
-1.029214198872647
 30
0.0
 10
24.6074289395579
 20
-0.9661651856996893
 30
0.0
 10
23.7665257291563
 20
-0.7708245584946241
 30
0.0
 10
22.92583034745271
 20
-0.4562397470105101
 30
0.0
 10
22.17857069082116
 20
-0.1174851371557441
 30
0.0
 10
21.52599370770497
 20
0.1864478759390937
 30
0.0
 10
20.966360509807
 20
0.4346400925440788
 30
0.0
 10
20.31313832554926
 20
0.69062115439819
 30
0.0
 10
19.5661433312256
 20
0.9051335898062738
 30
0.0
 10
18.8555190190844
 20
1.017598996179176
 30
0.0
 10
18.42470937000973
 20
0.9857459085904025
 30
0.0
 10
18.27397057196976
 20
0.9746006240144733
 30
0.0
  0
SPLINE
  5
DD
330
1F
100
AcDbEntity
  8
0
  6
Continuous
 62
     1
370
    15
100
AcDbSpline
210
0.0
220
0.0
230
1.0
 70
     8
 71
     3
 72
    11
 73
     7
 74
     0
 42
0.000000001
 43
0.00000001
 40
0.0
 40
0.0
 40
0.0
 40
0.0
 40
0.1634631003550468
 40
0.4477194075890575
 40
0.732108458372012
 40
1.0
 40
1.0
 40
1.0
 40
1.0
 10
12.4867657360889
 20
-0.9214620414561435
 30
0.0
 10
12.32573122764696
 20
-0.9493748396711811
 30
0.0
 10
11.88466364380436
 20
-1.025826965281459
 30
0.0
 10
11.1633584982872
 20
-0.9860350480765949
 30
0.0
 10
10.33906670221078
 20
-0.8253526545148715
 30
0.0
 10
9.794997435010544
 20
-0.6257388456719424
 30
0.0
 10
9.531088913245526
 20
-0.5289133339375431
 30
0.0
  0
SPLINE
  5
DE
330
1F
100
AcDbEntity
  8
0
  6
Continuous
 62
     1
370
    15
100
AcDbSpline
210
0.0
220
0.0
230
1.0
 70
    24
 71
     3
 72
    10
 73
     6
 74
     0
 42
0.000000001
 43
0.00000001
 40
0.0
 40
0.0
 40
0.0
 40
0.0
 40
0.5
 40
0.5
 40
1.0
 40
1.0
 40
1.0
 40
1.0
 10
35.53108891324552
 20
-0.9862153304602663
 30
0.0
 10
35.53108891324551
 20
-0.9106142362547525
 30
0.0
 10
35.53108891324552
 20
-0.8150893548830823
 30
0.0
 10
35.53108891324551
 20
-0.5930031989383467
 30
0.0
 10
35.53108891324553
 20
-0.4666343038141337
 30
0.0
 10
35.53108891324553
 20
-0.3340536825370925
 30
0.0
  0
SPLINE
  5
DF
330
1F
100
AcDbEntity
  8
0
  6
Continuous
 62
     1
370
    15
100
AcDbSpline
210
0.0
220
0.0
230
1.0
 70
     8
 71
     3
 72
    17
 73
    13
 74
     0
 42
0.000000001
 43
0.00000001
 40
0.0
 40
0.0
 40
0.0
 40
0.0
 40
0.0918390532569179
 40
0.1994694269043056
 40
0.3070880600174182
 40
0.4146729203723078
 40
0.5222022282608343
 40
0.6296549826705901
 40
0.7371179767580917
 40
0.844655287085533
 40
0.9522454876025325
 40
1.0
 40
1.0
 40
1.0
 40
1.0
 10
32.88773733133122
 20
-0.9304104543277121
 30
0.0
 10
32.6485551862321
 20
-0.9618984042934817
 30
0.0
 10
32.12906458047424
 20
-1.030288518426005
 30
0.0
 10
31.3292773501962
 20
-0.9537024439141606
 30
0.0
 10
30.48849578463001
 20
-0.7453202711795378
 30
0.0
 10
29.64801388324069
 20
-0.4223578887126504
 30
0.0
 10
28.80801319150869
 20
-0.037513864573957
 30
0.0
 10
27.9684408306895
 20
0.3526641553710418
 30
0.0
 10
27.12882887054239
 20
0.692525471300398
 30
0.0
 10
26.28875961063277
 20
0.9210143463169141
 30
0.0
 10
25.60414323242602
 20
1.021050965374779
 30
0.0
 10
25.19956543688842
 20
0.9856480171856138
 30
0.0
 10
25.07519419186653
 20
0.9747647982045002
 30
0.0
  0
SPLINE
  5
E0
330
1F
100
AcDbEntity
  8
0
  6
Continuous
 62
     1
370
    15
100
AcDbSpline
210
0.0
220
0.0
230
1.0
 70
     8
 71
     3
 72
    17
 73
    13
 74
     0
 42
0.000000001
 43
0.00000001
 40
0.0
 40
0.0
 40
0.0
 40
0.0
 40
0.0718325498633209
 40
0.1793794390011973
 40
0.2869560336921314
 40
0.3945402823962997
 40
0.5021100761638435
 40
0.6096434144186957
 40
0.7171185690069755
 40
0.8245175340214143
 40
0.9319450104111378
 40
1.0
 40
1.0
 40
1.0
 40
1.0
 10
19.28760287721336
 20
-0.923124643684734
 30
0.0
 10
19.1004648255612
 20
-0.9530217671184638
 30
0.0
 10
18.63314577890319
 20
-1.027680528912334
 30
0.0
 10
17.88550193525302
 20
-0.9772691082621782
 30
0.0
 10
17.04468842724254
 20
-0.79529523329118
 30
0.0
 10
16.20380488886655
 20
-0.4896100247432683
 30
0.0
 10
15.3630490737064
 20
-0.1124195514898957
 30
0.0
 10
14.52261747797351
 20
0.2814006612495252
 30
0.0
 10
13.68268217642097
 20
0.6347984898846852
 30
0.0
 10
12.84313853351499
 20
0.8878773116132994
 30
0.0
 10
12.10624085527287
 20
1.013782059676584
 30
0.0
 10
11.6490595683236
 20
0.9863798019604938
 30
0.0
 10
11.47175713784971
 20
0.9757527552457103
 30
0.0
  0
SPLINE
  5
E1
330
1F
100
AcDbEntity
  8
0
  6
Continuous
 62
   131
370
    15
100
AcDbSpline
210
0.0
220
0.0
230
1.0
 70
    24
 71
     3
 72
    10
 73
     6
 74
     0
 42
0.000000001
 43
0.00000001
 40
0.0
 40
0.0
 40
0.0
 40
0.0
 40
0.5
 40
0.5
 40
1.0
 40
1.0
 40
1.0
 40
1.0
 10
9.531088913245526
 20
0.7425913619503594
 30
0.0
 10
9.531088913245526
 20
0.588129356425493
 30
0.0
 10
9.53108891324553
 20
0.382528675039101
 30
0.0
 10
9.53108891324553
 20
-0.0694374116631837
 30
0.0
 10
9.531088913245526
 20
-0.3123009447560002
 30
0.0
 10
9.531088913245526
 20
-0.5289133339375441
 30
0.0
  0
SPLINE
  5
E2
330
1F
100
AcDbEntity
  8
0
  6
Continuous
 62
     1
370
    15
100
AcDbSpline
210
0.0
220
0.0
230
1.0
 70
     8
 71
     3
 72
     8
 73
     4
 74
     0
 42
0.000000001
 43
0.00000001
 40
0.0
 40
0.0
 40
0.0
 40
0.0
 40
1.0
 40
1.0
 40
1.0
 40
1.0
 10
35.53108891324552
 20
0.8750000000000033
 30
0.0
 10
35.21997735594946
 20
0.7904410596396093
 30
0.0
 10
34.91188634014846
 20
0.6841909977156542
 30
0.0
 10
34.61444860073585
 20
0.5385664122473556
 30
0.0
  0
LINE
  5
E3
330
1F
100
AcDbEntity
  8
0
  6
Continuous
 62
     1
370
    15
100
AcDbLine
 10
35.53108891324552
 20
0.0000000000000035
 30
0.0
 11
35.53108891324552
 21
0.8750000000000033
 31
0.0
  0
LINE
  5
E4
330
1F
100
AcDbEntity
  8
0
  6
Continuous
 62
   131
370
    15
100
AcDbLine
 10
8.531088913245519
 20
1.25
 30
0.0
 11
8.531088913245519
 21
-1.25
 31
0.0
  0
LINE
  5
E5
330
1F
100
AcDbEntity
  8
0
  6
Continuous
 62
   131
370
    15
100
AcDbLine
 10
2.0
 20
3.0
 30
0.0
 11
2.0
 21
-3.0
 31
0.0
  0
LINE
  5
E6
330
1F
100
AcDbEntity
  8
0
  6
Continuous
 62
   131
370
    15
100
AcDbLine
 10
-23.91891108675446
 20
2.999999999999996
 30
0.0
 11
-23.91891108675446
 21
-3.0
 31
0.0
  0
LINE
  5
E7
330
1F
100
AcDbEntity
  8
0
  6
Continuous
 62
   131
370
    15
100
AcDbLine
 10
-24.46891108675447
 20
2.449999999999996
 30
0.0
 11
-24.46891108675447
 21
-2.450000000000002
 31
0.0
  0
SPLINE
  5
E8
330
1F
100
AcDbEntity
  8
0
  6
Continuous
 62
   131
370
    15
100
AcDbSpline
210
0.0
220
0.0
230
1.0
 70
     8
 71
     3
 72
     8
 73
     4
 74
     0
 42
0.000000001
 43
0.00000001
 40
0.0
 40
0.0
 40
0.0
 40
0.0
 40
1.0
 40
1.0
 40
1.0
 40
1.0
 10
9.531088913241415
 20
-1.215238773445038
 30
0.0
 10
9.232708922736624
 20
-1.255400828102882
 30
0.0
 10
8.93946141366688
 20
-1.260797158901944
 30
0.0
 10
8.641002652780816
 20
-1.231033289232259
 30
0.0
  0
SPLINE
  5
E9
330
1F
100
AcDbEntity
  8
0
  6
Continuous
 62
   131
370
    15
100
AcDbSpline
210
0.0
220
0.0
230
1.0
 70
     8
 71
     3
 72
     9
 73
     5
 74
     0
 42
0.000000001
 43
0.00000001
 40
0.0
 40
0.0
 40
0.0
 40
0.0
 40
0.869300597988298
 40
1.0
 40
1.0
 40
1.0
 40
1.0
 10
9.531088913241412
 20
1.215238773445039
 30
0.0
 10
9.382690107821293
 20
1.234238228117573
 30
0.0
 10
9.211979532257981
 20
1.256094252048193
 30
0.0
 10
9.0412945782256
 20
1.247731078927191
 30
0.0
 10
9.01898615680117
 20
1.246638017201356
 30
0.0
  0
SPLINE
  5
EA
330
1F
100
AcDbEntity
  8
0
  6
Continuous
 62
   131
370
    15
100
AcDbSpline
210
0.0
220
0.0
230
1.0
 70
     8
 71
     3
 72
     8
 73
     4
 74
     0
 42
0.000000001
 43
0.00000001
 40
0.0
 40
0.0
 40
0.0
 40
0.0
 40
1.0
 40
1.0
 40
1.0
 40
1.0
 10
8.64104683268862
 20
1.243061335535701
 30
0.0
 10
8.939491121687997
 20
1.225016197588637
 30
0.0
 10
9.232723645482697
 20
1.17176671501133
 30
0.0
 10
9.531088913246066
 20
1.087124696013419
 30
0.0
  0
LINE
  5
EB
330
1F
100
AcDbEntity
  8
0
  6
Continuous
 62
   131
370
    15
100
AcDbLine
 10
8.641046832687522
 20
-1.231023991248686
 30
0.0
 11
8.641046832687518
 21
1.243106196756735
 31
0.0
  0
SPLINE
  5
EC
330
1F
100
AcDbEntity
  8
0
  6
Continuous
 62
   131
370
    15
100
AcDbSpline
210
0.0
220
0.0
230
1.0
 70
    24
 71
     3
 72
    10
 73
     6
 74
     0
 42
0.000000001
 43
0.00000001
 40
0.0
 40
0.0
 40
0.0
 40
0.0
 40
0.5
 40
0.5
 40
1.0
 40
1.0
 40
1.0
 40
1.0
 10
9.531088913245519
 20
-0.5289133339375406
 30
0.0
 10
9.531088913245519
 20
-0.6796591215757609
 30
0.0
 10
9.531088913245515
 20
-0.811225554907146
 30
0.0
 10
9.531088913245515
 20
-0.9919982316980139
 30
0.0
 10
9.531088913245519
 20
-1.040426358887588
 30
0.0
 10
9.531088913245519
 20
-1.046072276005001
 30
0.0
  0
SPLINE
  5
ED
330
1F
100
AcDbEntity
  8
0
  6
Continuous
 62
   131
370
    15
100
AcDbSpline
210
0.0
220
0.0
230
1.0
 70
     8
 71
     3
 72
     8
 73
     4
 74
     0
 42
0.000000001
 43
0.00000001
 40
0.0
 40
0.0
 40
0.0
 40
0.0
 40
1.0
 40
1.0
 40
1.0
 40
1.0
 10
9.531088913241582
 20
-1.046072276005338
 30
0.0
 10
9.232708922736734
 20
-1.071606450780387
 30
0.0
 10
8.939461413666933
 20
-1.067269167072278
 30
0.0
 10
8.641002652780816
 20
-1.033362587446879
 30
0.0
  0
SPLINE
  5
EE
330
1F
100
AcDbEntity
  8
0
  6
Continuous
 62
   131
370
    15
100
AcDbSpline
210
0.0
220
0.0
230
1.0
 70
     8
 71
     3
 72
     8
 73
     4
 74
     0
 42
0.000000001
 43
0.00000001
 40
0.0
 40
0.0
 40
0.0
 40
0.0
 40
1.0
 40
1.0
 40
1.0
 40
1.0
 10
9.531088913244371
 20
-0.5289133339370934
 30
0.0
 10
9.232718273345697
 20
-0.412482740279082
 30
0.0
 10
8.939480281640538
 20
-0.2817328365873162
 30
0.0
 10
8.641030712015162
 20
-0.1460000398621252
 30
0.0
  0
SPLINE
  5
EF
330
1F
100
AcDbEntity
  8
0
  6
Continuous
 62
   131
370
    15
100
AcDbSpline
210
0.0
220
0.0
230
1.0
 70
    24
 71
     3
 72
    10
 73
     6
 74
     0
 42
0.000000001
 43
0.00000001
 40
0.0
 40
0.0
 40
0.0
 40
0.0
 40
0.5
 40
0.5
 40
1.0
 40
1.0
 40
1.0
 40
1.0
 10
9.531088913245526
 20
0.7425913619503594
 30
0.0
 10
9.531088913245526
 20
0.588129356425493
 30
0.0
 10
9.53108891324553
 20
0.382528675039101
 30
0.0
 10
9.53108891324553
 20
-0.0694374116631837
 30
0.0
 10
9.531088913245526
 20
-0.3123009447560002
 30
0.0
 10
9.531088913245526
 20
-0.5289133339375441
 30
0.0
  0
SPLINE
  5
F0
330
1F
100
AcDbEntity
  8
0
  6
Continuous
 62
   131
370
    15
100
AcDbSpline
210
0.0
220
0.0
230
1.0
 70
     8
 71
     3
 72
     8
 73
     4
 74
     0
 42
0.000000001
 43
0.00000001
 40
0.0
 40
0.0
 40
0.0
 40
0.0
 40
1.0
 40
1.0
 40
1.0
 40
1.0
 10
9.531088913245394
 20
0.7425913619503873
 30
0.0
 10
9.232720101639845
 20
0.8060828022869756
 30
0.0
 10
8.939483970825442
 20
0.8480958101630718
 30
0.0
 10
8.641036198346793
 20
0.8656236888871136
 30
0.0
  0
SPLINE
  5
F1
330
1F
100
AcDbEntity
  8
0
  6
Continuous
 62
   131
370
    15
100
AcDbSpline
210
0.0
220
0.0
230
1.0
 70
    24
 71
     3
 72
    10
 73
     6
 74
     0
 42
0.000000001
 43
0.00000001
 40
0.0
 40
0.0
 40
0.0
 40
0.0
 40
0.4999999999999997
 40
0.4999999999999997
 40
1.0
 40
1.0
 40
1.0
 40
1.0
 10
9.531088913245505
 20
1.087124696019713
 30
0.0
 10
9.531088913245505
 20
1.042468310432738
 30
0.0
 10
9.531088913245505
 20
0.9873214126188802
 30
0.0
 10
9.531088913245505
 20
0.8678097624885114
 30
0.0
 10
9.531088913245501
 20
0.8038022313646462
 30
0.0
 10
9.531088913245505
 20
0.7425913619503643
 30
0.0
  0
SPLINE
  5
F2
330
1F
100
AcDbEntity
  8
0
  6
Continuous
 62
   131
370
    15
100
AcDbSpline
210
0.0
220
0.0
230
1.0
 70
    24
 71
     3
 72
     8
 73
     4
 74
     0
 42
0.000000001
 43
0.00000001
 40
0.0
 40
0.0
 40
0.0
 40
0.0
 40
1.0
 40
1.0
 40
1.0
 40
1.0
 10
9.531088913245522
 20
-1.046072276005001
 30
0.0
 10
9.531088913245522
 20
-1.104992565142745
 30
0.0
 10
9.531088913245522
 20
-1.161755043266067
 30
0.0
 10
9.531088913245522
 20
-1.215238773444288
 30
0.0
  0
LINE
  5
F3
330
1F
100
AcDbEntity
  8
중심선
 62
     1
100
AcDbLine
 10
-27.46891108675447
 20
-0.0000000000000046
 30
0.0
 11
37.03108891324553
 21
0.0000000000000037
 31
0.0
  0
CIRCLE
  5
F4
330
1F
100
AcDbEntity
  8
외형선
100
AcDbCircle
 10
0.0000000000000104
 20
0.0
 30
0.0
 40
3.000000000000005
  0
INSERT
  5
F5
330
1F
100
AcDbEntity
  8
0
  6
Continuous
 62
     7
100
AcDbBlockReference
 66
     1
  2
블럭10
 10
-22.93944368806589
 20
-52.04609937292004
 30
0.0
  0
ATTRIB
  5
F6
330
F5
100
AcDbEntity
  8
FORMAT
 62
     2
100
AcDbText
 10
-39.05870472750145
 20
-49.97073246008785
 30
0.0
 40
4.233333333333333
  1
SEME7002526E [ 2 FLUTE ]
 41
0.75
  7
SLDTEXTSTYLE0
 11
-39.05870472750145
 21
-52.08739912675452
 31
0.0
100
AcDbAttribute
  2
AUTOATTR0
 70
     0
 74
     1
  0
SEQEND
  5
F7
330
F5
100
AcDbEntity
  8
0
  6
Continuous
 62
     7
  0
HATCH
  5
F8
330
1F
100
AcDbEntity
  8
중심선
100
AcDbHatch
 10
0.0
 20
0.0
 30
0.0
210
0.0
220
0.0
230
1.0
  2
SOLID
 70
     1
 71
     0
 91
        1
 92
        0
 93
        4
 72
     1
 10
-17.22453438368504
 20
-35.7989250712761
 11
-20.67080962752232
 21
-35.7989250712761
 72
     1
 10
-20.67080962752232
 20
-35.7989250712761
 11
-22.79903948672635
 21
-38.3352506518487
 72
     1
 10
-22.79903948672635
 20
-38.3352506518487
 11
-19.35273115777591
 21
-38.33521122254621
 72
     1
 10
-19.35273115777591
 20
-38.33521122254621
 11
-17.22453438368504
 21
-35.7989250712761
 97
        0
 75
     0
 76
     1
 98
        1
 10
0.0
 20
0.0
  0
HATCH
  5
F9
330
1F
100
AcDbEntity
  8
중심선
100
AcDbHatch
 10
0.0
 20
0.0
 30
0.0
210
0.0
220
0.0
230
1.0
  2
SOLID
 70
     1
 71
     0
 91
        1
 92
        0
 93
        4
 72
     1
 10
-12.21177039264909
 20
-35.7989250712761
 11
-15.65804563648637
 21
-35.7989250712761
 72
     1
 10
-15.65804563648637
 20
-35.7989250712761
 11
-20.18918364484376
 21
-41.19892507127612
 72
     1
 10
-20.18918364484376
 20
-41.19892507127612
 11
-16.74290840100648
 21
-41.19892507127612
 72
     1
 10
-16.74290840100648
 20
-41.19892507127612
 11
-12.21177039264909
 21
-35.7989250712761
 97
        0
 75
     0
 76
     1
 98
        1
 10
0.0
 20
0.0
  0
HATCH
  5
FA
330
1F
100
AcDbEntity
  8
중심선
100
AcDbHatch
 10
0.0
 20
0.0
 30
0.0
210
0.0
220
0.0
230
1.0
  2
SOLID
 70
     1
 71
     0
 91
        1
 92
        0
 93
        4
 72
     1
 10
-7.199006401613195
 20
-35.79892507127613
 11
-10.64528164545031
 21
-35.7989250712761
 72
     1
 10
-10.64528164545031
 20
-35.7989250712761
 11
-17.69371854733956
 21
-44.19892507127612
 72
     1
 10
-17.69371854733956
 20
-44.19892507127612
 11
-14.24744330350228
 21
-44.19892507127612
 72
     1
 10
-14.24744330350228
 20
-44.19892507127612
 11
-7.199006401613195
 21
-35.79892507127613
 97
        0
 75
     0
 76
     1
 98
        1
 10
0.0
 20
0.0
  0
HATCH
  5
FB
330
1F
100
AcDbEntity
  8
중심선
100
AcDbHatch
 10
0.0
 20
0.0
 30
0.0
210
0.0
220
0.0
230
1.0
  2
SOLID
 70
     1
 71
     0
 91
        1
 92
        0
 93
        6
 72
     3
 10
-2.399115970600996
 20
-39.99892507132738
 11
3.960054785062284
 21
1.540850780301639E-10
 40
0.3939339440162633
 50
17.09539180608433
 51
320.0019657685079
 73
     0
 72
     1
 10
-0.7161163149004002
 20
-38.58681907591441
 11
1.589185558800638
 21
-36.65249236586649
 72
     3
 10
-2.399115970653842
 20
-39.99892507127625
 11
6.600054785286829
 21
-1.249000902703301E-13
 40
0.6363583540795982
 50
39.99873849337408
 51
368.4976242363724
 73
     1
 72
     1
 10
4.026216521246767
 20
-39.03892507120613
 11
-3.71904866381792
 21
-39.0389250712061
 72
     1
 10
-3.71904866381792
 20
-39.0389250712061
 11
-3.719073708263854
 21
-40.95892507120602
 72
     1
 10
-3.719073708263854
 20
-40.95892507120602
 11
0.7223060612081835
 21
-40.95892507120599
 97
        0
 75
     0
 76
     1
 98
        1
 10
0.0
 20
0.0
  0
DIMENSION
  5
FC
330
1F
100
AcDbEntity
  8
치수문자_일반주서
100
AcDbDimension
  2
_D
 10
47.60106152311138
 20
1.250000000000048
 30
0.0
 11
47.60106152311135
 21
13.76025000000005
 31
0.0
 70
   160
  1
%%c<>
 71
     2
 42
2.5
 52
-270.0
  3
SLDDIMSTYLE0
100
AcDbAlignedDimension
 13
35.53108891324551
 23
-1.249999999999996
 33
0.0
 14
35.53108891324551
 24
1.250000000000004
 34
0.0
 50
90.0000000000002
100
AcDbRotatedDimension
  0
DIMENSION
  5
10A
330
1F
100
AcDbEntity
  8
치수문자_일반주서
100
AcDbDimension
  2
_D_1
 10
35.53108891324551
 20
24.23841044024269
 30
0.0
 11
5.531088913245454
 21
24.23841044024269
 31
0.0
 70
   160
  1
<>
 71
     2
 42
59.99999999999999
  3
SLDDIMSTYLE1
100
AcDbAlignedDimension
 13
-24.46891108675447
 23
2.449999999999996
 33
0.0
 14
35.53108891324551
 24
1.248943519037062
 34
0.0
 50
-0.0000000000000068
100
AcDbRotatedDimension
  0
DIMENSION
  5
115
330
1F
100
AcDbEntity
  8
치수문자_일반주서
100
AcDbDimension
  2
_D_2
 10
35.53108891324547
 20
14.56223657961189
 30
0.0
 11
22.53108891324566
 21
14.56223657961189
 31
0.0
 70
   160
  1
<>
 71
     2
 42
25.99999999999995
  3
SLDDIMSTYLE1
100
AcDbAlignedDimension
 13
9.531088913245519
 23
1.215238773444486
 33
0.0
 14
35.53108891324547
 24
1.248943519037059
 34
0.0
 50
-0.0000000000005324
100
AcDbRotatedDimension
  0
DIMENSION
  5
11F
330
1F
100
AcDbEntity
  8
치수문자_일반주서
100
AcDbDimension
  2
_D_3
 10
-36.41536910836652
 20
-3.000000000000048
 30
0.0
 11
-36.41536910836658
 21
12.66649999999995
 31
0.0
 70
   160
  1
%%c<>
 71
     2
 42
5.999999999999995
 52
-270.0
  3
SLDDIMSTYLE2
100
AcDbAlignedDimension
 13
-23.91891108675446
 23
2.999999999999996
 33
0.0
 14
-23.91891108675446
 24
-3.0
 34
0.0
 50
90.0000000000002
100
AcDbRotatedDimension
  0
INSERT
  5
133
330
1F
100
AcDbEntity
  8
외형선
100
AcDbBlockReference
  2
SW_DOWELSYMBOL_0
 10
0.0000000000000104
 20
0.0
 30
0.0
  0
ENDSEC
  0
SECTION
  2
OBJECTS
  0
DICTIONARY
  5
C
330
0
100
AcDbDictionary
281
     1
  3
ACAD_GROUP
350
D
  3
ACAD_IMAGE_VARS
350
157
  3
ACAD_LAYOUT
350
1A
  3
ACAD_MLINESTYLE
350
17
  3
ACAD_PLOTSETTINGS
350
19
  3
ACAD_PLOTSTYLENAME
350
E
  3
ACAD_SCALELIST
350
47
  3
APPDATA
350
155
  3
DWGPROPS
350
1AE
  0
DICTIONARY
  5
D
102
{ACAD_REACTORS
330
C
102
}
330
C
100
AcDbDictionary
281
     1
  0
RASTERVARIABLES
  5
157
102
{ACAD_REACTORS
330
C
102
}
330
C
100
AcDbRasterVariables
 90
        0
 70
     1
 71
     1
 72
     1
  0
DICTIONARY
  5
1A
102
{ACAD_REACTORS
330
C
102
}
330
C
100
AcDbDictionary
281
     1
  3
Layout1
350
1E
  3
Layout2
350
26
  3
Model
350
22
  0
DICTIONARY
  5
17
102
{ACAD_REACTORS
330
C
102
}
330
C
100
AcDbDictionary
281
     1
  3
Standard
350
18
  0
DICTIONARY
  5
19
102
{ACAD_REACTORS
330
C
102
}
330
C
100
AcDbDictionary
281
     1
  0
ACDBDICTIONARYWDFLT
  5
E
102
{ACAD_REACTORS
330
C
102
}
330
C
100
AcDbDictionary
281
     1
  3
Normal
350
F
100
AcDbDictionaryWithDefault
340
F
  0
DICTIONARY
  5
47
102
{ACAD_REACTORS
330
C
102
}
330
C
100
AcDbDictionary
281
     1
  3
A0
350
48
  3
A1
350
49
  3
A2
350
4A
  3
A3
350
4B
  3
A4
350
4C
  3
A5
350
4D
  3
A6
350
4E
  3
A7
350
4F
  3
A8
350
50
  3
A9
350
51
  3
B0
350
52
  3
B1
350
53
  3
B2
350
54
  3
B3
350
55
  3
B4
350
56
  3
B5
350
57
  3
B6
350
58
  3
B7
350
59
  3
B8
350
5A
  3
B9
350
5B
  3
C0
350
5C
  3
C1
350
5D
  3
C2
350
5E
  3
C3
350
5F
  3
C4
350
60
  3
C5
350
61
  3
C6
350
62
  3
C7
350
63
  3
C8
350
64
  3
C9
350
65
  3
D0
350
66
  3
D1
350
67
  3
D2
350
68
  0
DICTIONARY
  5
155
102
{ACAD_REACTORS
330
C
102
}
330
C
100
AcDbDictionary
281
     1
  0
XRECORD
  5
1AE
102
{ACAD_REACTORS
330
C
102
}
330
C
100
AcDbXrecord
280
     1
  1
DWGPROPS COOKIE
  2

  3

  4

  6

  7

  8
12014102
  9

300
=
301
=
302
=
303
=
304
=
305
=
306
=
307
=
308
=
309
=
 40
0.0
 41
2458262.161849595
 42
2458264.424176458
  1

 90
        0
  0
LAYOUT
  5
1E
102
{ACAD_REACTORS
330
1A
102
}
330
1A
100
AcDbPlotSettings
  1

  2
none_device
  4

  6

 40
0.0
 41
0.0
 42
0.0
 43
0.0
 44
0.0
 45
0.0
 46
0.0
 47
0.0
 48
0.0
 49
0.0
140
0.0
141
0.0
142
1.0
143
1.0
 70
   688
 72
     1
 73
     0
 74
     5
  7

 75
    16
147
1.0
148
0.0
149
0.0
100
AcDbLayout
  1
Layout1
 70
     1
 71
     1
 10
0.0
 20
0.0
 11
420.0
 21
297.0
 12
0.0
 22
0.0
 32
0.0
 14
1.000000000000000E+20
 24
1.000000000000000E+20
 34
1.000000000000000E+20
 15
-1.000000000000000E+20
 25
-1.000000000000000E+20
 35
-1.000000000000000E+20
146
0.0
 13
0.0
 23
0.0
 33
0.0
 16
1.0
 26
0.0
 36
0.0
 17
0.0
 27
1.0
 37
0.0
 76
     0
330
1B
  0
LAYOUT
  5
26
102
{ACAD_REACTORS
330
1A
102
}
330
1A
100
AcDbPlotSettings
  1

  2
none_device
  4

  6

 40
0.0
 41
0.0
 42
0.0
 43
0.0
 44
0.0
 45
0.0
 46
0.0
 47
0.0
 48
0.0
 49
0.0
140
0.0
141
0.0
142
1.0
143
1.0
 70
   688
 72
     1
 73
     0
 74
     5
  7

 75
    16
147
1.0
148
0.0
149
0.0
100
AcDbLayout
  1
Layout2
 70
     1
 71
     2
 10
0.0
 20
0.0
 11
0.0
 21
0.0
 12
0.0
 22
0.0
 32
0.0
 14
0.0
 24
0.0
 34
0.0
 15
0.0
 25
0.0
 35
0.0
146
0.0
 13
0.0
 23
0.0
 33
0.0
 16
1.0
 26
0.0
 36
0.0
 17
0.0
 27
1.0
 37
0.0
 76
     0
330
23
  0
LAYOUT
  5
22
102
{ACAD_REACTORS
330
1A
102
}
330
1A
100
AcDbPlotSettings
  1

  2
none_device
  4
ANSI_A_(11.00_x_8.50_Inches)
  6

 40
6.35
 41
19.05
 42
6.35000508
 43
19.05000254
 44
279.4
 45
215.9
 46
129.1354061739466
 47
118.4377884955873
 48
0.0
 49
0.0
140
0.0
141
0.0
142
0.1058944507156154
143
1.0
 70
  1696
 72
     0
 73
     0
 74
     0
  7

 75
     0
147
0.0235690232323232
148
0.0
149
0.0
100
AcDbLayout
  1
Model
 70
     1
 71
     0
 10
0.0
 20
0.0
 11
420.0
 21
297.0
 12
0.0
 22
0.0
 32
0.0
 14
-40.79036910836658
 24
-49.97073246008785
 34
0.0
 15
48.15139485644473
 25
28.61341044024269
 35
0.0
146
0.0
 13
0.0
 23
0.0
 33
0.0
 16
1.0
 26
0.0
 36
0.0
 17
0.0
 27
1.0
 37
0.0
 76
     0
330
1F
331
29
  0
MLINESTYLE
  5
18
102
{ACAD_REACTORS
330
17
102
}
330
17
100
AcDbMlineStyle
  2
Standard
 70
     0
  3

 62
   256
 51
90.0
 52
90.0
 71
     2
 49
0.5
 62
   256
  6
BYLAYER
 49
-0.5
 62
   256
  6
BYLAYER
  0
ACDBPLACEHOLDER
  5
F
102
{ACAD_REACTORS
330
E
102
}
330
E
  0
SCALE
  5
48
102
{ACAD_REACTORS
330
47
102
}
330
47
100
AcDbScale
 70
     0
300
1:1
140
1.0
141
1.0
290
     1
  0
SCALE
  5
49
102
{ACAD_REACTORS
330
47
102
}
330
47
100
AcDbScale
 70
     0
300
1:2
140
1.0
141
2.0
290
     0
  0
SCALE
  5
4A
102
{ACAD_REACTORS
330
47
102
}
330
47
100
AcDbScale
 70
     0
300
1:4
140
1.0
141
4.0
290
     0
  0
SCALE
  5
4B
102
{ACAD_REACTORS
330
47
102
}
330
47
100
AcDbScale
 70
     0
300
1:5
140
1.0
141
5.0
290
     0
  0
SCALE
  5
4C
102
{ACAD_REACTORS
330
47
102
}
330
47
100
AcDbScale
 70
     0
300
1:8
140
1.0
141
8.0
290
     0
  0
SCALE
  5
4D
102
{ACAD_REACTORS
330
47
102
}
330
47
100
AcDbScale
 70
     0
300
1:10
140
1.0
141
10.0
290
     0
  0
SCALE
  5
4E
102
{ACAD_REACTORS
330
47
102
}
330
47
100
AcDbScale
 70
     0
300
1:16
140
1.0
141
16.0
290
     0
  0
SCALE
  5
4F
102
{ACAD_REACTORS
330
47
102
}
330
47
100
AcDbScale
 70
     0
300
1:20
140
1.0
141
20.0
290
     0
  0
SCALE
  5
50
102
{ACAD_REACTORS
330
47
102
}
330
47
100
AcDbScale
 70
     0
300
1:30
140
1.0
141
30.0
290
     0
  0
SCALE
  5
51
102
{ACAD_REACTORS
330
47
102
}
330
47
100
AcDbScale
 70
     0
300
1:40
140
1.0
141
40.0
290
     0
  0
SCALE
  5
52
102
{ACAD_REACTORS
330
47
102
}
330
47
100
AcDbScale
 70
     0
300
1:50
140
1.0
141
50.0
290
     0
  0
SCALE
  5
53
102
{ACAD_REACTORS
330
47
102
}
330
47
100
AcDbScale
 70
     0
300
1:100
140
1.0
141
100.0
290
     0
  0
SCALE
  5
54
102
{ACAD_REACTORS
330
47
102
}
330
47
100
AcDbScale
 70
     0
300
2:1
140
2.0
141
1.0
290
     0
  0
SCALE
  5
55
102
{ACAD_REACTORS
330
47
102
}
330
47
100
AcDbScale
 70
     0
300
4:1
140
4.0
141
1.0
290
     0
  0
SCALE
  5
56
102
{ACAD_REACTORS
330
47
102
}
330
47
100
AcDbScale
 70
     0
300
8:1
140
8.0
141
1.0
290
     0
  0
SCALE
  5
57
102
{ACAD_REACTORS
330
47
102
}
330
47
100
AcDbScale
 70
     0
300
10:1
140
10.0
141
1.0
290
     0
  0
SCALE
  5
58
102
{ACAD_REACTORS
330
47
102
}
330
47
100
AcDbScale
 70
     0
300
100:1
140
100.0
141
1.0
290
     0
  0
SCALE
  5
59
102
{ACAD_REACTORS
330
47
102
}
330
47
100
AcDbScale
 70
     0
300
1/128" = 1'-0"
140
0.0078125
141
12.0
290
     0
  0
SCALE
  5
5A
102
{ACAD_REACTORS
330
47
102
}
330
47
100
AcDbScale
 70
     0
300
1/64" = 1'-0"
140
0.015625
141
12.0
290
     0
  0
SCALE
  5
5B
102
{ACAD_REACTORS
330
47
102
}
330
47
100
AcDbScale
 70
     0
300
1/32" = 1'-0"
140
0.03125
141
12.0
290
     0
  0
SCALE
  5
5C
102
{ACAD_REACTORS
330
47
102
}
330
47
100
AcDbScale
 70
     0
300
1/16" = 1'-0"
140
0.0625
141
12.0
290
     0
  0
SCALE
  5
5D
102
{ACAD_REACTORS
330
47
102
}
330
47
100
AcDbScale
 70
     0
300
3/32" = 1'-0"
140
0.09375
141
12.0
290
     0
  0
SCALE
  5
5E
102
{ACAD_REACTORS
330
47
102
}
330
47
100
AcDbScale
 70
     0
300
1/8" = 1'-0"
140
0.125
141
12.0
290
     0
  0
SCALE
  5
5F
102
{ACAD_REACTORS
330
47
102
}
330
47
100
AcDbScale
 70
     0
300
3/16" = 1'-0"
140
0.1875
141
12.0
290
     0
  0
SCALE
  5
60
102
{ACAD_REACTORS
330
47
102
}
330
47
100
AcDbScale
 70
     0
300
1/4" = 1'-0"
140
0.25
141
12.0
290
     0
  0
SCALE
  5
61
102
{ACAD_REACTORS
330
47
102
}
330
47
100
AcDbScale
 70
     0
300
3/8" = 1'-0"
140
0.375
141
12.0
290
     0
  0
SCALE
  5
62
102
{ACAD_REACTORS
330
47
102
}
330
47
100
AcDbScale
 70
     0
300
1/2" = 1'-0"
140
0.5
141
12.0
290
     0
  0
SCALE
  5
63
102
{ACAD_REACTORS
330
47
102
}
330
47
100
AcDbScale
 70
     0
300
3/4" = 1'-0"
140
0.75
141
12.0
290
     0
  0
SCALE
  5
64
102
{ACAD_REACTORS
330
47
102
}
330
47
100
AcDbScale
 70
     0
300
1" = 1'-0"
140
1.0
141
12.0
290
     0
  0
SCALE
  5
65
102
{ACAD_REACTORS
330
47
102
}
330
47
100
AcDbScale
 70
     0
300
1-1/2" = 1'-0"
140
1.5
141
12.0
290
     0
  0
SCALE
  5
66
102
{ACAD_REACTORS
330
47
102
}
330
47
100
AcDbScale
 70
     0
300
3" = 1'-0"
140
3.0
141
12.0
290
     0
  0
SCALE
  5
67
102
{ACAD_REACTORS
330
47
102
}
330
47
100
AcDbScale
 70
     0
300
6" = 1'-0"
140
6.0
141
12.0
290
     0
  0
SCALE
  5
68
102
{ACAD_REACTORS
330
47
102
}
330
47
100
AcDbScale
 70
     0
300
1'-0" = 1'-0"
140
12.0
141
12.0
290
     0
  0
ENDSEC
  0
EOF
