  0
SECTION
  2
HEADER
  9
$ACADVER
  1
AC1015
  9
$ACADMAINTVER
 70
     6
  9
$DWGCODEPAGE
  3
ANSI_949
  9
$INSBASE
 10
0.0
 20
0.0
 30
0.0
  9
$EXTMIN
 10
-62.88136685682093
 20
-49.97073246008785
 30
0.0
  9
$EXTMAX
 10
35.43111686433224
 20
28.61341044024269
 30
0.0
  9
$LIMMIN
 10
0.0
 20
0.0
  9
$LIMMAX
 10
420.0
 20
297.0
  9
$ORTHOMODE
 70
     0
  9
$REGENMODE
 70
     1
  9
$FILLMODE
 70
     1
  9
$QTEXTMODE
 70
     0
  9
$MIRRTEXT
 70
     1
  9
$LTSCALE
 40
1.0
  9
$ATTMODE
 70
     1
  9
$TEXTSIZE
 40
3.5
  9
$TRACEWID
 40
1.0
  9
$TEXTSTYLE
  7
Standard
  9
$CLAYER
  8
0
  9
$CELTYPE
  6
ByLayer
  9
$CECOLOR
 62
   256
  9
$CELTSCALE
 40
1.0
  9
$DISPSILH
 70
     0
  9
$DIMSCALE
 40
1.0
  9
$DIMASZ
 40
3.302
  9
$DIMEXO
 40
1.0
  9
$DIMDLI
 40
3.75
  9
$DIMRND
 40
0.0
  9
$DIMDLE
 40
0.0
  9
$DIMEXE
 40
1.0
  9
$DIMTP
 40
0.0
  9
$DIMTM
 40
0.0
  9
$DIMTXT
 40
3.5
  9
$DIMCEN
 40
2.5
  9
$DIMTSZ
 40
0.0
  9
$DIMTOL
 70
     0
  9
$DIMLIM
 70
     0
  9
$DIMTIH
 70
     1
  9
$DIMTOH
 70
     1
  9
$DIMSE1
 70
     0
  9
$DIMSE2
 70
     0
  9
$DIMTAD
 70
     1
  9
$DIMZIN
 70
     0
  9
$DIMBLK
  1

  9
$DIMASO
 70
     1
  9
$DIMSHO
 70
     1
  9
$DIMPOST
  1

  9
$DIMAPOST
  1

  9
$DIMALT
 70
     0
  9
$DIMALTD
 70
     3
  9
$DIMALTF
 40
0.0393700787401575
  9
$DIMLFAC
 40
1.0
  9
$DIMTOFL
 70
     1
  9
$DIMTVP
 40
0.0
  9
$DIMTIX
 70
     0
  9
$DIMSOXD
 70
     0
  9
$DIMSAH
 70
     0
  9
$DIMBLK1
  1

  9
$DIMBLK2
  1

  9
$DIMSTYLE
  2
ISO-25
  9
$DIMCLRD
 70
     0
  9
$DIMCLRE
 70
     0
  9
$DIMCLRT
 70
     0
  9
$DIMTFAC
 40
1.0
  9
$DIMGAP
 40
1.524
  9
$DIMJUST
 70
     0
  9
$DIMSD1
 70
     0
  9
$DIMSD2
 70
     0
  9
$DIMTOLJ
 70
     0
  9
$DIMTZIN
 70
     0
  9
$DIMALTZ
 70
     0
  9
$DIMALTTZ
 70
     0
  9
$DIMUPT
 70
     0
  9
$DIMDEC
 70
     2
  9
$DIMTDEC
 70
     2
  9
$DIMALTU
 70
     2
  9
$DIMALTTD
 70
     3
  9
$DIMTXSTY
  7
Standard
  9
$DIMAUNIT
 70
     0
  9
$DIMADEC
 70
     2
  9
$DIMALTRND
 40
0.0
  9
$DIMAZIN
 70
     0
  9
$DIMDSEP
 70
    44
  9
$DIMATFIT
 70
     3
  9
$DIMFRAC
 70
     0
  9
$DIMLDRBLK
  1

  9
$DIMLUNIT
 70
     2
  9
$DIMLWD
 70
    -2
  9
$DIMLWE
 70
    -2
  9
$DIMTMOVE
 70
     0
  9
$LUNITS
 70
     2
  9
$LUPREC
 70
     2
  9
$SKETCHINC
 40
1.0
  9
$FILLETRAD
 40
10.0
  9
$AUNITS
 70
     0
  9
$AUPREC
 70
     2
  9
$MENU
  1
.
  9
$ELEVATION
 40
0.0
  9
$PELEVATION
 40
0.0
  9
$THICKNESS
 40
0.0
  9
$LIMCHECK
 70
     0
  9
$CHAMFERA
 40
0.0
  9
$CHAMFERB
 40
0.0
  9
$CHAMFERC
 40
0.0
  9
$CHAMFERD
 40
0.0
  9
$SKPOLY
 70
     0
  9
$TDCREATE
 40
2458262.537412072
  9
$TDUCREATE
 40
2458262.162412072
  9
$TDUPDATE
 40
2458266.366003241
  9
$TDUUPDATE
 40
2458265.991003241
  9
$TDINDWG
 40
0.0031302431
  9
$TDUSRTIMER
 40
2458265.989840729
  9
$USRTIMER
 70
     1
  9
$ANGBASE
 50
0.0
  9
$ANGDIR
 70
     0
  9
$PDMODE
 70
     0
  9
$PDSIZE
 40
-1.0
  9
$PLINEWID
 40
0.0
  9
$SPLFRAME
 70
     0
  9
$SPLINETYPE
 70
     6
  9
$SPLINESEGS
 70
     8
  9
$HANDSEED
  5
171
  9
$SURFTAB1
 70
     6
  9
$SURFTAB2
 70
     6
  9
$SURFTYPE
 70
     6
  9
$SURFU
 70
     6
  9
$SURFV
 70
     6
  9
$UCSBASE
  2

  9
$UCSNAME
  2

  9
$UCSORG
 10
0.0
 20
0.0
 30
0.0
  9
$UCSXDIR
 10
1.0
 20
0.0
 30
0.0
  9
$UCSYDIR
 10
0.0
 20
1.0
 30
0.0
  9
$UCSORTHOREF
  2

  9
$UCSORTHOVIEW
 70
     0
  9
$UCSORGTOP
 10
0.0
 20
0.0
 30
0.0
  9
$UCSORGBOTTOM
 10
0.0
 20
0.0
 30
0.0
  9
$UCSORGLEFT
 10
0.0
 20
0.0
 30
0.0
  9
$UCSORGRIGHT
 10
0.0
 20
0.0
 30
0.0
  9
$UCSORGFRONT
 10
0.0
 20
0.0
 30
0.0
  9
$UCSORGBACK
 10
0.0
 20
0.0
 30
0.0
  9
$PUCSBASE
  2

  9
$PUCSNAME
  2

  9
$PUCSORG
 10
0.0
 20
0.0
 30
0.0
  9
$PUCSXDIR
 10
1.0
 20
0.0
 30
0.0
  9
$PUCSYDIR
 10
0.0
 20
1.0
 30
0.0
  9
$PUCSORTHOREF
  2

  9
$PUCSORTHOVIEW
 70
     0
  9
$PUCSORGTOP
 10
0.0
 20
0.0
 30
0.0
  9
$PUCSORGBOTTOM
 10
0.0
 20
0.0
 30
0.0
  9
$PUCSORGLEFT
 10
0.0
 20
0.0
 30
0.0
  9
$PUCSORGRIGHT
 10
0.0
 20
0.0
 30
0.0
  9
$PUCSORGFRONT
 10
0.0
 20
0.0
 30
0.0
  9
$PUCSORGBACK
 10
0.0
 20
0.0
 30
0.0
  9
$USERI1
 70
     0
  9
$USERI2
 70
     0
  9
$USERI3
 70
     0
  9
$USERI4
 70
     0
  9
$USERI5
 70
     0
  9
$USERR1
 40
0.0
  9
$USERR2
 40
0.0
  9
$USERR3
 40
0.0
  9
$USERR4
 40
0.0
  9
$USERR5
 40
0.0
  9
$WORLDVIEW
 70
     1
  9
$SHADEDGE
 70
     3
  9
$SHADEDIF
 70
    70
  9
$TILEMODE
 70
     1
  9
$MAXACTVP
 70
    64
  9
$PINSBASE
 10
0.0
 20
0.0
 30
0.0
  9
$PLIMCHECK
 70
     0
  9
$PEXTMIN
 10
1.000000000000000E+20
 20
1.000000000000000E+20
 30
1.000000000000000E+20
  9
$PEXTMAX
 10
-1.000000000000000E+20
 20
-1.000000000000000E+20
 30
-1.000000000000000E+20
  9
$PLIMMIN
 10
0.0
 20
0.0
  9
$PLIMMAX
 10
0.0
 20
0.0
  9
$UNITMODE
 70
     0
  9
$VISRETAIN
 70
     1
  9
$PLINEGEN
 70
     0
  9
$PSLTSCALE
 70
     1
  9
$TREEDEPTH
 70
  3020
  9
$CMLSTYLE
  2
Standard
  9
$CMLJUST
 70
     0
  9
$CMLSCALE
 40
20.0
  9
$PROXYGRAPHICS
 70
     1
  9
$MEASUREMENT
 70
     1
  9
$CELWEIGHT
370
    -1
  9
$ENDCAPS
280
     0
  9
$JOINSTYLE
280
     0
  9
$LWDISPLAY
290
     1
  9
$INSUNITS
 70
     4
  9
$HYPERLINKBASE
  1

  9
$STYLESHEET
  1

  9
$XEDIT
290
     1
  9
$CEPSNTYPE
380
     0
  9
$PSTYLEMODE
290
     1
  9
$FINGERPRINTGUID
  2
{C00865C9-9F37-4DD6-B992-5C7EC5C77A31}
  9
$VERSIONGUID
  2
{FAEB1C32-E019-11D5-929B-00C0DF256EC4}
  9
$EXTNAMES
290
     1
  9
$PSVPSCALE
 40
0.0
  9
$OLESTARTUP
290
     0
  0
ENDSEC
  0
SECTION
  2
CLASSES
  0
CLASS
  1
ACDBDICTIONARYWDFLT
  2
AcDbDictionaryWithDefault
  3
ObjectDBX Classes
 90
        0
280
     0
281
     0
  0
CLASS
  1
VISUALSTYLE
  2
AcDbVisualStyle
  3
ObjectDBX Classes
 90
     4095
280
     0
281
     0
  0
CLASS
  1
MATERIAL
  2
AcDbMaterial
  3
ObjectDBX Classes
 90
     1153
280
     0
281
     0
  0
CLASS
  1
SCALE
  2
AcDbScale
  3
ObjectDBX Classes
 90
     1153
280
     0
281
     0
  0
CLASS
  1
SUN
  2
AcDbSun
  3
SCENEOE
 90
     1153
280
     0
281
     0
  0
CLASS
  1
ACDBPLACEHOLDER
  2
AcDbPlaceHolder
  3
ObjectDBX Classes
 90
        0
280
     0
281
     0
  0
CLASS
  1
LAYOUT
  2
AcDbLayout
  3
ObjectDBX Classes
 90
        0
280
     0
281
     0
  0
CLASS
  1
TABLESTYLE
  2
AcDbTableStyle
  3
ObjectDBX Classes
 90
     4095
280
     0
281
     0
  0
CLASS
  1
MLEADERSTYLE
  2
AcDbMLeaderStyle
  3
ACDB_MLEADERSTYLE_CLASS
 90
     4095
280
     0
281
     0
  0
CLASS
  1
RASTERVARIABLES
  2
AcDbRasterVariables
  3
ISM
 90
        0
280
     0
281
     0
  0
ENDSEC
  0
SECTION
  2
TABLES
  0
TABLE
  2
VPORT
  5
8
330
0
100
AcDbSymbolTable
 70
     1
  0
VPORT
  5
29
330
8
100
AcDbSymbolTableRecord
100
AcDbViewportTableRecord
  2
*Active
 70
     0
 10
0.0
 20
0.0
 11
1.0
 21
1.0
 12
-13.72512499624434
 22
-10.67866100992259
 13
0.0
 23
0.0
 14
10.0
 24
10.0
 15
10.0
 25
10.0
 16
0.0
 26
0.0
 36
1.0
 17
0.0
 27
0.0
 37
0.0
 40
87.01316104055608
 41
1.152454780361757
 42
50.0
 43
0.0
 44
0.0
 50
0.0
 51
0.0
 71
    16
 72
  2000
 73
     1
 74
     3
 75
     0
 76
     0
 77
     0
 78
     0
281
     0
 65
     1
110
0.0
120
0.0
130
0.0
111
1.0
121
0.0
131
0.0
112
0.0
122
1.0
132
0.0
 79
     0
146
0.0
  0
ENDTAB
  0
TABLE
  2
LTYPE
  5
5
330
0
100
AcDbSymbolTable
 70
     6
  0
LTYPE
  5
14
330
5
100
AcDbSymbolTableRecord
100
AcDbLinetypeTableRecord
  2
ByBlock
 70
     0
  3

 72
    65
 73
     0
 40
0.0
  0
LTYPE
  5
15
330
5
100
AcDbSymbolTableRecord
100
AcDbLinetypeTableRecord
  2
ByLayer
 70
     0
  3

 72
    65
 73
     0
 40
0.0
  0
LTYPE
  5
16
330
5
100
AcDbSymbolTableRecord
100
AcDbLinetypeTableRecord
  2
Continuous
 70
     0
  3
Solid line
 72
    65
 73
     0
 40
0.0
  0
LTYPE
  5
6A
330
5
100
AcDbSymbolTableRecord
100
AcDbLinetypeTableRecord
  2
HIDDEN
 70
     0
  3
Hidden __ __ __ __ __ __ __ __ __ __ __ __ __ __
 72
    65
 73
     2
 40
1.905
 49
1.27
 74
     0
 49
-0.635
 74
     0
  0
LTYPE
  5
6B
330
5
100
AcDbSymbolTableRecord
100
AcDbLinetypeTableRecord
  2
PHANTOM
 70
     0
  3
Phantom ______  __  __  ______  __  __  ______
 72
    65
 73
     6
 40
12.7
 49
6.35
 74
     0
 49
-1.27
 74
     0
 49
1.27
 74
     0
 49
-1.27
 74
     0
 49
1.27
 74
     0
 49
-1.27
 74
     0
  0
LTYPE
  5
6C
330
5
100
AcDbSymbolTableRecord
100
AcDbLinetypeTableRecord
  2
CENTER
 70
     0
  3
Center ____ _ ____ _ ____ _ ____ _ ____ _ ____
 72
    65
 73
     4
 40
10.16
 49
6.35
 74
     0
 49
-1.27
 74
     0
 49
1.27
 74
     0
 49
-1.27
 74
     0
  0
LTYPE
  5
6D
330
5
100
AcDbSymbolTableRecord
100
AcDbLinetypeTableRecord
  2
CENTERX2
 70
     0
  3
Center (2x) ________  __  ________  __  _____
 72
    65
 73
     4
 40
20.32
 49
12.7
 74
     0
 49
-2.54
 74
     0
 49
2.54
 74
     0
 49
-2.54
 74
     0
  0
LTYPE
  5
6E
330
5
100
AcDbSymbolTableRecord
100
AcDbLinetypeTableRecord
  2
DOT2
 70
     0
  3
Dot (.5x) ........................................
 72
    65
 73
     2
 40
0.635
 49
0.0
 74
     0
 49
-0.635
 74
     0
  0
ENDTAB
  0
TABLE
  2
LAYER
  5
2
330
0
100
AcDbSymbolTable
 70
    17
  0
LAYER
  5
10
330
2
100
AcDbSymbolTableRecord
100
AcDbLayerTableRecord
  2
0
 70
     0
 62
     7
  6
Continuous
370
    -3
390
F
  0
LAYER
  5
6F
330
2
100
AcDbSymbolTableRecord
100
AcDbLayerTableRecord
  2
FORMAT
 70
     0
 62
     2
  6
Continuous
370
    -3
390
F
  0
LAYER
  5
70
330
2
100
AcDbSymbolTableRecord
100
AcDbLayerTableRecord
  2
외형선
 70
     0
 62
   100
  6
Continuous
370
    30
390
F
  0
LAYER
  5
71
330
2
100
AcDbSymbolTableRecord
100
AcDbLayerTableRecord
  2
숨은선
 70
     0
 62
     2
  6
HIDDEN
370
    15
390
F
  0
LAYER
  5
72
330
2
100
AcDbSymbolTableRecord
100
AcDbLayerTableRecord
  2
중심선
 70
     0
 62
     1
  6
CENTERX2
370
    -3
390
F
  0
LAYER
  5
73
330
2
100
AcDbSymbolTableRecord
100
AcDbLayerTableRecord
  2
파단선
 70
     0
 62
     4
  6
Continuous
370
    -3
390
F
  0
LAYER
  5
74
330
2
100
AcDbSymbolTableRecord
100
AcDbLayerTableRecord
  2
해칭선
 70
     0
 62
     4
  6
Continuous
370
    -3
390
F
  0
LAYER
  5
75
330
2
100
AcDbSymbolTableRecord
100
AcDbLayerTableRecord
  2
가는실선
 70
     0
 62
     4
  6
Continuous
370
    -3
390
F
  0
LAYER
  5
76
330
2
100
AcDbSymbolTableRecord
100
AcDbLayerTableRecord
  2
치수_보조선
 70
     0
 62
     4
  6
Continuous
370
    -3
390
F
  0
LAYER
  5
77
330
2
100
AcDbSymbolTableRecord
100
AcDbLayerTableRecord
  2
치수문자_일반주서
 70
     0
 62
     7
  6
Continuous
370
    15
390
F
  0
LAYER
  5
78
330
2
100
AcDbSymbolTableRecord
100
AcDbLayerTableRecord
  2
개별주서
 70
     0
 62
   100
  6
Continuous
370
    30
390
F
  0
LAYER
  5
79
330
2
100
AcDbSymbolTableRecord
100
AcDbLayerTableRecord
  2
중간선
 70
     0
 62
     2
  6
Continuous
370
    15
390
F
  0
LAYER
  5
7A
330
2
100
AcDbSymbolTableRecord
100
AcDbLayerTableRecord
  2
윤곽선
 70
     0
 62
     3
  6
Continuous
370
    40
390
F
  0
LAYER
  5
7B
330
2
100
AcDbSymbolTableRecord
100
AcDbLayerTableRecord
  2
중심마크
 70
     0
 62
   100
  6
Continuous
370
    30
390
F
  0
LAYER
  5
7C
330
2
100
AcDbSymbolTableRecord
100
AcDbLayerTableRecord
  2
가상선
 70
     0
 62
     4
  6
PHANTOM
370
    -3
390
F
  0
LAYER
  5
7D
330
2
100
AcDbSymbolTableRecord
100
AcDbLayerTableRecord
  2
특수지정선
 70
     0
 62
     5
  6
CENTERX2
370
    60
390
F
  0
LAYER
  5
13F
330
2
100
AcDbSymbolTableRecord
100
AcDbLayerTableRecord
  2
Defpoints
 70
     0
 62
     7
  6
Continuous
290
     0
370
    -3
390
F
  0
ENDTAB
  0
TABLE
  2
STYLE
  5
3
330
0
100
AcDbSymbolTable
 70
     2
  0
STYLE
  5
11
330
3
100
AcDbSymbolTableRecord
100
AcDbTextStyleTableRecord
  2
Standard
 70
     0
 40
0.0
 41
1.0
 50
0.0
 71
     0
 42
3.5
  3
txt
  4

  0
STYLE
  5
93
330
3
100
AcDbSymbolTableRecord
100
AcDbTextStyleTableRecord
  2
SLDTEXTSTYLE0
 70
     0
 40
0.0
 41
0.75
 50
0.0
 71
     0
 42
3.5
  3
TXT
  4

  0
ENDTAB
  0
TABLE
  2
VIEW
  5
6
330
0
100
AcDbSymbolTable
 70
     0
  0
ENDTAB
  0
TABLE
  2
UCS
  5
7
330
0
100
AcDbSymbolTable
 70
     0
  0
ENDTAB
  0
TABLE
  2
APPID
  5
9
330
0
100
AcDbSymbolTable
 70
     1
  0
APPID
  5
12
330
9
100
AcDbSymbolTableRecord
100
AcDbRegAppTableRecord
  2
ACAD
 70
     0
  0
ENDTAB
  0
TABLE
  2
DIMSTYLE
  5
A
330
0
100
AcDbSymbolTable
 70
     3
100
AcDbDimStyleTable
  0
DIMSTYLE
105
27
330
A
100
AcDbSymbolTableRecord
100
AcDbDimStyleTableRecord
  2
ISO-25
 70
     0
 41
2.5
 42
0.625
 43
3.75
 44
1.25
 73
     0
 74
     0
 77
     1
 78
     8
140
2.5
141
2.5
143
0.03937007874016
147
0.625
171
     3
172
     1
178
     0
271
     2
272
     2
274
     3
278
    44
283
     0
284
     8
340
11
  0
DIMSTYLE
105
E3
102
{ACAD_REACTORS
330
E2
330
FB
330
107
102
}
330
A
100
AcDbSymbolTableRecord
100
AcDbDimStyleTableRecord
  2
SLDDIMSTYLE0
 70
     0
 41
3.302
 44
0.0
 45
0.000000001
 73
     0
 74
     0
 77
     1
 78
    12
 79
     3
140
3.5
147
0.875
172
     1
173
     1
178
     0
271
     2
272
     2
276
     2
284
    12
289
     0
340
93
  0
DIMSTYLE
105
F1
102
{ACAD_REACTORS
330
F0
102
}
330
A
100
AcDbSymbolTableRecord
100
AcDbDimStyleTableRecord
  2
SLDDIMSTYLE1
 70
     0
 41
3.302
 44
0.0
 45
0.000000001
 73
     0
 74
     0
 77
     1
 78
    12
 79
     3
140
3.5
147
0.875
173
     1
178
     0
271
     2
272
     2
276
     2
284
    12
340
93
  0
ENDTAB
  0
TABLE
  2
BLOCK_RECORD
  5
1
330
0
100
AcDbSymbolTable
 70
     7
  0
BLOCK_RECORD
  5
1F
330
1
100
AcDbSymbolTableRecord
100
AcDbBlockTableRecord
  2
*Model_Space
340
22
  0
BLOCK_RECORD
  5
1B
330
1
100
AcDbSymbolTableRecord
100
AcDbBlockTableRecord
  2
*Paper_Space
340
1E
  0
BLOCK_RECORD
  5
23
330
1
100
AcDbSymbolTableRecord
100
AcDbBlockTableRecord
  2
*Paper_Space0
340
26
  0
BLOCK_RECORD
  5
7E
330
1
100
AcDbSymbolTableRecord
100
AcDbBlockTableRecord
  2
블럭10
340
0
102
{BLKREFS
331
DB
102
}
  0
BLOCK_RECORD
  5
E4
330
1
100
AcDbSymbolTableRecord
100
AcDbBlockTableRecord
  2
_D
340
0
  0
BLOCK_RECORD
  5
F2
330
1
100
AcDbSymbolTableRecord
100
AcDbBlockTableRecord
  2
_D_1
340
0
  0
BLOCK_RECORD
  5
FC
330
1
100
AcDbSymbolTableRecord
100
AcDbBlockTableRecord
  2
_D_2
340
0
  0
BLOCK_RECORD
  5
108
330
1
100
AcDbSymbolTableRecord
100
AcDbBlockTableRecord
  2
_D_3
340
0
  0
BLOCK_RECORD
  5
114
330
1
100
AcDbSymbolTableRecord
100
AcDbBlockTableRecord
  2
SW_DOWELSYMBOL_0
340
0
102
{BLKREFS
331
11A
102
}
  0
ENDTAB
  0
ENDSEC
  0
SECTION
  2
BLOCKS
  0
BLOCK
  5
20
330
1F
100
AcDbEntity
  8
0
100
AcDbBlockBegin
  2
*Model_Space
 70
     0
 10
0.0
 20
0.0
 30
0.0
  3
*Model_Space
  1

  0
ENDBLK
  5
21
330
1F
100
AcDbEntity
  8
0
100
AcDbBlockEnd
  0
BLOCK
  5
1C
330
1B
100
AcDbEntity
 67
     1
  8
0
100
AcDbBlockBegin
  2
*Paper_Space
 70
     0
 10
0.0
 20
0.0
 30
0.0
  3
*Paper_Space
  1

  0
ENDBLK
  5
1D
330
1B
100
AcDbEntity
 67
     1
  8
0
100
AcDbBlockEnd
  0
BLOCK
  5
24
330
23
100
AcDbEntity
  8
0
100
AcDbBlockBegin
  2
*Paper_Space0
 70
     0
 10
0.0
 20
0.0
 30
0.0
  3
*Paper_Space0
  1

  0
ENDBLK
  5
25
330
23
100
AcDbEntity
  8
0
100
AcDbBlockEnd
  0
BLOCK
  5
7F
330
7E
100
AcDbEntity
  8
0
100
AcDbBlockBegin
  2
블럭10
 70
     2
 10
0.0
 20
0.0
 30
0.0
  3
블럭10
  1

  0
ELLIPSE
  5
81
330
7E
100
AcDbEntity
  8
중심선
100
AcDbEllipse
 10
20.54032771741204
 20
12.0471743016438
 30
0.0
 11
6.600054785286829
 21
-1.261213355974178E-13
 31
0.0
210
0.0
220
0.0
230
1.0
 40
0.636358354079598
 41
0.9219305317359503
 42
6.513795318482858
  0
ELLIPSE
  5
82
330
7E
100
AcDbEntity
  8
중심선
100
AcDbEllipse
 10
20.54032771746488
 20
12.04717430159265
 30
0.0
 11
3.960054785062283
 21
1.540847449632565E-10
 31
0.0
210
0.0
220
0.0
230
1.0
 40
0.3939339440162632
 41
1.131841032648279
 42
5.62031148352944
  0
LINE
  5
83
330
7E
100
AcDbEntity
  8
중심선
100
AcDbLine
 10
2.268634060543552
 20
16.24717430164393
 30
0.0
 11
5.714909304380834
 21
16.24717430164393
 31
0.0
  0
LINE
  5
84
330
7E
100
AcDbEntity
  8
중심선
100
AcDbLine
 10
5.245725140726316
 20
7.84717430164391
 30
0.0
 11
8.692000384563599
 21
7.84717430164391
 31
0.0
  0
LINE
  5
85
330
7E
100
AcDbEntity
  8
중심선
100
AcDbLine
 10
15.74043728645272
 20
16.24717430164393
 30
0.0
 11
8.692000384563599
 21
7.84717430164391
 31
0.0
  0
LINE
  5
86
330
7E
100
AcDbEntity
  8
중심선
100
AcDbLine
 10
0.1404042013395286
 20
13.71084872107135
 30
0.0
 11
3.58671253028996
 21
13.71088815037384
 31
0.0
  0
LINE
  5
87
330
7E
100
AcDbEntity
  8
중심선
100
AcDbLine
 10
2.750260043222114
 20
10.84717430164391
 30
0.0
 11
6.196535287059397
 21
10.84717430164391
 31
0.0
  0
LINE
  5
88
330
7E
100
AcDbEntity
  8
중심선
100
AcDbLine
 10
12.29416204261559
 20
16.24717430164393
 30
0.0
 11
5.245725140726316
 21
7.84717430164391
 31
0.0
  0
LINE
  5
89
330
7E
100
AcDbEntity
  8
중심선
100
AcDbLine
 10
10.72767329541681
 20
16.24717430164393
 30
0.0
 11
6.196535287059397
 21
10.84717430164391
 31
0.0
  0
LINE
  5
8A
330
7E
100
AcDbEntity
  8
중심선
100
AcDbLine
 10
7.28139805157953
 20
16.24717430164393
 30
0.0
 11
2.750260043222114
 21
10.84717430164391
 31
0.0
  0
LINE
  5
8B
330
7E
100
AcDbEntity
  8
중심선
100
AcDbLine
 10
5.714909304380834
 20
16.24717430164393
 30
0.0
 11
3.58671253028996
 21
13.71088815037384
 31
0.0
  0
LINE
  5
8C
330
7E
100
AcDbEntity
  8
중심선
100
AcDbLine
 10
2.268634060543552
 20
16.24717430164393
 30
0.0
 11
0.1404042013395286
 21
13.71084872107135
 31
0.0
  0
LINE
  5
8D
330
7E
100
AcDbEntity
  8
중심선
100
AcDbLine
 10
7.28139805157953
 20
16.24717430164393
 30
0.0
 11
10.72767329541681
 21
16.24717430164393
 31
0.0
  0
LINE
  5
8E
330
7E
100
AcDbEntity
  8
중심선
100
AcDbLine
 10
12.29416204261559
 20
16.24717430164393
 30
0.0
 11
15.74043728645272
 21
16.24717430164393
 31
0.0
  0
LINE
  5
8F
330
7E
100
AcDbEntity
  8
중심선
100
AcDbLine
 10
19.22036997980202
 20
11.08717430171403
 30
0.0
 11
23.66174974927406
 21
11.08717430171406
 31
0.0
  0
LINE
  5
90
330
7E
100
AcDbEntity
  8
중심선
100
AcDbLine
 10
19.22039502424796
 20
13.00717430171391
 30
0.0
 11
19.22036997980202
 21
11.08717430171403
 31
0.0
  0
LINE
  5
91
330
7E
100
AcDbEntity
  8
중심선
100
AcDbLine
 10
19.22039502424796
 20
13.00717430171391
 30
0.0
 11
26.96566020931264
 21
13.00717430171391
 31
0.0
  0
LINE
  5
92
330
7E
100
AcDbEntity
  8
중심선
100
AcDbLine
 10
22.22332737316547
 20
13.45928029700563
 30
0.0
 11
24.52862924686651
 21
15.39360700705356
 31
0.0
  0
ATTDEF
  5
94
330
7E
100
AcDbEntity
  8
FORMAT
 62
     2
100
AcDbText
 10
-16.11926103943555
 20
2.075366912832191
 30
0.0
 40
4.233333333333333
  1
SEME7003014E [ 2 FLUTE ]
 41
0.75
  7
SLDTEXTSTYLE0
 11
-16.11926103943555
 21
-0.0412997538344756
 31
0.0
100
AcDbAttributeDefinition
  3

  2
AUTOATTR0
 70
     0
 74
     1
  0
ENDBLK
  5
80
330
7E
100
AcDbEntity
  8
0
100
AcDbBlockEnd
  0
BLOCK
  5
E5
330
E4
100
AcDbEntity
  8
0
100
AcDbBlockBegin
  2
_D
 70
     0
 10
0.0
 20
0.0
 30
0.0
  3
_D
  1

  0
LINE
  5
E7
330
E4
100
AcDbEntity
  8
치수문자_일반주서
 62
     0
370
    -2
100
AcDbLine
 10
22.66070810929896
 20
-1.500200555342612
 30
0.0
 11
34.8807835309989
 21
-1.500200555342566
 31
0.0
  0
LINE
  5
E8
330
E4
100
AcDbEntity
  8
치수문자_일반주서
 62
     0
370
    -2
100
AcDbLine
 10
22.6605762113533
 20
1.500000000000048
 30
0.0
 11
34.8807835309989
 21
1.500000000000094
 31
0.0
  0
LINE
  5
E9
330
E4
100
AcDbEntity
  8
치수문자_일반주서
 62
     0
370
    -2
100
AcDbLine
 10
34.8807835309989
 20
-1.500200555342566
 30
0.0
 11
34.88078353099887
 21
14.22900000000009
 31
0.0
  0
LINE
  5
EA
330
E4
100
AcDbEntity
  8
치수문자_일반주서
 62
     0
370
    -2
100
AcDbLine
 10
34.8807835309989
 20
-1.500200555342566
 30
0.0
 11
34.8807835309989
 21
1.500000000000094
 31
0.0
  0
LINE
  5
EB
330
E4
100
AcDbEntity
  8
치수문자_일반주서
 62
     0
370
    -2
100
AcDbLine
 10
34.88078353099891
 20
-4.802200555342566
 30
0.0
 11
34.88078353099892
 21
-8.104200555342565
 31
0.0
  0
LINE
  5
EC
330
E4
100
AcDbEntity
  8
치수문자_일반주서
 62
     0
370
    -2
100
AcDbLine
 10
34.88078353099889
 20
4.802000000000094
 30
0.0
 11
34.88078353099888
 21
8.104000000000093
 31
0.0
  0
SOLID
  5
ED
330
E4
100
AcDbEntity
  8
치수문자_일반주서
 62
     0
100
AcDbTrace
 10
35.43111686433225
 20
-4.802200555342565
 30
0.0
 11
34.33045019766558
 21
-4.802200555342567
 31
0.0
 12
34.8807835309989
 22
-1.500200555342566
 32
0.0
 13
34.8807835309989
 23
-1.500200555342566
 33
0.0
  0
SOLID
  5
EE
330
E4
100
AcDbEntity
  8
치수문자_일반주서
 62
     0
100
AcDbTrace
 10
34.33045019766556
 20
4.802000000000093
 30
0.0
 11
35.43111686433222
 21
4.802000000000095
 31
0.0
 12
34.8807835309989
 22
1.500000000000094
 32
0.0
 13
34.8807835309989
 23
1.500000000000094
 33
0.0
  0
MTEXT
  5
EF
330
E4
100
AcDbEntity
  8
치수문자_일반주서
 62
     0
100
AcDbMText
 10
30.50578353099888
 20
11.16650000000008
 30
0.0
 40
3.5
 41
0.0
 71
     2
 72
     1
  1
\A1;%%c3
  7
SLDTEXTSTYLE0
 11
-2.368317459627119E-15
 21
1.0
 31
0.0
 73
     1
 44
1.0
  0
POINT
  5
144
330
E4
100
AcDbEntity
  8
Defpoints
 62
     0
100
AcDbPoint
 10
22.59820810929896
 20
-1.500200555342612
 30
0.0
  0
POINT
  5
145
330
E4
100
AcDbEntity
  8
Defpoints
 62
     0
100
AcDbPoint
 10
22.5980762113533
 20
1.500000000000048
 30
0.0
  0
POINT
  5
146
330
E4
100
AcDbEntity
  8
Defpoints
 62
     0
100
AcDbPoint
 10
34.8807835309989
 20
1.500000000000094
 30
0.0
  0
ENDBLK
  5
E6
330
E4
100
AcDbEntity
  8
0
100
AcDbBlockEnd
  0
BLOCK
  5
F3
330
F2
100
AcDbEntity
  8
0
100
AcDbBlockBegin
  2
_D_1
 70
     0
 10
0.0
 20
0.0
 30
0.0
  3
_D_1
  1

  0
LINE
  5
F5
330
F2
100
AcDbEntity
  8
치수문자_일반주서
 62
     0
370
    -2
100
AcDbLine
 10
-47.40192378864671
 20
2.512499999999993
 30
0.0
 11
-47.4019237886467
 21
24.23841044024269
 31
0.0
  0
LINE
  5
F6
330
F2
100
AcDbEntity
  8
치수문자_일반주서
 62
     0
370
    -2
100
AcDbLine
 10
22.5980762113533
 20
1.562500000000048
 30
0.0
 11
22.59807621135331
 21
24.23841044024269
 31
0.0
  0
LINE
  5
F7
330
F2
100
AcDbEntity
  8
치수문자_일반주서
 62
     0
370
    -2
100
AcDbLine
 10
-44.0999237886467
 20
24.23841044024269
 30
0.0
 11
19.29607621135331
 21
24.23841044024269
 31
0.0
  0
SOLID
  5
F8
330
F2
100
AcDbEntity
  8
치수문자_일반주서
 62
     0
100
AcDbTrace
 10
-44.0999237886467
 20
24.78874377357602
 30
0.0
 11
-44.0999237886467
 21
23.68807710690935
 31
0.0
 12
-47.4019237886467
 22
24.23841044024269
 32
0.0
 13
-47.4019237886467
 23
24.23841044024269
 33
0.0
  0
SOLID
  5
F9
330
F2
100
AcDbEntity
  8
치수문자_일반주서
 62
     0
100
AcDbTrace
 10
19.29607621135331
 20
23.68807710690935
 30
0.0
 11
19.29607621135331
 21
24.78874377357602
 31
0.0
 12
22.59807621135331
 22
24.23841044024269
 32
0.0
 13
22.59807621135331
 23
24.23841044024269
 33
0.0
  0
MTEXT
  5
FA
330
F2
100
AcDbEntity
  8
치수문자_일반주서
 62
     0
100
AcDbMText
 10
-12.4019237886467
 20
28.61341044024269
 30
0.0
 40
3.5
 41
0.0
 71
     2
 72
     1
  1
\A1;70
  7
SLDTEXTSTYLE0
 73
     1
 44
1.0
  0
POINT
  5
140
330
F2
100
AcDbEntity
  8
Defpoints
 62
     0
100
AcDbPoint
 10
-47.40192378864671
 20
2.449999999999993
 30
0.0
  0
POINT
  5
141
330
F2
100
AcDbEntity
  8
Defpoints
 62
     0
100
AcDbPoint
 10
22.5980762113533
 20
1.500000000000048
 30
0.0
  0
POINT
  5
142
330
F2
100
AcDbEntity
  8
Defpoints
 62
     0
100
AcDbPoint
 10
22.5980762113533
 20
24.23841044024269
 30
0.0
  0
ENDBLK
  5
F4
330
F2
100
AcDbEntity
  8
0
100
AcDbBlockEnd
  0
BLOCK
  5
FD
330
FC
100
AcDbEntity
  8
0
100
AcDbBlockBegin
  2
_D_2
 70
     0
 10
0.0
 20
0.0
 30
0.0
  3
_D_2
  1

  0
LINE
  5
FF
330
FC
100
AcDbEntity
  8
치수문자_일반주서
 62
     0
370
    -2
100
AcDbLine
 10
8.5980762113533
 20
1.322479436355579
 30
0.0
 11
8.5980762113533
 21
14.6069772425231
 31
0.0
  0
LINE
  5
100
330
FC
100
AcDbEntity
  8
치수문자_일반주서
 62
     0
370
    -2
100
AcDbLine
 10
22.5980762113533
 20
1.562500000000048
 30
0.0
 11
22.5980762113533
 21
14.6069772425231
 31
0.0
  0
LINE
  5
101
330
FC
100
AcDbEntity
  8
치수문자_일반주서
 62
     0
370
    -2
100
AcDbLine
 10
11.9000762113533
 20
14.6069772425231
 30
0.0
 11
19.2960762113533
 21
14.6069772425231
 31
0.0
  0
SOLID
  5
102
330
FC
100
AcDbEntity
  8
치수문자_일반주서
 62
     0
100
AcDbTrace
 10
11.9000762113533
 20
15.15731057585643
 30
0.0
 11
11.9000762113533
 21
14.05664390918977
 31
0.0
 12
8.5980762113533
 22
14.6069772425231
 32
0.0
 13
8.5980762113533
 23
14.6069772425231
 33
0.0
  0
SOLID
  5
103
330
FC
100
AcDbEntity
  8
치수문자_일반주서
 62
     0
100
AcDbTrace
 10
19.2960762113533
 20
14.05664390918977
 30
0.0
 11
19.2960762113533
 21
15.15731057585643
 31
0.0
 12
22.5980762113533
 22
14.6069772425231
 32
0.0
 13
22.5980762113533
 23
14.6069772425231
 33
0.0
  0
MTEXT
  5
104
330
FC
100
AcDbEntity
  8
치수문자_일반주서
 62
     0
100
AcDbMText
 10
15.5980762113533
 20
18.9819772425231
 30
0.0
 40
3.5
 41
0.0
 71
     2
 72
     1
  1
\A1;14
  7
SLDTEXTSTYLE0
 73
     1
 44
1.0
  0
POINT
  5
105
330
FC
100
AcDbEntity
  8
Defpoints
 62
     0
100
AcDbPoint
 10
8.5980762113533
 20
1.259979436355579
 30
0.0
  0
POINT
  5
106
330
FC
100
AcDbEntity
  8
Defpoints
 62
     0
100
AcDbPoint
 10
22.5980762113533
 20
1.500000000000048
 30
0.0
  0
POINT
  5
143
330
FC
100
AcDbEntity
  8
Defpoints
 62
     0
100
AcDbPoint
 10
22.5980762113533
 20
14.6069772425231
 30
0.0
  0
ENDBLK
  5
FE
330
FC
100
AcDbEntity
  8
0
100
AcDbBlockEnd
  0
BLOCK
  5
109
330
108
100
AcDbEntity
  8
0
100
AcDbBlockBegin
  2
_D_3
 70
     0
 10
0.0
 20
0.0
 30
0.0
  3
_D_3
  1

  0
LINE
  5
10B
330
108
100
AcDbEntity
  8
치수문자_일반주서
 62
     0
370
    -2
100
AcDbLine
 10
-46.9144237886467
 20
2.999999999999992
 30
0.0
 11
-58.50636685682089
 21
2.999999999999948
 31
0.0
  0
LINE
  5
10C
330
108
100
AcDbEntity
  8
치수문자_일반주서
 62
     0
370
    -2
100
AcDbLine
 10
-46.9144237886467
 20
-3.0
 30
0.0
 11
-58.50636685682087
 21
-3.000000000000044
 31
0.0
  0
LINE
  5
10D
330
108
100
AcDbEntity
  8
치수문자_일반주서
 62
     0
370
    -2
100
AcDbLine
 10
-58.50636685682089
 20
2.999999999999948
 30
0.0
 11
-58.50636685682094
 21
15.72899999999995
 31
0.0
  0
LINE
  5
10E
330
108
100
AcDbEntity
  8
치수문자_일반주서
 62
     0
370
    -2
100
AcDbLine
 10
-58.50636685682089
 20
2.999999999999948
 30
0.0
 11
-58.50636685682087
 21
-3.000000000000044
 31
0.0
  0
LINE
  5
10F
330
108
100
AcDbEntity
  8
치수문자_일반주서
 62
     0
370
    -2
100
AcDbLine
 10
-58.5063668568209
 20
6.301999999999948
 30
0.0
 11
-58.50636685682092
 21
9.603999999999948
 31
0.0
  0
LINE
  5
110
330
108
100
AcDbEntity
  8
치수문자_일반주서
 62
     0
370
    -2
100
AcDbLine
 10
-58.50636685682085
 20
-6.302000000000044
 30
0.0
 11
-58.50636685682084
 21
-9.604000000000044
 31
0.0
  0
SOLID
  5
111
330
108
100
AcDbEntity
  8
치수문자_일반주서
 62
     0
100
AcDbTrace
 10
-59.05670019015424
 20
6.301999999999946
 30
0.0
 11
-57.95603352348757
 21
6.30199999999995
 31
0.0
 12
-58.50636685682089
 22
2.999999999999948
 32
0.0
 13
-58.50636685682089
 23
2.999999999999948
 33
0.0
  0
SOLID
  5
112
330
108
100
AcDbEntity
  8
치수문자_일반주서
 62
     0
100
AcDbTrace
 10
-57.95603352348752
 20
-6.302000000000042
 30
0.0
 11
-59.05670019015419
 21
-6.302000000000046
 31
0.0
 12
-58.50636685682087
 22
-3.000000000000044
 32
0.0
 13
-58.50636685682087
 23
-3.000000000000044
 33
0.0
  0
MTEXT
  5
113
330
108
100
AcDbEntity
  8
치수문자_일반주서
 62
     0
100
AcDbMText
 10
-62.88136685682093
 20
12.66649999999993
 30
0.0
 40
3.5
 41
0.0
 71
     2
 72
     1
  1
\A1;%%c6
  7
SLDTEXTSTYLE0
 11
-3.552713678800506E-15
 21
1.0
 31
0.0
 73
     1
 44
1.0
  0
POINT
  5
147
330
108
100
AcDbEntity
  8
Defpoints
 62
     0
100
AcDbPoint
 10
-46.8519237886467
 20
2.999999999999993
 30
0.0
  0
POINT
  5
148
330
108
100
AcDbEntity
  8
Defpoints
 62
     0
100
AcDbPoint
 10
-46.8519237886467
 20
-3.0
 30
0.0
  0
POINT
  5
149
330
108
100
AcDbEntity
  8
Defpoints
 62
     0
100
AcDbPoint
 10
-58.50636685682087
 20
-3.000000000000043
 30
0.0
  0
ENDBLK
  5
10A
330
108
100
AcDbEntity
  8
0
100
AcDbBlockEnd
  0
BLOCK
  5
115
330
114
100
AcDbEntity
  8
0
100
AcDbBlockBegin
  2
SW_DOWELSYMBOL_0
 70
     0
 10
0.0
 20
0.0
 30
0.0
  3
SW_DOWELSYMBOL_0
  1

  0
CIRCLE
  5
117
330
114
100
AcDbEntity
  8
외형선
 62
     0
100
AcDbCircle
 10
0.0
 20
0.0
 30
0.0
 40
3.000000000000004
  0
HATCH
  5
118
330
114
100
AcDbEntity
  8
0
  6
Continuous
 62
     0
370
    30
100
AcDbHatch
 10
0.0
 20
0.0
 30
0.0
210
0.0
220
0.0
230
1.0
  2
SOLID
 70
     1
 71
     0
 91
        1
 92
        0
 93
        3
 72
     2
 10
0.0000000000000104
 20
0.0
 40
3.000000000000004
 50
0.0
 51
90.0
 73
     1
 72
     1
 10
0.0000000000000104
 20
3.000000000000004
 11
0.0000000000000104
 21
0.0
 72
     1
 10
0.0000000000000104
 20
0.0
 11
3.000000000000015
 21
0.0
 97
        0
 75
     0
 76
     1
 98
        1
 10
0.0
 20
0.0
  0
HATCH
  5
119
330
114
100
AcDbEntity
  8
0
  6
Continuous
 62
     0
370
    30
100
AcDbHatch
 10
0.0
 20
0.0
 30
0.0
210
0.0
220
0.0
230
1.0
  2
SOLID
 70
     1
 71
     0
 91
        1
 92
        0
 93
        3
 72
     2
 10
0.0000000000000104
 20
0.0
 40
3.000000000000004
 50
180.0
 51
270.0000000000007
 73
     1
 72
     1
 10
0.0000000000000104
 20
-3.000000000000004
 11
0.0000000000000104
 21
0.0
 72
     1
 10
0.0000000000000104
 20
0.0
 11
-2.999999999999994
 21
0.0
 97
        0
 75
     0
 76
     1
 98
        1
 10
0.0
 20
0.0
  0
ENDBLK
  5
116
330
114
100
AcDbEntity
  8
0
100
AcDbBlockEnd
  0
ENDSEC
  0
SECTION
  2
ENTITIES
  0
SPLINE
  5
95
330
1F
100
AcDbEntity
  8
0
  6
Continuous
 62
     1
370
    15
100
AcDbSpline
210
0.0
220
0.0
230
1.0
 70
     8
 71
     3
 72
     9
 73
     5
 74
     0
 42
0.000000001
 43
0.00000001
 40
0.0
 40
0.0
 40
0.0
 40
0.0
 40
0.5000136050871105
 40
1.0
 40
1.0
 40
1.0
 40
1.0
 10
10.55132888374405
 20
0.3840434168991879
 30
0.0
 10
10.48142826433944
 20
0.4172224425833325
 30
0.0
 10
10.34163082944277
 20
0.483578688386613
 30
0.0
 10
10.20195035192589
 20
0.5564684123063134
 30
0.0
 10
10.13211201353251
 20
0.5929122825951202
 30
0.0
  0
SPLINE
  5
96
330
1F
100
AcDbEntity
  8
0
  6
Continuous
 62
     1
370
    15
100
AcDbSpline
210
0.0
220
0.0
230
1.0
 70
     8
 71
     3
 72
     9
 73
     5
 74
     0
 42
0.000000001
 43
0.00000001
 40
0.0
 40
0.0
 40
0.0
 40
0.0
 40
0.5000238831589252
 40
1.0
 40
1.0
 40
1.0
 40
1.0
 10
18.71294972744528
 20
0.3842657943424642
 30
0.0
 10
18.64327171900133
 20
0.417342335957533
 30
0.0
 10
18.50392235831928
 20
0.4834922594493992
 30
0.0
 10
18.36467877513964
 20
0.5561395801641763
 30
0.0
 10
18.29506030912645
 20
0.592461505474059
 30
0.0
  0
LINE
  5
97
330
1F
100
AcDbEntity
  8
0
  6
Continuous
 62
     1
370
    15
100
AcDbLine
 10
9.88170158687983
 20
0.3361322736347778
 30
0.0
 11
9.705791820141277
 21
0.4308145422339349
 31
0.0
  0
LINE
  5
98
330
1F
100
AcDbEntity
  8
0
  6
Continuous
 62
     1
370
    15
100
AcDbLine
 10
17.91490798892315
 20
0.4049852018604868
 30
0.0
 11
17.86742388289461
 21
0.4310716840076485
 31
0.0
  0
LINE
  5
99
330
1F
100
AcDbEntity
  8
0
  6
Continuous
 62
     1
370
    15
100
AcDbLine
 10
14.54269023295164
 20
-1.500000000000001
 30
0.0
 11
15.2701567943809
 21
-1.500000000000001
 31
0.0
  0
LINE
  5
9A
330
1F
100
AcDbEntity
  8
0
  6
Continuous
 62
     1
370
    15
100
AcDbLine
 10
15.27015679438091
 20
1.500000000000002
 30
0.0
 11
14.54269023295164
 21
1.500000000000002
 31
0.0
  0
SPLINE
  5
9B
330
1F
100
AcDbEntity
  8
0
  6
Continuous
 62
     1
370
    15
100
AcDbSpline
210
0.0
220
0.0
230
1.0
 70
     8
 71
     3
 72
    10
 73
     6
 74
     0
 42
0.000000001
 43
0.00000001
 40
0.0
 40
0.0
 40
0.0
 40
0.0
 40
0.5362999286549025
 40
0.7376462788465097
 40
1.0
 40
1.0
 40
1.0
 40
1.0
 10
15.96064518447862
 20
-1.248219189861495
 30
0.0
 10
16.36377181079652
 20
-1.216121936289353
 30
0.0
 10
16.91824672290991
 20
-1.171974215222026
 30
0.0
 10
17.6696017679814
 20
-1.169352639568022
 30
0.0
 10
18.01805489706589
 20
-1.18378933278044
 30
0.0
 10
18.21520383171607
 20
-1.19195737160442
 30
0.0
  0
SPLINE
  5
9C
330
1F
100
AcDbEntity
  8
0
  6
Continuous
 62
     1
370
    15
100
AcDbSpline
210
0.0
220
0.0
230
1.0
 70
     8
 71
     3
 72
     9
 73
     5
 74
     0
 42
0.000000001
 43
0.00000001
 40
0.0
 40
0.0
 40
0.0
 40
0.0
 40
0.5142393882036467
 40
1.0
 40
1.0
 40
1.0
 40
1.0
 10
10.05283195725622
 20
1.19194267381096
 30
0.0
 10
9.837679850628037
 20
1.182429022155639
 30
0.0
 10
9.419290844333203
 20
1.163928588556896
 30
0.0
 10
9.002331412321372
 20
1.177589352790152
 30
0.0
 10
8.799788943533045
 20
1.184225213981705
 30
0.0
  0
SPLINE
  5
9D
330
1F
100
AcDbEntity
  8
0
  6
Continuous
 62
     1
370
    15
100
AcDbSpline
210
0.0
220
0.0
230
1.0
 70
     8
 71
     3
 72
    10
 73
     6
 74
     0
 42
0.000000001
 43
0.00000001
 40
0.0
 40
0.0
 40
0.0
 40
0.0
 40
0.4214780406403018
 40
0.6237171367186695
 40
1.0
 40
1.0
 40
1.0
 40
1.0
 10
8.59807621135328
 20
-1.188312362967005
 30
0.0
 10
8.802105307922725
 20
-1.18084822539825
 30
0.0
 10
9.104034309315693
 20
-1.169802547892999
 30
0.0
 10
9.589497544078307
 20
-1.172164457689596
 30
0.0
 10
9.870234639445117
 20
-1.184148197268457
 30
0.0
 10
10.05283195725623
 20
-1.191942673810959
 30
0.0
  0
SPLINE
  5
9E
330
1F
100
AcDbEntity
  8
0
  6
Continuous
 62
     1
370
    15
100
AcDbSpline
210
0.0
220
0.0
230
1.0
 70
     8
 71
     3
 72
    10
 73
     6
 74
     0
 42
0.000000001
 43
0.00000001
 40
0.0
 40
0.0
 40
0.0
 40
0.0
 40
0.4643402344460154
 40
0.8207034338767564
 40
1.0
 40
1.0
 40
1.0
 40
1.0
 10
18.21520383171607
 20
1.191957371604422
 30
0.0
 10
18.01805148406654
 20
1.184388005950095
 30
0.0
 10
17.66959232263748
 20
1.171009444447266
 30
0.0
 10
17.24510593673821
 20
1.166943585641709
 30
0.0
 10
17.01762238611364
 20
1.182880696534861
 30
0.0
 10
16.94147886722471
 20
1.188215182043796
 30
0.0
  0
SPLINE
  5
9F
330
1F
100
AcDbEntity
  8
0
  6
Continuous
 62
     1
370
    15
100
AcDbSpline
210
0.0
220
0.0
230
1.0
 70
     8
 71
     3
 72
    13
 73
     9
 74
     0
 42
0.000000001
 43
0.00000001
 40
0.0
 40
0.0
 40
0.0
 40
0.0
 40
0.3046981138968979
 40
0.5169242282842447
 40
0.6579019205094514
 40
0.8090222329728228
 40
0.9782505171695766
 40
1.0
 40
1.0
 40
1.0
 40
1.0
 10
19.41998619977824
 20
-1.12824929321554
 30
0.0
 10
19.53504077537119
 20
-1.111084666520143
 30
0.0
 10
19.7302323272266
 20
-1.081964658867888
 30
0.0
 10
19.97728376184872
 20
-1.052496396293132
 30
0.0
 10
20.1671513113199
 20
-1.033154854488264
 30
0.0
 10
20.34093614418617
 20
-1.018447237564019
 30
0.0
 10
20.46987042086985
 20
-1.008810714919451
 30
0.0
 10
20.54174304137277
 20
-1.005190590553854
 30
0.0
 10
20.54992824716891
 20
-1.004778313072767
 30
0.0
  0
SPLINE
  5
A0
330
1F
100
AcDbEntity
  8
0
  6
Continuous
 62
     1
370
    15
100
AcDbSpline
210
0.0
220
0.0
230
1.0
 70
     8
 71
     3
 72
    18
 73
    14
 74
     0
 42
0.000000001
 43
0.00000001
 40
0.0
 40
0.0
 40
0.0
 40
0.0
 40
0.1300645897468631
 40
0.2196371862116732
 40
0.2760483504799737
 40
0.3305970945225999
 40
0.3873663567284278
 40
0.4509412052770037
 40
0.5389321933657286
 40
0.6258506609213113
 40
0.7119265927622639
 40
0.8343620277647356
 40
1.0
 40
1.0
 40
1.0
 40
1.0
 10
13.87818612196874
 20
1.025936722358544
 30
0.0
 10
13.76432870244723
 20
1.017148409970893
 30
0.0
 10
13.57206020491308
 20
1.002307781878885
 30
0.0
 10
13.33162242921527
 20
0.9923908757450198
 30
0.0
 10
13.15649797084807
 20
0.988188584529591
 30
0.0
 10
13.00998574107713
 20
0.9867897680523817
 30
0.0
 10
12.85719262997953
 20
0.9874851436629569
 30
0.0
 10
12.67532662491585
 20
0.9911241289327956
 30
0.0
 10
12.46738460326309
 20
0.9994392353075048
 30
0.0
 10
12.23940022626632
 20
1.013432620208575
 30
0.0
 10
11.98129455019695
 20
1.034753493784464
 30
0.0
 10
11.65548401139669
 20
1.069568059325382
 30
0.0
 10
11.4033362953218
 20
1.106780011077719
 30
0.0
 10
11.25835506711724
 20
1.12817633602932
 30
0.0
  0
SPLINE
  5
A1
330
1F
100
AcDbEntity
  8
0
  6
Continuous
 62
     1
370
    15
100
AcDbSpline
210
0.0
220
0.0
230
1.0
 70
     8
 71
     3
 72
    13
 73
     9
 74
     0
 42
0.000000001
 43
0.00000001
 40
0.0
 40
0.0
 40
0.0
 40
0.0
 40
0.3024436452452454
 40
0.5091229371772488
 40
0.6393284711942423
 40
0.7653293205922203
 40
0.8963295236695714
 40
1.0
 40
1.0
 40
1.0
 40
1.0
 10
11.25835506711725
 20
-1.128176336029319
 30
0.0
 10
11.37264576495797
 20
-1.111126120154981
 30
0.0
 10
11.56503868407362
 20
-1.082424389694054
 30
0.0
 10
11.80530065379981
 20
-1.05364197152035
 30
0.0
 10
11.9797656003501
 20
-1.035682228418764
 30
0.0
 10
12.1257457524685
 20
-1.02272288871351
 30
0.0
 10
12.26173346459512
 20
-1.012229475696269
 30
0.0
 10
12.35017464322867
 20
-1.007017308585085
 30
0.0
 10
12.38924530659106
 20
-1.004714729291865
 30
0.0
  0
SPLINE
  5
A2
330
1F
100
AcDbEntity
  8
0
  6
Continuous
 62
     1
370
    15
100
AcDbSpline
210
0.0
220
0.0
230
1.0
 70
     8
 71
     3
 72
    18
 73
    14
 74
     0
 42
0.000000001
 43
0.00000001
 40
0.0
 40
0.0
 40
0.0
 40
0.0
 40
0.1315943753538987
 40
0.2226201977091106
 40
0.2802475156098148
 40
0.333634652803671
 40
0.3865843119847802
 40
0.440269250955757
 40
0.6103870269041028
 40
0.660984394625425
 40
0.7419175245708963
 40
0.8542919773174508
 40
1.0
 40
1.0
 40
1.0
 40
1.0
 10
22.06636723804142
 20
1.028119355266907
 30
0.0
 10
21.94980128157744
 20
1.01889677878612
 30
0.0
 10
21.75260488770136
 20
1.003294806482831
 30
0.0
 10
21.50539917515781
 20
0.992739376982158
 30
0.0
 10
21.32622398195355
 20
0.9883090866257332
 30
0.0
 10
21.18121711982064
 20
0.9868399513727429
 30
0.0
 10
21.04015230787058
 20
0.9873298663466469
 30
0.0
 10
20.79654625233042
 20
0.9915344284329437
 30
0.0
 10
20.5550576670534
 20
1.00284979888081
 30
0.0
 10
20.28928978383755
 20
1.0224079406776
 30
0.0
 10
20.07474811988456
 20
1.04168337769411
 30
0.0
 10
19.77681288687828
 20
1.075288741553571
 30
0.0
 10
19.54874730550227
 20
1.10913844910472
 30
0.0
 10
19.41998619977825
 20
1.128249293215542
 30
0.0
  0
LINE
  5
A3
330
1F
100
AcDbEntity
  8
0
  6
Continuous
 62
   131
370
    15
100
AcDbLine
 10
2.0
 20
-3.0
 30
0.0
 11
7.5980762113533
 21
-1.5
 31
0.0
  0
LINE
  5
A4
330
1F
100
AcDbEntity
  8
0
  6
Continuous
 62
   131
370
    15
100
AcDbLine
 10
7.5980762113533
 20
1.5
 30
0.0
 11
2.0
 21
3.0
 31
0.0
  0
LINE
  5
A5
330
1F
100
AcDbEntity
  8
0
  6
Continuous
 62
   131
370
    15
100
AcDbLine
 10
2.0
 20
2.999999999999998
 30
0.0
 11
-46.8519237886467
 21
2.999999999999995
 31
0.0
  0
LINE
  5
A6
330
1F
100
AcDbEntity
  8
0
  6
Continuous
 62
   131
370
    15
100
AcDbLine
 10
-46.8519237886467
 20
-3.000000000000001
 30
0.0
 11
2.0
 21
-2.999999999999998
 31
0.0
  0
LINE
  5
A7
330
1F
100
AcDbEntity
  8
0
  6
Continuous
 62
   131
370
    15
100
AcDbLine
 10
-46.8519237886467
 20
2.999999999999993
 30
0.0
 11
-47.40192378864671
 21
2.449999999999993
 31
0.0
  0
LINE
  5
A8
330
1F
100
AcDbEntity
  8
0
  6
Continuous
 62
   131
370
    15
100
AcDbLine
 10
-47.40192378864671
 20
-2.45
 30
0.0
 11
-46.8519237886467
 21
-3.0
 31
0.0
  0
LINE
  5
A9
330
1F
100
AcDbEntity
  8
0
  6
Continuous
 62
   131
370
    15
100
AcDbLine
 10
7.708127220918946
 20
1.5
 30
0.0
 11
7.5980762113533
 21
1.5
 31
0.0
  0
LINE
  5
AA
330
1F
100
AcDbEntity
  8
0
  6
Continuous
 62
   131
370
    15
100
AcDbLine
 10
7.5980762113533
 20
-1.5
 30
0.0
 11
7.708127220918946
 21
-1.5
 31
0.0
  0
SPLINE
  5
AB
330
1F
100
AcDbEntity
  8
0
  6
Continuous
 62
   131
370
    15
100
AcDbSpline
210
0.0
220
0.0
230
1.0
 70
     8
 71
     3
 72
     9
 73
     5
 74
     0
 42
0.000000001
 43
0.00000001
 40
0.0
 40
0.0
 40
0.0
 40
0.0
 40
0.491097218945735
 40
1.0
 40
1.0
 40
1.0
 40
1.0
 10
7.858830268817401
 20
-1.241867484057263
 30
0.0
 10
7.978978391850919
 20
-1.231012231391799
 30
0.0
 10
8.223630811775932
 20
-1.208908150475259
 30
0.0
 10
8.471788217460972
 20
-1.195258637884484
 30
0.0
 10
8.5980762113533
 20
-1.188312362967004
 30
0.0
  0
SPLINE
  5
AC
330
1F
100
AcDbEntity
  8
0
  6
Continuous
 62
     1
370
    15
100
AcDbSpline
210
0.0
220
0.0
230
1.0
 70
     8
 71
     3
 72
    19
 73
    15
 74
     0
 42
0.000000001
 43
0.00000001
 40
0.0
 40
0.0
 40
0.0
 40
0.0
 40
0.0359662248360517
 40
0.1250769954713986
 40
0.2142474713452246
 40
0.3035725259036845
 40
0.3929638154162422
 40
0.4821763816420114
 40
0.5712967257049358
 40
0.6604206407862531
 40
0.7453130644139933
 40
0.8303998679046554
 40
0.9152627667591937
 40
1.0
 40
1.0
 40
1.0
 40
1.0
 10
16.94147886722471
 20
-1.188215182043795
 30
0.0
 10
16.84146384940238
 20
-1.225760345295396
 30
0.0
 10
16.49364925422984
 20
-1.3563282944032
 30
0.0
 10
15.89796522183796
 20
-1.472772639131321
 30
0.0
 10
15.15380844888052
 20
-1.520140298116151
 30
0.0
 10
14.40856546537955
 20
-1.437539619902013
 30
0.0
 10
13.66300051683111
 20
-1.239460860147408
 30
0.0
 10
12.91847121810309
 20
-0.9396173549832378
 30
0.0
 10
12.17480777033704
 20
-0.5633518995305522
 30
0.0
 10
11.4431269362708
 20
-0.1480684046793911
 30
0.0
 10
10.72262587308491
 20
0.2719091978077196
 30
0.0
 10
10.01332707362731
 20
0.662120015037329
 30
0.0
 10
9.30514332113555
 20
1.010978739668096
 30
0.0
 10
8.833648796291188
 20
1.177020213732328
 30
0.0
 10
8.598076211353346
 20
1.259979436355565
 30
0.0
  0
SPLINE
  5
AD
330
1F
100
AcDbEntity
  8
0
  6
Continuous
 62
     1
370
    15
100
AcDbSpline
210
0.0
220
0.0
230
1.0
 70
     8
 71
     3
 72
    13
 73
     9
 74
     0
 42
0.000000001
 43
0.00000001
 40
0.0
 40
0.0
 40
0.0
 40
0.0
 40
0.1487971224011672
 40
0.3200444444429778
 40
0.4912966087767705
 40
0.6625531411960568
 40
0.8338135657209124
 40
0.9999999999999999
 40
0.9999999999999999
 40
0.9999999999999999
 40
0.9999999999999999
 10
15.96284100378143
 20
-1.238792193074998
 30
0.0
 10
15.69329004904732
 20
-1.257865038316618
 30
0.0
 10
15.11351885344337
 20
-1.29888839993005
 30
0.0
 10
14.22351332766703
 20
-1.162642079231632
 30
0.0
 10
13.29281814589283
 20
-0.8876625881256635
 30
0.0
 10
12.36209553893644
 20
-0.4968801188814524
 30
0.0
 10
11.44054690418507
 20
-0.0448697368350077
 30
0.0
 10
10.82923816708998
 20
0.2493991050687421
 30
0.0
 10
10.52817974378277
 20
0.3943211521393704
 30
0.0
  0
SPLINE
  5
AE
330
1F
100
AcDbEntity
  8
0
  6
Continuous
 62
     1
370
    15
100
AcDbSpline
210
0.0
220
0.0
230
1.0
 70
     8
 71
     3
 72
    17
 73
    13
 74
     0
 42
0.000000001
 43
0.00000001
 40
0.0
 40
0.0
 40
0.0
 40
0.0
 40
0.1017464300439763
 40
0.2032987310501668
 40
0.304764516382295
 40
0.406252985906743
 40
0.5078729227037743
 40
0.6096793167996037
 40
0.711332330186285
 40
0.8128355407397849
 40
0.9142974610055131
 40
1.0
 40
1.0
 40
1.0
 40
1.0
 10
22.5980762113533
 20
-1.423411303847849
 30
0.0
 10
22.34944458921542
 20
-1.366876952043321
 30
0.0
 10
21.85265572637542
 20
-1.253916114226834
 30
0.0
 10
21.10832159825459
 20
-0.9508930053434025
 30
0.0
 10
20.36471645561946
 20
-0.578743074223376
 30
0.0
 10
19.62091239206911
 20
-0.1571622132536269
 30
0.0
 10
18.87611222392339
 20
0.2768997425306959
 30
0.0
 10
18.13044320275156
 20
0.6877654951327827
 30
0.0
 10
17.38545945687177
 20
1.04387345528937
 30
0.0
 10
16.64152504256124
 20
1.311378419935768
 30
0.0
 10
15.93662571358951
 20
1.475372178047948
 30
0.0
 10
15.47948250581697
 20
1.486731665843636
 30
0.0
 10
15.27015679438091
 20
1.491933171244904
 30
0.0
  0
LINE
  5
AF
330
1F
100
AcDbEntity
  8
0
  6
Continuous
 62
     1
370
    15
100
AcDbLine
 10
8.803821946254205
 20
-1.182710599699939
 30
0.0
 11
8.598076211353346
 21
-1.259979436355565
 31
0.0
  0
SPLINE
  5
B0
330
1F
100
AcDbEntity
  8
0
  6
Continuous
 62
   131
370
    15
100
AcDbSpline
210
0.0
220
0.0
230
1.0
 70
    24
 71
     3
 72
     9
 73
     5
 74
     0
 42
0.000000001
 43
0.00000001
 40
0.0
 40
0.0
 40
0.0
 40
0.0
 40
0.7243063340954549
 40
1.0
 40
1.0
 40
1.0
 40
1.0
 10
8.5980762113533
 20
-1.188312362967005
 30
0.0
 10
8.5980762113533
 20
-1.206302920547494
 30
0.0
 10
8.5980762113533
 20
-1.231141247555853
 30
0.0
 10
8.5980762113533
 20
-1.253747136078047
 30
0.0
 10
8.5980762113533
 20
-1.259979436355761
 30
0.0
  0
SPLINE
  5
B1
330
1F
100
AcDbEntity
  8
0
  6
Continuous
 62
     1
370
    15
100
AcDbSpline
210
0.0
220
0.0
230
1.0
 70
     8
 71
     3
 72
    12
 73
     8
 74
     0
 42
0.000000001
 43
0.00000001
 40
0.0
 40
0.0
 40
0.0
 40
0.0
 40
0.2387615434649501
 40
0.4775350112748279
 40
0.716319771133965
 40
0.9551151862360774
 40
1.0
 40
1.0
 40
1.0
 40
1.0
 10
22.5980762113533
 20
-1.183458396552322
 30
0.0
 10
22.28797022923115
 20
-1.112134918392303
 30
0.0
 10
21.66774277752333
 20
-0.9694844000004883
 30
0.0
 10
20.73737051060093
 20
-0.5908949174662819
 30
0.0
 10
19.80694776327256
 20
-0.1533664120301574
 30
0.0
 10
19.12835051065202
 20
0.1964851628254406
 30
0.0
 10
18.75989292570802
 20
0.3591183552319372
 30
0.0
 10
18.70159436134834
 20
0.3848507109275647
 30
0.0
  0
LINE
  5
B2
330
1F
100
AcDbEntity
  8
0
  6
Continuous
 62
     1
370
    15
100
AcDbLine
 10
22.5980762113533
 20
-1.42341130384785
 30
0.0
 11
22.5980762113533
 21
-1.183458396552322
 31
0.0
  0
SPLINE
  5
B3
330
1F
100
AcDbEntity
  8
0
  6
Continuous
 62
     1
370
    15
100
AcDbSpline
210
0.0
220
0.0
230
1.0
 70
     8
 71
     3
 72
    16
 73
    12
 74
     0
 42
0.000000001
 43
0.00000001
 40
0.0
 40
0.0
 40
0.0
 40
0.0
 40
0.1189309751561294
 40
0.2380383578262491
 40
0.3574599947289091
 40
0.4766087383656586
 40
0.6016987399341471
 40
0.7267837604820371
 40
0.8519982433568012
 40
0.977463567116581
 40
1.0
 40
1.0
 40
1.0
 40
1.0
 10
8.598076211353291
 20
0.9861867363643625
 30
0.0
 10
8.833645450541795
 20
0.8764737346140321
 30
0.0
 10
9.305133343222384
 20
0.6568849964022021
 30
0.0
 10
10.01330723959593
 20
0.2592547375118758
 30
0.0
 10
10.7225960004231
 20
-0.1513371405563242
 30
0.0
 10
11.44309138112046
 20
-0.5601153713217764
 30
0.0
 10
12.17476933683221
 20
-0.9310180397902162
 30
0.0
 10
12.91844019008594
 20
-1.235137391736346
 30
0.0
 10
13.66295500484188
 20
-1.427615150720583
 30
0.0
 10
14.20468571214266
 20
-1.51250915520312
 30
0.0
 10
14.49802330984985
 20
-1.493795227266262
 30
0.0
 10
14.54269023295164
 20
-1.490945631487808
 30
0.0
  0
SPLINE
  5
B4
330
1F
100
AcDbEntity
  8
0
  6
Continuous
 62
     1
370
    15
100
AcDbSpline
210
0.0
220
0.0
230
1.0
 70
     8
 71
     3
 72
    10
 73
     6
 74
     0
 42
0.000000001
 43
0.00000001
 40
0.0
 40
0.0
 40
0.0
 40
0.0
 40
0.2714297439776213
 40
0.6353670272765436
 40
1.0
 40
1.0
 40
1.0
 40
1.0
 10
20.55323754592742
 20
1.006088106095556
 30
0.0
 10
20.73819563255971
 20
1.083361727836754
 30
0.0
 10
21.17114843998675
 20
1.264245040819007
 30
0.0
 10
21.85265327452203
 20
1.443702253882423
 30
0.0
 10
22.34944377573119
 20
1.480377226587706
 30
0.0
 10
22.5980762113533
 20
1.500000000000048
 30
0.0
  0
SPLINE
  5
B5
330
1F
100
AcDbEntity
  8
0
  6
Continuous
 62
     1
370
    15
100
AcDbSpline
210
0.0
220
0.0
230
1.0
 70
    24
 71
     3
 72
    10
 73
     6
 74
     0
 42
0.000000001
 43
0.00000001
 40
0.0
 40
0.0
 40
0.0
 40
0.0
 40
0.5
 40
0.5
 40
1.0
 40
1.0
 40
1.0
 40
1.0
 10
22.5980762113533
 20
1.050000000000001
 30
0.0
 10
22.5980762113533
 20
1.113648385210973
 30
0.0
 10
22.5980762113533
 20
1.187613703300677
 30
0.0
 10
22.5980762113533
 20
1.342792741441285
 30
0.0
 10
22.5980762113533
 20
1.423610153702212
 30
0.0
 10
22.5980762113533
 20
1.500000000000048
 30
0.0
  0
LINE
  5
B6
330
1F
100
AcDbEntity
  8
0
  6
Continuous
 62
     1
370
    15
100
AcDbLine
 10
22.5980762113533
 20
1.050000000000002
 30
0.0
 11
22.06214110162155
 21
1.011615080905713
 31
0.0
  0
SPLINE
  5
B7
330
1F
100
AcDbEntity
  8
0
  6
Continuous
 62
     1
370
    15
100
AcDbSpline
210
0.0
220
0.0
230
1.0
 70
     8
 71
     3
 72
    10
 73
     6
 74
     0
 42
0.000000001
 43
0.00000001
 40
0.0
 40
0.0
 40
0.0
 40
0.0
 40
0.0937570671692309
 40
0.537159384510473
 40
1.0
 40
1.0
 40
1.0
 40
1.0
 10
10.6973669558002
 20
-0.1354918117080354
 30
0.0
 10
10.63176201835773
 20
-0.1099658164779205
 30
0.0
 10
10.25589373576913
 20
0.0362794565538883
 30
0.0
 10
9.55618533228129
 20
0.3305174007880042
 30
0.0
 10
8.921980341076065
 20
0.546776962892387
 30
0.0
 10
8.5980762113533
 20
0.6572260546356264
 30
0.0
  0
SPLINE
  5
B8
330
1F
100
AcDbEntity
  8
0
  6
Continuous
 62
   131
370
    15
100
AcDbSpline
210
0.0
220
0.0
230
1.0
 70
    24
 71
     3
 72
    10
 73
     6
 74
     0
 42
0.000000001
 43
0.00000001
 40
0.0
 40
0.0
 40
0.0
 40
0.0
 40
0.5
 40
0.5
 40
1.0
 40
1.0
 40
1.0
 40
1.0
 10
8.598076211353298
 20
0.9861867363643586
 30
0.0
 10
8.598076211353298
 20
0.9541562364083676
 30
0.0
 10
8.598076211353298
 20
0.9071259821820628
 30
0.0
 10
8.598076211353298
 20
0.7927177736447688
 30
0.0
 10
8.598076211353295
 20
0.7257240180516038
 30
0.0
 10
8.598076211353298
 20
0.6572260546356273
 30
0.0
  0
SPLINE
  5
B9
330
1F
100
AcDbEntity
  8
0
  6
Continuous
 62
     1
370
    15
100
AcDbSpline
210
0.0
220
0.0
230
1.0
 70
     8
 71
     3
 72
    21
 73
    17
 74
     0
 42
0.000000001
 43
0.00000001
 40
0.0
 40
0.0
 40
0.0
 40
0.0
 40
0.0517605316990787
 40
0.1246810298264904
 40
0.197747608837408
 40
0.2707599990782359
 40
0.3436460570843807
 40
0.416483326584175
 40
0.4893502466651805
 40
0.5623247118303396
 40
0.6354092660172866
 40
0.7083599613706325
 40
0.781216287772651
 40
0.8540563341405591
 40
0.9269584885018253
 40
1.0
 40
1.0
 40
1.0
 40
1.0
 10
12.38995509886153
 20
1.004998797928002
 30
0.0
 10
12.56603307824381
 20
1.079484443904997
 30
0.0
 10
12.99017060308188
 20
1.258905843625056
 30
0.0
 10
13.66296938861594
 20
1.432618796059696
 30
0.0
 10
14.40853592670643
 20
1.519137356760768
 30
0.0
 10
15.15378329140502
 20
1.478838055654849
 30
0.0
 10
15.89793615409274
 20
1.318654980938594
 30
0.0
 10
16.64150808998237
 20
1.050766792759274
 30
0.0
 10
17.38543962675811
 20
0.6971935770870038
 30
0.0
 10
18.13042765762658
 20
0.2866203803804058
 30
0.0
 10
18.87609891409904
 20
-0.1468631862799769
 30
0.0
 10
19.62090176716357
 20
-0.568755419615645
 30
0.0
 10
20.3647084263902
 20
-0.9446798881085062
 30
0.0
 10
21.10831625250495
 20
-1.241209005515036
 30
0.0
 10
21.85265306240619
 20
-1.445329083241695
 30
0.0
 10
22.34944370498091
 20
-1.480919848133075
 30
0.0
 10
22.59820810929896
 20
-1.500200555342612
 30
0.0
  0
SPLINE
  5
BA
330
1F
100
AcDbEntity
  8
0
  6
Continuous
 62
     1
370
    15
100
AcDbSpline
210
0.0
220
0.0
230
1.0
 70
     8
 71
     3
 72
    13
 73
     9
 74
     0
 42
0.000000001
 43
0.00000001
 40
0.0
 40
0.0
 40
0.0
 40
0.0
 40
0.1853813620010468
 40
0.3715813687585685
 40
0.5577884546371313
 40
0.744002090044755
 40
0.930221742720013
 40
1.0
 40
1.0
 40
1.0
 40
1.0
 10
18.87242669081488
 20
-0.1429063567492815
 30
0.0
 10
18.56360531831643
 20
-0.0174602363864927
 30
0.0
 10
17.94459881703597
 20
0.2339859748544949
 30
0.0
 10
17.01539036104841
 20
0.5861854267188322
 30
0.0
 10
16.08479214831863
 20
0.8654006212475559
 30
0.0
 10
15.15415758261719
 20
1.026818614078324
 30
0.0
 10
14.41747896518068
 20
1.075839861333522
 30
0.0
 10
13.99101130900578
 20
1.024304130248382
 30
0.0
 10
13.87476750904911
 20
1.01025685344288
 30
0.0
  0
LINE
  5
BB
330
1F
100
AcDbEntity
  8
0
  6
Continuous
 62
   131
370
    15
100
AcDbLine
 10
8.5980762113533
 20
0.986186736364357
 30
0.0
 11
8.5980762113533
 21
1.259979436355761
 31
0.0
  0
LINE
  5
BC
330
1F
100
AcDbEntity
  8
0
  6
Continuous
 62
     1
370
    15
100
AcDbLine
 10
22.59820810929896
 20
-1.500200555342612
 30
0.0
 11
22.5980762113533
 21
-1.423411303847852
 31
0.0
  0
SPLINE
  5
BD
330
1F
100
AcDbEntity
  8
0
  6
Continuous
 62
     1
370
    15
100
AcDbSpline
210
0.0
220
0.0
230
1.0
 70
     8
 71
     3
 72
     8
 73
     4
 74
     0
 42
0.000000001
 43
0.00000001
 40
0.0
 40
0.0
 40
0.0
 40
0.0
 40
1.0
 40
1.0
 40
1.0
 40
1.0
 10
21.66972178071379
 20
0.4198106250614817
 30
0.0
 10
21.60246172502249
 20
0.4994278928804009
 30
0.0
 10
21.544123698091
 20
0.5755240816840899
 30
0.0
 10
21.49810783634288
 20
0.6462796946959479
 30
0.0
  0
LINE
  5
BE
330
1F
100
AcDbEntity
  8
0
  6
Continuous
 62
     1
370
    15
100
AcDbLine
 10
21.49810783634288
 20
0.6462796946959466
 30
0.0
 11
22.5980762113533
 21
0.000000000000002
 31
0.0
  0
LINE
  5
BF
330
1F
100
AcDbEntity
  8
0
  6
Continuous
 62
     1
370
    15
100
AcDbLine
 10
22.5980762113533
 20
0.000000000000002
 30
0.0
 11
22.5980762113533
 21
-0.4008644190444651
 31
0.0
  0
SPLINE
  5
C0
330
1F
100
AcDbEntity
  8
0
  6
Continuous
 62
     1
370
    15
100
AcDbSpline
210
0.0
220
0.0
230
1.0
 70
     8
 71
     3
 72
    10
 73
     6
 74
     0
 42
0.000000001
 43
0.00000001
 40
0.0
 40
0.0
 40
0.0
 40
0.0
 40
0.5
 40
0.5
 40
1.0
 40
1.0
 40
1.0
 40
1.0
 10
22.5980762113533
 20
-0.4008644190444652
 30
0.0
 10
22.43737116823808
 20
-0.274520487137554
 30
0.0
 10
22.27935281651364
 20
-0.1429921789881843
 30
0.0
 10
21.96881396173779
 20
0.1306733655047737
 30
0.0
 10
21.81483384628665
 20
0.2742501368963196
 30
0.0
 10
21.66972178071378
 20
0.4198106250614922
 30
0.0
  0
SPLINE
  5
C1
330
1F
100
AcDbEntity
  8
0
  6
Continuous
 62
     1
370
    15
100
AcDbSpline
210
0.0
220
0.0
230
1.0
 70
     8
 71
     3
 72
    18
 73
    14
 74
     0
 42
0.000000001
 43
0.00000001
 40
0.0
 40
0.0
 40
0.0
 40
0.0
 40
0.058923064846376
 40
0.1581550960516842
 40
0.2573910753540298
 40
0.3566307293116841
 40
0.4558737829965019
 40
0.5551199601024394
 40
0.6543689830552641
 40
0.7536205731233573
 40
0.8528744505295173
 40
0.9521303345636727
 40
1.0
 40
1.0
 40
1.0
 40
1.0
 10
19.42901137262839
 20
-1.10939549317643
 30
0.0
 10
19.24483494749148
 20
-1.140566769037194
 30
0.0
 10
18.75048794969144
 20
-1.224233430652064
 30
0.0
 10
17.94595211769281
 20
-1.192350172950998
 30
0.0
 10
17.01539338838816
 20
-1.027664837555458
 30
0.0
 10
16.08479540530626
 20
-0.7262040264539593
 30
0.0
 10
15.15416139107688
 20
-0.3342833423090353
 30
0.0
 10
14.22349419856729
 20
0.1006868732391607
 30
0.0
 10
13.29279678609593
 20
0.5221793105277507
 30
0.0
 10
12.36207214273823
 20
0.8795772713313065
 30
0.0
 10
11.43132310462744
 20
1.117237275103569
 30
0.0
 10
10.66118309309846
 20
1.221429651320395
 30
0.0
 10
10.20129242154946
 20
1.184713852350178
 30
0.0
 10
10.05165958983823
 20
1.172767776231805
 30
0.0
  0
SPLINE
  5
C2
330
1F
100
AcDbEntity
  8
0
  6
Continuous
 62
   131
370
    15
100
AcDbSpline
210
0.0
220
0.0
230
1.0
 70
    24
 71
     3
 72
     9
 73
     5
 74
     0
 42
0.000000001
 43
0.00000001
 40
0.0
 40
0.0
 40
0.0
 40
0.0
 40
0.4094406012602941
 40
1.0
 40
1.0
 40
1.0
 40
1.0
 10
8.5980762113533
 20
-0.93585550121885
 30
0.0
 10
8.5980762113533
 20
-0.9971428414755937
 30
0.0
 10
8.5980762113533
 20
-1.146828388214476
 30
0.0
 10
8.5980762113533
 20
-1.172011839372059
 30
0.0
 10
8.5980762113533
 20
-1.186884163145871
 30
0.0
  0
SPLINE
  5
C3
330
1F
100
AcDbEntity
  8
0
  6
Continuous
 62
     1
370
    15
100
AcDbSpline
210
0.0
220
0.0
230
1.0
 70
     8
 71
     3
 72
    11
 73
     7
 74
     0
 42
0.000000001
 43
0.00000001
 40
0.0
 40
0.0
 40
0.0
 40
0.0
 40
0.2698226990946884
 40
0.539089267372203
 40
0.8083680206087385
 40
1.0
 40
1.0
 40
1.0
 40
1.0
 10
21.66972178071065
 20
0.4198106250628557
 30
0.0
 10
21.35894152111152
 20
0.5493249426713743
 30
0.0
 10
20.73802155024485
 20
0.8080866362873937
 30
0.0
 10
19.80694135256715
 20
1.073996847426233
 30
0.0
 10
18.96591708503002
 20
1.212444899362755
 30
0.0
 10
18.43503248849283
 20
1.186776768623083
 30
0.0
 10
18.21430760868208
 20
1.17610477868509
 30
0.0
  0
SPLINE
  5
C4
330
1F
100
AcDbEntity
  8
0
  6
Continuous
 62
     1
370
    15
100
AcDbSpline
210
0.0
220
0.0
230
1.0
 70
     8
 71
     3
 72
    10
 73
     6
 74
     0
 42
0.000000001
 43
0.00000001
 40
0.0
 40
0.0
 40
0.0
 40
0.0
 40
0.2864197117394776
 40
0.6355600650963747
 40
1.0
 40
1.0
 40
1.0
 40
1.0
 10
11.26413573276521
 20
-1.116489371795363
 30
0.0
 10
11.00960816353223
 20
-1.151355480153971
 30
0.0
 10
10.44481617527103
 20
-1.228722732440751
 30
0.0
 10
9.556201867588063
 20
-1.17261268716712
 30
0.0
 10
8.921984097573466
 20
-1.015894605848723
 30
0.0
 10
8.5980762113533
 20
-0.9358555012188506
 30
0.0
  0
SPLINE
  5
C5
330
1F
100
AcDbEntity
  8
0
  6
Continuous
 62
     1
370
    15
100
AcDbSpline
210
0.0
220
0.0
230
1.0
 70
    24
 71
     3
 72
    10
 73
     6
 74
     0
 42
0.000000001
 43
0.00000001
 40
0.0
 40
0.0
 40
0.0
 40
0.0
 40
0.5
 40
0.5
 40
1.0
 40
1.0
 40
1.0
 40
1.0
 10
22.5980762113533
 20
-1.183458396552322
 30
0.0
 10
22.5980762113533
 20
-1.092737083505706
 30
0.0
 10
22.59807621135329
 20
-0.9781072258597009
 30
0.0
 10
22.5980762113533
 20
-0.711603838726018
 30
0.0
 10
22.5980762113533
 20
-0.5599611645769628
 30
0.0
 10
22.5980762113533
 20
-0.4008644190445131
 30
0.0
  0
SPLINE
  5
C6
330
1F
100
AcDbEntity
  8
0
  6
Continuous
 62
   131
370
    15
100
AcDbSpline
210
0.0
220
0.0
230
1.0
 70
    24
 71
     3
 72
    10
 73
     6
 74
     0
 42
0.000000001
 43
0.00000001
 40
0.0
 40
0.0
 40
0.0
 40
0.0
 40
0.5
 40
0.5
 40
1.0
 40
1.0
 40
1.0
 40
1.0
 10
8.5980762113533
 20
0.6572260546356264
 30
0.0
 10
8.5980762113533
 20
0.4193079031147
 30
0.0
 10
8.5980762113533
 20
0.1350935585159209
 30
0.0
 10
8.5980762113533
 20
-0.431179487054185
 30
0.0
 10
8.5980762113533
 20
-0.7088506556258412
 30
0.0
 10
8.5980762113533
 20
-0.9358555012188496
 30
0.0
  0
SPLINE
  5
C7
330
1F
100
AcDbEntity
  8
0
  6
Continuous
 62
     1
370
    15
100
AcDbSpline
210
0.0
220
0.0
230
1.0
 70
     8
 71
     3
 72
    10
 73
     6
 74
     0
 42
0.000000001
 43
0.00000001
 40
0.0
 40
0.0
 40
0.0
 40
0.0
 40
0.5
 40
0.5
 40
1.0
 40
1.0
 40
1.0
 40
1.0
 10
22.5980762113533
 20
1.050000000000002
 30
0.0
 10
22.41140927697567
 20
0.9992646357837649
 30
0.0
 10
22.22610794677586
 20
0.9413115908220797
 30
0.0
 10
21.85875363526909
 20
0.8082368764621225
 30
0.0
 10
21.67657047998926
 20
0.7336544459778038
 30
0.0
 10
21.4981078363417
 20
0.6462796946968244
 30
0.0
  0
LINE
  5
C8
330
1F
100
AcDbEntity
  8
0
  6
Continuous
 62
     1
370
    15
100
AcDbLine
 10
22.5980762113533
 20
0.000000000000002
 30
0.0
 11
22.5980762113533
 21
1.050000000000002
 31
0.0
  0
LINE
  5
C9
330
1F
100
AcDbEntity
  8
0
  6
Continuous
 62
   131
370
    15
100
AcDbLine
 10
7.5980762113533
 20
1.5
 30
0.0
 11
7.5980762113533
 21
-1.5
 31
0.0
  0
LINE
  5
CA
330
1F
100
AcDbEntity
  8
0
  6
Continuous
 62
   131
370
    15
100
AcDbLine
 10
2.0
 20
3.0
 30
0.0
 11
2.0
 21
-3.0
 31
0.0
  0
LINE
  5
CB
330
1F
100
AcDbEntity
  8
0
  6
Continuous
 62
   131
370
    15
100
AcDbLine
 10
-46.8519237886467
 20
2.999999999999993
 30
0.0
 11
-46.8519237886467
 21
-3.000000000000001
 31
0.0
  0
LINE
  5
CC
330
1F
100
AcDbEntity
  8
0
  6
Continuous
 62
   131
370
    15
100
AcDbLine
 10
-47.40192378864671
 20
2.449999999999993
 30
0.0
 11
-47.40192378864671
 21
-2.450000000000001
 31
0.0
  0
SPLINE
  5
CD
330
1F
100
AcDbEntity
  8
0
  6
Continuous
 62
   131
370
    15
100
AcDbSpline
210
0.0
220
0.0
230
1.0
 70
     8
 71
     3
 72
    10
 73
     6
 74
     0
 42
0.000000001
 43
0.00000001
 40
0.0
 40
0.0
 40
0.0
 40
0.0
 40
0.5
 40
0.5
 40
1.0
 40
1.0
 40
1.0
 40
1.0
 10
8.598076211353291
 20
-1.259979436355581
 30
0.0
 10
8.448658019514848
 20
-1.30656216130044
 30
0.0
 10
8.29883112153956
 20
-1.346948642709975
 30
0.0
 10
8.004879928482316
 20
-1.413775930089866
 30
0.0
 10
7.8575623715349
 20
-1.440508943465865
 30
0.0
 10
7.708180775078876
 20
-1.460161588166
 30
0.0
  0
LINE
  5
CE
330
1F
100
AcDbEntity
  8
0
  6
Continuous
 62
   131
370
    15
100
AcDbLine
 10
7.708127220918946
 20
1.460176304268512
 30
0.0
 11
7.708127220918946
 21
1.5
 31
0.0
  0
SPLINE
  5
CF
330
1F
100
AcDbEntity
  8
0
  6
Continuous
 62
   131
370
    15
100
AcDbSpline
210
0.0
220
0.0
230
1.0
 70
     8
 71
     3
 72
    10
 73
     6
 74
     0
 42
0.000000001
 43
0.00000001
 40
0.0
 40
0.0
 40
0.0
 40
0.0
 40
0.5
 40
0.5
 40
1.0
 40
1.0
 40
1.0
 40
1.0
 10
8.598076211353291
 20
1.259979436355582
 30
0.0
 10
8.448658019514848
 20
1.30656216130044
 30
0.0
 10
8.29883112153956
 20
1.346948642709976
 30
0.0
 10
8.004879928482314
 20
1.413775930089867
 30
0.0
 10
7.8575623715349
 20
1.440508943465865
 30
0.0
 10
7.708180775078876
 20
1.460161588166
 30
0.0
  0
SPLINE
  5
D0
330
1F
100
AcDbEntity
  8
0
  6
Continuous
 62
   131
370
    15
100
AcDbSpline
210
0.0
220
0.0
230
1.0
 70
     8
 71
     3
 72
    10
 73
     6
 74
     0
 42
0.000000001
 43
0.00000001
 40
0.0
 40
0.0
 40
0.0
 40
0.0
 40
0.5
 40
0.5
 40
1.0
 40
1.0
 40
1.0
 40
1.0
 10
8.598076211353291
 20
0.9861867363643605
 30
0.0
 10
8.448649091638808
 20
1.050877640033802
 30
0.0
 10
8.298813219201335
 20
1.110742126445021
 30
0.0
 10
8.004845139309039
 20
1.218374512200448
 30
0.0
 10
7.857517873256825
 20
1.266574658891859
 30
0.0
 10
7.708127220918946
 20
1.308542361694673
 30
0.0
  0
LINE
  5
D1
330
1F
100
AcDbEntity
  8
0
  6
Continuous
 62
   131
370
    15
100
AcDbLine
 10
7.708127220918946
 20
-1.5
 30
0.0
 11
7.708127220918946
 21
1.308792806908394
 31
0.0
  0
SPLINE
  5
D2
330
1F
100
AcDbEntity
  8
0
  6
Continuous
 62
   131
370
    15
100
AcDbSpline
210
0.0
220
0.0
230
1.0
 70
    24
 71
     3
 72
    10
 73
     6
 74
     0
 42
0.000000001
 43
0.00000001
 40
0.0
 40
0.0
 40
0.0
 40
0.0
 40
0.5
 40
0.5
 40
1.0
 40
1.0
 40
1.0
 40
1.0
 10
8.5980762113533
 20
0.6572260546356264
 30
0.0
 10
8.5980762113533
 20
0.4193079031147
 30
0.0
 10
8.5980762113533
 20
0.1350935585159209
 30
0.0
 10
8.5980762113533
 20
-0.431179487054185
 30
0.0
 10
8.5980762113533
 20
-0.7088506556258412
 30
0.0
 10
8.5980762113533
 20
-0.9358555012188496
 30
0.0
  0
SPLINE
  5
D3
330
1F
100
AcDbEntity
  8
0
  6
Continuous
 62
   131
370
    15
100
AcDbSpline
210
0.0
220
0.0
230
1.0
 70
     8
 71
     3
 72
    10
 73
     6
 74
     0
 42
0.000000001
 43
0.00000001
 40
0.0
 40
0.0
 40
0.0
 40
0.0
 40
0.5
 40
0.5
 40
1.0
 40
1.0
 40
1.0
 40
1.0
 10
8.598076211353256
 20
-0.9358555012188372
 30
0.0
 10
8.448652349292889
 20
-0.8928651552074762
 30
0.0
 10
8.298819751508391
 20
-0.8452062809015136
 30
0.0
 10
8.00485783336584
 20
-0.7427726485436588
 30
0.0
 10
7.857534110055758
 20
-0.6876558830901739
 30
0.0
 10
7.708146762070365
 20
-0.6291758312167453
 30
0.0
  0
SPLINE
  5
D4
330
1F
100
AcDbEntity
  8
0
  6
Continuous
 62
   131
370
    15
100
AcDbSpline
210
0.0
220
0.0
230
1.0
 70
     8
 71
     3
 72
    10
 73
     6
 74
     0
 42
0.000000001
 43
0.00000001
 40
0.0
 40
0.0
 40
0.0
 40
0.0
 40
0.5
 40
0.5
 40
1.0
 40
1.0
 40
1.0
 40
1.0
 10
8.598076211353218
 20
0.6572260546356514
 30
0.0
 10
8.448651240626376
 20
0.7040949043077313
 30
0.0
 10
8.298817528390268
 20
0.7477505607874751
 30
0.0
 10
8.004853513238254
 20
0.8268435232561607
 30
0.0
 10
7.857528584242363
 20
0.8625959361837766
 30
0.0
 10
7.708140111696622
 20
0.8941031768998673
 30
0.0
  0
SPLINE
  5
D5
330
1F
100
AcDbEntity
  8
0
  6
Continuous
 62
   131
370
    15
100
AcDbSpline
210
0.0
220
0.0
230
1.0
 70
    24
 71
     3
 72
    10
 73
     6
 74
     0
 42
0.000000001
 43
0.00000001
 40
0.0
 40
0.0
 40
0.0
 40
0.0
 40
0.5000000000000002
 40
0.5000000000000002
 40
1.0
 40
1.0
 40
1.0
 40
1.0
 10
8.598076211353298
 20
0.9861867363643586
 30
0.0
 10
8.598076211353298
 20
0.9541562364083677
 30
0.0
 10
8.598076211353298
 20
0.9071259821820622
 30
0.0
 10
8.598076211353298
 20
0.7927177736447688
 30
0.0
 10
8.598076211353298
 20
0.7257240180516036
 30
0.0
 10
8.598076211353298
 20
0.6572260546356273
 30
0.0
  0
LINE
  5
D6
330
1F
100
AcDbEntity
  8
0
  6
Continuous
 62
   131
370
    15
100
AcDbLine
 10
7.860943123287353
 20
-1.231455700871588
 30
0.0
 11
7.708180775078876
 21
-1.256474073089954
 31
0.0
  0
SPLINE
  5
D7
330
1F
100
AcDbEntity
  8
0
  6
Continuous
 62
   131
370
    15
100
AcDbSpline
210
0.0
220
0.0
230
1.0
 70
    24
 71
     3
 72
     9
 73
     5
 74
     0
 42
0.000000001
 43
0.00000001
 40
0.0
 40
0.0
 40
0.0
 40
0.0
 40
0.4089987788721582
 40
0.9999999999999999
 40
0.9999999999999999
 40
0.9999999999999999
 40
0.9999999999999999
 10
8.5980762113533
 20
-0.93585550121885
 30
0.0
 10
8.5980762113533
 20
-0.997135333998224
 30
0.0
 10
8.5980762113533
 20
-1.146964223337104
 30
0.0
 10
8.5980762113533
 20
-1.172156523262334
 30
0.0
 10
8.5980762113533
 20
-1.187045203281163
 30
0.0
  0
SPLINE
  5
D8
330
1F
100
AcDbEntity
  8
0
  6
Continuous
 62
   131
370
    15
100
AcDbSpline
210
0.0
220
0.0
230
1.0
 70
    24
 71
     3
 72
     9
 73
     5
 74
     0
 42
0.000000001
 43
0.00000001
 40
0.0
 40
0.0
 40
0.0
 40
0.0
 40
0.7243063340954539
 40
1.0
 40
1.0
 40
1.0
 40
1.0
 10
8.5980762113533
 20
-1.188312362967004
 30
0.0
 10
8.5980762113533
 20
-1.206302920547494
 30
0.0
 10
8.5980762113533
 20
-1.231141247555853
 30
0.0
 10
8.5980762113533
 20
-1.253747136078048
 30
0.0
 10
8.5980762113533
 20
-1.259979436355761
 30
0.0
  0
LINE
  5
D9
330
1F
100
AcDbEntity
  8
중심선
 62
     1
100
AcDbLine
 10
-50.40192378864671
 20
-0.0000000000000046
 30
0.0
 11
25.5980762113533
 21
0.0000000000000023
 31
0.0
  0
CIRCLE
  5
DA
330
1F
100
AcDbEntity
  8
외형선
100
AcDbCircle
 10
0.0000000000000104
 20
0.0
 30
0.0
 40
3.000000000000005
  0
INSERT
  5
DB
330
1F
100
AcDbEntity
  8
0
  6
Continuous
 62
     7
100
AcDbBlockReference
 66
     1
  2
블럭10
 10
-22.93944368806589
 20
-52.04609937292004
 30
0.0
  0
ATTRIB
  5
DC
330
DB
100
AcDbEntity
  8
FORMAT
 62
     2
100
AcDbText
 10
-39.05870472750145
 20
-49.97073246008785
 30
0.0
 40
4.233333333333333
  1
SEME7003014E [ 2 FLUTE ]
 41
0.75
  7
SLDTEXTSTYLE0
 11
-39.05870472750145
 21
-52.08739912675452
 31
0.0
100
AcDbAttribute
  2
AUTOATTR0
 70
     0
 74
     1
  0
SEQEND
  5
DD
330
DB
100
AcDbEntity
  8
0
  6
Continuous
 62
     7
  0
HATCH
  5
DE
330
1F
100
AcDbEntity
  8
중심선
100
AcDbHatch
 10
0.0
 20
0.0
 30
0.0
210
0.0
220
0.0
230
1.0
  2
SOLID
 70
     1
 71
     0
 91
        1
 92
        0
 93
        4
 72
     1
 10
-17.22453438368504
 20
-35.7989250712761
 11
-20.67080962752232
 21
-35.7989250712761
 72
     1
 10
-20.67080962752232
 20
-35.7989250712761
 11
-22.79903948672635
 21
-38.3352506518487
 72
     1
 10
-22.79903948672635
 20
-38.3352506518487
 11
-19.35273115777591
 21
-38.33521122254621
 72
     1
 10
-19.35273115777591
 20
-38.33521122254621
 11
-17.22453438368504
 21
-35.7989250712761
 97
        0
 75
     0
 76
     1
 98
        1
 10
0.0
 20
0.0
  0
HATCH
  5
DF
330
1F
100
AcDbEntity
  8
중심선
100
AcDbHatch
 10
0.0
 20
0.0
 30
0.0
210
0.0
220
0.0
230
1.0
  2
SOLID
 70
     1
 71
     0
 91
        1
 92
        0
 93
        4
 72
     1
 10
-12.21177039264909
 20
-35.7989250712761
 11
-15.65804563648637
 21
-35.7989250712761
 72
     1
 10
-15.65804563648637
 20
-35.7989250712761
 11
-20.18918364484376
 21
-41.19892507127612
 72
     1
 10
-20.18918364484376
 20
-41.19892507127612
 11
-16.74290840100648
 21
-41.19892507127612
 72
     1
 10
-16.74290840100648
 20
-41.19892507127612
 11
-12.21177039264909
 21
-35.7989250712761
 97
        0
 75
     0
 76
     1
 98
        1
 10
0.0
 20
0.0
  0
HATCH
  5
E0
330
1F
100
AcDbEntity
  8
중심선
100
AcDbHatch
 10
0.0
 20
0.0
 30
0.0
210
0.0
220
0.0
230
1.0
  2
SOLID
 70
     1
 71
     0
 91
        1
 92
        0
 93
        4
 72
     1
 10
-7.199006401613195
 20
-35.79892507127613
 11
-10.64528164545031
 21
-35.7989250712761
 72
     1
 10
-10.64528164545031
 20
-35.7989250712761
 11
-17.69371854733956
 21
-44.19892507127612
 72
     1
 10
-17.69371854733956
 20
-44.19892507127612
 11
-14.24744330350228
 21
-44.19892507127612
 72
     1
 10
-14.24744330350228
 20
-44.19892507127612
 11
-7.199006401613195
 21
-35.79892507127613
 97
        0
 75
     0
 76
     1
 98
        1
 10
0.0
 20
0.0
  0
HATCH
  5
E1
330
1F
100
AcDbEntity
  8
중심선
100
AcDbHatch
 10
0.0
 20
0.0
 30
0.0
210
0.0
220
0.0
230
1.0
  2
SOLID
 70
     1
 71
     0
 91
        1
 92
        0
 93
        6
 72
     3
 10
-2.399115970600996
 20
-39.99892507132738
 11
3.960054785062284
 21
1.540850780301639E-10
 40
0.3939339440162633
 50
17.09539180608433
 51
320.0019657685079
 73
     0
 72
     1
 10
-0.7161163149004002
 20
-38.58681907591441
 11
1.589185558800638
 21
-36.65249236586649
 72
     3
 10
-2.399115970653842
 20
-39.99892507127625
 11
6.600054785286829
 21
-1.249000902703301E-13
 40
0.6363583540795982
 50
39.99873849337408
 51
368.4976242363724
 73
     1
 72
     1
 10
4.026216521246767
 20
-39.03892507120613
 11
-3.71904866381792
 21
-39.0389250712061
 72
     1
 10
-3.71904866381792
 20
-39.0389250712061
 11
-3.719073708263854
 21
-40.95892507120602
 72
     1
 10
-3.719073708263854
 20
-40.95892507120602
 11
0.7223060612081835
 21
-40.95892507120599
 97
        0
 75
     0
 76
     1
 98
        1
 10
0.0
 20
0.0
  0
DIMENSION
  5
E2
330
1F
100
AcDbEntity
  8
치수문자_일반주서
100
AcDbDimension
  2
_D
 10
34.8807835309989
 20
1.500000000000094
 30
0.0
 11
34.88078353099888
 21
11.16650000000009
 31
0.0
 70
   160
  1
%%c<>
 71
     2
 42
3.00020055534266
 52
-270.0
  3
SLDDIMSTYLE0
100
AcDbAlignedDimension
 13
22.59820810929896
 23
-1.500200555342612
 33
0.0
 14
22.5980762113533
 24
1.500000000000048
 34
0.0
 50
90.0000000000002
100
AcDbRotatedDimension
  0
DIMENSION
  5
F0
330
1F
100
AcDbEntity
  8
치수문자_일반주서
100
AcDbDimension
  2
_D_1
 10
22.59807621135331
 20
24.23841044024269
 30
0.0
 11
-12.4019237886467
 21
24.23841044024269
 31
0.0
 70
   160
  1
<>
 71
     2
 42
70.0
  3
SLDDIMSTYLE1
100
AcDbAlignedDimension
 13
-47.40192378864671
 23
2.449999999999993
 33
0.0
 14
22.5980762113533
 24
1.500000000000048
 34
0.0
 50
-0.0000000000000058
100
AcDbRotatedDimension
  0
DIMENSION
  5
FB
330
1F
100
AcDbEntity
  8
치수문자_일반주서
100
AcDbDimension
  2
_D_2
 10
22.5980762113533
 20
14.6069772425231
 30
0.0
 11
15.5980762113533
 21
14.6069772425231
 31
0.0
 70
   160
  1
<>
 71
     2
 42
14.0
  3
SLDDIMSTYLE0
100
AcDbAlignedDimension
 13
8.5980762113533
 23
1.259979436355579
 33
0.0
 14
22.5980762113533
 24
1.500000000000048
 34
0.0
100
AcDbRotatedDimension
  0
DIMENSION
  5
107
330
1F
100
AcDbEntity
  8
치수문자_일반주서
100
AcDbDimension
  2
_D_3
 10
-58.50636685682087
 20
-3.000000000000044
 30
0.0
 11
-58.50636685682093
 21
12.66649999999995
 31
0.0
 70
   160
  1
%%c<>
 71
     2
 42
5.999999999999993
 52
-270.0
  3
SLDDIMSTYLE0
100
AcDbAlignedDimension
 13
-46.8519237886467
 23
2.999999999999993
 33
0.0
 14
-46.8519237886467
 24
-3.0
 34
0.0
 50
90.0000000000002
100
AcDbRotatedDimension
  0
INSERT
  5
11A
330
1F
100
AcDbEntity
  8
외형선
100
AcDbBlockReference
  2
SW_DOWELSYMBOL_0
 10
0.0000000000000104
 20
0.0
 30
0.0
  0
ENDSEC
  0
SECTION
  2
OBJECTS
  0
DICTIONARY
  5
C
330
0
100
AcDbDictionary
281
     1
  3
ACAD_GROUP
350
D
  3
ACAD_IMAGE_VARS
350
13E
  3
ACAD_LAYOUT
350
1A
  3
ACAD_MLINESTYLE
350
17
  3
ACAD_PLOTSETTINGS
350
19
  3
ACAD_PLOTSTYLENAME
350
E
  3
ACAD_SCALELIST
350
47
  3
APPDATA
350
13C
  3
DWGPROPS
350
170
  0
DICTIONARY
  5
D
102
{ACAD_REACTORS
330
C
102
}
330
C
100
AcDbDictionary
281
     1
  0
RASTERVARIABLES
  5
13E
102
{ACAD_REACTORS
330
C
102
}
330
C
100
AcDbRasterVariables
 90
        0
 70
     1
 71
     1
 72
     1
  0
DICTIONARY
  5
1A
102
{ACAD_REACTORS
330
C
102
}
330
C
100
AcDbDictionary
281
     1
  3
Layout1
350
1E
  3
Layout2
350
26
  3
Model
350
22
  0
DICTIONARY
  5
17
102
{ACAD_REACTORS
330
C
102
}
330
C
100
AcDbDictionary
281
     1
  3
Standard
350
18
  0
DICTIONARY
  5
19
102
{ACAD_REACTORS
330
C
102
}
330
C
100
AcDbDictionary
281
     1
  0
ACDBDICTIONARYWDFLT
  5
E
102
{ACAD_REACTORS
330
C
102
}
330
C
100
AcDbDictionary
281
     1
  3
Normal
350
F
100
AcDbDictionaryWithDefault
340
F
  0
DICTIONARY
  5
47
102
{ACAD_REACTORS
330
C
102
}
330
C
100
AcDbDictionary
281
     1
  3
A0
350
48
  3
A1
350
49
  3
A2
350
4A
  3
A3
350
4B
  3
A4
350
4C
  3
A5
350
4D
  3
A6
350
4E
  3
A7
350
4F
  3
A8
350
50
  3
A9
350
51
  3
B0
350
52
  3
B1
350
53
  3
B2
350
54
  3
B3
350
55
  3
B4
350
56
  3
B5
350
57
  3
B6
350
58
  3
B7
350
59
  3
B8
350
5A
  3
B9
350
5B
  3
C0
350
5C
  3
C1
350
5D
  3
C2
350
5E
  3
C3
350
5F
  3
C4
350
60
  3
C5
350
61
  3
C6
350
62
  3
C7
350
63
  3
C8
350
64
  3
C9
350
65
  3
D0
350
66
  3
D1
350
67
  3
D2
350
68
  0
DICTIONARY
  5
13C
102
{ACAD_REACTORS
330
C
102
}
330
C
100
AcDbDictionary
281
     1
  0
XRECORD
  5
170
102
{ACAD_REACTORS
330
C
102
}
330
C
100
AcDbXrecord
280
     1
  1
DWGPROPS COOKIE
  2

  3

  4

  6

  7

  8
12014102
  9

300
=
301
=
302
=
303
=
304
=
305
=
306
=
307
=
308
=
309
=
 40
0.0
 41
2458262.162412072
 42
2458265.991003241
  1

 90
        0
  0
LAYOUT
  5
1E
102
{ACAD_REACTORS
330
1A
102
}
330
1A
100
AcDbPlotSettings
  1

  2
none_device
  4

  6

 40
0.0
 41
0.0
 42
0.0
 43
0.0
 44
0.0
 45
0.0
 46
0.0
 47
0.0
 48
0.0
 49
0.0
140
0.0
141
0.0
142
1.0
143
1.0
 70
   688
 72
     1
 73
     0
 74
     5
  7

 75
    16
147
1.0
148
0.0
149
0.0
100
AcDbLayout
  1
Layout1
 70
     1
 71
     1
 10
0.0
 20
0.0
 11
420.0
 21
297.0
 12
0.0
 22
0.0
 32
0.0
 14
1.000000000000000E+20
 24
1.000000000000000E+20
 34
1.000000000000000E+20
 15
-1.000000000000000E+20
 25
-1.000000000000000E+20
 35
-1.000000000000000E+20
146
0.0
 13
0.0
 23
0.0
 33
0.0
 16
1.0
 26
0.0
 36
0.0
 17
0.0
 27
1.0
 37
0.0
 76
     0
330
1B
  0
LAYOUT
  5
26
102
{ACAD_REACTORS
330
1A
102
}
330
1A
100
AcDbPlotSettings
  1

  2
none_device
  4

  6

 40
0.0
 41
0.0
 42
0.0
 43
0.0
 44
0.0
 45
0.0
 46
0.0
 47
0.0
 48
0.0
 49
0.0
140
0.0
141
0.0
142
1.0
143
1.0
 70
   688
 72
     1
 73
     0
 74
     5
  7

 75
    16
147
1.0
148
0.0
149
0.0
100
AcDbLayout
  1
Layout2
 70
     1
 71
     2
 10
0.0
 20
0.0
 11
0.0
 21
0.0
 12
0.0
 22
0.0
 32
0.0
 14
0.0
 24
0.0
 34
0.0
 15
0.0
 25
0.0
 35
0.0
146
0.0
 13
0.0
 23
0.0
 33
0.0
 16
1.0
 26
0.0
 36
0.0
 17
0.0
 27
1.0
 37
0.0
 76
     0
330
23
  0
LAYOUT
  5
22
102
{ACAD_REACTORS
330
1A
102
}
330
1A
100
AcDbPlotSettings
  1

  2
none_device
  4
ANSI_A_(11.00_x_8.50_Inches)
  6

 40
6.35
 41
19.05
 42
6.35000508
 43
19.05000254
 44
279.4
 45
215.9
 46
153.8341719026649
 47
118.4377884955873
 48
0.0
 49
0.0
140
0.0
141
0.0
142
0.1058944507156154
143
1.0
 70
  1696
 72
     0
 73
     0
 74
     0
  7

 75
     0
147
0.0235690232323232
148
0.0
149
0.0
100
AcDbLayout
  1
Model
 70
     1
 71
     0
 10
0.0
 20
0.0
 11
420.0
 21
297.0
 12
0.0
 22
0.0
 32
0.0
 14
-62.88136685682093
 24
-49.97073246008785
 34
0.0
 15
35.43111686433224
 25
28.61341044024269
 35
0.0
146
0.0
 13
0.0
 23
0.0
 33
0.0
 16
1.0
 26
0.0
 36
0.0
 17
0.0
 27
1.0
 37
0.0
 76
     0
330
1F
331
29
  0
MLINESTYLE
  5
18
102
{ACAD_REACTORS
330
17
102
}
330
17
100
AcDbMlineStyle
  2
Standard
 70
     0
  3

 62
   256
 51
90.0
 52
90.0
 71
     2
 49
0.5
 62
   256
  6
BYLAYER
 49
-0.5
 62
   256
  6
BYLAYER
  0
ACDBPLACEHOLDER
  5
F
102
{ACAD_REACTORS
330
E
102
}
330
E
  0
SCALE
  5
48
102
{ACAD_REACTORS
330
47
102
}
330
47
100
AcDbScale
 70
     0
300
1:1
140
1.0
141
1.0
290
     1
  0
SCALE
  5
49
102
{ACAD_REACTORS
330
47
102
}
330
47
100
AcDbScale
 70
     0
300
1:2
140
1.0
141
2.0
290
     0
  0
SCALE
  5
4A
102
{ACAD_REACTORS
330
47
102
}
330
47
100
AcDbScale
 70
     0
300
1:4
140
1.0
141
4.0
290
     0
  0
SCALE
  5
4B
102
{ACAD_REACTORS
330
47
102
}
330
47
100
AcDbScale
 70
     0
300
1:5
140
1.0
141
5.0
290
     0
  0
SCALE
  5
4C
102
{ACAD_REACTORS
330
47
102
}
330
47
100
AcDbScale
 70
     0
300
1:8
140
1.0
141
8.0
290
     0
  0
SCALE
  5
4D
102
{ACAD_REACTORS
330
47
102
}
330
47
100
AcDbScale
 70
     0
300
1:10
140
1.0
141
10.0
290
     0
  0
SCALE
  5
4E
102
{ACAD_REACTORS
330
47
102
}
330
47
100
AcDbScale
 70
     0
300
1:16
140
1.0
141
16.0
290
     0
  0
SCALE
  5
4F
102
{ACAD_REACTORS
330
47
102
}
330
47
100
AcDbScale
 70
     0
300
1:20
140
1.0
141
20.0
290
     0
  0
SCALE
  5
50
102
{ACAD_REACTORS
330
47
102
}
330
47
100
AcDbScale
 70
     0
300
1:30
140
1.0
141
30.0
290
     0
  0
SCALE
  5
51
102
{ACAD_REACTORS
330
47
102
}
330
47
100
AcDbScale
 70
     0
300
1:40
140
1.0
141
40.0
290
     0
  0
SCALE
  5
52
102
{ACAD_REACTORS
330
47
102
}
330
47
100
AcDbScale
 70
     0
300
1:50
140
1.0
141
50.0
290
     0
  0
SCALE
  5
53
102
{ACAD_REACTORS
330
47
102
}
330
47
100
AcDbScale
 70
     0
300
1:100
140
1.0
141
100.0
290
     0
  0
SCALE
  5
54
102
{ACAD_REACTORS
330
47
102
}
330
47
100
AcDbScale
 70
     0
300
2:1
140
2.0
141
1.0
290
     0
  0
SCALE
  5
55
102
{ACAD_REACTORS
330
47
102
}
330
47
100
AcDbScale
 70
     0
300
4:1
140
4.0
141
1.0
290
     0
  0
SCALE
  5
56
102
{ACAD_REACTORS
330
47
102
}
330
47
100
AcDbScale
 70
     0
300
8:1
140
8.0
141
1.0
290
     0
  0
SCALE
  5
57
102
{ACAD_REACTORS
330
47
102
}
330
47
100
AcDbScale
 70
     0
300
10:1
140
10.0
141
1.0
290
     0
  0
SCALE
  5
58
102
{ACAD_REACTORS
330
47
102
}
330
47
100
AcDbScale
 70
     0
300
100:1
140
100.0
141
1.0
290
     0
  0
SCALE
  5
59
102
{ACAD_REACTORS
330
47
102
}
330
47
100
AcDbScale
 70
     0
300
1/128" = 1'-0"
140
0.0078125
141
12.0
290
     0
  0
SCALE
  5
5A
102
{ACAD_REACTORS
330
47
102
}
330
47
100
AcDbScale
 70
     0
300
1/64" = 1'-0"
140
0.015625
141
12.0
290
     0
  0
SCALE
  5
5B
102
{ACAD_REACTORS
330
47
102
}
330
47
100
AcDbScale
 70
     0
300
1/32" = 1'-0"
140
0.03125
141
12.0
290
     0
  0
SCALE
  5
5C
102
{ACAD_REACTORS
330
47
102
}
330
47
100
AcDbScale
 70
     0
300
1/16" = 1'-0"
140
0.0625
141
12.0
290
     0
  0
SCALE
  5
5D
102
{ACAD_REACTORS
330
47
102
}
330
47
100
AcDbScale
 70
     0
300
3/32" = 1'-0"
140
0.09375
141
12.0
290
     0
  0
SCALE
  5
5E
102
{ACAD_REACTORS
330
47
102
}
330
47
100
AcDbScale
 70
     0
300
1/8" = 1'-0"
140
0.125
141
12.0
290
     0
  0
SCALE
  5
5F
102
{ACAD_REACTORS
330
47
102
}
330
47
100
AcDbScale
 70
     0
300
3/16" = 1'-0"
140
0.1875
141
12.0
290
     0
  0
SCALE
  5
60
102
{ACAD_REACTORS
330
47
102
}
330
47
100
AcDbScale
 70
     0
300
1/4" = 1'-0"
140
0.25
141
12.0
290
     0
  0
SCALE
  5
61
102
{ACAD_REACTORS
330
47
102
}
330
47
100
AcDbScale
 70
     0
300
3/8" = 1'-0"
140
0.375
141
12.0
290
     0
  0
SCALE
  5
62
102
{ACAD_REACTORS
330
47
102
}
330
47
100
AcDbScale
 70
     0
300
1/2" = 1'-0"
140
0.5
141
12.0
290
     0
  0
SCALE
  5
63
102
{ACAD_REACTORS
330
47
102
}
330
47
100
AcDbScale
 70
     0
300
3/4" = 1'-0"
140
0.75
141
12.0
290
     0
  0
SCALE
  5
64
102
{ACAD_REACTORS
330
47
102
}
330
47
100
AcDbScale
 70
     0
300
1" = 1'-0"
140
1.0
141
12.0
290
     0
  0
SCALE
  5
65
102
{ACAD_REACTORS
330
47
102
}
330
47
100
AcDbScale
 70
     0
300
1-1/2" = 1'-0"
140
1.5
141
12.0
290
     0
  0
SCALE
  5
66
102
{ACAD_REACTORS
330
47
102
}
330
47
100
AcDbScale
 70
     0
300
3" = 1'-0"
140
3.0
141
12.0
290
     0
  0
SCALE
  5
67
102
{ACAD_REACTORS
330
47
102
}
330
47
100
AcDbScale
 70
     0
300
6" = 1'-0"
140
6.0
141
12.0
290
     0
  0
SCALE
  5
68
102
{ACAD_REACTORS
330
47
102
}
330
47
100
AcDbScale
 70
     0
300
1'-0" = 1'-0"
140
12.0
141
12.0
290
     0
  0
ENDSEC
  0
EOF
