  0
SECTION
  2
HEADER
  9
$ACADVER
  1
AC1015
  9
$ACADMAINTVER
 70
     6
  9
$DWGCODEPAGE
  3
ANSI_949
  9
$INSBASE
 10
0.0
 20
0.0
 30
0.0
  9
$EXTMIN
 10
-88.17772085977148
 20
-49.97073246008785
 30
0.0
  9
$EXTMAX
 10
42.66170841285992
 20
27.28341044024268
 30
0.0
  9
$LIMMIN
 10
0.0
 20
0.0
  9
$LIMMAX
 10
420.0
 20
297.0
  9
$ORTHOMODE
 70
     0
  9
$REGENMODE
 70
     1
  9
$FILLMODE
 70
     1
  9
$QTEXTMODE
 70
     0
  9
$MIRRTEXT
 70
     1
  9
$LTSCALE
 40
1.0
  9
$ATTMODE
 70
     1
  9
$TEXTSIZE
 40
3.5
  9
$TRACEWID
 40
1.0
  9
$TEXTSTYLE
  7
Standard
  9
$CLAYER
  8
0
  9
$CELTYPE
  6
ByLayer
  9
$CECOLOR
 62
   256
  9
$CELTSCALE
 40
1.0
  9
$DISPSILH
 70
     0
  9
$DIMSCALE
 40
1.0
  9
$DIMASZ
 40
3.302
  9
$DIMEXO
 40
1.0
  9
$DIMDLI
 40
3.75
  9
$DIMRND
 40
0.0
  9
$DIMDLE
 40
0.0
  9
$DIMEXE
 40
1.0
  9
$DIMTP
 40
0.0
  9
$DIMTM
 40
0.0
  9
$DIMTXT
 40
3.5
  9
$DIMCEN
 40
2.5
  9
$DIMTSZ
 40
0.0
  9
$DIMTOL
 70
     0
  9
$DIMLIM
 70
     0
  9
$DIMTIH
 70
     1
  9
$DIMTOH
 70
     1
  9
$DIMSE1
 70
     0
  9
$DIMSE2
 70
     0
  9
$DIMTAD
 70
     1
  9
$DIMZIN
 70
     0
  9
$DIMBLK
  1

  9
$DIMASO
 70
     1
  9
$DIMSHO
 70
     1
  9
$DIMPOST
  1

  9
$DIMAPOST
  1

  9
$DIMALT
 70
     0
  9
$DIMALTD
 70
     3
  9
$DIMALTF
 40
0.0393700787401575
  9
$DIMLFAC
 40
1.0
  9
$DIMTOFL
 70
     1
  9
$DIMTVP
 40
0.0
  9
$DIMTIX
 70
     0
  9
$DIMSOXD
 70
     0
  9
$DIMSAH
 70
     0
  9
$DIMBLK1
  1

  9
$DIMBLK2
  1

  9
$DIMSTYLE
  2
ISO-25
  9
$DIMCLRD
 70
     0
  9
$DIMCLRE
 70
     0
  9
$DIMCLRT
 70
     0
  9
$DIMTFAC
 40
1.0
  9
$DIMGAP
 40
1.524
  9
$DIMJUST
 70
     0
  9
$DIMSD1
 70
     0
  9
$DIMSD2
 70
     0
  9
$DIMTOLJ
 70
     0
  9
$DIMTZIN
 70
     0
  9
$DIMALTZ
 70
     0
  9
$DIMALTTZ
 70
     0
  9
$DIMUPT
 70
     0
  9
$DIMDEC
 70
     2
  9
$DIMTDEC
 70
     2
  9
$DIMALTU
 70
     2
  9
$DIMALTTD
 70
     3
  9
$DIMTXSTY
  7
Standard
  9
$DIMAUNIT
 70
     0
  9
$DIMADEC
 70
     2
  9
$DIMALTRND
 40
0.0
  9
$DIMAZIN
 70
     0
  9
$DIMDSEP
 70
    44
  9
$DIMATFIT
 70
     3
  9
$DIMFRAC
 70
     0
  9
$DIMLDRBLK
  1

  9
$DIMLUNIT
 70
     2
  9
$DIMLWD
 70
    -2
  9
$DIMLWE
 70
    -2
  9
$DIMTMOVE
 70
     0
  9
$LUNITS
 70
     2
  9
$LUPREC
 70
     2
  9
$SKETCHINC
 40
1.0
  9
$FILLETRAD
 40
10.0
  9
$AUNITS
 70
     0
  9
$AUPREC
 70
     2
  9
$MENU
  1
.
  9
$ELEVATION
 40
0.0
  9
$PELEVATION
 40
0.0
  9
$THICKNESS
 40
0.0
  9
$LIMCHECK
 70
     0
  9
$CHAMFERA
 40
0.0
  9
$CHAMFERB
 40
0.0
  9
$CHAMFERC
 40
0.0
  9
$CHAMFERD
 40
0.0
  9
$SKPOLY
 70
     0
  9
$TDCREATE
 40
2458262.537600891
  9
$TDUCREATE
 40
2458262.162600891
  9
$TDUPDATE
 40
2458266.616443183
  9
$TDUUPDATE
 40
2458266.241443183
  9
$TDINDWG
 40
0.0024778472
  9
$TDUSRTIMER
 40
2458266.23896537
  9
$USRTIMER
 70
     1
  9
$ANGBASE
 50
0.0
  9
$ANGDIR
 70
     0
  9
$PDMODE
 70
     0
  9
$PDSIZE
 40
-1.0
  9
$PLINEWID
 40
0.0
  9
$SPLFRAME
 70
     0
  9
$SPLINETYPE
 70
     6
  9
$SPLINESEGS
 70
     8
  9
$HANDSEED
  5
14A
  9
$SURFTAB1
 70
     6
  9
$SURFTAB2
 70
     6
  9
$SURFTYPE
 70
     6
  9
$SURFU
 70
     6
  9
$SURFV
 70
     6
  9
$UCSBASE
  2

  9
$UCSNAME
  2

  9
$UCSORG
 10
0.0
 20
0.0
 30
0.0
  9
$UCSXDIR
 10
1.0
 20
0.0
 30
0.0
  9
$UCSYDIR
 10
0.0
 20
1.0
 30
0.0
  9
$UCSORTHOREF
  2

  9
$UCSORTHOVIEW
 70
     0
  9
$UCSORGTOP
 10
0.0
 20
0.0
 30
0.0
  9
$UCSORGBOTTOM
 10
0.0
 20
0.0
 30
0.0
  9
$UCSORGLEFT
 10
0.0
 20
0.0
 30
0.0
  9
$UCSORGRIGHT
 10
0.0
 20
0.0
 30
0.0
  9
$UCSORGFRONT
 10
0.0
 20
0.0
 30
0.0
  9
$UCSORGBACK
 10
0.0
 20
0.0
 30
0.0
  9
$PUCSBASE
  2

  9
$PUCSNAME
  2

  9
$PUCSORG
 10
0.0
 20
0.0
 30
0.0
  9
$PUCSXDIR
 10
1.0
 20
0.0
 30
0.0
  9
$PUCSYDIR
 10
0.0
 20
1.0
 30
0.0
  9
$PUCSORTHOREF
  2

  9
$PUCSORTHOVIEW
 70
     0
  9
$PUCSORGTOP
 10
0.0
 20
0.0
 30
0.0
  9
$PUCSORGBOTTOM
 10
0.0
 20
0.0
 30
0.0
  9
$PUCSORGLEFT
 10
0.0
 20
0.0
 30
0.0
  9
$PUCSORGRIGHT
 10
0.0
 20
0.0
 30
0.0
  9
$PUCSORGFRONT
 10
0.0
 20
0.0
 30
0.0
  9
$PUCSORGBACK
 10
0.0
 20
0.0
 30
0.0
  9
$USERI1
 70
     0
  9
$USERI2
 70
     0
  9
$USERI3
 70
     0
  9
$USERI4
 70
     0
  9
$USERI5
 70
     0
  9
$USERR1
 40
0.0
  9
$USERR2
 40
0.0
  9
$USERR3
 40
0.0
  9
$USERR4
 40
0.0
  9
$USERR5
 40
0.0
  9
$WORLDVIEW
 70
     1
  9
$SHADEDGE
 70
     3
  9
$SHADEDIF
 70
    70
  9
$TILEMODE
 70
     1
  9
$MAXACTVP
 70
    64
  9
$PINSBASE
 10
0.0
 20
0.0
 30
0.0
  9
$PLIMCHECK
 70
     0
  9
$PEXTMIN
 10
1.000000000000000E+20
 20
1.000000000000000E+20
 30
1.000000000000000E+20
  9
$PEXTMAX
 10
-1.000000000000000E+20
 20
-1.000000000000000E+20
 30
-1.000000000000000E+20
  9
$PLIMMIN
 10
0.0
 20
0.0
  9
$PLIMMAX
 10
0.0
 20
0.0
  9
$UNITMODE
 70
     0
  9
$VISRETAIN
 70
     1
  9
$PLINEGEN
 70
     0
  9
$PSLTSCALE
 70
     1
  9
$TREEDEPTH
 70
  3020
  9
$CMLSTYLE
  2
Standard
  9
$CMLJUST
 70
     0
  9
$CMLSCALE
 40
20.0
  9
$PROXYGRAPHICS
 70
     1
  9
$MEASUREMENT
 70
     1
  9
$CELWEIGHT
370
    -1
  9
$ENDCAPS
280
     0
  9
$JOINSTYLE
280
     0
  9
$LWDISPLAY
290
     1
  9
$INSUNITS
 70
     4
  9
$HYPERLINKBASE
  1

  9
$STYLESHEET
  1

  9
$XEDIT
290
     1
  9
$CEPSNTYPE
380
     0
  9
$PSTYLEMODE
290
     1
  9
$FINGERPRINTGUID
  2
{BFBFAA6E-7A8B-42AE-9372-FEF7BBD31C59}
  9
$VERSIONGUID
  2
{FAEB1C32-E019-11D5-929B-00C0DF256EC4}
  9
$EXTNAMES
290
     1
  9
$PSVPSCALE
 40
0.0
  9
$OLESTARTUP
290
     0
  0
ENDSEC
  0
SECTION
  2
CLASSES
  0
CLASS
  1
ACDBDICTIONARYWDFLT
  2
AcDbDictionaryWithDefault
  3
ObjectDBX Classes
 90
        0
280
     0
281
     0
  0
CLASS
  1
VISUALSTYLE
  2
AcDbVisualStyle
  3
ObjectDBX Classes
 90
     4095
280
     0
281
     0
  0
CLASS
  1
MATERIAL
  2
AcDbMaterial
  3
ObjectDBX Classes
 90
     1153
280
     0
281
     0
  0
CLASS
  1
SCALE
  2
AcDbScale
  3
ObjectDBX Classes
 90
     1153
280
     0
281
     0
  0
CLASS
  1
SUN
  2
AcDbSun
  3
SCENEOE
 90
     1153
280
     0
281
     0
  0
CLASS
  1
ACDBPLACEHOLDER
  2
AcDbPlaceHolder
  3
ObjectDBX Classes
 90
        0
280
     0
281
     0
  0
CLASS
  1
LAYOUT
  2
AcDbLayout
  3
ObjectDBX Classes
 90
        0
280
     0
281
     0
  0
CLASS
  1
TABLESTYLE
  2
AcDbTableStyle
  3
ObjectDBX Classes
 90
     4095
280
     0
281
     0
  0
CLASS
  1
MLEADERSTYLE
  2
AcDbMLeaderStyle
  3
ACDB_MLEADERSTYLE_CLASS
 90
     4095
280
     0
281
     0
  0
CLASS
  1
RASTERVARIABLES
  2
AcDbRasterVariables
  3
ISM
 90
        0
280
     0
281
     0
  0
ENDSEC
  0
SECTION
  2
TABLES
  0
TABLE
  2
VPORT
  5
8
330
0
100
AcDbSymbolTable
 70
     1
  0
VPORT
  5
29
330
8
100
AcDbSymbolTableRecord
100
AcDbViewportTableRecord
  2
*Active
 70
     0
 10
0.0
 20
0.0
 11
1.0
 21
1.0
 12
-22.75800622345578
 22
-11.34366100992258
 13
0.0
 23
0.0
 14
10.0
 24
10.0
 15
10.0
 25
10.0
 16
0.0
 26
0.0
 36
1.0
 17
0.0
 27
0.0
 37
0.0
 40
115.8016957647501
 41
1.152454780361757
 42
50.0
 43
0.0
 44
0.0
 50
0.0
 51
0.0
 71
    16
 72
  2000
 73
     1
 74
     3
 75
     0
 76
     0
 77
     0
 78
     0
281
     0
 65
     1
110
0.0
120
0.0
130
0.0
111
1.0
121
0.0
131
0.0
112
0.0
122
1.0
132
0.0
 79
     0
146
0.0
  0
ENDTAB
  0
TABLE
  2
LTYPE
  5
5
330
0
100
AcDbSymbolTable
 70
     6
  0
LTYPE
  5
14
330
5
100
AcDbSymbolTableRecord
100
AcDbLinetypeTableRecord
  2
ByBlock
 70
     0
  3

 72
    65
 73
     0
 40
0.0
  0
LTYPE
  5
15
330
5
100
AcDbSymbolTableRecord
100
AcDbLinetypeTableRecord
  2
ByLayer
 70
     0
  3

 72
    65
 73
     0
 40
0.0
  0
LTYPE
  5
16
330
5
100
AcDbSymbolTableRecord
100
AcDbLinetypeTableRecord
  2
Continuous
 70
     0
  3
Solid line
 72
    65
 73
     0
 40
0.0
  0
LTYPE
  5
6A
330
5
100
AcDbSymbolTableRecord
100
AcDbLinetypeTableRecord
  2
HIDDEN
 70
     0
  3
Hidden __ __ __ __ __ __ __ __ __ __ __ __ __ __
 72
    65
 73
     2
 40
1.905
 49
1.27
 74
     0
 49
-0.635
 74
     0
  0
LTYPE
  5
6B
330
5
100
AcDbSymbolTableRecord
100
AcDbLinetypeTableRecord
  2
PHANTOM
 70
     0
  3
Phantom ______  __  __  ______  __  __  ______
 72
    65
 73
     6
 40
12.7
 49
6.35
 74
     0
 49
-1.27
 74
     0
 49
1.27
 74
     0
 49
-1.27
 74
     0
 49
1.27
 74
     0
 49
-1.27
 74
     0
  0
LTYPE
  5
6C
330
5
100
AcDbSymbolTableRecord
100
AcDbLinetypeTableRecord
  2
CENTER
 70
     0
  3
Center ____ _ ____ _ ____ _ ____ _ ____ _ ____
 72
    65
 73
     4
 40
10.16
 49
6.35
 74
     0
 49
-1.27
 74
     0
 49
1.27
 74
     0
 49
-1.27
 74
     0
  0
LTYPE
  5
6D
330
5
100
AcDbSymbolTableRecord
100
AcDbLinetypeTableRecord
  2
CENTERX2
 70
     0
  3
Center (2x) ________  __  ________  __  _____
 72
    65
 73
     4
 40
20.32
 49
12.7
 74
     0
 49
-2.54
 74
     0
 49
2.54
 74
     0
 49
-2.54
 74
     0
  0
LTYPE
  5
6E
330
5
100
AcDbSymbolTableRecord
100
AcDbLinetypeTableRecord
  2
DOT2
 70
     0
  3
Dot (.5x) ........................................
 72
    65
 73
     2
 40
0.635
 49
0.0
 74
     0
 49
-0.635
 74
     0
  0
ENDTAB
  0
TABLE
  2
LAYER
  5
2
330
0
100
AcDbSymbolTable
 70
    17
  0
LAYER
  5
10
330
2
100
AcDbSymbolTableRecord
100
AcDbLayerTableRecord
  2
0
 70
     0
 62
     7
  6
Continuous
370
    -3
390
F
  0
LAYER
  5
6F
330
2
100
AcDbSymbolTableRecord
100
AcDbLayerTableRecord
  2
FORMAT
 70
     0
 62
     2
  6
Continuous
370
    -3
390
F
  0
LAYER
  5
70
330
2
100
AcDbSymbolTableRecord
100
AcDbLayerTableRecord
  2
외형선
 70
     0
 62
   100
  6
Continuous
370
    30
390
F
  0
LAYER
  5
71
330
2
100
AcDbSymbolTableRecord
100
AcDbLayerTableRecord
  2
숨은선
 70
     0
 62
     2
  6
HIDDEN
370
    15
390
F
  0
LAYER
  5
72
330
2
100
AcDbSymbolTableRecord
100
AcDbLayerTableRecord
  2
중심선
 70
     0
 62
     1
  6
CENTERX2
370
    -3
390
F
  0
LAYER
  5
73
330
2
100
AcDbSymbolTableRecord
100
AcDbLayerTableRecord
  2
파단선
 70
     0
 62
     4
  6
Continuous
370
    -3
390
F
  0
LAYER
  5
74
330
2
100
AcDbSymbolTableRecord
100
AcDbLayerTableRecord
  2
해칭선
 70
     0
 62
     4
  6
Continuous
370
    -3
390
F
  0
LAYER
  5
75
330
2
100
AcDbSymbolTableRecord
100
AcDbLayerTableRecord
  2
가는실선
 70
     0
 62
     4
  6
Continuous
370
    -3
390
F
  0
LAYER
  5
76
330
2
100
AcDbSymbolTableRecord
100
AcDbLayerTableRecord
  2
치수_보조선
 70
     0
 62
     4
  6
Continuous
370
    -3
390
F
  0
LAYER
  5
77
330
2
100
AcDbSymbolTableRecord
100
AcDbLayerTableRecord
  2
치수문자_일반주서
 70
     0
 62
     7
  6
Continuous
370
    15
390
F
  0
LAYER
  5
78
330
2
100
AcDbSymbolTableRecord
100
AcDbLayerTableRecord
  2
개별주서
 70
     0
 62
   100
  6
Continuous
370
    30
390
F
  0
LAYER
  5
79
330
2
100
AcDbSymbolTableRecord
100
AcDbLayerTableRecord
  2
중간선
 70
     0
 62
     2
  6
Continuous
370
    15
390
F
  0
LAYER
  5
7A
330
2
100
AcDbSymbolTableRecord
100
AcDbLayerTableRecord
  2
윤곽선
 70
     0
 62
     3
  6
Continuous
370
    40
390
F
  0
LAYER
  5
7B
330
2
100
AcDbSymbolTableRecord
100
AcDbLayerTableRecord
  2
중심마크
 70
     0
 62
   100
  6
Continuous
370
    30
390
F
  0
LAYER
  5
7C
330
2
100
AcDbSymbolTableRecord
100
AcDbLayerTableRecord
  2
가상선
 70
     0
 62
     4
  6
PHANTOM
370
    -3
390
F
  0
LAYER
  5
7D
330
2
100
AcDbSymbolTableRecord
100
AcDbLayerTableRecord
  2
특수지정선
 70
     0
 62
     5
  6
CENTERX2
370
    60
390
F
  0
LAYER
  5
13E
330
2
100
AcDbSymbolTableRecord
100
AcDbLayerTableRecord
  2
Defpoints
 70
     0
 62
     7
  6
Continuous
290
     0
370
    -3
390
F
  0
ENDTAB
  0
TABLE
  2
STYLE
  5
3
330
0
100
AcDbSymbolTable
 70
     2
  0
STYLE
  5
11
330
3
100
AcDbSymbolTableRecord
100
AcDbTextStyleTableRecord
  2
Standard
 70
     0
 40
0.0
 41
1.0
 50
0.0
 71
     0
 42
3.5
  3
txt
  4

  0
STYLE
  5
93
330
3
100
AcDbSymbolTableRecord
100
AcDbTextStyleTableRecord
  2
SLDTEXTSTYLE0
 70
     0
 40
0.0
 41
0.75
 50
0.0
 71
     0
 42
3.5
  3
TXT
  4

  0
ENDTAB
  0
TABLE
  2
VIEW
  5
6
330
0
100
AcDbSymbolTable
 70
     0
  0
ENDTAB
  0
TABLE
  2
UCS
  5
7
330
0
100
AcDbSymbolTable
 70
     0
  0
ENDTAB
  0
TABLE
  2
APPID
  5
9
330
0
100
AcDbSymbolTable
 70
     1
  0
APPID
  5
12
330
9
100
AcDbSymbolTableRecord
100
AcDbRegAppTableRecord
  2
ACAD
 70
     0
  0
ENDTAB
  0
TABLE
  2
DIMSTYLE
  5
A
330
0
100
AcDbSymbolTable
 70
     3
100
AcDbDimStyleTable
  0
DIMSTYLE
105
27
330
A
100
AcDbSymbolTableRecord
100
AcDbDimStyleTableRecord
  2
ISO-25
 70
     0
 41
2.5
 42
0.625
 43
3.75
 44
1.25
 73
     0
 74
     0
 77
     1
 78
     8
140
2.5
141
2.5
143
0.03937007874016
147
0.625
171
     3
172
     1
178
     0
271
     2
272
     2
274
     3
278
    44
283
     0
284
     8
340
11
  0
DIMSTYLE
105
E2
102
{ACAD_REACTORS
330
E1
330
FA
330
106
102
}
330
A
100
AcDbSymbolTableRecord
100
AcDbDimStyleTableRecord
  2
SLDDIMSTYLE0
 70
     0
 41
3.302
 44
0.0
 45
0.000000001
 73
     0
 74
     0
 77
     1
 78
    12
 79
     3
140
3.5
147
0.875
172
     1
173
     1
178
     0
271
     2
272
     2
276
     2
284
    12
289
     0
340
93
  0
DIMSTYLE
105
F0
102
{ACAD_REACTORS
330
EF
102
}
330
A
100
AcDbSymbolTableRecord
100
AcDbDimStyleTableRecord
  2
SLDDIMSTYLE1
 70
     0
 41
3.302
 44
0.0
 45
0.000000001
 73
     0
 74
     0
 77
     1
 78
    12
 79
     3
140
3.5
147
0.875
173
     1
178
     0
271
     2
272
     2
276
     2
284
    12
340
93
  0
ENDTAB
  0
TABLE
  2
BLOCK_RECORD
  5
1
330
0
100
AcDbSymbolTable
 70
     7
  0
BLOCK_RECORD
  5
1F
330
1
100
AcDbSymbolTableRecord
100
AcDbBlockTableRecord
  2
*Model_Space
340
22
  0
BLOCK_RECORD
  5
1B
330
1
100
AcDbSymbolTableRecord
100
AcDbBlockTableRecord
  2
*Paper_Space
340
1E
  0
BLOCK_RECORD
  5
23
330
1
100
AcDbSymbolTableRecord
100
AcDbBlockTableRecord
  2
*Paper_Space0
340
26
  0
BLOCK_RECORD
  5
7E
330
1
100
AcDbSymbolTableRecord
100
AcDbBlockTableRecord
  2
블럭10
340
0
102
{BLKREFS
331
DA
102
}
  0
BLOCK_RECORD
  5
E3
330
1
100
AcDbSymbolTableRecord
100
AcDbBlockTableRecord
  2
_D
340
0
  0
BLOCK_RECORD
  5
F1
330
1
100
AcDbSymbolTableRecord
100
AcDbBlockTableRecord
  2
_D_1
340
0
  0
BLOCK_RECORD
  5
FB
330
1
100
AcDbSymbolTableRecord
100
AcDbBlockTableRecord
  2
_D_2
340
0
  0
BLOCK_RECORD
  5
107
330
1
100
AcDbSymbolTableRecord
100
AcDbBlockTableRecord
  2
_D_3
340
0
  0
BLOCK_RECORD
  5
113
330
1
100
AcDbSymbolTableRecord
100
AcDbBlockTableRecord
  2
SW_DOWELSYMBOL_0
340
0
102
{BLKREFS
331
119
102
}
  0
ENDTAB
  0
ENDSEC
  0
SECTION
  2
BLOCKS
  0
BLOCK
  5
20
330
1F
100
AcDbEntity
  8
0
100
AcDbBlockBegin
  2
*Model_Space
 70
     0
 10
0.0
 20
0.0
 30
0.0
  3
*Model_Space
  1

  0
ENDBLK
  5
21
330
1F
100
AcDbEntity
  8
0
100
AcDbBlockEnd
  0
BLOCK
  5
1C
330
1B
100
AcDbEntity
 67
     1
  8
0
100
AcDbBlockBegin
  2
*Paper_Space
 70
     0
 10
0.0
 20
0.0
 30
0.0
  3
*Paper_Space
  1

  0
ENDBLK
  5
1D
330
1B
100
AcDbEntity
 67
     1
  8
0
100
AcDbBlockEnd
  0
BLOCK
  5
24
330
23
100
AcDbEntity
  8
0
100
AcDbBlockBegin
  2
*Paper_Space0
 70
     0
 10
0.0
 20
0.0
 30
0.0
  3
*Paper_Space0
  1

  0
ENDBLK
  5
25
330
23
100
AcDbEntity
  8
0
100
AcDbBlockEnd
  0
BLOCK
  5
7F
330
7E
100
AcDbEntity
  8
0
100
AcDbBlockBegin
  2
블럭10
 70
     2
 10
0.0
 20
0.0
 30
0.0
  3
블럭10
  1

  0
ELLIPSE
  5
81
330
7E
100
AcDbEntity
  8
중심선
100
AcDbEllipse
 10
20.54032771741204
 20
12.0471743016438
 30
0.0
 11
6.600054785286829
 21
-1.261213355974178E-13
 31
0.0
210
0.0
220
0.0
230
1.0
 40
0.636358354079598
 41
0.9219305317359503
 42
6.513795318482858
  0
ELLIPSE
  5
82
330
7E
100
AcDbEntity
  8
중심선
100
AcDbEllipse
 10
20.54032771746488
 20
12.04717430159265
 30
0.0
 11
3.960054785062283
 21
1.540847449632565E-10
 31
0.0
210
0.0
220
0.0
230
1.0
 40
0.3939339440162632
 41
1.131841032648279
 42
5.62031148352944
  0
LINE
  5
83
330
7E
100
AcDbEntity
  8
중심선
100
AcDbLine
 10
2.268634060543552
 20
16.24717430164393
 30
0.0
 11
5.714909304380834
 21
16.24717430164393
 31
0.0
  0
LINE
  5
84
330
7E
100
AcDbEntity
  8
중심선
100
AcDbLine
 10
5.245725140726316
 20
7.84717430164391
 30
0.0
 11
8.692000384563599
 21
7.84717430164391
 31
0.0
  0
LINE
  5
85
330
7E
100
AcDbEntity
  8
중심선
100
AcDbLine
 10
15.74043728645272
 20
16.24717430164393
 30
0.0
 11
8.692000384563599
 21
7.84717430164391
 31
0.0
  0
LINE
  5
86
330
7E
100
AcDbEntity
  8
중심선
100
AcDbLine
 10
0.1404042013395286
 20
13.71084872107135
 30
0.0
 11
3.58671253028996
 21
13.71088815037384
 31
0.0
  0
LINE
  5
87
330
7E
100
AcDbEntity
  8
중심선
100
AcDbLine
 10
2.750260043222114
 20
10.84717430164391
 30
0.0
 11
6.196535287059397
 21
10.84717430164391
 31
0.0
  0
LINE
  5
88
330
7E
100
AcDbEntity
  8
중심선
100
AcDbLine
 10
12.29416204261559
 20
16.24717430164393
 30
0.0
 11
5.245725140726316
 21
7.84717430164391
 31
0.0
  0
LINE
  5
89
330
7E
100
AcDbEntity
  8
중심선
100
AcDbLine
 10
10.72767329541681
 20
16.24717430164393
 30
0.0
 11
6.196535287059397
 21
10.84717430164391
 31
0.0
  0
LINE
  5
8A
330
7E
100
AcDbEntity
  8
중심선
100
AcDbLine
 10
7.28139805157953
 20
16.24717430164393
 30
0.0
 11
2.750260043222114
 21
10.84717430164391
 31
0.0
  0
LINE
  5
8B
330
7E
100
AcDbEntity
  8
중심선
100
AcDbLine
 10
5.714909304380834
 20
16.24717430164393
 30
0.0
 11
3.58671253028996
 21
13.71088815037384
 31
0.0
  0
LINE
  5
8C
330
7E
100
AcDbEntity
  8
중심선
100
AcDbLine
 10
2.268634060543552
 20
16.24717430164393
 30
0.0
 11
0.1404042013395286
 21
13.71084872107135
 31
0.0
  0
LINE
  5
8D
330
7E
100
AcDbEntity
  8
중심선
100
AcDbLine
 10
7.28139805157953
 20
16.24717430164393
 30
0.0
 11
10.72767329541681
 21
16.24717430164393
 31
0.0
  0
LINE
  5
8E
330
7E
100
AcDbEntity
  8
중심선
100
AcDbLine
 10
12.29416204261559
 20
16.24717430164393
 30
0.0
 11
15.74043728645272
 21
16.24717430164393
 31
0.0
  0
LINE
  5
8F
330
7E
100
AcDbEntity
  8
중심선
100
AcDbLine
 10
19.22036997980202
 20
11.08717430171403
 30
0.0
 11
23.66174974927406
 21
11.08717430171406
 31
0.0
  0
LINE
  5
90
330
7E
100
AcDbEntity
  8
중심선
100
AcDbLine
 10
19.22039502424796
 20
13.00717430171391
 30
0.0
 11
19.22036997980202
 21
11.08717430171403
 31
0.0
  0
LINE
  5
91
330
7E
100
AcDbEntity
  8
중심선
100
AcDbLine
 10
19.22039502424796
 20
13.00717430171391
 30
0.0
 11
26.96566020931264
 21
13.00717430171391
 31
0.0
  0
LINE
  5
92
330
7E
100
AcDbEntity
  8
중심선
100
AcDbLine
 10
22.22332737316547
 20
13.45928029700563
 30
0.0
 11
24.52862924686651
 21
15.39360700705356
 31
0.0
  0
ATTDEF
  5
94
330
7E
100
AcDbEntity
  8
FORMAT
 62
     2
100
AcDbText
 10
-19.16490937584608
 20
2.075366912832191
 30
0.0
 40
4.233333333333333
  1
SEME70030163SE [ 2 FLUTE ]
 41
0.75
  7
SLDTEXTSTYLE0
 11
-19.16490937584608
 21
-0.0412997538344756
 31
0.0
100
AcDbAttributeDefinition
  3

  2
AUTOATTR0
 70
     0
 74
     1
  0
ENDBLK
  5
80
330
7E
100
AcDbEntity
  8
0
100
AcDbBlockEnd
  0
BLOCK
  5
E4
330
E3
100
AcDbEntity
  8
0
100
AcDbBlockBegin
  2
_D
 70
     0
 10
0.0
 20
0.0
 30
0.0
  3
_D
  1

  0
LINE
  5
E6
330
E3
100
AcDbEntity
  8
치수문자_일반주서
 62
     0
370
    -2
100
AcDbLine
 10
26.06249999999997
 20
-1.499999999999943
 30
0.0
 11
42.11137507952658
 21
-1.499999999999883
 31
0.0
  0
LINE
  5
E7
330
E3
100
AcDbEntity
  8
치수문자_일반주서
 62
     0
370
    -2
100
AcDbLine
 10
26.0624999999999
 20
1.500000000000051
 30
0.0
 11
42.11137507952657
 21
1.50000000000011
 31
0.0
  0
LINE
  5
E8
330
E3
100
AcDbEntity
  8
치수문자_일반주서
 62
     0
370
    -2
100
AcDbLine
 10
42.11137507952658
 20
-1.499999999999883
 30
0.0
 11
42.11137507952654
 21
16.4446645502197
 31
0.0
  0
LINE
  5
E9
330
E3
100
AcDbEntity
  8
치수문자_일반주서
 62
     0
370
    -2
100
AcDbLine
 10
42.11137507952658
 20
-1.499999999999883
 30
0.0
 11
42.11137507952657
 21
1.50000000000011
 31
0.0
  0
LINE
  5
EA
330
E3
100
AcDbEntity
  8
치수문자_일반주서
 62
     0
370
    -2
100
AcDbLine
 10
42.11137507952659
 20
-4.801999999999882
 30
0.0
 11
42.1113750795266
 21
-8.103999999999882
 31
0.0
  0
LINE
  5
EB
330
E3
100
AcDbEntity
  8
치수문자_일반주서
 62
     0
370
    -2
100
AcDbLine
 10
42.11137507952657
 20
4.80200000000011
 30
0.0
 11
42.11137507952656
 21
8.10400000000011
 31
0.0
  0
SOLID
  5
EC
330
E3
100
AcDbEntity
  8
치수문자_일반주서
 62
     0
100
AcDbTrace
 10
42.66170841285992
 20
-4.801999999999881
 30
0.0
 11
41.56104174619325
 21
-4.801999999999883
 31
0.0
 12
42.11137507952658
 22
-1.499999999999883
 32
0.0
 13
42.11137507952658
 23
-1.499999999999883
 33
0.0
  0
SOLID
  5
ED
330
E3
100
AcDbEntity
  8
치수문자_일반주서
 62
     0
100
AcDbTrace
 10
41.56104174619323
 20
4.802000000000109
 30
0.0
 11
42.6617084128599
 21
4.802000000000111
 31
0.0
 12
42.11137507952657
 22
1.50000000000011
 32
0.0
 13
42.11137507952657
 23
1.50000000000011
 33
0.0
  0
MTEXT
  5
EE
330
E3
100
AcDbEntity
  8
치수문자_일반주서
 62
     0
100
AcDbMText
 10
37.73637507952655
 20
13.38216455021969
 30
0.0
 40
3.5
 41
0.0
 71
     2
 72
     1
  1
\A1;%%c3
  7
SLDTEXTSTYLE0
 11
-2.368475785867006E-15
 21
1.0
 31
0.0
 73
     1
 44
1.0
  0
POINT
  5
142
330
E3
100
AcDbEntity
  8
Defpoints
 62
     0
100
AcDbPoint
 10
25.99999999999997
 20
-1.499999999999943
 30
0.0
  0
POINT
  5
143
330
E3
100
AcDbEntity
  8
Defpoints
 62
     0
100
AcDbPoint
 10
25.9999999999999
 20
1.50000000000005
 30
0.0
  0
POINT
  5
144
330
E3
100
AcDbEntity
  8
Defpoints
 62
     0
100
AcDbPoint
 10
42.11137507952657
 20
1.500000000000111
 30
0.0
  0
ENDBLK
  5
E5
330
E3
100
AcDbEntity
  8
0
100
AcDbBlockEnd
  0
BLOCK
  5
F2
330
F1
100
AcDbEntity
  8
0
100
AcDbBlockBegin
  2
_D_1
 70
     0
 10
0.0
 20
0.0
 30
0.0
  3
_D_1
  1

  0
LINE
  5
F4
330
F1
100
AcDbEntity
  8
치수문자_일반주서
 62
     0
370
    -2
100
AcDbLine
 10
-73.99999999999999
 20
1.182499999999989
 30
0.0
 11
-73.99999999999999
 21
22.90841044024268
 31
0.0
  0
LINE
  5
F5
330
F1
100
AcDbEntity
  8
치수문자_일반주서
 62
     0
370
    -2
100
AcDbLine
 10
26.00000000000004
 20
1.485911303847852
 30
0.0
 11
26.00000000000004
 21
22.90841044024268
 31
0.0
  0
LINE
  5
F6
330
F1
100
AcDbEntity
  8
치수문자_일반주서
 62
     0
370
    -2
100
AcDbLine
 10
-70.69799999999998
 20
22.90841044024268
 30
0.0
 11
22.69800000000004
 21
22.90841044024268
 31
0.0
  0
SOLID
  5
F7
330
F1
100
AcDbEntity
  8
치수문자_일반주서
 62
     0
100
AcDbTrace
 10
-70.69799999999998
 20
23.45874377357602
 30
0.0
 11
-70.69799999999998
 21
22.35807710690935
 31
0.0
 12
-73.99999999999999
 22
22.90841044024268
 32
0.0
 13
-73.99999999999999
 23
22.90841044024268
 33
0.0
  0
SOLID
  5
F8
330
F1
100
AcDbEntity
  8
치수문자_일반주서
 62
     0
100
AcDbTrace
 10
22.69800000000004
 20
22.35807710690935
 30
0.0
 11
22.69800000000004
 21
23.45874377357602
 31
0.0
 12
26.00000000000004
 22
22.90841044024268
 32
0.0
 13
26.00000000000004
 23
22.90841044024268
 33
0.0
  0
MTEXT
  5
F9
330
F1
100
AcDbEntity
  8
치수문자_일반주서
 62
     0
100
AcDbMText
 10
-23.99999999999996
 20
27.28341044024268
 30
0.0
 40
3.5
 41
0.0
 71
     2
 72
     1
  1
\A1;100
  7
SLDTEXTSTYLE0
 73
     1
 44
1.0
  0
POINT
  5
146
330
F1
100
AcDbEntity
  8
Defpoints
 62
     0
100
AcDbPoint
 10
-73.99999999999999
 20
1.119999999999989
 30
0.0
  0
POINT
  5
147
330
F1
100
AcDbEntity
  8
Defpoints
 62
     0
100
AcDbPoint
 10
26.00000000000004
 20
1.423411303847852
 30
0.0
  0
POINT
  5
148
330
F1
100
AcDbEntity
  8
Defpoints
 62
     0
100
AcDbPoint
 10
26.00000000000004
 20
22.90841044024268
 30
0.0
  0
ENDBLK
  5
F3
330
F1
100
AcDbEntity
  8
0
100
AcDbBlockEnd
  0
BLOCK
  5
FC
330
FB
100
AcDbEntity
  8
0
100
AcDbBlockBegin
  2
_D_2
 70
     0
 10
0.0
 20
0.0
 30
0.0
  3
_D_2
  1

  0
LINE
  5
FE
330
FB
100
AcDbEntity
  8
치수문자_일반주서
 62
     0
370
    -2
100
AcDbLine
 10
10.00000000000004
 20
1.562499999999999
 30
0.0
 11
10.00000000000004
 21
14.84699780616752
 31
0.0
  0
LINE
  5
FF
330
FB
100
AcDbEntity
  8
치수문자_일반주서
 62
     0
370
    -2
100
AcDbLine
 10
25.9999999999999
 20
1.56250000000005
 30
0.0
 11
25.9999999999999
 21
14.84699780616752
 31
0.0
  0
LINE
  5
100
330
FB
100
AcDbEntity
  8
치수문자_일반주서
 62
     0
370
    -2
100
AcDbLine
 10
13.30200000000004
 20
14.84699780616752
 30
0.0
 11
22.6979999999999
 21
14.84699780616752
 31
0.0
  0
SOLID
  5
101
330
FB
100
AcDbEntity
  8
치수문자_일반주서
 62
     0
100
AcDbTrace
 10
13.30200000000004
 20
15.39733113950085
 30
0.0
 11
13.30200000000004
 21
14.29666447283419
 31
0.0
 12
10.00000000000004
 22
14.84699780616752
 32
0.0
 13
10.00000000000004
 23
14.84699780616752
 33
0.0
  0
SOLID
  5
102
330
FB
100
AcDbEntity
  8
치수문자_일반주서
 62
     0
100
AcDbTrace
 10
22.6979999999999
 20
14.29666447283419
 30
0.0
 11
22.6979999999999
 21
15.39733113950085
 31
0.0
 12
25.9999999999999
 22
14.84699780616752
 32
0.0
 13
25.9999999999999
 23
14.84699780616752
 33
0.0
  0
MTEXT
  5
103
330
FB
100
AcDbEntity
  8
치수문자_일반주서
 62
     0
100
AcDbMText
 10
18.00000000000004
 20
19.22199780616752
 30
0.0
 40
3.5
 41
0.0
 71
     2
 72
     1
  1
\A1;16
  7
SLDTEXTSTYLE0
 73
     1
 44
1.0
  0
POINT
  5
104
330
FB
100
AcDbEntity
  8
Defpoints
 62
     0
100
AcDbPoint
 10
10.00000000000004
 20
1.499999999999999
 30
0.0
  0
POINT
  5
105
330
FB
100
AcDbEntity
  8
Defpoints
 62
     0
100
AcDbPoint
 10
25.9999999999999
 20
1.50000000000005
 30
0.0
  0
POINT
  5
145
330
FB
100
AcDbEntity
  8
Defpoints
 62
     0
100
AcDbPoint
 10
25.9999999999999
 20
14.84699780616752
 30
0.0
  0
ENDBLK
  5
FD
330
FB
100
AcDbEntity
  8
0
100
AcDbBlockEnd
  0
BLOCK
  5
108
330
107
100
AcDbEntity
  8
0
100
AcDbBlockBegin
  2
_D_3
 70
     0
 10
0.0
 20
0.0
 30
0.0
  3
_D_3
  1

  0
LINE
  5
10A
330
107
100
AcDbEntity
  8
치수문자_일반주서
 62
     0
370
    -2
100
AcDbLine
 10
-73.68249999999996
 20
1.499999999999989
 30
0.0
 11
-83.80272085977143
 21
1.49999999999995
 31
0.0
  0
LINE
  5
10B
330
107
100
AcDbEntity
  8
치수문자_일반주서
 62
     0
370
    -2
100
AcDbLine
 10
-73.68249999999996
 20
-1.500000000000001
 30
0.0
 11
-83.80272085977141
 21
-1.500000000000039
 31
0.0
  0
LINE
  5
10C
330
107
100
AcDbEntity
  8
치수문자_일반주서
 62
     0
370
    -2
100
AcDbLine
 10
-83.80272085977143
 20
1.49999999999995
 30
0.0
 11
-83.80272085977148
 21
14.22899999999995
 31
0.0
  0
LINE
  5
10D
330
107
100
AcDbEntity
  8
치수문자_일반주서
 62
     0
370
    -2
100
AcDbLine
 10
-83.80272085977143
 20
1.49999999999995
 30
0.0
 11
-83.80272085977141
 21
-1.500000000000039
 31
0.0
  0
LINE
  5
10E
330
107
100
AcDbEntity
  8
치수문자_일반주서
 62
     0
370
    -2
100
AcDbLine
 10
-83.80272085977144
 20
4.80199999999995
 30
0.0
 11
-83.80272085977145
 21
8.10399999999995
 31
0.0
  0
LINE
  5
10F
330
107
100
AcDbEntity
  8
치수문자_일반주서
 62
     0
370
    -2
100
AcDbLine
 10
-83.8027208597714
 20
-4.802000000000039
 30
0.0
 11
-83.80272085977138
 21
-8.104000000000038
 31
0.0
  0
SOLID
  5
110
330
107
100
AcDbEntity
  8
치수문자_일반주서
 62
     0
100
AcDbTrace
 10
-84.35305419310477
 20
4.801999999999947
 30
0.0
 11
-83.25238752643811
 21
4.801999999999953
 31
0.0
 12
-83.80272085977143
 22
1.49999999999995
 32
0.0
 13
-83.80272085977143
 23
1.49999999999995
 33
0.0
  0
SOLID
  5
111
330
107
100
AcDbEntity
  8
치수문자_일반주서
 62
     0
100
AcDbTrace
 10
-83.25238752643807
 20
-4.802000000000036
 30
0.0
 11
-84.35305419310473
 21
-4.802000000000041
 31
0.0
 12
-83.80272085977141
 22
-1.500000000000039
 32
0.0
 13
-83.80272085977141
 23
-1.500000000000039
 33
0.0
  0
MTEXT
  5
112
330
107
100
AcDbEntity
  8
치수문자_일반주서
 62
     0
100
AcDbMText
 10
-88.17772085977147
 20
11.16649999999993
 30
0.0
 40
3.5
 41
0.0
 71
     2
 72
     1
  1
\A1;%%c3
  7
SLDTEXTSTYLE0
 11
-4.736951571734018E-15
 21
1.0
 31
0.0
 73
     1
 44
1.0
  0
POINT
  5
13F
330
107
100
AcDbEntity
  8
Defpoints
 62
     0
100
AcDbPoint
 10
-73.61999999999996
 20
1.499999999999989
 30
0.0
  0
POINT
  5
140
330
107
100
AcDbEntity
  8
Defpoints
 62
     0
100
AcDbPoint
 10
-73.61999999999996
 20
-1.500000000000001
 30
0.0
  0
POINT
  5
141
330
107
100
AcDbEntity
  8
Defpoints
 62
     0
100
AcDbPoint
 10
-83.80272085977141
 20
-1.500000000000039
 30
0.0
  0
ENDBLK
  5
109
330
107
100
AcDbEntity
  8
0
100
AcDbBlockEnd
  0
BLOCK
  5
114
330
113
100
AcDbEntity
  8
0
100
AcDbBlockBegin
  2
SW_DOWELSYMBOL_0
 70
     0
 10
0.0
 20
0.0
 30
0.0
  3
SW_DOWELSYMBOL_0
  1

  0
CIRCLE
  5
116
330
113
100
AcDbEntity
  8
외형선
 62
     0
100
AcDbCircle
 10
0.0
 20
0.0
 30
0.0
 40
3.000000000000004
  0
HATCH
  5
117
330
113
100
AcDbEntity
  8
0
  6
Continuous
 62
     0
370
    30
100
AcDbHatch
 10
0.0
 20
0.0
 30
0.0
210
0.0
220
0.0
230
1.0
  2
SOLID
 70
     1
 71
     0
 91
        1
 92
        0
 93
        3
 72
     2
 10
0.0000000000000104
 20
0.0
 40
3.000000000000004
 50
0.0
 51
90.0
 73
     1
 72
     1
 10
0.0000000000000104
 20
3.000000000000004
 11
0.0000000000000104
 21
0.0
 72
     1
 10
0.0000000000000104
 20
0.0
 11
3.000000000000015
 21
0.0
 97
        0
 75
     0
 76
     1
 98
        1
 10
0.0
 20
0.0
  0
HATCH
  5
118
330
113
100
AcDbEntity
  8
0
  6
Continuous
 62
     0
370
    30
100
AcDbHatch
 10
0.0
 20
0.0
 30
0.0
210
0.0
220
0.0
230
1.0
  2
SOLID
 70
     1
 71
     0
 91
        1
 92
        0
 93
        3
 72
     2
 10
0.0000000000000104
 20
0.0
 40
3.000000000000004
 50
180.0
 51
270.0000000000008
 73
     1
 72
     1
 10
0.0000000000000104
 20
-3.000000000000004
 11
0.0000000000000104
 21
0.0
 72
     1
 10
0.0000000000000104
 20
0.0
 11
-2.999999999999994
 21
0.0
 97
        0
 75
     0
 76
     1
 98
        1
 10
0.0
 20
0.0
  0
ENDBLK
  5
115
330
113
100
AcDbEntity
  8
0
100
AcDbBlockEnd
  0
ENDSEC
  0
SECTION
  2
ENTITIES
  0
LINE
  5
95
330
1F
100
AcDbEntity
  8
0
  6
Continuous
 62
     1
370
    15
100
AcDbLine
 10
13.56951420556653
 20
0.5746663905216692
 30
0.0
 11
13.53489330393525
 21
0.5924581448223682
 31
0.0
  0
SPLINE
  5
96
330
1F
100
AcDbEntity
  8
0
  6
Continuous
 62
     1
370
    15
100
AcDbSpline
210
0.0
220
0.0
230
1.0
 70
     8
 71
     3
 72
     9
 73
     5
 74
     0
 42
0.000000001
 43
0.00000001
 40
0.0
 40
0.0
 40
0.0
 40
0.0
 40
0.5452611576378311
 40
1.0
 40
1.0
 40
1.0
 40
1.0
 10
13.95234742811499
 20
0.3844660525984843
 30
0.0
 10
13.88274114981536
 20
0.4174631835299125
 30
0.0
 10
13.75508437961522
 20
0.4779793792449671
 30
0.0
 10
13.62752184492179
 20
0.5444428629034526
 30
0.0
 10
13.56951420556653
 20
0.5746663905216692
 30
0.0
  0
SPLINE
  5
97
330
1F
100
AcDbEntity
  8
0
  6
Continuous
 62
     1
370
    15
100
AcDbSpline
210
0.0
220
0.0
230
1.0
 70
     8
 71
     3
 72
     9
 73
     5
 74
     0
 42
0.000000001
 43
0.00000001
 40
0.0
 40
0.0
 40
0.0
 40
0.0
 40
0.5000150647592385
 40
1.0
 40
1.0
 40
1.0
 40
1.0
 10
22.11530753851918
 20
0.3840631543407399
 30
0.0
 10
22.0454468927993
 20
0.4172233256218392
 30
0.0
 10
21.90572981096793
 20
0.4835416700442544
 30
0.0
 10
21.76612757915279
 20
0.5563870769381332
 30
0.0
 10
21.69632856631924
 20
0.5928086829865561
 30
0.0
  0
LINE
  5
98
330
1F
100
AcDbEntity
  8
0
  6
Continuous
 62
     1
370
    15
100
AcDbLine
 10
21.32069663483419
 20
0.4036036818085668
 30
0.0
 11
21.2698929558124
 21
0.4307701932028966
 31
0.0
  0
LINE
  5
99
330
1F
100
AcDbEntity
  8
0
  6
Continuous
 62
     1
370
    15
100
AcDbLine
 10
10.00000000000004
 20
-1.500000000000002
 30
0.0
 11
10.50925807031026
 21
-1.500000000000002
 31
0.0
  0
LINE
  5
9A
330
1F
100
AcDbEntity
  8
0
  6
Continuous
 62
     1
370
    15
100
AcDbLine
 10
18.67178491879618
 20
1.500000000000001
 30
0.0
 11
17.94394440019109
 21
1.500000000000001
 31
0.0
  0
LINE
  5
9B
330
1F
100
AcDbEntity
  8
0
  6
Continuous
 62
     1
370
    15
100
AcDbLine
 10
17.94394440019109
 20
-1.500000000000002
 30
0.0
 11
18.67178491879618
 21
-1.500000000000002
 31
0.0
  0
LINE
  5
9C
330
1F
100
AcDbEntity
  8
0
  6
Continuous
 62
     1
370
    15
100
AcDbLine
 10
10.50925807031027
 20
1.500000000000001
 30
0.0
 11
10.00000000000004
 21
1.500000000000001
 31
0.0
  0
SPLINE
  5
9D
330
1F
100
AcDbEntity
  8
0
  6
Continuous
 62
     1
370
    15
100
AcDbSpline
210
0.0
220
0.0
230
1.0
 70
     8
 71
     3
 72
     9
 73
     5
 74
     0
 42
0.000000001
 43
0.00000001
 40
0.0
 40
0.0
 40
0.0
 40
0.0
 40
0.5184618533192679
 40
1.0
 40
1.0
 40
1.0
 40
1.0
 10
19.36260363876087
 20
-1.248215732020267
 30
0.0
 10
19.75222621799104
 20
-1.215965358713034
 30
0.0
 10
20.50372331799126
 20
-1.153761412365272
 30
0.0
 10
21.25512888441265
 20
-1.1795366228407
 30
0.0
 10
21.6169593282728
 20
-1.191948369923343
 30
0.0
  0
SPLINE
  5
9E
330
1F
100
AcDbEntity
  8
0
  6
Continuous
 62
     1
370
    15
100
AcDbSpline
210
0.0
220
0.0
230
1.0
 70
     8
 71
     3
 72
     9
 73
     5
 74
     0
 42
0.000000001
 43
0.00000001
 40
0.0
 40
0.0
 40
0.0
 40
0.0
 40
0.9842100254129963
 40
1.0
 40
1.0
 40
1.0
 40
1.0
 10
13.45498858609902
 20
1.191955131170518
 30
0.0
 10
13.0417028769003
 20
1.175952215432772
 30
0.0
 10
12.62178670197076
 20
1.159692560151338
 30
0.0
 10
12.20184446515433
 20
1.180128168439685
 30
0.0
 10
12.19521358790699
 20
1.180450846175228
 30
0.0
  0
SPLINE
  5
9F
330
1F
100
AcDbEntity
  8
0
  6
Continuous
 62
     1
370
    15
100
AcDbSpline
210
0.0
220
0.0
230
1.0
 70
     8
 71
     3
 72
    10
 73
     6
 74
     0
 42
0.000000001
 43
0.00000001
 40
0.0
 40
0.0
 40
0.0
 40
0.0
 40
0.2642231052518869
 40
0.4532064588094467
 40
1.0
 40
1.0
 40
1.0
 40
1.0
 10
11.18610021715232
 20
-1.249633467253941
 30
0.0
 10
11.38638209720741
 20
-1.231529254535729
 30
0.0
 10
11.72991390733027
 20
-1.200476155951743
 30
0.0
 10
12.48540575826772
 20
-1.163301686962126
 30
0.0
 10
13.04162990181013
 20
-1.1797394135873
 30
0.0
 10
13.45498858609901
 20
-1.191955131170519
 30
0.0
  0
SPLINE
  5
A0
330
1F
100
AcDbEntity
  8
0
  6
Continuous
 62
     1
370
    15
100
AcDbSpline
210
0.0
220
0.0
230
1.0
 70
     8
 71
     3
 72
     9
 73
     5
 74
     0
 42
0.000000001
 43
0.00000001
 40
0.0
 40
0.0
 40
0.0
 40
0.0
 40
0.8902284029948475
 40
1.0
 40
1.0
 40
1.0
 40
1.0
 10
21.6169593282728
 20
1.191948369923343
 30
0.0
 10
21.22986520093487
 20
1.173558456719172
 30
0.0
 10
20.79503956962981
 20
1.152900934287507
 30
0.0
 10
20.36015439720256
 20
1.183071458722072
 30
0.0
 10
20.31241635731136
 20
1.186383325371737
 30
0.0
  0
SPLINE
  5
A1
330
1F
100
AcDbEntity
  8
0
  6
Continuous
 62
     1
370
    15
100
AcDbSpline
210
0.0
220
0.0
230
1.0
 70
     8
 71
     3
 72
    11
 73
     7
 74
     0
 42
0.000000001
 43
0.00000001
 40
0.0
 40
0.0
 40
0.0
 40
0.0
 40
0.3851139983974847
 40
0.6459704947316346
 40
0.8632624015710676
 40
1.0
 40
1.0
 40
1.0
 40
1.0
 10
22.82186229234316
 20
-1.12825675840894
 30
0.0
 10
22.96537502853558
 20
-1.107028320767978
 30
0.0
 10
23.2060959412634
 20
-1.071420826824956
 30
0.0
 10
23.5263727319534
 20
-1.036830806911009
 30
0.0
 10
23.75520389490497
 20
-1.016702144611817
 30
0.0
 10
23.88683587297287
 20
-1.009094012973307
 30
0.0
 10
23.93767638284454
 20
-1.006155507472212
 30
0.0
  0
SPLINE
  5
A2
330
1F
100
AcDbEntity
  8
0
  6
Continuous
 62
     1
370
    15
100
AcDbSpline
210
0.0
220
0.0
230
1.0
 70
     8
 71
     3
 72
    16
 73
    12
 74
     0
 42
0.000000001
 43
0.00000001
 40
0.0
 40
0.0
 40
0.0
 40
0.0
 40
0.1501999570415268
 40
0.2433422642097345
 40
0.3069508840851971
 40
0.3739556360515102
 40
0.4473561841375251
 40
0.5530326346940645
 40
0.6650993146648538
 40
0.8065526808645976
 40
1.0
 40
1.0
 40
1.0
 40
1.0
 10
17.27961151779368
 20
1.025894011706978
 30
0.0
 10
17.14823070553454
 20
1.015914663211846
 30
0.0
 10
16.93537775298667
 20
0.9997469005441645
 30
0.0
 10
16.66799641958242
 20
0.9903105465540353
 30
0.0
 10
16.4725527154905
 20
0.9869759004111062
 30
0.0
 10
16.29441137851055
 20
0.9869663073631336
 30
0.0
 10
16.07963969537777
 20
0.9907906719792593
 30
0.0
 10
15.8258750655262
 20
1.001262146930285
 30
0.0
 10
15.51197689571695
 20
1.022690597165228
 30
0.0
 10
15.12248741076838
 20
1.060533734311732
 30
0.0
 10
14.82964777397064
 20
1.103388375208125
 30
0.0
 10
14.66049600702691
 20
1.128142326922561
 30
0.0
  0
SPLINE
  5
A3
330
1F
100
AcDbEntity
  8
0
  6
Continuous
 62
     1
370
    15
100
AcDbSpline
210
0.0
220
0.0
230
1.0
 70
     8
 71
     3
 72
    12
 73
     8
 74
     0
 42
0.000000001
 43
0.00000001
 40
0.0
 40
0.0
 40
0.0
 40
0.0
 40
0.3528546598867541
 40
0.5698787000941025
 40
0.7183789865265116
 40
0.8749057979465241
 40
1.0
 40
1.0
 40
1.0
 40
1.0
 10
14.66049600702691
 20
-1.128142326922562
 30
0.0
 10
14.79218130330071
 20
-1.108622913228958
 30
0.0
 10
15.00485993275711
 20
-1.077098040903677
 30
0.0
 10
15.27157834550623
 20
-1.046494219082773
 30
0.0
 10
15.46610409001432
 20
-1.027866985454405
 30
0.0
 10
15.62625693166187
 20
-1.014704954524071
 30
0.0
 10
15.7311129115918
 20
-1.008463335787882
 30
0.0
 10
15.77768924827238
 20
-1.0056908497944
 30
0.0
  0
SPLINE
  5
A4
330
1F
100
AcDbEntity
  8
0
  6
Continuous
 62
     1
370
    15
100
AcDbSpline
210
0.0
220
0.0
230
1.0
 70
     8
 71
     3
 72
    16
 73
    12
 74
     0
 42
0.000000001
 43
0.00000001
 40
0.0
 40
0.0
 40
0.0
 40
0.0
 40
0.1670622898040963
 40
0.2663901357988923
 40
0.3492448575367795
 40
0.4465794644628954
 40
0.5370565927510446
 40
0.6344374173878644
 40
0.7264532291507493
 40
0.8369171788345512
 40
1.0
 40
1.0
 40
1.0
 40
1.0
 10
25.45877575519145
 20
1.027335119618965
 30
0.0
 10
25.31115701514876
 20
1.016084815088531
 30
0.0
 10
25.0757707035368
 20
0.9981455772440393
 30
0.0
 10
24.76897400232398
 20
0.9885980489938115
 30
0.0
 10
24.52344280995209
 20
0.9861966903088853
 30
0.0
 10
24.28566322489215
 20
0.9894649949860375
 30
0.0
 10
24.03570887237512
 20
0.9990809146675871
 30
0.0
 10
23.78986197994632
 20
1.01424847795234
 30
0.0
 10
23.52638387027199
 20
1.036641966115581
 30
0.0
 10
23.206091252984
 20
1.07150031264724
 30
0.0
 10
22.9653732774453
 20
1.10705800902635
 30
0.0
 10
22.82186229234316
 20
1.12825675840894
 30
0.0
  0
LINE
  5
A5
330
1F
100
AcDbEntity
  8
0
  6
Continuous
 62
   131
370
    15
100
AcDbLine
 10
9.109925104490621
 20
1.499999999999999
 30
0.0
 11
-73.61999999999996
 21
1.499999999999994
 31
0.0
  0
LINE
  5
A6
330
1F
100
AcDbEntity
  8
0
  6
Continuous
 62
   131
370
    15
100
AcDbLine
 10
10.00000000000004
 20
1.499999999999999
 30
0.0
 11
9.782868655254422
 21
1.499999999999999
 31
0.0
  0
LINE
  5
A7
330
1F
100
AcDbEntity
  8
0
  6
Continuous
 62
   131
370
    15
100
AcDbLine
 10
9.782868655254411
 20
-1.500000000000001
 30
0.0
 11
10.00000000000004
 21
-1.500000000000001
 31
0.0
  0
LINE
  5
A8
330
1F
100
AcDbEntity
  8
0
  6
Continuous
 62
   131
370
    15
100
AcDbLine
 10
-73.61999999999996
 20
-1.500000000000006
 30
0.0
 11
9.109925104490621
 21
-1.500000000000001
 31
0.0
  0
LINE
  5
A9
330
1F
100
AcDbEntity
  8
0
  6
Continuous
 62
   131
370
    15
100
AcDbLine
 10
-73.61999999999996
 20
1.499999999999989
 30
0.0
 11
-73.99999999999999
 21
1.119999999999988
 31
0.0
  0
LINE
  5
AA
330
1F
100
AcDbEntity
  8
0
  6
Continuous
 62
   131
370
    15
100
AcDbLine
 10
-73.99999999999999
 20
-1.120000000000001
 30
0.0
 11
-73.61999999999996
 21
-1.500000000000001
 31
0.0
  0
SPLINE
  5
AB
330
1F
100
AcDbEntity
  8
0
  6
Continuous
 62
   131
370
    15
100
AcDbSpline
210
0.0
220
0.0
230
1.0
 70
     8
 71
     3
 72
     9
 73
     5
 74
     0
 42
0.000000001
 43
0.00000001
 40
0.0
 40
0.0
 40
0.0
 40
0.0
 40
0.4993687999067393
 40
1.0
 40
1.0
 40
1.0
 40
1.0
 10
9.222678584591574
 20
1.034070665015217
 30
0.0
 10
9.202962200766626
 20
1.03202051027602
 30
0.0
 10
9.16347959026187
 20
1.027915018023442
 30
0.0
 10
9.124190926920393
 20
1.023997516480573
 30
0.0
 10
9.10452179624169
 20
1.0220362929818
 30
0.0
  0
SPLINE
  5
AC
330
1F
100
AcDbEntity
  8
0
  6
Continuous
 62
     1
370
    15
100
AcDbSpline
210
0.0
220
0.0
230
1.0
 70
     8
 71
     3
 72
    18
 73
    14
 74
     0
 42
0.000000001
 43
0.00000001
 40
0.0
 40
0.0
 40
0.0
 40
0.0
 40
0.0650010774189082
 40
0.1726416745850107
 40
0.2804138926426527
 40
0.3882581108557468
 40
0.4961117103696607
 40
0.603911922624258
 40
0.7115968291599472
 40
0.7967508488272602
 40
0.8818688103698604
 40
0.9669581698444601
 40
1.0
 40
1.0
 40
1.0
 40
1.0
 10
20.30288167634573
 20
-1.189408622968136
 30
0.0
 10
20.09067612388666
 20
-1.2639387101055
 30
0.0
 10
19.52706205182028
 20
-1.461889260485429
 30
0.0
 10
18.61177607145341
 20
-1.535918979084164
 30
0.0
 10
17.55622660991783
 20
-1.403162758527715
 30
0.0
 10
16.49988480417327
 20
-1.033330878605274
 30
0.0
 10
15.4434167003441
 20
-0.4975366867361048
 30
0.0
 10
14.38759521103698
 20
0.1199030673672469
 30
0.0
 10
13.40604025630381
 20
0.675566237181047
 30
0.0
 10
12.49900666812871
 20
1.101266750339403
 30
0.0
 10
11.66570075607354
 20
1.371042256652166
 30
0.0
 10
11.00250483477191
 20
1.502965014453944
 30
0.0
 10
10.61706683036028
 20
1.486374608489448
 30
0.0
 10
10.50925807031026
 20
1.481734196606636
 30
0.0
  0
SPLINE
  5
AD
330
1F
100
AcDbEntity
  8
0
  6
Continuous
 62
     1
370
    15
100
AcDbSpline
210
0.0
220
0.0
230
1.0
 70
     8
 71
     3
 72
    13
 73
     9
 74
     0
 42
0.000000001
 43
0.00000001
 40
0.0
 40
0.0
 40
0.0
 40
0.0
 40
0.1391706163484395
 40
0.3337963314186804
 40
0.5285578871090371
 40
0.723337142697841
 40
0.9180156728557981
 40
1.0
 40
1.0
 40
1.0
 40
1.0
 10
19.36688310071904
 20
-1.226658657799784
 30
0.0
 10
19.11530985572502
 20
-1.250229981736699
 30
0.0
 10
18.51191936665904
 20
-1.30676505834457
 30
0.0
 10
17.55621324177519
 20
-1.151971394358747
 30
0.0
 10
16.49987929698057
 20
-0.8190231278471999
 30
0.0
 10
15.44343978975365
 20
-0.3494244353172091
 30
0.0
 10
14.59096247157168
 20
0.0857339449703309
 30
0.0
 10
14.09081155505812
 20
0.3127742710157697
 30
0.0
 10
13.9426003467999
 20
0.3800538059231475
 30
0.0
  0
SPLINE
  5
AE
330
1F
100
AcDbEntity
  8
0
  6
Continuous
 62
     1
370
    15
100
AcDbSpline
210
0.0
220
0.0
230
1.0
 70
     8
 71
     3
 72
    14
 73
    10
 74
     0
 42
0.000000001
 43
0.00000001
 40
0.0
 40
0.0
 40
0.0
 40
0.0
 40
0.1438951005312093
 40
0.2879605391247694
 40
0.4321139362319927
 40
0.576271513352454
 40
0.7203494252775708
 40
0.8642650946277622
 40
1.0
 40
1.0
 40
1.0
 40
1.0
 10
26.00000000000004
 20
-1.42341130384785
 30
0.0
 10
25.64858265254582
 20
-1.336435370617642
 30
0.0
 10
24.94533196188893
 20
-1.162380545044074
 30
0.0
 10
23.88968582802957
 20
-0.6500436554681517
 30
0.0
 10
22.83329418716266
 20
-0.0487703288392011
 30
0.0
 10
21.77686565484709
 20
0.566358071773283
 30
0.0
 10
20.72111120581275
 20
1.082576304394014
 30
0.0
 10
19.68625840469026
 20
1.436153705932694
 30
0.0
 10
19.00328293499813
 20
1.474742422919274
 30
0.0
 10
18.67178491879618
 20
1.493472353489982
 30
0.0
  0
SPLINE
  5
AF
330
1F
100
AcDbEntity
  8
0
  6
Continuous
 62
     1
370
    15
100
AcDbSpline
210
0.0
220
0.0
230
1.0
 70
     8
 71
     3
 72
    10
 73
     6
 74
     0
 42
0.000000001
 43
0.00000001
 40
0.0
 40
0.0
 40
0.0
 40
0.0
 40
0.2412328836487435
 40
0.6206633448331419
 40
1.0
 40
1.0
 40
1.0
 40
1.0
 10
12.19521358790699
 20
-1.180450846175229
 30
0.0
 10
12.01868002622157
 20
-1.242670366613822
 30
0.0
 10
11.56448029518272
 20
-1.402753747806416
 30
0.0
 10
10.83274807671095
 20
-1.517999556080822
 30
0.0
 10
10.27755981301912
 20
-1.486867432226875
 30
0.0
 10
10.00000000000364
 20
-1.47130329472473
 30
0.0
  0
SPLINE
  5
B0
330
1F
100
AcDbEntity
  8
0
  6
Continuous
 62
   131
370
    15
100
AcDbSpline
210
0.0
220
0.0
230
1.0
 70
    24
 71
     3
 72
     8
 73
     4
 74
     0
 42
0.000000001
 43
0.00000001
 40
0.0
 40
0.0
 40
0.0
 40
0.0
 40
1.0
 40
1.0
 40
1.0
 40
1.0
 10
10.00000000000004
 20
-1.233374462754156
 30
0.0
 10
10.00000000000004
 20
-1.313083156414249
 30
0.0
 10
10.00000000000004
 20
-1.392904263232838
 30
0.0
 10
10.00000000000004
 20
-1.471303294717078
 30
0.0
  0
SPLINE
  5
B1
330
1F
100
AcDbEntity
  8
0
  6
Continuous
 62
     1
370
    15
100
AcDbSpline
210
0.0
220
0.0
230
1.0
 70
     8
 71
     3
 72
    11
 73
     7
 74
     0
 42
0.000000001
 43
0.00000001
 40
0.0
 40
0.0
 40
0.0
 40
0.0
 40
0.2705016925031036
 40
0.541337914242846
 40
0.8123468898549397
 40
1.0
 40
1.0
 40
1.0
 40
1.0
 10
26.00000000000004
 20
-1.183458396552323
 30
0.0
 10
25.64857825095746
 20
-1.100065605104494
 30
0.0
 10
24.94530014986351
 20
-0.9331768904073074
 30
0.0
 10
23.88967330936919
 20
-0.4813901555237865
 30
0.0
 10
22.94162846183048
 20
-0.0110129146225287
 30
0.0
 10
22.34556646760491
 20
0.2694006010140839
 30
0.0
 10
22.10169872590778
 20
0.3841266051246169
 30
0.0
  0
SPLINE
  5
B2
330
1F
100
AcDbEntity
  8
0
  6
Continuous
 62
     1
370
    15
100
AcDbSpline
210
0.0
220
0.0
230
1.0
 70
     8
 71
     3
 72
     9
 73
     5
 74
     0
 42
0.000000001
 43
0.00000001
 40
0.0
 40
0.0
 40
0.0
 40
0.0
 40
0.4850916955838684
 40
0.9999999999999999
 40
0.9999999999999999
 40
0.9999999999999999
 40
0.9999999999999999
 10
11.18668138988724
 20
-1.24763321102176
 30
0.0
 10
10.99476555375529
 20
-1.261998055307481
 30
0.0
 10
10.59913759747589
 20
-1.291610692292395
 30
0.0
 10
10.20364329875878
 20
-1.253168610109292
 30
0.0
 10
10.00000000000012
 20
-1.233374462754165
 30
0.0
  0
LINE
  5
B3
330
1F
100
AcDbEntity
  8
0
  6
Continuous
 62
     1
370
    15
100
AcDbLine
 10
26.00000000000004
 20
-1.423411303847851
 30
0.0
 11
26.00000000000004
 21
-1.183458396552323
 31
0.0
  0
SPLINE
  5
B4
330
1F
100
AcDbEntity
  8
0
  6
Continuous
 62
     1
370
    15
100
AcDbSpline
210
0.0
220
0.0
230
1.0
 70
     8
 71
     3
 72
    26
 73
    22
 74
     0
 42
0.000000001
 43
0.00000001
 40
0.0
 40
0.0
 40
0.0
 40
0.0
 40
0.0592741809632318
 40
0.1190380750111355
 40
0.173504595215963
 40
0.2283508680436646
 40
0.2827439487820072
 40
0.3375155157338515
 40
0.3918877650653245
 40
0.4466382982833206
 40
0.5009833157119433
 40
0.5557062489718023
 40
0.6100151230508211
 40
0.6647013421093915
 40
0.7189628143014403
 40
0.7736008331261423
 40
0.8278005405598999
 40
0.8823757395512144
 40
0.9364951403811345
 40
0.9909886846539924
 40
1.0
 40
1.0
 40
1.0
 40
1.0
 10
10.00000000000004
 20
1.494724015815059
 30
0.0
 10
10.15715135664588
 20
1.482486863370228
 30
0.0
 10
10.47275242740742
 20
1.457911457232537
 30
0.0
 10
10.93139366187156
 20
1.361688937334955
 30
0.0
 10
11.37998126131716
 20
1.231845869747976
 30
0.0
 10
11.8124715075739
 20
1.069122438597076
 30
0.0
 10
12.24784154624752
 20
0.8790994794489186
 30
0.0
 10
12.67970564975895
 20
0.6620132945126297
 30
0.0
 10
13.11489930711951
 20
0.4297353552427791
 30
0.0
 10
13.54648424847967
 20
0.1820838921657531
 30
0.0
 10
13.98153039393349
 20
-0.0668629047852728
 30
0.0
 10
14.41286003840147
 20
-0.3176195623143097
 30
0.0
 10
14.84761319688237
 20
-0.5558711906200087
 30
0.0
 10
15.2786943420494
 20
-0.7819763173060421
 30
0.0
 10
15.71298675959533
 20
-0.9833816699114628
 30
0.0
 10
16.14380867428746
 20
-1.16005427759596
 30
0.0
 10
16.57744926850594
 20
-1.302174028075153
 30
0.0
 10
17.00796301985876
 20
-1.411718464027208
 30
0.0
 10
17.44078640944722
 20
-1.473487145101196
 30
0.0
 10
17.75171475207801
 20
-1.510844430046572
 30
0.0
 10
17.9200567367996
 20
-1.495883527934144
 30
0.0
 10
17.94394440019109
 20
-1.493760581633578
 30
0.0
  0
SPLINE
  5
B5
330
1F
100
AcDbEntity
  8
0
  6
Continuous
 62
     1
370
    15
100
AcDbSpline
210
0.0
220
0.0
230
1.0
 70
     8
 71
     3
 72
    12
 73
     8
 74
     0
 42
0.000000001
 43
0.00000001
 40
0.0
 40
0.0
 40
0.0
 40
0.0
 40
0.0032598413602611
 40
0.2119303223752548
 40
0.4220364792378424
 40
0.7091343497184346
 40
1.0
 40
1.0
 40
1.0
 40
1.0
 10
23.93733412731616
 20
1.006176619540281
 30
0.0
 10
23.93957757598987
 20
1.007199594626356
 30
0.0
 10
24.08542970439346
 20
1.073705726616861
 30
0.0
 10
24.37458533438123
 20
1.183367032115051
 30
0.0
 10
24.86109937607466
 20
1.338861256110143
 30
0.0
 10
25.40208968287073
 20
1.461596264904014
 30
0.0
 10
25.79983225817227
 20
1.486299888715764
 30
0.0
 10
25.9999999999999
 20
1.50000000000005
 30
0.0
  0
SPLINE
  5
B6
330
1F
100
AcDbEntity
  8
0
  6
Continuous
 62
     1
370
    15
100
AcDbSpline
210
0.0
220
0.0
230
1.0
 70
    24
 71
     3
 72
    10
 73
     6
 74
     0
 42
0.000000001
 43
0.00000001
 40
0.0
 40
0.0
 40
0.0
 40
0.0
 40
0.5
 40
0.5
 40
1.0
 40
1.0
 40
1.0
 40
1.0
 10
26.00000000000004
 20
1.050000000000001
 30
0.0
 10
26.00000000000004
 20
1.113648385210972
 30
0.0
 10
26.00000000000004
 20
1.187613703300676
 30
0.0
 10
26.00000000000004
 20
1.342792741441284
 30
0.0
 10
26.00000000000004
 20
1.423610153702211
 30
0.0
 10
25.9999999999999
 20
1.50000000000005
 30
0.0
  0
LINE
  5
B7
330
1F
100
AcDbEntity
  8
0
  6
Continuous
 62
     1
370
    15
100
AcDbLine
 10
26.00000000000004
 20
1.050000000000001
 30
0.0
 11
25.4535640578613
 21
1.005732616456201
 31
0.0
  0
SPLINE
  5
B8
330
1F
100
AcDbEntity
  8
0
  6
Continuous
 62
     1
370
    15
100
AcDbSpline
210
0.0
220
0.0
230
1.0
 70
     8
 71
     3
 72
    11
 73
     7
 74
     0
 42
0.000000001
 43
0.00000001
 40
0.0
 40
0.0
 40
0.0
 40
0.0
 40
0.1892669058978439
 40
0.4457473448101811
 40
0.7025700647197174
 40
1.0
 40
1.0
 40
1.0
 40
1.0
 10
14.11046431962072
 20
-0.1415553351177032
 30
0.0
 10
13.85118042058627
 20
-0.036797921595579
 30
0.0
 10
13.24053425929161
 20
0.2099189500368696
 30
0.0
 10
12.2781572250897
 20
0.5801159714235297
 30
0.0
 10
11.16753924848047
 20
0.9189652009703594
 30
0.0
 10
10.40773537817778
 20
0.9989065482558571
 30
0.0
 10
10.00000000000004
 20
1.041805665701134
 30
0.0
  0
SPLINE
  5
B9
330
1F
100
AcDbEntity
  8
0
  6
Continuous
 62
   131
370
    15
100
AcDbSpline
210
0.0
220
0.0
230
1.0
 70
    24
 71
     3
 72
    10
 73
     6
 74
     0
 42
0.000000001
 43
0.00000001
 40
0.0
 40
0.0
 40
0.0
 40
0.0
 40
0.5
 40
0.5
 40
1.0
 40
1.0
 40
1.0
 40
1.0
 10
10.00000000000215
 20
1.494724015802843
 30
0.0
 10
10.00000000000215
 20
1.422584945969723
 30
0.0
 10
10.00000000000215
 20
1.34296674566827
 30
0.0
 10
10.00000000000215
 20
1.186236446953941
 30
0.0
 10
10.00000000000215
 20
1.109539329556467
 30
0.0
 10
10.00000000000215
 20
1.041805665701027
 30
0.0
  0
SPLINE
  5
BA
330
1F
100
AcDbEntity
  8
0
  6
Continuous
 62
     1
370
    15
100
AcDbSpline
210
0.0
220
0.0
230
1.0
 70
     8
 71
     3
 72
    20
 73
    16
 74
     0
 42
0.000000001
 43
0.00000001
 40
0.0
 40
0.0
 40
0.0
 40
0.0
 40
0.0338668602772317
 40
0.1185753272539915
 40
0.2031579460774264
 40
0.287619932825981
 40
0.3744766572141542
 40
0.4596496381006761
 40
0.5443281247121027
 40
0.6290057980575867
 40
0.7136828364930929
 40
0.798359386414974
 40
0.8830355671106763
 40
0.9411365343831662
 40
1.0
 40
1.0
 40
1.0
 40
1.0
 10
15.79982740348843
 20
1.00438591275346
 30
0.0
 10
15.91498476404133
 20
1.056475090687136
 30
0.0
 10
16.31817601358407
 20
1.238850760274355
 30
0.0
 10
17.00899415654796
 20
1.425698043973091
 30
0.0
 10
17.87187380528871
 20
1.5283016182428
 30
0.0
 10
18.74210040421011
 20
1.456855618346588
 30
0.0
 10
19.61432431610987
 20
1.223961229214679
 30
0.0
 10
20.48726498114613
 20
0.8531383400671287
 30
0.0
 10
21.35276821623205
 20
0.3918290628116479
 30
0.0
 10
22.21655034780929
 20
-0.1116152952642959
 30
0.0
 10
23.08035200146479
 20
-0.6026607817095759
 30
0.0
 10
23.94395699651771
 20
-1.02847644852881
 30
0.0
 10
24.71778324295582
 20
-1.306412433018474
 30
0.0
 10
25.40215725152874
 20
-1.461597637352202
 30
0.0
 10
25.79985487873142
 20
-1.486300348182421
 30
0.0
 10
25.99999999999997
 20
-1.499999999999943
 30
0.0
  0
SPLINE
  5
BB
330
1F
100
AcDbEntity
  8
0
  6
Continuous
 62
     1
370
    15
100
AcDbSpline
210
0.0
220
0.0
230
1.0
 70
     8
 71
     3
 72
    13
 73
     9
 74
     0
 42
0.000000001
 43
0.00000001
 40
0.0
 40
0.0
 40
0.0
 40
0.0
 40
0.0977518720408244
 40
0.3094046449171312
 40
0.5207982563950336
 40
0.7321287632010647
 40
0.9437403140677528
 40
1.0
 40
1.0
 40
1.0
 40
1.0
 10
22.26440516696223
 20
-0.1362643957220804
 30
0.0
 10
22.10183635655262
 20
-0.0718758952348094
 30
0.0
 10
21.58727286012795
 20
0.131926862851404
 30
0.0
 10
20.72119198327854
 20
0.4799832750308989
 30
0.0
 10
19.66639669088787
 20
0.8247272588344935
 30
0.0
 10
18.61172817734182
 20
1.023890099488975
 30
0.0
 10
17.81483646696497
 20
1.083643414256808
 30
0.0
 10
17.36934989768994
 20
1.022180033131248
 30
0.0
 10
17.27578653204474
 20
1.009271179759082
 30
0.0
  0
LINE
  5
BC
330
1F
100
AcDbEntity
  8
0
  6
Continuous
 62
     1
370
    15
100
AcDbLine
 10
25.99999999999997
 20
-1.499999999999943
 30
0.0
 11
25.9999999999999
 21
-1.423411303847853
 31
0.0
  0
LINE
  5
BD
330
1F
100
AcDbEntity
  8
0
  6
Continuous
 62
   131
370
    15
100
AcDbLine
 10
10.00000000000004
 20
1.494724015817173
 30
0.0
 11
10.00000000000004
 21
1.500000000000001
 31
0.0
  0
SPLINE
  5
BE
330
1F
100
AcDbEntity
  8
0
  6
Continuous
 62
     1
370
    15
100
AcDbSpline
210
0.0
220
0.0
230
1.0
 70
     8
 71
     3
 72
     8
 73
     4
 74
     0
 42
0.000000001
 43
0.00000001
 40
0.0
 40
0.0
 40
0.0
 40
0.0
 40
1.0
 40
1.0
 40
1.0
 40
1.0
 10
25.07164556936051
 20
0.4198106250614957
 30
0.0
 10
25.00438551366921
 20
0.4994278928804097
 30
0.0
 10
24.94604748673775
 20
0.5755240816840961
 30
0.0
 10
24.90003162498962
 20
0.646279694695949
 30
0.0
  0
LINE
  5
BF
330
1F
100
AcDbEntity
  8
0
  6
Continuous
 62
     1
370
    15
100
AcDbLine
 10
24.90003162498962
 20
0.646279694695948
 30
0.0
 11
26.00000000000004
 21
0.0000000000000011
 31
0.0
  0
LINE
  5
C0
330
1F
100
AcDbEntity
  8
0
  6
Continuous
 62
     1
370
    15
100
AcDbLine
 10
26.00000000000004
 20
0.0000000000000011
 30
0.0
 11
26.00000000000004
 21
-0.4008644190444661
 31
0.0
  0
SPLINE
  5
C1
330
1F
100
AcDbEntity
  8
0
  6
Continuous
 62
     1
370
    15
100
AcDbSpline
210
0.0
220
0.0
230
1.0
 70
     8
 71
     3
 72
    10
 73
     6
 74
     0
 42
0.000000001
 43
0.00000001
 40
0.0
 40
0.0
 40
0.0
 40
0.0
 40
0.5
 40
0.5
 40
1.0
 40
1.0
 40
1.0
 40
1.0
 10
26.00000000000004
 20
-0.4008644190444662
 30
0.0
 10
25.83929495688483
 20
-0.2745204871375542
 30
0.0
 10
25.68127660516039
 20
-0.1429921789881841
 30
0.0
 10
25.37073775038451
 20
0.1306733655047754
 30
0.0
 10
25.21675763493338
 20
0.2742501368963212
 30
0.0
 10
25.07164556936051
 20
0.4198106250614946
 30
0.0
  0
SPLINE
  5
C2
330
1F
100
AcDbEntity
  8
0
  6
Continuous
 62
     1
370
    15
100
AcDbSpline
210
0.0
220
0.0
230
1.0
 70
     8
 71
     3
 72
    16
 73
    12
 74
     0
 42
0.000000001
 43
0.00000001
 40
0.0
 40
0.0
 40
0.0
 40
0.0
 40
0.1116101076685334
 40
0.2243230212484471
 40
0.3369015045380881
 40
0.4494472618474648
 40
0.5621387990756391
 40
0.674910097671255
 40
0.7876918007465941
 40
0.9004143837453674
 40
1.0
 40
1.0
 40
1.0
 40
1.0
 10
22.82236217930728
 20
-1.127197542476153
 30
0.0
 10
22.47380401476492
 20
-1.164617031687686
 30
0.0
 10
21.77324362481198
 20
-1.23982574753656
 30
0.0
 10
20.72116973817721
 20
-1.102590879151513
 30
0.0
 10
19.66638756307517
 20
-0.7989010067692102
 30
0.0
 10
18.61174710598236
 20
-0.3612730934255303
 30
0.0
 10
17.55623428341717
 20
0.1335847639598332
 30
0.0
 10
16.4999074989688
 20
0.6084271943817116
 30
0.0
 10
15.4434702826188
 20
0.9792621492882958
 30
0.0
 10
14.42826372346276
 20
1.199927720607177
 30
0.0
 10
13.76539793794228
 20
1.187606255215817
 30
0.0
 10
13.45447307504342
 20
1.181826729373322
 30
0.0
  0
SPLINE
  5
C3
330
1F
100
AcDbEntity
  8
0
  6
Continuous
 62
   131
370
    15
100
AcDbSpline
210
0.0
220
0.0
230
1.0
 70
    24
 71
     3
 72
    10
 73
     6
 74
     0
 42
0.000000001
 43
0.00000001
 40
0.0
 40
0.0
 40
0.0
 40
0.0
 40
0.4999999999999999
 40
0.4999999999999999
 40
1.0
 40
1.0
 40
1.0
 40
1.0
 10
10.00000000000006
 20
-0.1496268224912845
 30
0.0
 10
10.00000000000006
 20
-0.3743138706166642
 30
0.0
 10
10.00000000000006
 20
-0.5977593552710821
 30
0.0
 10
10.00000000000006
 20
-0.9765828579894207
 30
0.0
 10
10.00000000000006
 20
-1.130330271605139
 30
0.0
 10
10.00000000000006
 20
-1.233374462754157
 30
0.0
  0
SPLINE
  5
C4
330
1F
100
AcDbEntity
  8
0
  6
Continuous
 62
     1
370
    15
100
AcDbSpline
210
0.0
220
0.0
230
1.0
 70
     8
 71
     3
 72
    12
 73
     8
 74
     0
 42
0.000000001
 43
0.00000001
 40
0.0
 40
0.0
 40
0.0
 40
0.0
 40
0.1715655171990508
 40
0.3422368297018336
 40
0.6479130472991184
 40
0.9535986657953512
 40
1.0
 40
1.0
 40
1.0
 40
1.0
 10
25.07164553488534
 20
0.4198106401104088
 30
0.0
 10
24.87405330673533
 20
0.5028721938413752
 30
0.0
 10
24.47989870714105
 20
0.6685623819577531
 30
0.0
 10
23.73482487516981
 20
0.9355018597153087
 30
0.0
 10
22.83314616897405
 20
1.146319904134975
 30
0.0
 10
22.07541994239313
 20
1.238150247273013
 30
0.0
 10
21.66978228009769
 20
1.186307706851421
 30
0.0
 10
21.61632352909945
 20
1.179475408677157
 30
0.0
  0
SPLINE
  5
C5
330
1F
100
AcDbEntity
  8
0
  6
Continuous
 62
     1
370
    15
100
AcDbSpline
210
0.0
220
0.0
230
1.0
 70
     8
 71
     3
 72
    13
 73
     9
 74
     0
 42
0.000000001
 43
0.00000001
 40
0.0
 40
0.0
 40
0.0
 40
0.0
 40
0.060259874016931
 40
0.286134904777231
 40
0.5118869008235338
 40
0.7379323378719762
 40
0.8690673763139106
 40
1.0
 40
1.0
 40
1.0
 40
1.0
 10
14.66868776618211
 20
-1.109061050272379
 30
0.0
 10
14.57488352525313
 20
-1.129170068836507
 30
0.0
 10
14.12946826370821
 20
-1.224654704439858
 30
0.0
 10
13.33277676983403
 20
-1.208279311361579
 30
0.0
 10
12.27824935643556
 20
-1.041324964539507
 30
0.0
 10
11.37062843520668
 20
-0.7393314163986159
 30
0.0
 10
10.61128633618029
 20
-0.4273472381253689
 30
0.0
 10
10.20365716440575
 20
-0.2421526144123602
 30
0.0
 10
10.00000000000004
 20
-0.149626822491277
 30
0.0
  0
SPLINE
  5
C6
330
1F
100
AcDbEntity
  8
0
  6
Continuous
 62
     1
370
    15
100
AcDbSpline
210
0.0
220
0.0
230
1.0
 70
    24
 71
     3
 72
    10
 73
     6
 74
     0
 42
0.000000001
 43
0.00000001
 40
0.0
 40
0.0
 40
0.0
 40
0.0
 40
0.5
 40
0.5
 40
1.0
 40
1.0
 40
1.0
 40
1.0
 10
26.00000000000004
 20
-1.183458396552323
 30
0.0
 10
26.00000000000004
 20
-1.092737083505706
 30
0.0
 10
26.00000000000005
 20
-0.978107225859702
 30
0.0
 10
26.00000000000004
 20
-0.7116038387260192
 30
0.0
 10
26.00000000000004
 20
-0.559961164576964
 30
0.0
 10
26.00000000000004
 20
-0.4008644190445143
 30
0.0
  0
SPLINE
  5
C7
330
1F
100
AcDbEntity
  8
0
  6
Continuous
 62
   131
370
    15
100
AcDbSpline
210
0.0
220
0.0
230
1.0
 70
    24
 71
     3
 72
    10
 73
     6
 74
     0
 42
0.000000001
 43
0.00000001
 40
0.0
 40
0.0
 40
0.0
 40
0.0
 40
0.5
 40
0.5
 40
1.0
 40
1.0
 40
1.0
 40
1.0
 10
10.0
 20
1.041805665701135
 30
0.0
 10
10.0
 20
0.9532926215478232
 30
0.0
 10
10.0
 20
0.7943478350863549
 30
0.0
 10
10.0
 20
0.3708440281403237
 30
0.0
 10
10.0
 20
0.1095663516803356
 30
0.0
 10
10.0
 20
-0.1496268224912611
 30
0.0
  0
SPLINE
  5
C8
330
1F
100
AcDbEntity
  8
0
  6
Continuous
 62
     1
370
    15
100
AcDbSpline
210
0.0
220
0.0
230
1.0
 70
     8
 71
     3
 72
    10
 73
     6
 74
     0
 42
0.000000001
 43
0.00000001
 40
0.0
 40
0.0
 40
0.0
 40
0.0
 40
0.5
 40
0.5
 40
1.0
 40
1.0
 40
1.0
 40
1.0
 10
26.00000000000004
 20
1.050000000000001
 30
0.0
 10
25.8133330656224
 20
0.9992646357837641
 30
0.0
 10
25.6280317354226
 20
0.9413115908220777
 30
0.0
 10
25.26067742391584
 20
0.8082368764621206
 30
0.0
 10
25.07849426863601
 20
0.7336544459778017
 30
0.0
 10
24.90003162498844
 20
0.6462796946968217
 30
0.0
  0
LINE
  5
C9
330
1F
100
AcDbEntity
  8
0
  6
Continuous
 62
     1
370
    15
100
AcDbLine
 10
26.00000000000004
 20
0.0000000000000011
 30
0.0
 11
26.00000000000004
 21
1.050000000000001
 31
0.0
  0
SPLINE
  5
CA
330
1F
100
AcDbEntity
  8
0
  6
Continuous
 62
   131
370
    15
100
AcDbSpline
210
0.0
220
0.0
230
1.0
 70
     8
 71
     3
 72
    10
 73
     6
 74
     0
 42
0.000000001
 43
0.00000001
 40
0.0
 40
0.0
 40
0.0
 40
0.0
 40
0.5000000000000001
 40
0.5000000000000001
 40
1.0
 40
1.0
 40
1.0
 40
1.0
 10
10.00000000000643
 20
-1.47130329472504
 30
0.0
 10
9.850763434229261
 20
-1.454594758113006
 30
0.0
 10
9.704611548133705
 20
-1.430808213699984
 30
0.0
 10
9.409275773169986
 20
-1.369432244027161
 30
0.0
 10
9.259149663719505
 20
-1.331696470063008
 30
0.0
 10
9.10984649666789
 20
-1.287667088770462
 30
0.0
  0
LINE
  5
CB
330
1F
100
AcDbEntity
  8
0
  6
Continuous
 62
   131
370
    15
100
AcDbLine
 10
9.109925104490621
 20
-1.450077951483223
 30
0.0
 11
9.782868655254415
 21
-1.483832730109913
 31
0.0
  0
LINE
  5
CC
330
1F
100
AcDbEntity
  8
0
  6
Continuous
 62
   131
370
    15
100
AcDbLine
 10
9.109925104490621
 20
-1.500000000000001
 30
0.0
 11
9.109925104490621
 21
-1.449946758238234
 31
0.0
  0
SPLINE
  5
CD
330
1F
100
AcDbEntity
  8
0
  6
Continuous
 62
   131
370
    15
100
AcDbSpline
210
0.0
220
0.0
230
1.0
 70
     8
 71
     3
 72
    10
 73
     6
 74
     0
 42
0.000000001
 43
0.00000001
 40
0.0
 40
0.0
 40
0.0
 40
0.0
 40
0.5
 40
0.5
 40
1.0
 40
1.0
 40
1.0
 40
1.0
 10
9.109925104490621
 20
1.450077951483224
 30
0.0
 10
9.25921546108509
 20
1.472038267609953
 30
0.0
 10
9.409328033236607
 20
1.486863157640185
 30
0.0
 10
9.704637034723714
 20
1.501750938973553
 30
0.0
 10
9.850776529671043
 20
1.501915871069408
 30
0.0
 10
10.00000000000039
 20
1.494724015815044
 30
0.0
  0
LINE
  5
CE
330
1F
100
AcDbEntity
  8
0
  6
Continuous
 62
   131
370
    15
100
AcDbLine
 10
9.109925104490621
 20
-1.287634115020113
 30
0.0
 11
9.109925104490621
 21
1.499999999999999
 31
0.0
  0
LINE
  5
CF
330
1F
100
AcDbEntity
  8
0
  6
Continuous
 62
   131
370
    15
100
AcDbLine
 10
-73.61999999999996
 20
1.499999999999989
 30
0.0
 11
-73.61999999999996
 21
-1.500000000000006
 31
0.0
  0
LINE
  5
D0
330
1F
100
AcDbEntity
  8
0
  6
Continuous
 62
   131
370
    15
100
AcDbLine
 10
-73.99999999999999
 20
1.119999999999989
 30
0.0
 11
-73.99999999999999
 21
-1.120000000000001
 31
0.0
  0
SPLINE
  5
D1
330
1F
100
AcDbEntity
  8
0
  6
Continuous
 62
   131
370
    15
100
AcDbSpline
210
0.0
220
0.0
230
1.0
 70
    24
 71
     3
 72
    10
 73
     6
 74
     0
 42
0.000000001
 43
0.00000001
 40
0.0
 40
0.0
 40
0.0
 40
0.0
 40
0.5
 40
0.5
 40
1.0
 40
1.0
 40
1.0
 40
1.0
 10
10.00000000000006
 20
-0.1496268224912852
 30
0.0
 10
10.00000000000006
 20
-0.3743138706166649
 30
0.0
 10
10.00000000000006
 20
-0.597759355271083
 30
0.0
 10
10.00000000000006
 20
-0.9765828579894213
 30
0.0
 10
10.00000000000006
 20
-1.130330271605139
 30
0.0
 10
10.00000000000006
 20
-1.233374462754157
 30
0.0
  0
SPLINE
  5
D2
330
1F
100
AcDbEntity
  8
0
  6
Continuous
 62
   131
370
    15
100
AcDbSpline
210
0.0
220
0.0
230
1.0
 70
     8
 71
     3
 72
    10
 73
     6
 74
     0
 42
0.000000001
 43
0.00000001
 40
0.0
 40
0.0
 40
0.0
 40
0.0
 40
0.4999999999999999
 40
0.4999999999999999
 40
1.0
 40
1.0
 40
1.0
 40
1.0
 10
10.00000000000569
 20
-1.233374462754856
 30
0.0
 10
9.85076343422865
 20
-1.214884969227796
 30
0.0
 10
9.704611548133226
 20
-1.190493124609407
 30
0.0
 10
9.409275773169743
 20
-1.130238437768633
 30
0.0
 10
9.25914966371938
 20
-1.094244266577956
 30
0.0
 10
9.10984649666789
 20
-1.053112033868342
 30
0.0
  0
SPLINE
  5
D3
330
1F
100
AcDbEntity
  8
0
  6
Continuous
 62
   131
370
    15
100
AcDbSpline
210
0.0
220
0.0
230
1.0
 70
     8
 71
     3
 72
    10
 73
     6
 74
     0
 42
0.000000001
 43
0.00000001
 40
0.0
 40
0.0
 40
0.0
 40
0.0
 40
0.5
 40
0.5
 40
1.0
 40
1.0
 40
1.0
 40
1.0
 10
10.00000000000029
 20
-0.1496268224913924
 30
0.0
 10
9.850771750842059
 20
-0.0815023170197717
 30
0.0
 10
9.704627734090943
 20
-0.01311813346831
 30
0.0
 10
9.409308962354967
 20
0.1235753857436371
 30
0.0
 10
9.25919145012846
 20
0.1920278186467311
 30
0.0
 10
9.109896418675307
 20
0.2590788472391082
 30
0.0
  0
SPLINE
  5
D4
330
1F
100
AcDbEntity
  8
0
  6
Continuous
 62
   131
370
    15
100
AcDbSpline
210
0.0
220
0.0
230
1.0
 70
    24
 71
     3
 72
    10
 73
     6
 74
     0
 42
0.000000001
 43
0.00000001
 40
0.0
 40
0.0
 40
0.0
 40
0.0
 40
0.5
 40
0.5
 40
1.0
 40
1.0
 40
1.0
 40
1.0
 10
10.0
 20
1.041805665701136
 30
0.0
 10
10.0
 20
0.9532926215478241
 30
0.0
 10
10.0
 20
0.7943478350863562
 30
0.0
 10
10.0
 20
0.3708440281403254
 30
0.0
 10
10.0
 20
0.1095663516803372
 30
0.0
 10
10.0
 20
-0.1496268224912594
 30
0.0
  0
LINE
  5
D5
330
1F
100
AcDbEntity
  8
0
  6
Continuous
 62
   131
370
    15
100
AcDbLine
 10
10.00000000000004
 20
1.041805665701134
 30
0.0
 11
9.221234467744774
 21
1.027309606984635
 31
0.0
  0
SPLINE
  5
D6
330
1F
100
AcDbEntity
  8
0
  6
Continuous
 62
   131
370
    15
100
AcDbSpline
210
0.0
220
0.0
230
1.0
 70
    24
 71
     3
 72
     8
 73
     4
 74
     0
 42
0.000000001
 43
0.00000001
 40
0.0
 40
0.0
 40
0.0
 40
0.0
 40
1.0
 40
1.0
 40
1.0
 40
1.0
 10
10.00000000000004
 20
-1.233374462754156
 30
0.0
 10
10.00000000000004
 20
-1.31308315641425
 30
0.0
 10
10.00000000000004
 20
-1.392904263232839
 30
0.0
 10
10.00000000000004
 20
-1.471303294717079
 30
0.0
  0
SPLINE
  5
D7
330
1F
100
AcDbEntity
  8
0
  6
Continuous
 62
   131
370
    15
100
AcDbSpline
210
0.0
220
0.0
230
1.0
 70
    24
 71
     3
 72
    10
 73
     6
 74
     0
 42
0.000000001
 43
0.00000001
 40
0.0
 40
0.0
 40
0.0
 40
0.0
 40
0.5
 40
0.5
 40
1.0
 40
1.0
 40
1.0
 40
1.0
 10
10.00000000000215
 20
1.494724015802844
 30
0.0
 10
10.00000000000215
 20
1.422584945969723
 30
0.0
 10
10.00000000000215
 20
1.34296674566827
 30
0.0
 10
10.00000000000215
 20
1.186236446953941
 30
0.0
 10
10.00000000000215
 20
1.109539329556467
 30
0.0
 10
10.00000000000215
 20
1.041805665701027
 30
0.0
  0
LINE
  5
D8
330
1F
100
AcDbEntity
  8
중심선
100
AcDbLine
 10
-76.99999999999999
 20
-0.0000000000000058
 30
0.0
 11
29.00000000000005
 21
0.0000000000000013
 31
0.0
  0
CIRCLE
  5
D9
330
1F
100
AcDbEntity
  8
외형선
100
AcDbCircle
 10
0.0000000000000104
 20
0.0
 30
0.0
 40
3.000000000000005
  0
INSERT
  5
DA
330
1F
100
AcDbEntity
  8
0
  6
Continuous
 62
     7
100
AcDbBlockReference
 66
     1
  2
블럭10
 10
-22.93944368806589
 20
-52.04609937292004
 30
0.0
  0
ATTRIB
  5
DB
330
DA
100
AcDbEntity
  8
FORMAT
 62
     2
100
AcDbText
 10
-42.10435306391197
 20
-49.97073246008785
 30
0.0
 40
4.233333333333333
  1
SEME70030163SE [ 2 FLUTE ]
 41
0.75
  7
SLDTEXTSTYLE0
 11
-42.10435306391197
 21
-52.08739912675452
 31
0.0
100
AcDbAttribute
  2
AUTOATTR0
 70
     0
 74
     1
  0
SEQEND
  5
DC
330
DA
100
AcDbEntity
  8
0
  6
Continuous
 62
     7
  0
HATCH
  5
DD
330
1F
100
AcDbEntity
  8
중심선
100
AcDbHatch
 10
0.0
 20
0.0
 30
0.0
210
0.0
220
0.0
230
1.0
  2
SOLID
 70
     1
 71
     0
 91
        1
 92
        0
 93
        4
 72
     1
 10
-17.22453438368504
 20
-35.7989250712761
 11
-20.67080962752232
 21
-35.7989250712761
 72
     1
 10
-20.67080962752232
 20
-35.7989250712761
 11
-22.79903948672635
 21
-38.3352506518487
 72
     1
 10
-22.79903948672635
 20
-38.3352506518487
 11
-19.35273115777591
 21
-38.33521122254621
 72
     1
 10
-19.35273115777591
 20
-38.33521122254621
 11
-17.22453438368504
 21
-35.7989250712761
 97
        0
 75
     0
 76
     1
 98
        1
 10
0.0
 20
0.0
  0
HATCH
  5
DE
330
1F
100
AcDbEntity
  8
중심선
100
AcDbHatch
 10
0.0
 20
0.0
 30
0.0
210
0.0
220
0.0
230
1.0
  2
SOLID
 70
     1
 71
     0
 91
        1
 92
        0
 93
        4
 72
     1
 10
-12.21177039264909
 20
-35.7989250712761
 11
-15.65804563648637
 21
-35.7989250712761
 72
     1
 10
-15.65804563648637
 20
-35.7989250712761
 11
-20.18918364484376
 21
-41.19892507127612
 72
     1
 10
-20.18918364484376
 20
-41.19892507127612
 11
-16.74290840100648
 21
-41.19892507127612
 72
     1
 10
-16.74290840100648
 20
-41.19892507127612
 11
-12.21177039264909
 21
-35.7989250712761
 97
        0
 75
     0
 76
     1
 98
        1
 10
0.0
 20
0.0
  0
HATCH
  5
DF
330
1F
100
AcDbEntity
  8
중심선
100
AcDbHatch
 10
0.0
 20
0.0
 30
0.0
210
0.0
220
0.0
230
1.0
  2
SOLID
 70
     1
 71
     0
 91
        1
 92
        0
 93
        4
 72
     1
 10
-7.199006401613195
 20
-35.79892507127613
 11
-10.64528164545031
 21
-35.7989250712761
 72
     1
 10
-10.64528164545031
 20
-35.7989250712761
 11
-17.69371854733956
 21
-44.19892507127612
 72
     1
 10
-17.69371854733956
 20
-44.19892507127612
 11
-14.24744330350228
 21
-44.19892507127612
 72
     1
 10
-14.24744330350228
 20
-44.19892507127612
 11
-7.199006401613195
 21
-35.79892507127613
 97
        0
 75
     0
 76
     1
 98
        1
 10
0.0
 20
0.0
  0
HATCH
  5
E0
330
1F
100
AcDbEntity
  8
중심선
100
AcDbHatch
 10
0.0
 20
0.0
 30
0.0
210
0.0
220
0.0
230
1.0
  2
SOLID
 70
     1
 71
     0
 91
        1
 92
        0
 93
        6
 72
     3
 10
-2.399115970600996
 20
-39.99892507132738
 11
3.960054785062284
 21
1.540850780301639E-10
 40
0.3939339440162633
 50
17.09539180608433
 51
320.0019657685079
 73
     0
 72
     1
 10
-0.7161163149004002
 20
-38.58681907591441
 11
1.589185558800638
 21
-36.65249236586649
 72
     3
 10
-2.399115970653842
 20
-39.99892507127625
 11
6.600054785286829
 21
-1.249000902703301E-13
 40
0.6363583540795982
 50
39.99873849337408
 51
368.4976242363725
 73
     1
 72
     1
 10
4.026216521246767
 20
-39.03892507120613
 11
-3.71904866381792
 21
-39.0389250712061
 72
     1
 10
-3.71904866381792
 20
-39.0389250712061
 11
-3.719073708263854
 21
-40.95892507120602
 72
     1
 10
-3.719073708263854
 20
-40.95892507120602
 11
0.7223060612081831
 21
-40.95892507120599
 97
        0
 75
     0
 76
     1
 98
        1
 10
0.0
 20
0.0
  0
DIMENSION
  5
E1
330
1F
100
AcDbEntity
  8
치수문자_일반주서
100
AcDbDimension
  2
_D
 10
42.11137507952657
 20
1.50000000000011
 30
0.0
 11
42.11137507952655
 21
13.3821645502197
 31
0.0
 70
   160
  1
%%c<>
 71
     2
 42
2.999999999999993
 52
-270.0
  3
SLDDIMSTYLE0
100
AcDbAlignedDimension
 13
25.99999999999997
 23
-1.499999999999943
 33
0.0
 14
25.9999999999999
 24
1.50000000000005
 34
0.0
 50
90.0000000000002
100
AcDbRotatedDimension
  0
DIMENSION
  5
EF
330
1F
100
AcDbEntity
  8
치수문자_일반주서
100
AcDbDimension
  2
_D_1
 10
26.00000000000004
 20
22.90841044024268
 30
0.0
 11
-23.99999999999996
 21
22.90841044024268
 31
0.0
 70
   160
  1
<>
 71
     2
 42
100.0
  3
SLDDIMSTYLE1
100
AcDbAlignedDimension
 13
-73.99999999999999
 23
1.119999999999989
 33
0.0
 14
26.00000000000004
 24
1.423411303847852
 34
0.0
 50
-0.0000000000000041
100
AcDbRotatedDimension
  0
DIMENSION
  5
FA
330
1F
100
AcDbEntity
  8
치수문자_일반주서
100
AcDbDimension
  2
_D_2
 10
25.9999999999999
 20
14.84699780616752
 30
0.0
 11
18.00000000000004
 21
14.84699780616752
 31
0.0
 70
   160
  1
<>
 71
     2
 42
15.99999999999986
  3
SLDDIMSTYLE0
100
AcDbAlignedDimension
 13
10.00000000000004
 23
1.499999999999999
 33
0.0
 14
25.9999999999999
 24
1.50000000000005
 34
0.0
 50
-0.0000000000000064
100
AcDbRotatedDimension
  0
DIMENSION
  5
106
330
1F
100
AcDbEntity
  8
치수문자_일반주서
100
AcDbDimension
  2
_D_3
 10
-83.80272085977141
 20
-1.500000000000039
 30
0.0
 11
-83.80272085977147
 21
11.16649999999995
 31
0.0
 70
   160
  1
%%c<>
 71
     2
 42
2.99999999999999
 52
-270.0
  3
SLDDIMSTYLE0
100
AcDbAlignedDimension
 13
-73.61999999999996
 23
1.499999999999989
 33
0.0
 14
-73.61999999999996
 24
-1.500000000000001
 34
0.0
 50
90.0000000000002
100
AcDbRotatedDimension
  0
INSERT
  5
119
330
1F
100
AcDbEntity
  8
외형선
100
AcDbBlockReference
  2
SW_DOWELSYMBOL_0
 10
0.0000000000000104
 20
0.0
 30
0.0
  0
ENDSEC
  0
SECTION
  2
OBJECTS
  0
DICTIONARY
  5
C
330
0
100
AcDbDictionary
281
     1
  3
ACAD_GROUP
350
D
  3
ACAD_IMAGE_VARS
350
13D
  3
ACAD_LAYOUT
350
1A
  3
ACAD_MLINESTYLE
350
17
  3
ACAD_PLOTSETTINGS
350
19
  3
ACAD_PLOTSTYLENAME
350
E
  3
ACAD_SCALELIST
350
47
  3
APPDATA
350
13B
  3
DWGPROPS
350
149
  0
DICTIONARY
  5
D
102
{ACAD_REACTORS
330
C
102
}
330
C
100
AcDbDictionary
281
     1
  0
RASTERVARIABLES
  5
13D
102
{ACAD_REACTORS
330
C
102
}
330
C
100
AcDbRasterVariables
 90
        0
 70
     1
 71
     1
 72
     1
  0
DICTIONARY
  5
1A
102
{ACAD_REACTORS
330
C
102
}
330
C
100
AcDbDictionary
281
     1
  3
Layout1
350
1E
  3
Layout2
350
26
  3
Model
350
22
  0
DICTIONARY
  5
17
102
{ACAD_REACTORS
330
C
102
}
330
C
100
AcDbDictionary
281
     1
  3
Standard
350
18
  0
DICTIONARY
  5
19
102
{ACAD_REACTORS
330
C
102
}
330
C
100
AcDbDictionary
281
     1
  0
ACDBDICTIONARYWDFLT
  5
E
102
{ACAD_REACTORS
330
C
102
}
330
C
100
AcDbDictionary
281
     1
  3
Normal
350
F
100
AcDbDictionaryWithDefault
340
F
  0
DICTIONARY
  5
47
102
{ACAD_REACTORS
330
C
102
}
330
C
100
AcDbDictionary
281
     1
  3
A0
350
48
  3
A1
350
49
  3
A2
350
4A
  3
A3
350
4B
  3
A4
350
4C
  3
A5
350
4D
  3
A6
350
4E
  3
A7
350
4F
  3
A8
350
50
  3
A9
350
51
  3
B0
350
52
  3
B1
350
53
  3
B2
350
54
  3
B3
350
55
  3
B4
350
56
  3
B5
350
57
  3
B6
350
58
  3
B7
350
59
  3
B8
350
5A
  3
B9
350
5B
  3
C0
350
5C
  3
C1
350
5D
  3
C2
350
5E
  3
C3
350
5F
  3
C4
350
60
  3
C5
350
61
  3
C6
350
62
  3
C7
350
63
  3
C8
350
64
  3
C9
350
65
  3
D0
350
66
  3
D1
350
67
  3
D2
350
68
  0
DICTIONARY
  5
13B
102
{ACAD_REACTORS
330
C
102
}
330
C
100
AcDbDictionary
281
     1
  0
XRECORD
  5
149
102
{ACAD_REACTORS
330
C
102
}
330
C
100
AcDbXrecord
280
     1
  1
DWGPROPS COOKIE
  2

  3

  4

  6

  7

  8
12014102
  9

300
=
301
=
302
=
303
=
304
=
305
=
306
=
307
=
308
=
309
=
 40
0.0
 41
2458262.162600891
 42
2458266.241443183
  1

 90
        0
  0
LAYOUT
  5
1E
102
{ACAD_REACTORS
330
1A
102
}
330
1A
100
AcDbPlotSettings
  1

  2
none_device
  4

  6

 40
0.0
 41
0.0
 42
0.0
 43
0.0
 44
0.0
 45
0.0
 46
0.0
 47
0.0
 48
0.0
 49
0.0
140
0.0
141
0.0
142
1.0
143
1.0
 70
   688
 72
     1
 73
     0
 74
     5
  7

 75
    16
147
1.0
148
0.0
149
0.0
100
AcDbLayout
  1
Layout1
 70
     1
 71
     1
 10
0.0
 20
0.0
 11
420.0
 21
297.0
 12
0.0
 22
0.0
 32
0.0
 14
1.000000000000000E+20
 24
1.000000000000000E+20
 34
1.000000000000000E+20
 15
-1.000000000000000E+20
 25
-1.000000000000000E+20
 35
-1.000000000000000E+20
146
0.0
 13
0.0
 23
0.0
 33
0.0
 16
1.0
 26
0.0
 36
0.0
 17
0.0
 27
1.0
 37
0.0
 76
     0
330
1B
  0
LAYOUT
  5
26
102
{ACAD_REACTORS
330
1A
102
}
330
1A
100
AcDbPlotSettings
  1

  2
none_device
  4

  6

 40
0.0
 41
0.0
 42
0.0
 43
0.0
 44
0.0
 45
0.0
 46
0.0
 47
0.0
 48
0.0
 49
0.0
140
0.0
141
0.0
142
1.0
143
1.0
 70
   688
 72
     1
 73
     0
 74
     5
  7

 75
    16
147
1.0
148
0.0
149
0.0
100
AcDbLayout
  1
Layout2
 70
     1
 71
     2
 10
0.0
 20
0.0
 11
0.0
 21
0.0
 12
0.0
 22
0.0
 32
0.0
 14
0.0
 24
0.0
 34
0.0
 15
0.0
 25
0.0
 35
0.0
146
0.0
 13
0.0
 23
0.0
 33
0.0
 16
1.0
 26
0.0
 36
0.0
 17
0.0
 27
1.0
 37
0.0
 76
     0
330
23
  0
LAYOUT
  5
22
102
{ACAD_REACTORS
330
1A
102
}
330
1A
100
AcDbPlotSettings
  1

  2
none_device
  4
ANSI_A_(11.00_x_8.50_Inches)
  6

 40
6.35
 41
19.05
 42
6.35000508
 43
19.05000254
 44
279.4
 45
215.9
 46
180.257991825794
 47
114.0754243848549
 48
0.0
 49
0.0
140
0.0
141
0.0
142
0.0851018108237925
143
1.0
 70
  1696
 72
     0
 73
     0
 74
     0
  7

 75
     0
147
0.0235690232323232
148
0.0
149
0.0
100
AcDbLayout
  1
Model
 70
     1
 71
     0
 10
0.0
 20
0.0
 11
420.0
 21
297.0
 12
0.0
 22
0.0
 32
0.0
 14
-88.17772085977148
 24
-49.97073246008785
 34
0.0
 15
42.66170841285992
 25
27.28341044024268
 35
0.0
146
0.0
 13
0.0
 23
0.0
 33
0.0
 16
1.0
 26
0.0
 36
0.0
 17
0.0
 27
1.0
 37
0.0
 76
     0
330
1F
331
29
  0
MLINESTYLE
  5
18
102
{ACAD_REACTORS
330
17
102
}
330
17
100
AcDbMlineStyle
  2
Standard
 70
     0
  3

 62
   256
 51
90.0
 52
90.0
 71
     2
 49
0.5
 62
   256
  6
BYLAYER
 49
-0.5
 62
   256
  6
BYLAYER
  0
ACDBPLACEHOLDER
  5
F
102
{ACAD_REACTORS
330
E
102
}
330
E
  0
SCALE
  5
48
102
{ACAD_REACTORS
330
47
102
}
330
47
100
AcDbScale
 70
     0
300
1:1
140
1.0
141
1.0
290
     1
  0
SCALE
  5
49
102
{ACAD_REACTORS
330
47
102
}
330
47
100
AcDbScale
 70
     0
300
1:2
140
1.0
141
2.0
290
     0
  0
SCALE
  5
4A
102
{ACAD_REACTORS
330
47
102
}
330
47
100
AcDbScale
 70
     0
300
1:4
140
1.0
141
4.0
290
     0
  0
SCALE
  5
4B
102
{ACAD_REACTORS
330
47
102
}
330
47
100
AcDbScale
 70
     0
300
1:5
140
1.0
141
5.0
290
     0
  0
SCALE
  5
4C
102
{ACAD_REACTORS
330
47
102
}
330
47
100
AcDbScale
 70
     0
300
1:8
140
1.0
141
8.0
290
     0
  0
SCALE
  5
4D
102
{ACAD_REACTORS
330
47
102
}
330
47
100
AcDbScale
 70
     0
300
1:10
140
1.0
141
10.0
290
     0
  0
SCALE
  5
4E
102
{ACAD_REACTORS
330
47
102
}
330
47
100
AcDbScale
 70
     0
300
1:16
140
1.0
141
16.0
290
     0
  0
SCALE
  5
4F
102
{ACAD_REACTORS
330
47
102
}
330
47
100
AcDbScale
 70
     0
300
1:20
140
1.0
141
20.0
290
     0
  0
SCALE
  5
50
102
{ACAD_REACTORS
330
47
102
}
330
47
100
AcDbScale
 70
     0
300
1:30
140
1.0
141
30.0
290
     0
  0
SCALE
  5
51
102
{ACAD_REACTORS
330
47
102
}
330
47
100
AcDbScale
 70
     0
300
1:40
140
1.0
141
40.0
290
     0
  0
SCALE
  5
52
102
{ACAD_REACTORS
330
47
102
}
330
47
100
AcDbScale
 70
     0
300
1:50
140
1.0
141
50.0
290
     0
  0
SCALE
  5
53
102
{ACAD_REACTORS
330
47
102
}
330
47
100
AcDbScale
 70
     0
300
1:100
140
1.0
141
100.0
290
     0
  0
SCALE
  5
54
102
{ACAD_REACTORS
330
47
102
}
330
47
100
AcDbScale
 70
     0
300
2:1
140
2.0
141
1.0
290
     0
  0
SCALE
  5
55
102
{ACAD_REACTORS
330
47
102
}
330
47
100
AcDbScale
 70
     0
300
4:1
140
4.0
141
1.0
290
     0
  0
SCALE
  5
56
102
{ACAD_REACTORS
330
47
102
}
330
47
100
AcDbScale
 70
     0
300
8:1
140
8.0
141
1.0
290
     0
  0
SCALE
  5
57
102
{ACAD_REACTORS
330
47
102
}
330
47
100
AcDbScale
 70
     0
300
10:1
140
10.0
141
1.0
290
     0
  0
SCALE
  5
58
102
{ACAD_REACTORS
330
47
102
}
330
47
100
AcDbScale
 70
     0
300
100:1
140
100.0
141
1.0
290
     0
  0
SCALE
  5
59
102
{ACAD_REACTORS
330
47
102
}
330
47
100
AcDbScale
 70
     0
300
1/128" = 1'-0"
140
0.0078125
141
12.0
290
     0
  0
SCALE
  5
5A
102
{ACAD_REACTORS
330
47
102
}
330
47
100
AcDbScale
 70
     0
300
1/64" = 1'-0"
140
0.015625
141
12.0
290
     0
  0
SCALE
  5
5B
102
{ACAD_REACTORS
330
47
102
}
330
47
100
AcDbScale
 70
     0
300
1/32" = 1'-0"
140
0.03125
141
12.0
290
     0
  0
SCALE
  5
5C
102
{ACAD_REACTORS
330
47
102
}
330
47
100
AcDbScale
 70
     0
300
1/16" = 1'-0"
140
0.0625
141
12.0
290
     0
  0
SCALE
  5
5D
102
{ACAD_REACTORS
330
47
102
}
330
47
100
AcDbScale
 70
     0
300
3/32" = 1'-0"
140
0.09375
141
12.0
290
     0
  0
SCALE
  5
5E
102
{ACAD_REACTORS
330
47
102
}
330
47
100
AcDbScale
 70
     0
300
1/8" = 1'-0"
140
0.125
141
12.0
290
     0
  0
SCALE
  5
5F
102
{ACAD_REACTORS
330
47
102
}
330
47
100
AcDbScale
 70
     0
300
3/16" = 1'-0"
140
0.1875
141
12.0
290
     0
  0
SCALE
  5
60
102
{ACAD_REACTORS
330
47
102
}
330
47
100
AcDbScale
 70
     0
300
1/4" = 1'-0"
140
0.25
141
12.0
290
     0
  0
SCALE
  5
61
102
{ACAD_REACTORS
330
47
102
}
330
47
100
AcDbScale
 70
     0
300
3/8" = 1'-0"
140
0.375
141
12.0
290
     0
  0
SCALE
  5
62
102
{ACAD_REACTORS
330
47
102
}
330
47
100
AcDbScale
 70
     0
300
1/2" = 1'-0"
140
0.5
141
12.0
290
     0
  0
SCALE
  5
63
102
{ACAD_REACTORS
330
47
102
}
330
47
100
AcDbScale
 70
     0
300
3/4" = 1'-0"
140
0.75
141
12.0
290
     0
  0
SCALE
  5
64
102
{ACAD_REACTORS
330
47
102
}
330
47
100
AcDbScale
 70
     0
300
1" = 1'-0"
140
1.0
141
12.0
290
     0
  0
SCALE
  5
65
102
{ACAD_REACTORS
330
47
102
}
330
47
100
AcDbScale
 70
     0
300
1-1/2" = 1'-0"
140
1.5
141
12.0
290
     0
  0
SCALE
  5
66
102
{ACAD_REACTORS
330
47
102
}
330
47
100
AcDbScale
 70
     0
300
3" = 1'-0"
140
3.0
141
12.0
290
     0
  0
SCALE
  5
67
102
{ACAD_REACTORS
330
47
102
}
330
47
100
AcDbScale
 70
     0
300
6" = 1'-0"
140
6.0
141
12.0
290
     0
  0
SCALE
  5
68
102
{ACAD_REACTORS
330
47
102
}
330
47
100
AcDbScale
 70
     0
300
1'-0" = 1'-0"
140
12.0
141
12.0
290
     0
  0
ENDSEC
  0
EOF
