  0
SECTION
  2
HEADER
  9
$ACADVER
  1
AC1015
  9
$ACADMAINTVER
 70
     6
  9
$DWGCODEPAGE
  3
ANSI_949
  9
$INSBASE
 10
0.0
 20
0.0
 30
0.0
  9
$EXTMIN
 10
-60.85221006923864
 20
-49.97073246008785
 30
0.0
  9
$EXTMAX
 10
35.43111686433224
 20
28.61341044024269
 30
0.0
  9
$LIMMIN
 10
0.0
 20
0.0
  9
$LIMMAX
 10
420.0
 20
297.0
  9
$ORTHOMODE
 70
     0
  9
$REGENMODE
 70
     1
  9
$FILLMODE
 70
     1
  9
$QTEXTMODE
 70
     0
  9
$MIRRTEXT
 70
     1
  9
$LTSCALE
 40
1.0
  9
$ATTMODE
 70
     1
  9
$TEXTSIZE
 40
3.5
  9
$TRACEWID
 40
1.0
  9
$TEXTSTYLE
  7
Standard
  9
$CLAYER
  8
0
  9
$CELTYPE
  6
ByLayer
  9
$CECOLOR
 62
   256
  9
$CELTSCALE
 40
1.0
  9
$DISPSILH
 70
     0
  9
$DIMSCALE
 40
1.0
  9
$DIMASZ
 40
3.302
  9
$DIMEXO
 40
1.0
  9
$DIMDLI
 40
3.75
  9
$DIMRND
 40
0.0
  9
$DIMDLE
 40
0.0
  9
$DIMEXE
 40
1.0
  9
$DIMTP
 40
0.0
  9
$DIMTM
 40
0.0
  9
$DIMTXT
 40
3.5
  9
$DIMCEN
 40
2.5
  9
$DIMTSZ
 40
0.0
  9
$DIMTOL
 70
     0
  9
$DIMLIM
 70
     0
  9
$DIMTIH
 70
     1
  9
$DIMTOH
 70
     1
  9
$DIMSE1
 70
     0
  9
$DIMSE2
 70
     0
  9
$DIMTAD
 70
     1
  9
$DIMZIN
 70
     0
  9
$DIMBLK
  1

  9
$DIMASO
 70
     1
  9
$DIMSHO
 70
     1
  9
$DIMPOST
  1

  9
$DIMAPOST
  1

  9
$DIMALT
 70
     0
  9
$DIMALTD
 70
     3
  9
$DIMALTF
 40
0.0393700787401575
  9
$DIMLFAC
 40
1.0
  9
$DIMTOFL
 70
     1
  9
$DIMTVP
 40
0.0
  9
$DIMTIX
 70
     0
  9
$DIMSOXD
 70
     0
  9
$DIMSAH
 70
     0
  9
$DIMBLK1
  1

  9
$DIMBLK2
  1

  9
$DIMSTYLE
  2
ISO-25
  9
$DIMCLRD
 70
     0
  9
$DIMCLRE
 70
     0
  9
$DIMCLRT
 70
     0
  9
$DIMTFAC
 40
1.0
  9
$DIMGAP
 40
1.524
  9
$DIMJUST
 70
     0
  9
$DIMSD1
 70
     0
  9
$DIMSD2
 70
     0
  9
$DIMTOLJ
 70
     0
  9
$DIMTZIN
 70
     0
  9
$DIMALTZ
 70
     0
  9
$DIMALTTZ
 70
     0
  9
$DIMUPT
 70
     0
  9
$DIMDEC
 70
     2
  9
$DIMTDEC
 70
     2
  9
$DIMALTU
 70
     2
  9
$DIMALTTD
 70
     3
  9
$DIMTXSTY
  7
Standard
  9
$DIMAUNIT
 70
     0
  9
$DIMADEC
 70
     2
  9
$DIMALTRND
 40
0.0
  9
$DIMAZIN
 70
     0
  9
$DIMDSEP
 70
    44
  9
$DIMATFIT
 70
     3
  9
$DIMFRAC
 70
     0
  9
$DIMLDRBLK
  1

  9
$DIMLUNIT
 70
     2
  9
$DIMLWD
 70
    -2
  9
$DIMLWE
 70
    -2
  9
$DIMTMOVE
 70
     0
  9
$LUNITS
 70
     2
  9
$LUPREC
 70
     2
  9
$SKETCHINC
 40
1.0
  9
$FILLETRAD
 40
10.0
  9
$AUNITS
 70
     0
  9
$AUPREC
 70
     2
  9
$MENU
  1
.
  9
$ELEVATION
 40
0.0
  9
$PELEVATION
 40
0.0
  9
$THICKNESS
 40
0.0
  9
$LIMCHECK
 70
     0
  9
$CHAMFERA
 40
0.0
  9
$CHAMFERB
 40
0.0
  9
$CHAMFERC
 40
0.0
  9
$CHAMFERD
 40
0.0
  9
$SKPOLY
 70
     0
  9
$TDCREATE
 40
2458262.537787361
  9
$TDUCREATE
 40
2458262.162787361
  9
$TDUPDATE
 40
2458266.368864167
  9
$TDUUPDATE
 40
2458265.993864167
  9
$TDINDWG
 40
0.0025000926
  9
$TDUSRTIMER
 40
2458265.991364132
  9
$USRTIMER
 70
     1
  9
$ANGBASE
 50
0.0
  9
$ANGDIR
 70
     0
  9
$PDMODE
 70
     0
  9
$PDSIZE
 40
-1.0
  9
$PLINEWID
 40
0.0
  9
$SPLFRAME
 70
     0
  9
$SPLINETYPE
 70
     6
  9
$SPLINESEGS
 70
     8
  9
$HANDSEED
  5
154
  9
$SURFTAB1
 70
     6
  9
$SURFTAB2
 70
     6
  9
$SURFTYPE
 70
     6
  9
$SURFU
 70
     6
  9
$SURFV
 70
     6
  9
$UCSBASE
  2

  9
$UCSNAME
  2

  9
$UCSORG
 10
0.0
 20
0.0
 30
0.0
  9
$UCSXDIR
 10
1.0
 20
0.0
 30
0.0
  9
$UCSYDIR
 10
0.0
 20
1.0
 30
0.0
  9
$UCSORTHOREF
  2

  9
$UCSORTHOVIEW
 70
     0
  9
$UCSORGTOP
 10
0.0
 20
0.0
 30
0.0
  9
$UCSORGBOTTOM
 10
0.0
 20
0.0
 30
0.0
  9
$UCSORGLEFT
 10
0.0
 20
0.0
 30
0.0
  9
$UCSORGRIGHT
 10
0.0
 20
0.0
 30
0.0
  9
$UCSORGFRONT
 10
0.0
 20
0.0
 30
0.0
  9
$UCSORGBACK
 10
0.0
 20
0.0
 30
0.0
  9
$PUCSBASE
  2

  9
$PUCSNAME
  2

  9
$PUCSORG
 10
0.0
 20
0.0
 30
0.0
  9
$PUCSXDIR
 10
1.0
 20
0.0
 30
0.0
  9
$PUCSYDIR
 10
0.0
 20
1.0
 30
0.0
  9
$PUCSORTHOREF
  2

  9
$PUCSORTHOVIEW
 70
     0
  9
$PUCSORGTOP
 10
0.0
 20
0.0
 30
0.0
  9
$PUCSORGBOTTOM
 10
0.0
 20
0.0
 30
0.0
  9
$PUCSORGLEFT
 10
0.0
 20
0.0
 30
0.0
  9
$PUCSORGRIGHT
 10
0.0
 20
0.0
 30
0.0
  9
$PUCSORGFRONT
 10
0.0
 20
0.0
 30
0.0
  9
$PUCSORGBACK
 10
0.0
 20
0.0
 30
0.0
  9
$USERI1
 70
     0
  9
$USERI2
 70
     0
  9
$USERI3
 70
     0
  9
$USERI4
 70
     0
  9
$USERI5
 70
     0
  9
$USERR1
 40
0.0
  9
$USERR2
 40
0.0
  9
$USERR3
 40
0.0
  9
$USERR4
 40
0.0
  9
$USERR5
 40
0.0
  9
$WORLDVIEW
 70
     1
  9
$SHADEDGE
 70
     3
  9
$SHADEDIF
 70
    70
  9
$TILEMODE
 70
     1
  9
$MAXACTVP
 70
    64
  9
$PINSBASE
 10
0.0
 20
0.0
 30
0.0
  9
$PLIMCHECK
 70
     0
  9
$PEXTMIN
 10
1.000000000000000E+20
 20
1.000000000000000E+20
 30
1.000000000000000E+20
  9
$PEXTMAX
 10
-1.000000000000000E+20
 20
-1.000000000000000E+20
 30
-1.000000000000000E+20
  9
$PLIMMIN
 10
0.0
 20
0.0
  9
$PLIMMAX
 10
0.0
 20
0.0
  9
$UNITMODE
 70
     0
  9
$VISRETAIN
 70
     1
  9
$PLINEGEN
 70
     0
  9
$PSLTSCALE
 70
     1
  9
$TREEDEPTH
 70
  3020
  9
$CMLSTYLE
  2
Standard
  9
$CMLJUST
 70
     0
  9
$CMLSCALE
 40
20.0
  9
$PROXYGRAPHICS
 70
     1
  9
$MEASUREMENT
 70
     1
  9
$CELWEIGHT
370
    -1
  9
$ENDCAPS
280
     0
  9
$JOINSTYLE
280
     0
  9
$LWDISPLAY
290
     1
  9
$INSUNITS
 70
     4
  9
$HYPERLINKBASE
  1

  9
$STYLESHEET
  1

  9
$XEDIT
290
     1
  9
$CEPSNTYPE
380
     0
  9
$PSTYLEMODE
290
     1
  9
$FINGERPRINTGUID
  2
{491C6CC5-115E-461E-8976-8212AF6E3F3F}
  9
$VERSIONGUID
  2
{FAEB1C32-E019-11D5-929B-00C0DF256EC4}
  9
$EXTNAMES
290
     1
  9
$PSVPSCALE
 40
0.0
  9
$OLESTARTUP
290
     0
  0
ENDSEC
  0
SECTION
  2
CLASSES
  0
CLASS
  1
ACDBDICTIONARYWDFLT
  2
AcDbDictionaryWithDefault
  3
ObjectDBX Classes
 90
        0
280
     0
281
     0
  0
CLASS
  1
VISUALSTYLE
  2
AcDbVisualStyle
  3
ObjectDBX Classes
 90
     4095
280
     0
281
     0
  0
CLASS
  1
MATERIAL
  2
AcDbMaterial
  3
ObjectDBX Classes
 90
     1153
280
     0
281
     0
  0
CLASS
  1
SCALE
  2
AcDbScale
  3
ObjectDBX Classes
 90
     1153
280
     0
281
     0
  0
CLASS
  1
SUN
  2
AcDbSun
  3
SCENEOE
 90
     1153
280
     0
281
     0
  0
CLASS
  1
ACDBPLACEHOLDER
  2
AcDbPlaceHolder
  3
ObjectDBX Classes
 90
        0
280
     0
281
     0
  0
CLASS
  1
LAYOUT
  2
AcDbLayout
  3
ObjectDBX Classes
 90
        0
280
     0
281
     0
  0
CLASS
  1
TABLESTYLE
  2
AcDbTableStyle
  3
ObjectDBX Classes
 90
     4095
280
     0
281
     0
  0
CLASS
  1
MLEADERSTYLE
  2
AcDbMLeaderStyle
  3
ACDB_MLEADERSTYLE_CLASS
 90
     4095
280
     0
281
     0
  0
CLASS
  1
RASTERVARIABLES
  2
AcDbRasterVariables
  3
ISM
 90
        0
280
     0
281
     0
  0
ENDSEC
  0
SECTION
  2
TABLES
  0
TABLE
  2
VPORT
  5
8
330
0
100
AcDbSymbolTable
 70
     1
  0
VPORT
  5
29
330
8
100
AcDbSymbolTableRecord
100
AcDbViewportTableRecord
  2
*Active
 70
     0
 10
0.0
 20
0.0
 11
1.0
 21
1.0
 12
-12.71054660245319
 22
-10.67866100992258
 13
0.0
 23
0.0
 14
10.0
 24
10.0
 15
10.0
 25
10.0
 16
0.0
 26
0.0
 36
1.0
 17
0.0
 27
0.0
 37
0.0
 40
85.21722079317888
 41
1.152454780361757
 42
50.0
 43
0.0
 44
0.0
 50
0.0
 51
0.0
 71
    16
 72
  2000
 73
     1
 74
     3
 75
     0
 76
     0
 77
     0
 78
     0
281
     0
 65
     1
110
0.0
120
0.0
130
0.0
111
1.0
121
0.0
131
0.0
112
0.0
122
1.0
132
0.0
 79
     0
146
0.0
  0
ENDTAB
  0
TABLE
  2
LTYPE
  5
5
330
0
100
AcDbSymbolTable
 70
     6
  0
LTYPE
  5
14
330
5
100
AcDbSymbolTableRecord
100
AcDbLinetypeTableRecord
  2
ByBlock
 70
     0
  3

 72
    65
 73
     0
 40
0.0
  0
LTYPE
  5
15
330
5
100
AcDbSymbolTableRecord
100
AcDbLinetypeTableRecord
  2
ByLayer
 70
     0
  3

 72
    65
 73
     0
 40
0.0
  0
LTYPE
  5
16
330
5
100
AcDbSymbolTableRecord
100
AcDbLinetypeTableRecord
  2
Continuous
 70
     0
  3
Solid line
 72
    65
 73
     0
 40
0.0
  0
LTYPE
  5
6A
330
5
100
AcDbSymbolTableRecord
100
AcDbLinetypeTableRecord
  2
HIDDEN
 70
     0
  3
Hidden __ __ __ __ __ __ __ __ __ __ __ __ __ __
 72
    65
 73
     2
 40
1.905
 49
1.27
 74
     0
 49
-0.635
 74
     0
  0
LTYPE
  5
6B
330
5
100
AcDbSymbolTableRecord
100
AcDbLinetypeTableRecord
  2
PHANTOM
 70
     0
  3
Phantom ______  __  __  ______  __  __  ______
 72
    65
 73
     6
 40
12.7
 49
6.35
 74
     0
 49
-1.27
 74
     0
 49
1.27
 74
     0
 49
-1.27
 74
     0
 49
1.27
 74
     0
 49
-1.27
 74
     0
  0
LTYPE
  5
6C
330
5
100
AcDbSymbolTableRecord
100
AcDbLinetypeTableRecord
  2
CENTER
 70
     0
  3
Center ____ _ ____ _ ____ _ ____ _ ____ _ ____
 72
    65
 73
     4
 40
10.16
 49
6.35
 74
     0
 49
-1.27
 74
     0
 49
1.27
 74
     0
 49
-1.27
 74
     0
  0
LTYPE
  5
6D
330
5
100
AcDbSymbolTableRecord
100
AcDbLinetypeTableRecord
  2
CENTERX2
 70
     0
  3
Center (2x) ________  __  ________  __  _____
 72
    65
 73
     4
 40
20.32
 49
12.7
 74
     0
 49
-2.54
 74
     0
 49
2.54
 74
     0
 49
-2.54
 74
     0
  0
LTYPE
  5
6E
330
5
100
AcDbSymbolTableRecord
100
AcDbLinetypeTableRecord
  2
DOT2
 70
     0
  3
Dot (.5x) ........................................
 72
    65
 73
     2
 40
0.635
 49
0.0
 74
     0
 49
-0.635
 74
     0
  0
ENDTAB
  0
TABLE
  2
LAYER
  5
2
330
0
100
AcDbSymbolTable
 70
    17
  0
LAYER
  5
10
330
2
100
AcDbSymbolTableRecord
100
AcDbLayerTableRecord
  2
0
 70
     0
 62
     7
  6
Continuous
370
    -3
390
F
  0
LAYER
  5
6F
330
2
100
AcDbSymbolTableRecord
100
AcDbLayerTableRecord
  2
FORMAT
 70
     0
 62
     2
  6
Continuous
370
    -3
390
F
  0
LAYER
  5
70
330
2
100
AcDbSymbolTableRecord
100
AcDbLayerTableRecord
  2
외형선
 70
     0
 62
   100
  6
Continuous
370
    30
390
F
  0
LAYER
  5
71
330
2
100
AcDbSymbolTableRecord
100
AcDbLayerTableRecord
  2
숨은선
 70
     0
 62
     2
  6
HIDDEN
370
    15
390
F
  0
LAYER
  5
72
330
2
100
AcDbSymbolTableRecord
100
AcDbLayerTableRecord
  2
중심선
 70
     0
 62
     1
  6
CENTERX2
370
    -3
390
F
  0
LAYER
  5
73
330
2
100
AcDbSymbolTableRecord
100
AcDbLayerTableRecord
  2
파단선
 70
     0
 62
     4
  6
Continuous
370
    -3
390
F
  0
LAYER
  5
74
330
2
100
AcDbSymbolTableRecord
100
AcDbLayerTableRecord
  2
해칭선
 70
     0
 62
     4
  6
Continuous
370
    -3
390
F
  0
LAYER
  5
75
330
2
100
AcDbSymbolTableRecord
100
AcDbLayerTableRecord
  2
가는실선
 70
     0
 62
     4
  6
Continuous
370
    -3
390
F
  0
LAYER
  5
76
330
2
100
AcDbSymbolTableRecord
100
AcDbLayerTableRecord
  2
치수_보조선
 70
     0
 62
     4
  6
Continuous
370
    -3
390
F
  0
LAYER
  5
77
330
2
100
AcDbSymbolTableRecord
100
AcDbLayerTableRecord
  2
치수문자_일반주서
 70
     0
 62
     7
  6
Continuous
370
    15
390
F
  0
LAYER
  5
78
330
2
100
AcDbSymbolTableRecord
100
AcDbLayerTableRecord
  2
개별주서
 70
     0
 62
   100
  6
Continuous
370
    30
390
F
  0
LAYER
  5
79
330
2
100
AcDbSymbolTableRecord
100
AcDbLayerTableRecord
  2
중간선
 70
     0
 62
     2
  6
Continuous
370
    15
390
F
  0
LAYER
  5
7A
330
2
100
AcDbSymbolTableRecord
100
AcDbLayerTableRecord
  2
윤곽선
 70
     0
 62
     3
  6
Continuous
370
    40
390
F
  0
LAYER
  5
7B
330
2
100
AcDbSymbolTableRecord
100
AcDbLayerTableRecord
  2
중심마크
 70
     0
 62
   100
  6
Continuous
370
    30
390
F
  0
LAYER
  5
7C
330
2
100
AcDbSymbolTableRecord
100
AcDbLayerTableRecord
  2
가상선
 70
     0
 62
     4
  6
PHANTOM
370
    -3
390
F
  0
LAYER
  5
7D
330
2
100
AcDbSymbolTableRecord
100
AcDbLayerTableRecord
  2
특수지정선
 70
     0
 62
     5
  6
CENTERX2
370
    60
390
F
  0
LAYER
  5
144
330
2
100
AcDbSymbolTableRecord
100
AcDbLayerTableRecord
  2
Defpoints
 70
     0
 62
     7
  6
Continuous
290
     0
370
    -3
390
F
  0
ENDTAB
  0
TABLE
  2
STYLE
  5
3
330
0
100
AcDbSymbolTable
 70
     2
  0
STYLE
  5
11
330
3
100
AcDbSymbolTableRecord
100
AcDbTextStyleTableRecord
  2
Standard
 70
     0
 40
0.0
 41
1.0
 50
0.0
 71
     0
 42
3.5
  3
txt
  4

  0
STYLE
  5
93
330
3
100
AcDbSymbolTableRecord
100
AcDbTextStyleTableRecord
  2
SLDTEXTSTYLE0
 70
     0
 40
0.0
 41
0.75
 50
0.0
 71
     0
 42
3.5
  3
TXT
  4

  0
ENDTAB
  0
TABLE
  2
VIEW
  5
6
330
0
100
AcDbSymbolTable
 70
     0
  0
ENDTAB
  0
TABLE
  2
UCS
  5
7
330
0
100
AcDbSymbolTable
 70
     0
  0
ENDTAB
  0
TABLE
  2
APPID
  5
9
330
0
100
AcDbSymbolTable
 70
     1
  0
APPID
  5
12
330
9
100
AcDbSymbolTableRecord
100
AcDbRegAppTableRecord
  2
ACAD
 70
     0
  0
ENDTAB
  0
TABLE
  2
DIMSTYLE
  5
A
330
0
100
AcDbSymbolTable
 70
     3
100
AcDbDimStyleTable
  0
DIMSTYLE
105
27
330
A
100
AcDbSymbolTableRecord
100
AcDbDimStyleTableRecord
  2
ISO-25
 70
     0
 41
2.5
 42
0.625
 43
3.75
 44
1.25
 73
     0
 74
     0
 77
     1
 78
     8
140
2.5
141
2.5
143
0.03937007874016
147
0.625
171
     3
172
     1
178
     0
271
     2
272
     2
274
     3
278
    44
283
     0
284
     8
340
11
  0
DIMSTYLE
105
E8
102
{ACAD_REACTORS
330
E7
330
100
330
10C
102
}
330
A
100
AcDbSymbolTableRecord
100
AcDbDimStyleTableRecord
  2
SLDDIMSTYLE0
 70
     0
 41
3.302
 44
0.0
 45
0.000000001
 73
     0
 74
     0
 77
     1
 78
    12
 79
     3
140
3.5
147
0.875
172
     1
173
     1
178
     0
271
     2
272
     2
276
     2
284
    12
289
     0
340
93
  0
DIMSTYLE
105
F6
102
{ACAD_REACTORS
330
F5
102
}
330
A
100
AcDbSymbolTableRecord
100
AcDbDimStyleTableRecord
  2
SLDDIMSTYLE1
 70
     0
 41
3.302
 44
0.0
 45
0.000000001
 73
     0
 74
     0
 77
     1
 78
    12
 79
     3
140
3.5
147
0.875
173
     1
178
     0
271
     2
272
     2
276
     2
284
    12
340
93
  0
ENDTAB
  0
TABLE
  2
BLOCK_RECORD
  5
1
330
0
100
AcDbSymbolTable
 70
     7
  0
BLOCK_RECORD
  5
1F
330
1
100
AcDbSymbolTableRecord
100
AcDbBlockTableRecord
  2
*Model_Space
340
22
  0
BLOCK_RECORD
  5
1B
330
1
100
AcDbSymbolTableRecord
100
AcDbBlockTableRecord
  2
*Paper_Space
340
1E
  0
BLOCK_RECORD
  5
23
330
1
100
AcDbSymbolTableRecord
100
AcDbBlockTableRecord
  2
*Paper_Space0
340
26
  0
BLOCK_RECORD
  5
7E
330
1
100
AcDbSymbolTableRecord
100
AcDbBlockTableRecord
  2
블럭10
340
0
102
{BLKREFS
331
E0
102
}
  0
BLOCK_RECORD
  5
E9
330
1
100
AcDbSymbolTableRecord
100
AcDbBlockTableRecord
  2
_D
340
0
  0
BLOCK_RECORD
  5
F7
330
1
100
AcDbSymbolTableRecord
100
AcDbBlockTableRecord
  2
_D_1
340
0
  0
BLOCK_RECORD
  5
101
330
1
100
AcDbSymbolTableRecord
100
AcDbBlockTableRecord
  2
_D_2
340
0
  0
BLOCK_RECORD
  5
10D
330
1
100
AcDbSymbolTableRecord
100
AcDbBlockTableRecord
  2
_D_3
340
0
  0
BLOCK_RECORD
  5
119
330
1
100
AcDbSymbolTableRecord
100
AcDbBlockTableRecord
  2
SW_DOWELSYMBOL_0
340
0
102
{BLKREFS
331
11F
102
}
  0
ENDTAB
  0
ENDSEC
  0
SECTION
  2
BLOCKS
  0
BLOCK
  5
20
330
1F
100
AcDbEntity
  8
0
100
AcDbBlockBegin
  2
*Model_Space
 70
     0
 10
0.0
 20
0.0
 30
0.0
  3
*Model_Space
  1

  0
ENDBLK
  5
21
330
1F
100
AcDbEntity
  8
0
100
AcDbBlockEnd
  0
BLOCK
  5
1C
330
1B
100
AcDbEntity
 67
     1
  8
0
100
AcDbBlockBegin
  2
*Paper_Space
 70
     0
 10
0.0
 20
0.0
 30
0.0
  3
*Paper_Space
  1

  0
ENDBLK
  5
1D
330
1B
100
AcDbEntity
 67
     1
  8
0
100
AcDbBlockEnd
  0
BLOCK
  5
24
330
23
100
AcDbEntity
  8
0
100
AcDbBlockBegin
  2
*Paper_Space0
 70
     0
 10
0.0
 20
0.0
 30
0.0
  3
*Paper_Space0
  1

  0
ENDBLK
  5
25
330
23
100
AcDbEntity
  8
0
100
AcDbBlockEnd
  0
BLOCK
  5
7F
330
7E
100
AcDbEntity
  8
0
100
AcDbBlockBegin
  2
블럭10
 70
     2
 10
0.0
 20
0.0
 30
0.0
  3
블럭10
  1

  0
ELLIPSE
  5
81
330
7E
100
AcDbEntity
  8
중심선
100
AcDbEllipse
 10
20.54032771741204
 20
12.0471743016438
 30
0.0
 11
6.600054785286829
 21
-1.261213355974178E-13
 31
0.0
210
0.0
220
0.0
230
1.0
 40
0.636358354079598
 41
0.9219305317359503
 42
6.513795318482858
  0
ELLIPSE
  5
82
330
7E
100
AcDbEntity
  8
중심선
100
AcDbEllipse
 10
20.54032771746488
 20
12.04717430159265
 30
0.0
 11
3.960054785062283
 21
1.540847449632565E-10
 31
0.0
210
0.0
220
0.0
230
1.0
 40
0.3939339440162632
 41
1.131841032648279
 42
5.62031148352944
  0
LINE
  5
83
330
7E
100
AcDbEntity
  8
중심선
100
AcDbLine
 10
2.268634060543552
 20
16.24717430164393
 30
0.0
 11
5.714909304380834
 21
16.24717430164393
 31
0.0
  0
LINE
  5
84
330
7E
100
AcDbEntity
  8
중심선
100
AcDbLine
 10
5.245725140726316
 20
7.84717430164391
 30
0.0
 11
8.692000384563599
 21
7.84717430164391
 31
0.0
  0
LINE
  5
85
330
7E
100
AcDbEntity
  8
중심선
100
AcDbLine
 10
15.74043728645272
 20
16.24717430164393
 30
0.0
 11
8.692000384563599
 21
7.84717430164391
 31
0.0
  0
LINE
  5
86
330
7E
100
AcDbEntity
  8
중심선
100
AcDbLine
 10
0.1404042013395286
 20
13.71084872107135
 30
0.0
 11
3.58671253028996
 21
13.71088815037384
 31
0.0
  0
LINE
  5
87
330
7E
100
AcDbEntity
  8
중심선
100
AcDbLine
 10
2.750260043222114
 20
10.84717430164391
 30
0.0
 11
6.196535287059397
 21
10.84717430164391
 31
0.0
  0
LINE
  5
88
330
7E
100
AcDbEntity
  8
중심선
100
AcDbLine
 10
12.29416204261559
 20
16.24717430164393
 30
0.0
 11
5.245725140726316
 21
7.84717430164391
 31
0.0
  0
LINE
  5
89
330
7E
100
AcDbEntity
  8
중심선
100
AcDbLine
 10
10.72767329541681
 20
16.24717430164393
 30
0.0
 11
6.196535287059397
 21
10.84717430164391
 31
0.0
  0
LINE
  5
8A
330
7E
100
AcDbEntity
  8
중심선
100
AcDbLine
 10
7.28139805157953
 20
16.24717430164393
 30
0.0
 11
2.750260043222114
 21
10.84717430164391
 31
0.0
  0
LINE
  5
8B
330
7E
100
AcDbEntity
  8
중심선
100
AcDbLine
 10
5.714909304380834
 20
16.24717430164393
 30
0.0
 11
3.58671253028996
 21
13.71088815037384
 31
0.0
  0
LINE
  5
8C
330
7E
100
AcDbEntity
  8
중심선
100
AcDbLine
 10
2.268634060543552
 20
16.24717430164393
 30
0.0
 11
0.1404042013395286
 21
13.71084872107135
 31
0.0
  0
LINE
  5
8D
330
7E
100
AcDbEntity
  8
중심선
100
AcDbLine
 10
7.28139805157953
 20
16.24717430164393
 30
0.0
 11
10.72767329541681
 21
16.24717430164393
 31
0.0
  0
LINE
  5
8E
330
7E
100
AcDbEntity
  8
중심선
100
AcDbLine
 10
12.29416204261559
 20
16.24717430164393
 30
0.0
 11
15.74043728645272
 21
16.24717430164393
 31
0.0
  0
LINE
  5
8F
330
7E
100
AcDbEntity
  8
중심선
100
AcDbLine
 10
19.22036997980202
 20
11.08717430171403
 30
0.0
 11
23.66174974927406
 21
11.08717430171406
 31
0.0
  0
LINE
  5
90
330
7E
100
AcDbEntity
  8
중심선
100
AcDbLine
 10
19.22039502424796
 20
13.00717430171391
 30
0.0
 11
19.22036997980202
 21
11.08717430171403
 31
0.0
  0
LINE
  5
91
330
7E
100
AcDbEntity
  8
중심선
100
AcDbLine
 10
19.22039502424796
 20
13.00717430171391
 30
0.0
 11
26.96566020931264
 21
13.00717430171391
 31
0.0
  0
LINE
  5
92
330
7E
100
AcDbEntity
  8
중심선
100
AcDbLine
 10
22.22332737316547
 20
13.45928029700563
 30
0.0
 11
24.52862924686651
 21
15.39360700705356
 31
0.0
  0
ATTDEF
  5
94
330
7E
100
AcDbEntity
  8
FORMAT
 62
     2
100
AcDbText
 10
-16.11926103943555
 20
2.075366912832191
 30
0.0
 40
4.233333333333333
  1
SEME7003016E [ 2 FLUTE ]
 41
0.75
  7
SLDTEXTSTYLE0
 11
-16.11926103943555
 21
-0.0412997538344756
 31
0.0
100
AcDbAttributeDefinition
  3

  2
AUTOATTR0
 70
     0
 74
     1
  0
ENDBLK
  5
80
330
7E
100
AcDbEntity
  8
0
100
AcDbBlockEnd
  0
BLOCK
  5
EA
330
E9
100
AcDbEntity
  8
0
100
AcDbBlockBegin
  2
_D
 70
     0
 10
0.0
 20
0.0
 30
0.0
  3
_D
  1

  0
LINE
  5
EC
330
E9
100
AcDbEntity
  8
치수문자_일반주서
 62
     0
370
    -2
100
AcDbLine
 10
24.66057621135331
 20
-1.499999999999938
 30
0.0
 11
34.88078353099893
 21
-1.499999999999899
 31
0.0
  0
LINE
  5
ED
330
E9
100
AcDbEntity
  8
치수문자_일반주서
 62
     0
370
    -2
100
AcDbLine
 10
24.66057621135331
 20
1.500000000000056
 30
0.0
 11
34.88078353099892
 21
1.500000000000094
 31
0.0
  0
LINE
  5
EE
330
E9
100
AcDbEntity
  8
치수문자_일반주서
 62
     0
370
    -2
100
AcDbLine
 10
34.88078353099893
 20
-1.499999999999899
 30
0.0
 11
34.88078353099889
 21
14.22900000000009
 31
0.0
  0
LINE
  5
EF
330
E9
100
AcDbEntity
  8
치수문자_일반주서
 62
     0
370
    -2
100
AcDbLine
 10
34.88078353099893
 20
-1.499999999999899
 30
0.0
 11
34.88078353099892
 21
1.500000000000094
 31
0.0
  0
LINE
  5
F0
330
E9
100
AcDbEntity
  8
치수문자_일반주서
 62
     0
370
    -2
100
AcDbLine
 10
34.88078353099893
 20
-4.801999999999898
 30
0.0
 11
34.88078353099894
 21
-8.103999999999898
 31
0.0
  0
LINE
  5
F1
330
E9
100
AcDbEntity
  8
치수문자_일반주서
 62
     0
370
    -2
100
AcDbLine
 10
34.88078353099891
 20
4.802000000000094
 30
0.0
 11
34.8807835309989
 21
8.104000000000093
 31
0.0
  0
SOLID
  5
F2
330
E9
100
AcDbEntity
  8
치수문자_일반주서
 62
     0
100
AcDbTrace
 10
35.43111686433227
 20
-4.801999999999897
 30
0.0
 11
34.3304501976656
 21
-4.801999999999899
 31
0.0
 12
34.88078353099893
 22
-1.499999999999899
 32
0.0
 13
34.88078353099893
 23
-1.499999999999899
 33
0.0
  0
SOLID
  5
F3
330
E9
100
AcDbEntity
  8
치수문자_일반주서
 62
     0
100
AcDbTrace
 10
34.33045019766558
 20
4.802000000000093
 30
0.0
 11
35.43111686433225
 21
4.802000000000095
 31
0.0
 12
34.88078353099892
 22
1.500000000000094
 32
0.0
 13
34.88078353099892
 23
1.500000000000094
 33
0.0
  0
MTEXT
  5
F4
330
E9
100
AcDbEntity
  8
치수문자_일반주서
 62
     0
100
AcDbMText
 10
30.5057835309989
 20
11.16650000000008
 30
0.0
 40
3.5
 41
0.0
 71
     2
 72
     1
  1
\A1;%%c3
  7
SLDTEXTSTYLE0
 11
-2.368475785867005E-15
 21
1.0
 31
0.0
 73
     1
 44
1.0
  0
POINT
  5
14D
330
E9
100
AcDbEntity
  8
Defpoints
 62
     0
100
AcDbPoint
 10
24.59807621135331
 20
-1.499999999999939
 30
0.0
  0
POINT
  5
14E
330
E9
100
AcDbEntity
  8
Defpoints
 62
     0
100
AcDbPoint
 10
24.59807621135331
 20
1.500000000000056
 30
0.0
  0
POINT
  5
14F
330
E9
100
AcDbEntity
  8
Defpoints
 62
     0
100
AcDbPoint
 10
34.88078353099892
 20
1.500000000000094
 30
0.0
  0
ENDBLK
  5
EB
330
E9
100
AcDbEntity
  8
0
100
AcDbBlockEnd
  0
BLOCK
  5
F8
330
F7
100
AcDbEntity
  8
0
100
AcDbBlockBegin
  2
_D_1
 70
     0
 10
0.0
 20
0.0
 30
0.0
  3
_D_1
  1

  0
LINE
  5
FA
330
F7
100
AcDbEntity
  8
치수문자_일반주서
 62
     0
370
    -2
100
AcDbLine
 10
-45.40192378864671
 20
2.512499999999994
 30
0.0
 11
-45.40192378864671
 21
24.23841044024269
 31
0.0
  0
LINE
  5
FB
330
F7
100
AcDbEntity
  8
치수문자_일반주서
 62
     0
370
    -2
100
AcDbLine
 10
24.59807621135331
 20
1.562500000000056
 30
0.0
 11
24.59807621135329
 21
24.23841044024269
 31
0.0
  0
LINE
  5
FC
330
F7
100
AcDbEntity
  8
치수문자_일반주서
 62
     0
370
    -2
100
AcDbLine
 10
-42.09992378864671
 20
24.23841044024269
 30
0.0
 11
21.2960762113533
 21
24.23841044024269
 31
0.0
  0
SOLID
  5
FD
330
F7
100
AcDbEntity
  8
치수문자_일반주서
 62
     0
100
AcDbTrace
 10
-42.09992378864671
 20
24.78874377357602
 30
0.0
 11
-42.09992378864671
 21
23.68807710690935
 31
0.0
 12
-45.40192378864671
 22
24.23841044024269
 32
0.0
 13
-45.40192378864671
 23
24.23841044024269
 33
0.0
  0
SOLID
  5
FE
330
F7
100
AcDbEntity
  8
치수문자_일반주서
 62
     0
100
AcDbTrace
 10
21.2960762113533
 20
23.68807710690935
 30
0.0
 11
21.2960762113533
 21
24.78874377357602
 31
0.0
 12
24.59807621135329
 22
24.23841044024269
 32
0.0
 13
24.59807621135329
 23
24.23841044024269
 33
0.0
  0
MTEXT
  5
FF
330
F7
100
AcDbEntity
  8
치수문자_일반주서
 62
     0
100
AcDbMText
 10
-10.4019237886467
 20
28.61341044024269
 30
0.0
 40
3.5
 41
0.0
 71
     2
 72
     1
  1
\A1;70
  7
SLDTEXTSTYLE0
 73
     1
 44
1.0
  0
POINT
  5
149
330
F7
100
AcDbEntity
  8
Defpoints
 62
     0
100
AcDbPoint
 10
-45.40192378864671
 20
2.449999999999994
 30
0.0
  0
POINT
  5
14A
330
F7
100
AcDbEntity
  8
Defpoints
 62
     0
100
AcDbPoint
 10
24.59807621135331
 20
1.500000000000056
 30
0.0
  0
POINT
  5
14B
330
F7
100
AcDbEntity
  8
Defpoints
 62
     0
100
AcDbPoint
 10
24.59807621135331
 20
24.23841044024269
 30
0.0
  0
ENDBLK
  5
F9
330
F7
100
AcDbEntity
  8
0
100
AcDbBlockEnd
  0
BLOCK
  5
102
330
101
100
AcDbEntity
  8
0
100
AcDbBlockBegin
  2
_D_2
 70
     0
 10
0.0
 20
0.0
 30
0.0
  3
_D_2
  1

  0
LINE
  5
104
330
101
100
AcDbEntity
  8
치수문자_일반주서
 62
     0
370
    -2
100
AcDbLine
 10
8.598076211353304
 20
1.5625
 30
0.0
 11
8.598076211353305
 21
14.84699780616752
 31
0.0
  0
LINE
  5
105
330
101
100
AcDbEntity
  8
치수문자_일반주서
 62
     0
370
    -2
100
AcDbLine
 10
24.59807621135331
 20
1.562500000000056
 30
0.0
 11
24.59807621135331
 21
14.84699780616752
 31
0.0
  0
LINE
  5
106
330
101
100
AcDbEntity
  8
치수문자_일반주서
 62
     0
370
    -2
100
AcDbLine
 10
11.9000762113533
 20
14.84699780616752
 30
0.0
 11
21.29607621135331
 21
14.84699780616752
 31
0.0
  0
SOLID
  5
107
330
101
100
AcDbEntity
  8
치수문자_일반주서
 62
     0
100
AcDbTrace
 10
11.9000762113533
 20
15.39733113950085
 30
0.0
 11
11.9000762113533
 21
14.29666447283419
 31
0.0
 12
8.598076211353305
 22
14.84699780616752
 32
0.0
 13
8.598076211353305
 23
14.84699780616752
 33
0.0
  0
SOLID
  5
108
330
101
100
AcDbEntity
  8
치수문자_일반주서
 62
     0
100
AcDbTrace
 10
21.29607621135331
 20
14.29666447283419
 30
0.0
 11
21.29607621135331
 21
15.39733113950085
 31
0.0
 12
24.59807621135331
 22
14.84699780616752
 32
0.0
 13
24.59807621135331
 23
14.84699780616752
 33
0.0
  0
MTEXT
  5
109
330
101
100
AcDbEntity
  8
치수문자_일반주서
 62
     0
100
AcDbMText
 10
16.5980762113533
 20
19.22199780616752
 30
0.0
 40
3.5
 41
0.0
 71
     2
 72
     1
  1
\A1;16
  7
SLDTEXTSTYLE0
 73
     1
 44
1.0
  0
POINT
  5
10A
330
101
100
AcDbEntity
  8
Defpoints
 62
     0
100
AcDbPoint
 10
8.598076211353304
 20
1.5
 30
0.0
  0
POINT
  5
10B
330
101
100
AcDbEntity
  8
Defpoints
 62
     0
100
AcDbPoint
 10
24.59807621135331
 20
1.500000000000056
 30
0.0
  0
POINT
  5
14C
330
101
100
AcDbEntity
  8
Defpoints
 62
     0
100
AcDbPoint
 10
24.59807621135331
 20
14.84699780616752
 30
0.0
  0
ENDBLK
  5
103
330
101
100
AcDbEntity
  8
0
100
AcDbBlockEnd
  0
BLOCK
  5
10E
330
10D
100
AcDbEntity
  8
0
100
AcDbBlockBegin
  2
_D_3
 70
     0
 10
0.0
 20
0.0
 30
0.0
  3
_D_3
  1

  0
LINE
  5
110
330
10D
100
AcDbEntity
  8
치수문자_일반주서
 62
     0
370
    -2
100
AcDbLine
 10
-44.9144237886467
 20
2.999999999999994
 30
0.0
 11
-56.47721006923859
 21
2.99999999999995
 31
0.0
  0
LINE
  5
111
330
10D
100
AcDbEntity
  8
치수문자_일반주서
 62
     0
370
    -2
100
AcDbLine
 10
-44.9144237886467
 20
-3.0
 30
0.0
 11
-56.47721006923857
 21
-3.000000000000044
 31
0.0
  0
LINE
  5
112
330
10D
100
AcDbEntity
  8
치수문자_일반주서
 62
     0
370
    -2
100
AcDbLine
 10
-56.47721006923859
 20
2.99999999999995
 30
0.0
 11
-56.47721006923864
 21
15.72899999999995
 31
0.0
  0
LINE
  5
113
330
10D
100
AcDbEntity
  8
치수문자_일반주서
 62
     0
370
    -2
100
AcDbLine
 10
-56.47721006923859
 20
2.99999999999995
 30
0.0
 11
-56.47721006923857
 21
-3.000000000000044
 31
0.0
  0
LINE
  5
114
330
10D
100
AcDbEntity
  8
치수문자_일반주서
 62
     0
370
    -2
100
AcDbLine
 10
-56.4772100692386
 20
6.30199999999995
 30
0.0
 11
-56.47721006923862
 21
9.60399999999995
 31
0.0
  0
LINE
  5
115
330
10D
100
AcDbEntity
  8
치수문자_일반주서
 62
     0
370
    -2
100
AcDbLine
 10
-56.47721006923855
 20
-6.302000000000044
 30
0.0
 11
-56.47721006923854
 21
-9.604000000000044
 31
0.0
  0
SOLID
  5
116
330
10D
100
AcDbEntity
  8
치수문자_일반주서
 62
     0
100
AcDbTrace
 10
-57.02754340257194
 20
6.301999999999948
 30
0.0
 11
-55.92687673590527
 21
6.301999999999952
 31
0.0
 12
-56.47721006923859
 22
2.99999999999995
 32
0.0
 13
-56.47721006923859
 23
2.99999999999995
 33
0.0
  0
SOLID
  5
117
330
10D
100
AcDbEntity
  8
치수문자_일반주서
 62
     0
100
AcDbTrace
 10
-55.92687673590522
 20
-6.302000000000042
 30
0.0
 11
-57.02754340257189
 21
-6.302000000000046
 31
0.0
 12
-56.47721006923857
 22
-3.000000000000044
 32
0.0
 13
-56.47721006923857
 23
-3.000000000000044
 33
0.0
  0
MTEXT
  5
118
330
10D
100
AcDbEntity
  8
치수문자_일반주서
 62
     0
100
AcDbMText
 10
-60.85221006923862
 20
12.66649999999994
 30
0.0
 40
3.5
 41
0.0
 71
     2
 72
     1
  1
\A1;%%c6
  7
SLDTEXTSTYLE0
 11
-3.552713678800505E-15
 21
1.0
 31
0.0
 73
     1
 44
1.0
  0
POINT
  5
150
330
10D
100
AcDbEntity
  8
Defpoints
 62
     0
100
AcDbPoint
 10
-44.8519237886467
 20
2.999999999999994
 30
0.0
  0
POINT
  5
151
330
10D
100
AcDbEntity
  8
Defpoints
 62
     0
100
AcDbPoint
 10
-44.8519237886467
 20
-3.0
 30
0.0
  0
POINT
  5
152
330
10D
100
AcDbEntity
  8
Defpoints
 62
     0
100
AcDbPoint
 10
-56.47721006923856
 20
-3.000000000000044
 30
0.0
  0
ENDBLK
  5
10F
330
10D
100
AcDbEntity
  8
0
100
AcDbBlockEnd
  0
BLOCK
  5
11A
330
119
100
AcDbEntity
  8
0
100
AcDbBlockBegin
  2
SW_DOWELSYMBOL_0
 70
     0
 10
0.0
 20
0.0
 30
0.0
  3
SW_DOWELSYMBOL_0
  1

  0
CIRCLE
  5
11C
330
119
100
AcDbEntity
  8
외형선
 62
     0
100
AcDbCircle
 10
0.0
 20
0.0
 30
0.0
 40
3.000000000000004
  0
HATCH
  5
11D
330
119
100
AcDbEntity
  8
0
  6
Continuous
 62
     0
370
    30
100
AcDbHatch
 10
0.0
 20
0.0
 30
0.0
210
0.0
220
0.0
230
1.0
  2
SOLID
 70
     1
 71
     0
 91
        1
 92
        0
 93
        3
 72
     2
 10
0.0000000000000104
 20
0.0
 40
3.000000000000004
 50
0.0
 51
90.0
 73
     1
 72
     1
 10
0.0000000000000104
 20
3.000000000000004
 11
0.0000000000000104
 21
0.0
 72
     1
 10
0.0000000000000104
 20
0.0
 11
3.000000000000015
 21
0.0
 97
        0
 75
     0
 76
     1
 98
        1
 10
0.0
 20
0.0
  0
HATCH
  5
11E
330
119
100
AcDbEntity
  8
0
  6
Continuous
 62
     0
370
    30
100
AcDbHatch
 10
0.0
 20
0.0
 30
0.0
210
0.0
220
0.0
230
1.0
  2
SOLID
 70
     1
 71
     0
 91
        1
 92
        0
 93
        3
 72
     2
 10
0.0000000000000104
 20
0.0
 40
3.000000000000004
 50
180.0
 51
270.0000000000008
 73
     1
 72
     1
 10
0.0000000000000104
 20
-3.000000000000004
 11
0.0000000000000104
 21
0.0
 72
     1
 10
0.0000000000000104
 20
0.0
 11
-2.999999999999994
 21
0.0
 97
        0
 75
     0
 76
     1
 98
        1
 10
0.0
 20
0.0
  0
ENDBLK
  5
11B
330
119
100
AcDbEntity
  8
0
100
AcDbBlockEnd
  0
ENDSEC
  0
SECTION
  2
ENTITIES
  0
LINE
  5
95
330
1F
100
AcDbEntity
  8
0
  6
Continuous
 62
     1
370
    15
100
AcDbLine
 10
12.15810925944018
 20
0.5795387773289218
 30
0.0
 11
12.13296951528851
 21
0.5924581448223695
 31
0.0
  0
SPLINE
  5
96
330
1F
100
AcDbEntity
  8
0
  6
Continuous
 62
     1
370
    15
100
AcDbSpline
210
0.0
220
0.0
230
1.0
 70
     8
 71
     3
 72
     9
 73
     5
 74
     0
 42
0.000000001
 43
0.00000001
 40
0.0
 40
0.0
 40
0.0
 40
0.0
 40
0.5320802453008223
 40
1.0
 40
1.0
 40
1.0
 40
1.0
 10
12.55042363946825
 20
0.3844660525984855
 30
0.0
 10
12.48081758692672
 20
0.4174774313277417
 30
0.0
 10
12.34999887460603
 20
0.4795195368575054
 30
0.0
 10
12.21927673223309
 20
0.547656259012262
 30
0.0
 10
12.15810925944018
 20
0.5795387773289218
 30
0.0
  0
SPLINE
  5
97
330
1F
100
AcDbEntity
  8
0
  6
Continuous
 62
     1
370
    15
100
AcDbSpline
210
0.0
220
0.0
230
1.0
 70
     8
 71
     3
 72
     9
 73
     5
 74
     0
 42
0.000000001
 43
0.00000001
 40
0.0
 40
0.0
 40
0.0
 40
0.0
 40
0.5000150647592385
 40
1.0
 40
1.0
 40
1.0
 40
1.0
 10
20.71338374987244
 20
0.3840631543407411
 30
0.0
 10
20.64352310415256
 20
0.4172233256218404
 30
0.0
 10
20.5038060223212
 20
0.4835416700442556
 30
0.0
 10
20.36420379050606
 20
0.5563870769381344
 30
0.0
 10
20.2944047776725
 20
0.5928086829865573
 30
0.0
  0
LINE
  5
98
330
1F
100
AcDbEntity
  8
0
  6
Continuous
 62
     1
370
    15
100
AcDbLine
 10
19.91877284618745
 20
0.403603681808568
 30
0.0
 11
19.86796916716566
 21
0.4307701932028978
 31
0.0
  0
LINE
  5
99
330
1F
100
AcDbEntity
  8
0
  6
Continuous
 62
     1
370
    15
100
AcDbLine
 10
16.54202061154434
 20
-1.500000000000001
 30
0.0
 11
17.26964203560487
 21
-1.500000000000001
 31
0.0
  0
LINE
  5
9A
330
1F
100
AcDbEntity
  8
0
  6
Continuous
 62
     1
370
    15
100
AcDbLine
 10
9.10733428166353
 20
1.500000000000002
 30
0.0
 11
8.598076211353304
 21
1.500000000000002
 31
0.0
  0
LINE
  5
9B
330
1F
100
AcDbEntity
  8
0
  6
Continuous
 62
     1
370
    15
100
AcDbLine
 10
8.598076211353304
 20
-1.500000000000001
 30
0.0
 11
9.107334281663519
 21
-1.500000000000001
 31
0.0
  0
LINE
  5
9C
330
1F
100
AcDbEntity
  8
0
  6
Continuous
 62
     1
370
    15
100
AcDbLine
 10
17.26964203560488
 20
1.500000000000002
 30
0.0
 11
16.54202061154435
 21
1.500000000000002
 31
0.0
  0
SPLINE
  5
9D
330
1F
100
AcDbEntity
  8
0
  6
Continuous
 62
     1
370
    15
100
AcDbSpline
210
0.0
220
0.0
230
1.0
 70
     8
 71
     3
 72
    14
 73
    10
 74
     0
 42
0.000000001
 43
0.00000001
 40
0.0
 40
0.0
 40
0.0
 40
0.0
 40
0.2193734397078586
 40
0.3858418669884033
 40
0.5184679746015831
 40
0.5931923479664836
 40
0.662996756642376
 40
0.7969812351328334
 40
1.0
 40
1.0
 40
1.0
 40
1.0
 10
17.96067985011414
 20
-1.248215732020266
 30
0.0
 10
18.1255669740506
 20
-1.23302489785119
 30
0.0
 10
18.41557635634736
 20
-1.206306714352253
 30
0.0
 10
18.80519879790912
 20
-1.185021234091527
 30
0.0
 10
19.0860705334834
 20
-1.175512822923135
 30
0.0
 10
19.29414159071496
 20
-1.171970777357704
 30
0.0
 10
19.5033584830807
 20
-1.170924613930759
 30
0.0
 10
19.80878171684657
 20
-1.17375040891129
 30
0.0
 10
20.06230630254481
 20
-1.185106931034744
 30
0.0
 10
20.21503553962607
 20
-1.191948369923342
 30
0.0
  0
SPLINE
  5
9E
330
1F
100
AcDbEntity
  8
0
  6
Continuous
 62
     1
370
    15
100
AcDbSpline
210
0.0
220
0.0
230
1.0
 70
     8
 71
     3
 72
     9
 73
     5
 74
     0
 42
0.000000001
 43
0.00000001
 40
0.0
 40
0.0
 40
0.0
 40
0.0
 40
0.9842100254129963
 40
1.0
 40
1.0
 40
1.0
 40
1.0
 10
12.05306479745228
 20
1.191955131170519
 30
0.0
 10
11.63977908825356
 20
1.175952215432773
 30
0.0
 10
11.21986291332402
 20
1.159692560151339
 30
0.0
 10
10.7999206765076
 20
1.180128168439686
 30
0.0
 10
10.79328979926026
 20
1.180450846175229
 30
0.0
  0
SPLINE
  5
9F
330
1F
100
AcDbEntity
  8
0
  6
Continuous
 62
     1
370
    15
100
AcDbSpline
210
0.0
220
0.0
230
1.0
 70
     8
 71
     3
 72
    10
 73
     6
 74
     0
 42
0.000000001
 43
0.00000001
 40
0.0
 40
0.0
 40
0.0
 40
0.0
 40
0.2642231052518869
 40
0.4532064588094467
 40
1.0
 40
1.0
 40
1.0
 40
1.0
 10
9.78417642850558
 20
-1.24963346725394
 30
0.0
 10
9.98445830856067
 20
-1.231529254535728
 30
0.0
 10
10.32799011868354
 20
-1.200476155951742
 30
0.0
 10
11.08348196962098
 20
-1.163301686962125
 30
0.0
 10
11.6397061131634
 20
-1.179739413587299
 30
0.0
 10
12.05306479745228
 20
-1.191955131170518
 30
0.0
  0
SPLINE
  5
A0
330
1F
100
AcDbEntity
  8
0
  6
Continuous
 62
     1
370
    15
100
AcDbSpline
210
0.0
220
0.0
230
1.0
 70
     8
 71
     3
 72
    11
 73
     7
 74
     0
 42
0.000000001
 43
0.00000001
 40
0.0
 40
0.0
 40
0.0
 40
0.0
 40
0.3897584392538214
 40
0.6803568843205002
 40
0.9251434913810674
 40
0.9999999999999999
 40
0.9999999999999999
 40
0.9999999999999999
 40
0.9999999999999999
 10
20.21503553962607
 20
1.191948369923344
 30
0.0
 10
20.05192629153056
 20
1.184740304794434
 30
0.0
 10
19.76720506766026
 20
1.172158007044901
 30
0.0
 10
19.37990475437812
 20
1.170525437185067
 30
0.0
 10
19.12480811463129
 20
1.174350458129462
 30
0.0
 10
18.99107484290957
 20
1.179158248666079
 30
0.0
 10
18.95975614616243
 20
1.180284174412915
 30
0.0
  0
SPLINE
  5
A1
330
1F
100
AcDbEntity
  8
0
  6
Continuous
 62
     1
370
    15
100
AcDbSpline
210
0.0
220
0.0
230
1.0
 70
     8
 71
     3
 72
    12
 73
     8
 74
     0
 42
0.000000001
 43
0.00000001
 40
0.0
 40
0.0
 40
0.0
 40
0.0
 40
0.3301335499337966
 40
0.572287267320581
 40
0.7531317517209251
 40
0.9392061899211064
 40
1.0
 40
1.0
 40
1.0
 40
1.0
 10
21.41993850369642
 20
-1.128256758408939
 30
0.0
 10
21.5429664736253
 20
-1.109969290782466
 30
0.0
 10
21.7562357421644
 20
-1.078267923634939
 30
0.0
 10
22.03543238028896
 20
-1.04585614607078
 30
0.0
 10
22.26188735865725
 20
-1.024699988381566
 30
0.0
 10
22.42091941321976
 20
-1.012045474168549
 30
0.0
 10
22.51265571478834
 20
-1.007123175996513
 30
0.0
 10
22.53524670951438
 20
-1.005911010145665
 30
0.0
  0
SPLINE
  5
A2
330
1F
100
AcDbEntity
  8
0
  6
Continuous
 62
     1
370
    15
100
AcDbSpline
210
0.0
220
0.0
230
1.0
 70
     8
 71
     3
 72
    17
 73
    13
 74
     0
 42
0.000000001
 43
0.00000001
 40
0.0
 40
0.0
 40
0.0
 40
0.0
 40
0.129310514434873
 40
0.2185792783620191
 40
0.2747301181260008
 40
0.3289238320317492
 40
0.3854713236530177
 40
0.4473595547147886
 40
0.553035360750153
 40
0.6651013572257277
 40
0.8065538607007179
 40
1.0
 40
1.0
 40
1.0
 40
1.0
 10
15.87768772914694
 20
1.025894011706979
 30
0.0
 10
15.76451881828405
 20
1.017158408052905
 30
0.0
 10
15.57322440593459
 20
1.002392231063287
 30
0.0
 10
15.33400012384706
 20
0.9924758504952377
 30
0.0
 10
15.15972932395127
 20
0.9882470185684621
 30
0.0
 10
15.01399877203676
 20
0.9868044301713397
 30
0.0
 10
14.86325415872838
 20
0.9874243459492464
 30
0.0
 10
14.66768656954472
 20
0.9912062998471912
 30
0.0
 10
14.42394969099235
 20
1.001261604010693
 30
0.0
 10
14.11005366377138
 20
1.022690787748763
 30
0.0
 10
13.72056340361274
 20
1.060533659506432
 30
0.0
 10
13.42772390531989
 20
1.103388347819199
 30
0.0
 10
13.25857221838017
 20
1.128142326922562
 30
0.0
  0
SPLINE
  5
A3
330
1F
100
AcDbEntity
  8
0
  6
Continuous
 62
     1
370
    15
100
AcDbSpline
210
0.0
220
0.0
230
1.0
 70
     8
 71
     3
 72
    13
 73
     9
 74
     0
 42
0.000000001
 43
0.00000001
 40
0.0
 40
0.0
 40
0.0
 40
0.0
 40
0.3037606049007983
 40
0.5121124633596924
 40
0.6432617690786788
 40
0.7698120779417068
 40
0.9020290503047527
 40
1.0
 40
1.0
 40
1.0
 40
1.0
 10
13.25857221838017
 20
-1.128142326922561
 30
0.0
 10
13.37195634675986
 20
-1.111223259836094
 30
0.0
 10
13.56311156686937
 20
-1.082699267640897
 30
0.0
 10
13.80189632290058
 20
-1.054031965867493
 30
0.0
 10
13.97540622204417
 20
-1.036102280995983
 30
0.0
 10
14.1206017092263
 20
-1.023163575888211
 30
0.0
 10
14.25341794239995
 20
-1.012791240519813
 30
0.0
 10
14.33910962574656
 20
-1.00775824653098
 30
0.0
 10
14.37558111184097
 20
-1.00561613934965
 30
0.0
  0
SPLINE
  5
A4
330
1F
100
AcDbEntity
  8
0
  6
Continuous
 62
     1
370
    15
100
AcDbSpline
210
0.0
220
0.0
230
1.0
 70
     8
 71
     3
 72
    17
 73
    13
 74
     0
 42
0.000000001
 43
0.00000001
 40
0.0
 40
0.0
 40
0.0
 40
0.0
 40
0.1393440663869911
 40
0.2343881794222022
 40
0.2978451226875641
 40
0.3674863622446266
 40
0.4465854831278971
 40
0.537061627441852
 40
0.634441393024077
 40
0.7264562040789825
 40
0.8369189524240822
 40
1.0
 40
1.0
 40
1.0
 40
1.0
 10
24.05685196654471
 20
1.027335119618966
 30
0.0
 10
23.93368474300934
 20
1.01774008127067
 30
0.0
 10
23.72650734365911
 20
1.001600437665773
 30
0.0
 10
23.46462641511189
 20
0.9913426362590848
 30
0.0
 10
23.26430850211248
 20
0.9872655420871276
 30
0.0
 10
23.07784758611015
 20
0.9867107048179655
 30
0.0
 10
22.86776300670729
 20
0.9900725875204527
 30
0.0
 10
22.63378350437649
 20
0.9990831370562154
 30
0.0
 10
22.38793859781739
 20
1.014247905919892
 30
0.0
 10
22.12445995326571
 20
1.036642146737011
 30
0.0
 10
21.80416751836565
 20
1.071500236621069
 30
0.0
 10
21.56344950897838
 20
1.107057980630286
 30
0.0
 10
21.41993850369642
 20
1.128256758408941
 30
0.0
  0
LINE
  5
A5
330
1F
100
AcDbEntity
  8
0
  6
Continuous
 62
   131
370
    15
100
AcDbLine
 10
2.0
 20
-3.0
 30
0.0
 11
7.598076211353304
 21
-1.5
 31
0.0
  0
LINE
  5
A6
330
1F
100
AcDbEntity
  8
0
  6
Continuous
 62
   131
370
    15
100
AcDbLine
 10
7.598076211353304
 20
1.5
 30
0.0
 11
2.0
 21
3.0
 31
0.0
  0
LINE
  5
A7
330
1F
100
AcDbEntity
  8
0
  6
Continuous
 62
   131
370
    15
100
AcDbLine
 10
2.0
 20
2.999999999999999
 30
0.0
 11
-44.8519237886467
 21
2.999999999999996
 31
0.0
  0
LINE
  5
A8
330
1F
100
AcDbEntity
  8
0
  6
Continuous
 62
   131
370
    15
100
AcDbLine
 10
-44.8519237886467
 20
-3.000000000000002
 30
0.0
 11
2.0
 21
-2.999999999999999
 31
0.0
  0
LINE
  5
A9
330
1F
100
AcDbEntity
  8
0
  6
Continuous
 62
   131
370
    15
100
AcDbLine
 10
-44.8519237886467
 20
2.999999999999994
 30
0.0
 11
-45.40192378864671
 21
2.449999999999993
 31
0.0
  0
LINE
  5
AA
330
1F
100
AcDbEntity
  8
0
  6
Continuous
 62
   131
370
    15
100
AcDbLine
 10
-45.40192378864671
 20
-2.45
 30
0.0
 11
-44.8519237886467
 21
-3.0
 31
0.0
  0
LINE
  5
AB
330
1F
100
AcDbEntity
  8
0
  6
Continuous
 62
   131
370
    15
100
AcDbLine
 10
7.708001315843884
 20
1.5
 30
0.0
 11
7.598076211353304
 21
1.5
 31
0.0
  0
LINE
  5
AC
330
1F
100
AcDbEntity
  8
0
  6
Continuous
 62
   131
370
    15
100
AcDbLine
 10
8.598076211353304
 20
1.5
 30
0.0
 11
8.380788993155695
 21
1.5
 31
0.0
  0
LINE
  5
AD
330
1F
100
AcDbEntity
  8
0
  6
Continuous
 62
   131
370
    15
100
AcDbLine
 10
8.380788993155695
 20
-1.5
 30
0.0
 11
8.598076211353304
 21
-1.5
 31
0.0
  0
LINE
  5
AE
330
1F
100
AcDbEntity
  8
0
  6
Continuous
 62
   131
370
    15
100
AcDbLine
 10
7.598076211353304
 20
-1.5
 30
0.0
 11
7.708001315843884
 21
-1.5
 31
0.0
  0
SPLINE
  5
AF
330
1F
100
AcDbEntity
  8
0
  6
Continuous
 62
   131
370
    15
100
AcDbSpline
210
0.0
220
0.0
230
1.0
 70
     8
 71
     3
 72
     9
 73
     5
 74
     0
 42
0.000000001
 43
0.00000001
 40
0.0
 40
0.0
 40
0.0
 40
0.0
 40
0.4993687999067393
 40
1.0
 40
1.0
 40
1.0
 40
1.0
 10
7.820754795944836
 20
1.034070665015218
 30
0.0
 10
7.801038412119889
 20
1.032020510276021
 30
0.0
 10
7.761555801615133
 20
1.027915018023443
 30
0.0
 10
7.722267138273656
 20
1.023997516480575
 30
0.0
 10
7.702598007594952
 20
1.022036292981801
 30
0.0
  0
SPLINE
  5
B0
330
1F
100
AcDbEntity
  8
0
  6
Continuous
 62
     1
370
    15
100
AcDbSpline
210
0.0
220
0.0
230
1.0
 70
     8
 71
     3
 72
    20
 73
    16
 74
     0
 42
0.000000001
 43
0.00000001
 40
0.0
 40
0.0
 40
0.0
 40
0.0
 40
0.027577679603079
 40
0.1132622262326231
 40
0.1989501850629367
 40
0.28464617729472
 40
0.3703548019383475
 40
0.4560806231915631
 40
0.5418281580212235
 40
0.6276018640206239
 40
0.7133987547079506
 40
0.7980207372166332
 40
0.882606886889583
 40
0.9671646131985212
 40
1.0
 40
1.0
 40
1.0
 40
1.0
 10
18.95831904323689
 20
-1.180821497715054
 30
0.0
 10
18.86777194605124
 20
-1.216161072595688
 30
0.0
 10
18.49589273236264
 20
-1.36130159865533
 30
0.0
 10
17.84267461557038
 20
-1.4842839424095
 30
0.0
 10
16.99862678061753
 20
-1.519749996654399
 30
0.0
 10
16.15448451117189
 20
-1.387543340343114
 30
0.0
 10
15.31019281296629
 20
-1.112341306444876
 30
0.0
 10
14.46569836248007
 20
-0.7200008851645199
 30
0.0
 10
13.62094628268265
 20
-0.2524204400760242
 30
0.0
 10
12.77591395716792
 20
0.2418835822016894
 30
0.0
 10
11.93450155694596
 20
0.7079793397651976
 30
0.0
 10
11.09706949597953
 20
1.101342239601242
 30
0.0
 10
10.26378064234664
 20
1.371021528372192
 30
0.0
 10
9.600580741806231
 20
1.502966730956226
 30
0.0
 10
9.215142975198669
 20
1.486374983664708
 30
0.0
 10
9.107334281663526
 20
1.481734196606638
 30
0.0
  0
SPLINE
  5
B1
330
1F
100
AcDbEntity
  8
0
  6
Continuous
 62
     1
370
    15
100
AcDbSpline
210
0.0
220
0.0
230
1.0
 70
     8
 71
     3
 72
    16
 73
    12
 74
     0
 42
0.000000001
 43
0.00000001
 40
0.0
 40
0.0
 40
0.0
 40
0.0
 40
0.0742629149837547
 40
0.2037058074649871
 40
0.3331007082997139
 40
0.4627486134213039
 40
0.5926987807095322
 40
0.7222659775642118
 40
0.8516455824664408
 40
0.9811390347841648
 40
1.0
 40
1.0
 40
1.0
 40
1.0
 10
17.96281522096111
 20
-1.236653107527208
 30
0.0
 10
17.82837791421627
 20
-1.251659735818502
 30
0.0
 10
17.45961161774289
 20
-1.292823449013355
 30
0.0
 10
16.85696985797782
 20
-1.257193307386361
 30
0.0
 10
16.15409475242129
 20
-1.139481183210956
 30
0.0
 10
15.45011708230832
 20
-0.9343365207571372
 30
0.0
 10
14.74537048810147
 20
-0.6630297051595107
 30
0.0
 10
14.04166677209552
 20
-0.3415194051569812
 30
0.0
 10
13.33886323769418
 20
0.0013973004899408
 30
0.0
 10
12.83640237784545
 20
0.2552013056500417
 30
0.0
 10
12.56781906181323
 20
0.3748982719877146
 30
0.0
 10
12.53367285527987
 20
0.3901158863740551
 30
0.0
  0
SPLINE
  5
B2
330
1F
100
AcDbEntity
  8
0
  6
Continuous
 62
     1
370
    15
100
AcDbSpline
210
0.0
220
0.0
230
1.0
 70
     8
 71
     3
 72
    16
 73
    12
 74
     0
 42
0.000000001
 43
0.00000001
 40
0.0
 40
0.0
 40
0.0
 40
0.0
 40
0.1153167767654482
 40
0.2305952593148151
 40
0.3458413910933201
 40
0.4610612037632674
 40
0.5762608011143274
 40
0.6914463425542137
 40
0.8066240262740858
 40
0.9218000721862498
 40
1.0
 40
1.0
 40
1.0
 40
1.0
 10
24.5980762113533
 20
-1.423411303847849
 30
0.0
 10
24.31632861234605
 20
-1.357530905900221
 30
0.0
 10
23.7529269766365
 20
-1.225791987465171
 30
0.0
 10
22.90802341551426
 20
-0.8597848161548509
 30
0.0
 10
22.06339941399223
 20
-0.4144966378792614
 30
0.0
 10
21.21900789265417
 20
0.0771371313656555
 30
0.0
 10
20.37479364576762
 20
0.5594659914294939
 30
0.0
 10
19.5307031420006
 20
0.9849876279499933
 30
0.0
 10
18.68668120793639
 20
1.301409726256535
 30
0.0
 10
17.93300487394873
 20
1.482030591429962
 30
0.0
 10
17.46065650256868
 20
1.482568544647034
 30
0.0
 10
17.26964203560488
 20
1.482786089267141
 30
0.0
  0
SPLINE
  5
B3
330
1F
100
AcDbEntity
  8
0
  6
Continuous
 62
     1
370
    15
100
AcDbSpline
210
0.0
220
0.0
230
1.0
 70
     8
 71
     3
 72
    10
 73
     6
 74
     0
 42
0.000000001
 43
0.00000001
 40
0.0
 40
0.0
 40
0.0
 40
0.0
 40
0.2412328836487435
 40
0.6206633448331419
 40
1.0
 40
1.0
 40
1.0
 40
1.0
 10
10.79328979926026
 20
-1.180450846175228
 30
0.0
 10
10.61675623757483
 20
-1.242670366613821
 30
0.0
 10
10.16255650653599
 20
-1.402753747806415
 30
0.0
 10
9.43082428806421
 20
-1.517999556080821
 30
0.0
 10
8.875636024372383
 20
-1.486867432226874
 30
0.0
 10
8.598076211356899
 20
-1.471303294724728
 30
0.0
  0
SPLINE
  5
B4
330
1F
100
AcDbEntity
  8
0
  6
Continuous
 62
   131
370
    15
100
AcDbSpline
210
0.0
220
0.0
230
1.0
 70
    24
 71
     3
 72
     8
 73
     4
 74
     0
 42
0.000000001
 43
0.00000001
 40
0.0
 40
0.0
 40
0.0
 40
0.0
 40
1.0
 40
1.0
 40
1.0
 40
1.0
 10
8.598076211353304
 20
-1.233374462754155
 30
0.0
 10
8.598076211353304
 20
-1.313083156414248
 30
0.0
 10
8.598076211353304
 20
-1.392904263232837
 30
0.0
 10
8.598076211353304
 20
-1.471303294717077
 30
0.0
  0
SPLINE
  5
B5
330
1F
100
AcDbEntity
  8
0
  6
Continuous
 62
     1
370
    15
100
AcDbSpline
210
0.0
220
0.0
230
1.0
 70
     8
 71
     3
 72
    13
 73
     9
 74
     0
 42
0.000000001
 43
0.00000001
 40
0.0
 40
0.0
 40
0.0
 40
0.0
 40
0.1808301900448177
 40
0.3611462504835103
 40
0.5413648732801802
 40
0.7219055717011083
 40
0.9029145549980392
 40
1.0
 40
1.0
 40
1.0
 40
1.0
 10
24.5980762113533
 20
-1.183458396552322
 30
0.0
 10
24.36303419916122
 20
-1.132216739205064
 30
0.0
 10
23.89361843740023
 20
-1.029879112866583
 30
0.0
 10
23.19039858565348
 20
-0.7779019104992514
 30
0.0
 10
22.48756515826351
 20
-0.4750724324400766
 30
0.0
 10
21.78368742213741
 20
-0.1371519285202989
 30
0.0
 10
21.18734746699738
 20
0.1603816957654218
 30
0.0
 10
20.8260512441308
 20
0.3277537653714828
 30
0.0
 10
20.69991925080359
 20
0.3861849678878416
 30
0.0
  0
SPLINE
  5
B6
330
1F
100
AcDbEntity
  8
0
  6
Continuous
 62
     1
370
    15
100
AcDbSpline
210
0.0
220
0.0
230
1.0
 70
     8
 71
     3
 72
     9
 73
     5
 74
     0
 42
0.000000001
 43
0.00000001
 40
0.0
 40
0.0
 40
0.0
 40
0.0
 40
0.4850916955838684
 40
0.9999999999999999
 40
0.9999999999999999
 40
0.9999999999999999
 40
0.9999999999999999
 10
9.784757601240502
 20
-1.247633211021759
 30
0.0
 10
9.592841765108549
 20
-1.26199805530748
 30
0.0
 10
9.197213808829154
 20
-1.291610692292394
 30
0.0
 10
8.801719510112047
 20
-1.253168610109291
 30
0.0
 10
8.598076211353378
 20
-1.233374462754164
 30
0.0
  0
LINE
  5
B7
330
1F
100
AcDbEntity
  8
0
  6
Continuous
 62
   131
370
    15
100
AcDbLine
 10
24.5980762113533
 20
-1.42341130384785
 30
0.0
 11
24.5980762113533
 21
-1.183458396552322
 31
0.0
  0
SPLINE
  5
B8
330
1F
100
AcDbEntity
  8
0
  6
Continuous
 62
     1
370
    15
100
AcDbSpline
210
0.0
220
0.0
230
1.0
 70
     8
 71
     3
 72
    26
 73
    22
 74
     0
 42
0.000000001
 43
0.00000001
 40
0.0
 40
0.0
 40
0.0
 40
0.0
 40
0.0592741809632318
 40
0.1190380750111355
 40
0.173504595215963
 40
0.2283508680436646
 40
0.2827439487820072
 40
0.3375155157338515
 40
0.3918877650653245
 40
0.4466382982833206
 40
0.5009833157119433
 40
0.5557062489718023
 40
0.6100151230508211
 40
0.6647013421093915
 40
0.7189628143014403
 40
0.7736008331261423
 40
0.8278005405598999
 40
0.8823757395512144
 40
0.9364951403811345
 40
0.9909886846539924
 40
1.0
 40
1.0
 40
1.0
 40
1.0
 10
8.598076211353304
 20
1.49472401581506
 30
0.0
 10
8.755227567999144
 20
1.48248686337023
 30
0.0
 10
9.070828638760688
 20
1.457911457232538
 30
0.0
 10
9.529469873224823
 20
1.361688937334956
 30
0.0
 10
9.978057472670427
 20
1.231845869747977
 30
0.0
 10
10.41054771892716
 20
1.069122438597077
 30
0.0
 10
10.84591775760078
 20
0.8790994794489199
 30
0.0
 10
11.27778186111222
 20
0.6620132945126309
 30
0.0
 10
11.71297551847277
 20
0.4297353552427803
 30
0.0
 10
12.14456045983294
 20
0.1820838921657543
 30
0.0
 10
12.57960660528676
 20
-0.0668629047852715
 30
0.0
 10
13.01093624975474
 20
-0.3176195623143085
 30
0.0
 10
13.44568940823563
 20
-0.5558711906200074
 30
0.0
 10
13.87677055340266
 20
-0.7819763173060409
 30
0.0
 10
14.3110629709486
 20
-0.9833816699114616
 30
0.0
 10
14.74188488564073
 20
-1.160054277595959
 30
0.0
 10
15.17552547985921
 20
-1.302174028075152
 30
0.0
 10
15.60603923121203
 20
-1.411718464027207
 30
0.0
 10
16.03886262080048
 20
-1.473487145101195
 30
0.0
 10
16.34979096343127
 20
-1.51084443004657
 30
0.0
 10
16.51813294815287
 20
-1.495883527934143
 30
0.0
 10
16.54202061154434
 20
-1.493760581633577
 30
0.0
  0
SPLINE
  5
B9
330
1F
100
AcDbEntity
  8
0
  6
Continuous
 62
     1
370
    15
100
AcDbSpline
210
0.0
220
0.0
230
1.0
 70
     8
 71
     3
 72
    12
 73
     8
 74
     0
 42
0.000000001
 43
0.00000001
 40
0.0
 40
0.0
 40
0.0
 40
0.0
 40
0.0032598413602611
 40
0.2119303223752548
 40
0.4220364792378424
 40
0.7091343497184346
 40
1.0
 40
1.0
 40
1.0
 40
1.0
 10
22.53541033866941
 20
1.006176619540282
 30
0.0
 10
22.53765378734313
 20
1.007199594626357
 30
0.0
 10
22.68350591574672
 20
1.073705726616863
 30
0.0
 10
22.97266154573449
 20
1.183367032115052
 30
0.0
 10
23.45917558742792
 20
1.338861256110144
 30
0.0
 10
24.000165894224
 20
1.461596264904015
 30
0.0
 10
24.39790846952554
 20
1.486299888715765
 30
0.0
 10
24.59807621135331
 20
1.500000000000056
 30
0.0
  0
SPLINE
  5
BA
330
1F
100
AcDbEntity
  8
0
  6
Continuous
 62
   131
370
    15
100
AcDbSpline
210
0.0
220
0.0
230
1.0
 70
    24
 71
     3
 72
    10
 73
     6
 74
     0
 42
0.000000001
 43
0.00000001
 40
0.0
 40
0.0
 40
0.0
 40
0.0
 40
0.5
 40
0.5
 40
1.0
 40
1.0
 40
1.0
 40
1.0
 10
24.5980762113533
 20
1.050000000000002
 30
0.0
 10
24.5980762113533
 20
1.113648385210973
 30
0.0
 10
24.5980762113533
 20
1.187613703300678
 30
0.0
 10
24.5980762113533
 20
1.342792741441285
 30
0.0
 10
24.5980762113533
 20
1.423610153702212
 30
0.0
 10
24.59807621135331
 20
1.500000000000056
 30
0.0
  0
LINE
  5
BB
330
1F
100
AcDbEntity
  8
0
  6
Continuous
 62
     1
370
    15
100
AcDbLine
 10
24.5980762113533
 20
1.050000000000002
 30
0.0
 11
24.05142970477213
 21
1.005715558396482
 31
0.0
  0
SPLINE
  5
BC
330
1F
100
AcDbEntity
  8
0
  6
Continuous
 62
     1
370
    15
100
AcDbSpline
210
0.0
220
0.0
230
1.0
 70
     8
 71
     3
 72
    13
 73
     9
 74
     0
 42
0.000000001
 43
0.00000001
 40
0.0
 40
0.0
 40
0.0
 40
0.0
 40
0.0174223545918386
 40
0.1890901611900631
 40
0.4455360697136578
 40
0.7023242131525907
 40
0.8512801437378612
 40
1.0
 40
1.0
 40
1.0
 40
1.0
 10
12.70772211188152
 20
-0.1410853780817645
 30
0.0
 10
12.68386524695127
 20
-0.1317654742722615
 30
0.0
 10
12.42493937034992
 20
-0.0306136980111846
 30
0.0
 10
11.814542872902
 20
0.2210819588899241
 30
0.0
 10
10.87629963825015
 20
0.582063196017491
 30
0.0
 10
9.96876215749849
 20
0.8488465389638494
 30
0.0
 10
9.2093782169554
 20
0.9942009279448639
 30
0.0
 10
8.801735785117533
 20
1.025945811632684
 30
0.0
 10
8.598076211353302
 20
1.041805665701135
 30
0.0
  0
SPLINE
  5
BD
330
1F
100
AcDbEntity
  8
0
  6
Continuous
 62
   131
370
    15
100
AcDbSpline
210
0.0
220
0.0
230
1.0
 70
    24
 71
     3
 72
    10
 73
     6
 74
     0
 42
0.000000001
 43
0.00000001
 40
0.0
 40
0.0
 40
0.0
 40
0.0
 40
0.5
 40
0.5
 40
1.0
 40
1.0
 40
1.0
 40
1.0
 10
8.598076211355414
 20
1.494724015802844
 30
0.0
 10
8.598076211355414
 20
1.422584945969724
 30
0.0
 10
8.598076211355414
 20
1.342966745668271
 30
0.0
 10
8.598076211355414
 20
1.186236446953943
 30
0.0
 10
8.598076211355414
 20
1.109539329556468
 30
0.0
 10
8.598076211355414
 20
1.041805665701028
 30
0.0
  0
SPLINE
  5
BE
330
1F
100
AcDbEntity
  8
0
  6
Continuous
 62
     1
370
    15
100
AcDbSpline
210
0.0
220
0.0
230
1.0
 70
     8
 71
     3
 72
    20
 73
    16
 74
     0
 42
0.000000001
 43
0.00000001
 40
0.0
 40
0.0
 40
0.0
 40
0.0
 40
0.0338668602772317
 40
0.1185753272539915
 40
0.2031579460774264
 40
0.287619932825981
 40
0.3744766572141542
 40
0.4596496381006761
 40
0.5443281247121027
 40
0.6290057980575867
 40
0.7136828364930929
 40
0.798359386414974
 40
0.8830355671106763
 40
0.9411365343831662
 40
1.0
 40
1.0
 40
1.0
 40
1.0
 10
14.39790361484169
 20
1.004385912753462
 30
0.0
 10
14.51306097539459
 20
1.056475090687137
 30
0.0
 10
14.91625222493733
 20
1.238850760274356
 30
0.0
 10
15.60707036790122
 20
1.425698043973092
 30
0.0
 10
16.46995001664197
 20
1.528301618242801
 30
0.0
 10
17.34017661556337
 20
1.456855618346589
 30
0.0
 10
18.21240052746313
 20
1.22396122921468
 30
0.0
 10
19.08534119249939
 20
0.85313834006713
 30
0.0
 10
19.95084442758532
 20
0.3918290628116491
 30
0.0
 10
20.81462655916255
 20
-0.1116152952642947
 30
0.0
 10
21.67842821281805
 20
-0.6026607817095747
 30
0.0
 10
22.54203320787096
 20
-1.028476448528808
 30
0.0
 10
23.31585945430908
 20
-1.306412433018473
 30
0.0
 10
24.00023346288201
 20
-1.461597637352201
 30
0.0
 10
24.39793109008468
 20
-1.48630034818242
 30
0.0
 10
24.59807621135324
 20
-1.499999999999939
 30
0.0
  0
SPLINE
  5
BF
330
1F
100
AcDbEntity
  8
0
  6
Continuous
 62
     1
370
    15
100
AcDbSpline
210
0.0
220
0.0
230
1.0
 70
     8
 71
     3
 72
    14
 73
    10
 74
     0
 42
0.000000001
 43
0.00000001
 40
0.0
 40
0.0
 40
0.0
 40
0.0
 40
0.0977276336657433
 40
0.2385675969068215
 40
0.3795117672003507
 40
0.5208946749943606
 40
0.7321727806751436
 40
0.9437318607294132
 40
1.0
 40
1.0
 40
1.0
 40
1.0
 10
20.8624813783155
 20
-0.1362643957220792
 30
0.0
 10
20.69988397987717
 20
-0.07197402526484
 30
0.0
 10
20.30295970008332
 20
0.0849682704699762
 30
0.0
 10
19.6723742207581
 20
0.3402382743784391
 30
0.0
 10
18.96895457813361
 20
0.5965236889275707
 30
0.0
 10
18.14817134511696
 20
0.8469568749571592
 30
0.0
 10
17.20979069003064
 20
1.023807676226818
 30
0.0
 10
16.41287614736621
 20
1.083646891934518
 30
0.0
 10
15.96735170238532
 20
1.022172623469267
 30
0.0
 10
15.87375094148495
 20
1.009257421241951
 30
0.0
  0
LINE
  5
C0
330
1F
100
AcDbEntity
  8
0
  6
Continuous
 62
   131
370
    15
100
AcDbLine
 10
8.598076211353302
 20
1.494724015817174
 30
0.0
 11
8.598076211353304
 21
1.500000000000002
 31
0.0
  0
LINE
  5
C1
330
1F
100
AcDbEntity
  8
0
  6
Continuous
 62
   131
370
    15
100
AcDbLine
 10
24.59807621135331
 20
-1.499999999999939
 30
0.0
 11
24.59807621135317
 21
-1.423411303847852
 31
0.0
  0
SPLINE
  5
C2
330
1F
100
AcDbEntity
  8
0
  6
Continuous
 62
     1
370
    15
100
AcDbSpline
210
0.0
220
0.0
230
1.0
 70
     8
 71
     3
 72
     8
 73
     4
 74
     0
 42
0.000000001
 43
0.00000001
 40
0.0
 40
0.0
 40
0.0
 40
0.0
 40
1.0
 40
1.0
 40
1.0
 40
1.0
 10
23.66972178071376
 20
0.4198106250614969
 30
0.0
 10
23.60246172502248
 20
0.4994278928804109
 30
0.0
 10
23.54412369809101
 20
0.5755240816840973
 30
0.0
 10
23.49810783634289
 20
0.6462796946959503
 30
0.0
  0
LINE
  5
C3
330
1F
100
AcDbEntity
  8
0
  6
Continuous
 62
     1
370
    15
100
AcDbLine
 10
23.49810783634288
 20
0.6462796946959493
 30
0.0
 11
24.5980762113533
 21
0.0000000000000023
 31
0.0
  0
LINE
  5
C4
330
1F
100
AcDbEntity
  8
0
  6
Continuous
 62
   131
370
    15
100
AcDbLine
 10
24.5980762113533
 20
0.0000000000000023
 30
0.0
 11
24.5980762113533
 21
-0.4008644190444649
 31
0.0
  0
SPLINE
  5
C5
330
1F
100
AcDbEntity
  8
0
  6
Continuous
 62
     1
370
    15
100
AcDbSpline
210
0.0
220
0.0
230
1.0
 70
     8
 71
     3
 72
    10
 73
     6
 74
     0
 42
0.000000001
 43
0.00000001
 40
0.0
 40
0.0
 40
0.0
 40
0.0
 40
0.5
 40
0.5
 40
1.0
 40
1.0
 40
1.0
 40
1.0
 10
24.5980762113533
 20
-0.400864419044465
 30
0.0
 10
24.43737116823809
 20
-0.274520487137553
 30
0.0
 10
24.27935281651365
 20
-0.1429921789881828
 30
0.0
 10
23.96881396173778
 20
0.1306733655047766
 30
0.0
 10
23.81483384628665
 20
0.2742501368963224
 30
0.0
 10
23.66972178071377
 20
0.4198106250614958
 30
0.0
  0
SPLINE
  5
C6
330
1F
100
AcDbEntity
  8
0
  6
Continuous
 62
     1
370
    15
100
AcDbSpline
210
0.0
220
0.0
230
1.0
 70
     8
 71
     3
 72
    21
 73
    17
 74
     0
 42
0.000000001
 43
0.00000001
 40
0.0
 40
0.0
 40
0.0
 40
0.0
 40
0.0369713459110772
 40
0.1120474930821822
 40
0.1870006211401822
 40
0.262007754257524
 40
0.3372422880417993
 40
0.4124347046917988
 40
0.4874229461970289
 40
0.5623830143953857
 40
0.6374917312296938
 40
0.7127779622625613
 40
0.7878392090019392
 40
0.8627902809922288
 40
0.9378082623336075
 40
1.0
 40
1.0
 40
1.0
 40
1.0
 10
21.42497348240056
 20
-1.11712367208378
 30
0.0
 10
21.3094295342782
 20
-1.137408719008599
 30
0.0
 10
20.9592553815961
 20
-1.198885752072181
 30
0.0
 10
20.37514093678288
 20
-1.210250613986017
 30
0.0
 10
19.67232933888027
 20
-1.151808073546663
 30
0.0
 10
18.96900485393065
 20
-1.004899158094366
 30
0.0
 10
18.26448888527217
 20
-0.7862180976692594
 30
0.0
 10
17.56013278421657
 20
-0.5098665525321938
 30
0.0
 10
16.85698717158074
 20
-0.1960705950103393
 30
0.0
 10
16.15411203890618
 20
0.1319553039428501
 30
0.0
 10
15.45012831992589
 20
0.4504172190201636
 30
0.0
 10
14.74541891726233
 20
0.7352511845803641
 30
0.0
 10
14.04170000272629
 20
0.9678412960039989
 30
0.0
 10
13.3389085645442
 20
1.127204153351994
 30
0.0
 10
12.6762806534882
 20
1.208546037160351
 30
0.0
 10
12.24748238496832
 20
1.192765996328975
 30
0.0
 10
12.05312509293071
 20
1.185613528072012
 30
0.0
  0
SPLINE
  5
C7
330
1F
100
AcDbEntity
  8
0
  6
Continuous
 62
   131
370
    15
100
AcDbSpline
210
0.0
220
0.0
230
1.0
 70
    24
 71
     3
 72
    10
 73
     6
 74
     0
 42
0.000000001
 43
0.00000001
 40
0.0
 40
0.0
 40
0.0
 40
0.0
 40
0.4999999999999999
 40
0.4999999999999999
 40
1.0
 40
1.0
 40
1.0
 40
1.0
 10
8.598076211353318
 20
-0.1496268224912833
 30
0.0
 10
8.598076211353318
 20
-0.3743138706166629
 30
0.0
 10
8.598076211353318
 20
-0.5977593552710809
 30
0.0
 10
8.598076211353318
 20
-0.9765828579894195
 30
0.0
 10
8.598076211353318
 20
-1.130330271605138
 30
0.0
 10
8.598076211353318
 20
-1.233374462754156
 30
0.0
  0
SPLINE
  5
C8
330
1F
100
AcDbEntity
  8
0
  6
Continuous
 62
     1
370
    15
100
AcDbSpline
210
0.0
220
0.0
230
1.0
 70
     8
 71
     3
 72
    13
 73
     9
 74
     0
 42
0.000000001
 43
0.00000001
 40
0.0
 40
0.0
 40
0.0
 40
0.0
 40
0.1714886548573475
 40
0.342083505627291
 40
0.5457512595272555
 40
0.7499546375800599
 40
0.9535794724428736
 40
1.0
 40
1.0
 40
1.0
 40
1.0
 10
23.6697217462386
 20
0.41981064011041
 30
0.0
 10
23.47213675008457
 20
0.5030008618846382
 30
0.0
 10
23.07799657678886
 20
0.6689477154657837
 30
0.0
 10
22.45000866625457
 20
0.8918564405446887
 30
0.0
 10
21.78363708640806
 20
1.074735460337376
 30
0.0
 10
21.07896005148349
 20
1.18179997769678
 30
0.0
 10
20.55579497298433
 20
1.217464095488336
 30
0.0
 10
20.26786651433577
 20
1.18946314229805
 30
0.0
 10
20.21441304965311
 20
1.184264809457097
 30
0.0
  0
SPLINE
  5
C9
330
1F
100
AcDbEntity
  8
0
  6
Continuous
 62
     1
370
    15
100
AcDbSpline
210
0.0
220
0.0
230
1.0
 70
     8
 71
     3
 72
    14
 73
    10
 74
     0
 42
0.000000001
 43
0.00000001
 40
0.0
 40
0.0
 40
0.0
 40
0.0
 40
0.1340031826703233
 40
0.2852531377378006
 40
0.4363420712185411
 40
0.5870461343049226
 40
0.7377195464249652
 40
0.8689610627679016
 40
1.0
 40
1.0
 40
1.0
 40
1.0
 10
13.26089524339844
 20
-1.123672881332782
 30
0.0
 10
13.05266722374954
 20
-1.151919212232362
 30
0.0
 10
12.60941136380544
 20
-1.212047295447431
 30
0.0
 10
11.93090889887551
 20
-1.19734405659327
 30
0.0
 10
11.22664412746457
 20
-1.102560166992689
 30
0.0
 10
10.52355657800235
 20
-0.9252830559380937
 30
0.0
 10
9.851402475677629
 20
-0.6912611264110868
 30
0.0
 10
9.209329200803424
 20
-0.427304246538863
 30
0.0
 10
8.80172226590738
 20
-0.2421382912644615
 30
0.0
 10
8.598076211353302
 20
-0.1496268224912757
 30
0.0
  0
SPLINE
  5
CA
330
1F
100
AcDbEntity
  8
0
  6
Continuous
 62
   131
370
    15
100
AcDbSpline
210
0.0
220
0.0
230
1.0
 70
    24
 71
     3
 72
    10
 73
     6
 74
     0
 42
0.000000001
 43
0.00000001
 40
0.0
 40
0.0
 40
0.0
 40
0.0
 40
0.5
 40
0.5
 40
1.0
 40
1.0
 40
1.0
 40
1.0
 10
24.5980762113533
 20
-1.183458396552322
 30
0.0
 10
24.5980762113533
 20
-1.092737083505705
 30
0.0
 10
24.59807621135331
 20
-0.9781072258597008
 30
0.0
 10
24.5980762113533
 20
-0.711603838726018
 30
0.0
 10
24.5980762113533
 20
-0.5599611645769628
 30
0.0
 10
24.5980762113533
 20
-0.4008644190445131
 30
0.0
  0
SPLINE
  5
CB
330
1F
100
AcDbEntity
  8
0
  6
Continuous
 62
   131
370
    15
100
AcDbSpline
210
0.0
220
0.0
230
1.0
 70
    24
 71
     3
 72
    10
 73
     6
 74
     0
 42
0.000000001
 43
0.00000001
 40
0.0
 40
0.0
 40
0.0
 40
0.0
 40
0.5
 40
0.5
 40
1.0
 40
1.0
 40
1.0
 40
1.0
 10
8.598076211353266
 20
1.041805665701137
 30
0.0
 10
8.598076211353266
 20
0.9532926215478245
 30
0.0
 10
8.598076211353266
 20
0.7943478350863561
 30
0.0
 10
8.598076211353266
 20
0.370844028140325
 30
0.0
 10
8.598076211353266
 20
0.1095663516803369
 30
0.0
 10
8.598076211353266
 20
-0.1496268224912599
 30
0.0
  0
SPLINE
  5
CC
330
1F
100
AcDbEntity
  8
0
  6
Continuous
 62
     1
370
    15
100
AcDbSpline
210
0.0
220
0.0
230
1.0
 70
     8
 71
     3
 72
    10
 73
     6
 74
     0
 42
0.000000001
 43
0.00000001
 40
0.0
 40
0.0
 40
0.0
 40
0.0
 40
0.5
 40
0.5
 40
1.0
 40
1.0
 40
1.0
 40
1.0
 10
24.5980762113533
 20
1.050000000000002
 30
0.0
 10
24.41140927697567
 20
0.9992646357837653
 30
0.0
 10
24.22610794677587
 20
0.9413115908220789
 30
0.0
 10
23.8587536352691
 20
0.8082368764621218
 30
0.0
 10
23.67657047998927
 20
0.7336544459778029
 30
0.0
 10
23.49810783634171
 20
0.6462796946968229
 30
0.0
  0
LINE
  5
CD
330
1F
100
AcDbEntity
  8
0
  6
Continuous
 62
   131
370
    15
100
AcDbLine
 10
24.5980762113533
 20
0.0000000000000023
 30
0.0
 11
24.5980762113533
 21
1.050000000000002
 31
0.0
  0
LINE
  5
CE
330
1F
100
AcDbEntity
  8
0
  6
Continuous
 62
   131
370
    15
100
AcDbLine
 10
7.598076211353304
 20
1.5
 30
0.0
 11
7.598076211353304
 21
-1.5
 31
0.0
  0
LINE
  5
CF
330
1F
100
AcDbEntity
  8
0
  6
Continuous
 62
   131
370
    15
100
AcDbLine
 10
2.0
 20
3.0
 30
0.0
 11
2.0
 21
-3.0
 31
0.0
  0
LINE
  5
D0
330
1F
100
AcDbEntity
  8
0
  6
Continuous
 62
   131
370
    15
100
AcDbLine
 10
-44.8519237886467
 20
2.999999999999994
 30
0.0
 11
-44.8519237886467
 21
-3.000000000000002
 31
0.0
  0
LINE
  5
D1
330
1F
100
AcDbEntity
  8
0
  6
Continuous
 62
   131
370
    15
100
AcDbLine
 10
-45.40192378864671
 20
2.449999999999994
 30
0.0
 11
-45.40192378864671
 21
-2.450000000000001
 31
0.0
  0
SPLINE
  5
D2
330
1F
100
AcDbEntity
  8
0
  6
Continuous
 62
   131
370
    15
100
AcDbSpline
210
0.0
220
0.0
230
1.0
 70
     8
 71
     3
 72
    10
 73
     6
 74
     0
 42
0.000000001
 43
0.00000001
 40
0.0
 40
0.0
 40
0.0
 40
0.0
 40
0.5000000000000001
 40
0.5000000000000001
 40
1.0
 40
1.0
 40
1.0
 40
1.0
 10
8.598076211359688
 20
-1.471303294725039
 30
0.0
 10
8.448839645582524
 20
-1.454594758113005
 30
0.0
 10
8.302687759486968
 20
-1.430808213699983
 30
0.0
 10
8.007351984523249
 20
-1.36943224402716
 30
0.0
 10
7.857225875072768
 20
-1.331696470063007
 30
0.0
 10
7.707922708021153
 20
-1.287667088770461
 30
0.0
  0
SPLINE
  5
D3
330
1F
100
AcDbEntity
  8
0
  6
Continuous
 62
   131
370
    15
100
AcDbSpline
210
0.0
220
0.0
230
1.0
 70
     8
 71
     3
 72
     9
 73
     5
 74
     0
 42
0.000000001
 43
0.00000001
 40
0.0
 40
0.0
 40
0.0
 40
0.0
 40
0.659229659565779
 40
1.0
 40
1.0
 40
1.0
 40
1.0
 10
7.708001315843884
 20
-1.450077951483222
 30
0.0
 10
7.855991981924904
 20
-1.469542288478695
 30
0.0
 10
8.08048228501366
 20
-1.499068170260612
 30
0.0
 10
8.304463006458302
 20
-1.495615753048822
 30
0.0
 10
8.380788993155695
 20
-1.494439271660239
 30
0.0
  0
LINE
  5
D4
330
1F
100
AcDbEntity
  8
0
  6
Continuous
 62
   131
370
    15
100
AcDbLine
 10
7.708001315843884
 20
-1.5
 30
0.0
 11
7.708001315843884
 21
-1.449946758238233
 31
0.0
  0
SPLINE
  5
D5
330
1F
100
AcDbEntity
  8
0
  6
Continuous
 62
   131
370
    15
100
AcDbSpline
210
0.0
220
0.0
230
1.0
 70
     8
 71
     3
 72
    10
 73
     6
 74
     0
 42
0.000000001
 43
0.00000001
 40
0.0
 40
0.0
 40
0.0
 40
0.0
 40
0.5
 40
0.5
 40
1.0
 40
1.0
 40
1.0
 40
1.0
 10
7.708001315843884
 20
1.450077951483226
 30
0.0
 10
7.857291672438352
 20
1.472038267609954
 30
0.0
 10
8.00740424458987
 20
1.486863157640186
 30
0.0
 10
8.302713246076976
 20
1.501750938973555
 30
0.0
 10
8.448852741024306
 20
1.501915871069409
 30
0.0
 10
8.598076211353648
 20
1.494724015815045
 30
0.0
  0
LINE
  5
D6
330
1F
100
AcDbEntity
  8
0
  6
Continuous
 62
   131
370
    15
100
AcDbLine
 10
7.708001315843884
 20
-1.287634115020112
 30
0.0
 11
7.708001315843884
 21
1.5
 31
0.0
  0
SPLINE
  5
D7
330
1F
100
AcDbEntity
  8
0
  6
Continuous
 62
   131
370
    15
100
AcDbSpline
210
0.0
220
0.0
230
1.0
 70
    24
 71
     3
 72
    10
 73
     6
 74
     0
 42
0.000000001
 43
0.00000001
 40
0.0
 40
0.0
 40
0.0
 40
0.0
 40
0.5
 40
0.5
 40
1.0
 40
1.0
 40
1.0
 40
1.0
 10
8.598076211353318
 20
-0.149626822491284
 30
0.0
 10
8.598076211353318
 20
-0.3743138706166637
 30
0.0
 10
8.598076211353318
 20
-0.5977593552710818
 30
0.0
 10
8.598076211353318
 20
-0.9765828579894201
 30
0.0
 10
8.598076211353318
 20
-1.130330271605138
 30
0.0
 10
8.598076211353318
 20
-1.233374462754156
 30
0.0
  0
SPLINE
  5
D8
330
1F
100
AcDbEntity
  8
0
  6
Continuous
 62
   131
370
    15
100
AcDbSpline
210
0.0
220
0.0
230
1.0
 70
     8
 71
     3
 72
    10
 73
     6
 74
     0
 42
0.000000001
 43
0.00000001
 40
0.0
 40
0.0
 40
0.0
 40
0.0
 40
0.4999999999999999
 40
0.4999999999999999
 40
1.0
 40
1.0
 40
1.0
 40
1.0
 10
8.598076211358952
 20
-1.233374462754855
 30
0.0
 10
8.448839645581913
 20
-1.214884969227795
 30
0.0
 10
8.302687759486489
 20
-1.190493124609406
 30
0.0
 10
8.007351984523005
 20
-1.130238437768631
 30
0.0
 10
7.857225875072643
 20
-1.094244266577955
 30
0.0
 10
7.707922708021153
 20
-1.053112033868341
 30
0.0
  0
SPLINE
  5
D9
330
1F
100
AcDbEntity
  8
0
  6
Continuous
 62
   131
370
    15
100
AcDbSpline
210
0.0
220
0.0
230
1.0
 70
     8
 71
     3
 72
    10
 73
     6
 74
     0
 42
0.000000001
 43
0.00000001
 40
0.0
 40
0.0
 40
0.0
 40
0.0
 40
0.5
 40
0.5
 40
1.0
 40
1.0
 40
1.0
 40
1.0
 10
8.59807621135355
 20
-0.1496268224913912
 30
0.0
 10
8.448847962195321
 20
-0.0815023170197705
 30
0.0
 10
8.302703945444206
 20
-0.0131181334683088
 30
0.0
 10
8.00738517370823
 20
0.1235753857436383
 30
0.0
 10
7.857267661481723
 20
0.1920278186467323
 30
0.0
 10
7.70797263002857
 20
0.2590788472391095
 30
0.0
  0
SPLINE
  5
DA
330
1F
100
AcDbEntity
  8
0
  6
Continuous
 62
   131
370
    15
100
AcDbSpline
210
0.0
220
0.0
230
1.0
 70
    24
 71
     3
 72
    10
 73
     6
 74
     0
 42
0.000000001
 43
0.00000001
 40
0.0
 40
0.0
 40
0.0
 40
0.0
 40
0.5
 40
0.5
 40
1.0
 40
1.0
 40
1.0
 40
1.0
 10
8.598076211353263
 20
1.041805665701137
 30
0.0
 10
8.598076211353263
 20
0.9532926215478253
 30
0.0
 10
8.598076211353263
 20
0.7943478350863574
 30
0.0
 10
8.598076211353263
 20
0.3708440281403266
 30
0.0
 10
8.598076211353263
 20
0.1095663516803384
 30
0.0
 10
8.598076211353263
 20
-0.1496268224912582
 30
0.0
  0
LINE
  5
DB
330
1F
100
AcDbEntity
  8
0
  6
Continuous
 62
   131
370
    15
100
AcDbLine
 10
8.598076211353302
 20
1.041805665701135
 30
0.0
 11
7.819310679098036
 21
1.027309606984636
 31
0.0
  0
SPLINE
  5
DC
330
1F
100
AcDbEntity
  8
0
  6
Continuous
 62
   131
370
    15
100
AcDbSpline
210
0.0
220
0.0
230
1.0
 70
    24
 71
     3
 72
     8
 73
     4
 74
     0
 42
0.000000001
 43
0.00000001
 40
0.0
 40
0.0
 40
0.0
 40
0.0
 40
1.0
 40
1.0
 40
1.0
 40
1.0
 10
8.598076211353304
 20
-1.233374462754155
 30
0.0
 10
8.598076211353304
 20
-1.313083156414249
 30
0.0
 10
8.598076211353304
 20
-1.392904263232838
 30
0.0
 10
8.598076211353304
 20
-1.471303294717078
 30
0.0
  0
SPLINE
  5
DD
330
1F
100
AcDbEntity
  8
0
  6
Continuous
 62
   131
370
    15
100
AcDbSpline
210
0.0
220
0.0
230
1.0
 70
    24
 71
     3
 72
    10
 73
     6
 74
     0
 42
0.000000001
 43
0.00000001
 40
0.0
 40
0.0
 40
0.0
 40
0.0
 40
0.5
 40
0.5
 40
1.0
 40
1.0
 40
1.0
 40
1.0
 10
8.598076211355414
 20
1.494724015802845
 30
0.0
 10
8.598076211355414
 20
1.422584945969724
 30
0.0
 10
8.598076211355414
 20
1.342966745668271
 30
0.0
 10
8.598076211355414
 20
1.186236446953943
 30
0.0
 10
8.598076211355414
 20
1.109539329556468
 30
0.0
 10
8.598076211355414
 20
1.041805665701028
 30
0.0
  0
LINE
  5
DE
330
1F
100
AcDbEntity
  8
중심선
 62
     1
100
AcDbLine
 10
-48.40192378864671
 20
-0.0000000000000046
 30
0.0
 11
27.59807621135329
 21
0.0000000000000026
 31
0.0
  0
CIRCLE
  5
DF
330
1F
100
AcDbEntity
  8
외형선
100
AcDbCircle
 10
0.0000000000000104
 20
0.0
 30
0.0
 40
3.000000000000005
  0
INSERT
  5
E0
330
1F
100
AcDbEntity
  8
0
  6
Continuous
 62
     7
100
AcDbBlockReference
 66
     1
  2
블럭10
 10
-22.93944368806589
 20
-52.04609937292004
 30
0.0
  0
ATTRIB
  5
E1
330
E0
100
AcDbEntity
  8
FORMAT
 62
     2
100
AcDbText
 10
-39.05870472750145
 20
-49.97073246008785
 30
0.0
 40
4.233333333333333
  1
SEME7003016E [ 2 FLUTE ]
 41
0.75
  7
SLDTEXTSTYLE0
 11
-39.05870472750145
 21
-52.08739912675452
 31
0.0
100
AcDbAttribute
  2
AUTOATTR0
 70
     0
 74
     1
  0
SEQEND
  5
E2
330
E0
100
AcDbEntity
  8
0
  6
Continuous
 62
     7
  0
HATCH
  5
E3
330
1F
100
AcDbEntity
  8
중심선
100
AcDbHatch
 10
0.0
 20
0.0
 30
0.0
210
0.0
220
0.0
230
1.0
  2
SOLID
 70
     1
 71
     0
 91
        1
 92
        0
 93
        4
 72
     1
 10
-17.22453438368504
 20
-35.7989250712761
 11
-20.67080962752232
 21
-35.7989250712761
 72
     1
 10
-20.67080962752232
 20
-35.7989250712761
 11
-22.79903948672635
 21
-38.3352506518487
 72
     1
 10
-22.79903948672635
 20
-38.3352506518487
 11
-19.35273115777591
 21
-38.33521122254621
 72
     1
 10
-19.35273115777591
 20
-38.33521122254621
 11
-17.22453438368504
 21
-35.7989250712761
 97
        0
 75
     0
 76
     1
 98
        1
 10
0.0
 20
0.0
  0
HATCH
  5
E4
330
1F
100
AcDbEntity
  8
중심선
100
AcDbHatch
 10
0.0
 20
0.0
 30
0.0
210
0.0
220
0.0
230
1.0
  2
SOLID
 70
     1
 71
     0
 91
        1
 92
        0
 93
        4
 72
     1
 10
-12.21177039264909
 20
-35.7989250712761
 11
-15.65804563648637
 21
-35.7989250712761
 72
     1
 10
-15.65804563648637
 20
-35.7989250712761
 11
-20.18918364484376
 21
-41.19892507127612
 72
     1
 10
-20.18918364484376
 20
-41.19892507127612
 11
-16.74290840100648
 21
-41.19892507127612
 72
     1
 10
-16.74290840100648
 20
-41.19892507127612
 11
-12.21177039264909
 21
-35.7989250712761
 97
        0
 75
     0
 76
     1
 98
        1
 10
0.0
 20
0.0
  0
HATCH
  5
E5
330
1F
100
AcDbEntity
  8
중심선
100
AcDbHatch
 10
0.0
 20
0.0
 30
0.0
210
0.0
220
0.0
230
1.0
  2
SOLID
 70
     1
 71
     0
 91
        1
 92
        0
 93
        4
 72
     1
 10
-7.199006401613195
 20
-35.79892507127613
 11
-10.64528164545031
 21
-35.7989250712761
 72
     1
 10
-10.64528164545031
 20
-35.7989250712761
 11
-17.69371854733956
 21
-44.19892507127612
 72
     1
 10
-17.69371854733956
 20
-44.19892507127612
 11
-14.24744330350228
 21
-44.19892507127612
 72
     1
 10
-14.24744330350228
 20
-44.19892507127612
 11
-7.199006401613195
 21
-35.79892507127613
 97
        0
 75
     0
 76
     1
 98
        1
 10
0.0
 20
0.0
  0
HATCH
  5
E6
330
1F
100
AcDbEntity
  8
중심선
100
AcDbHatch
 10
0.0
 20
0.0
 30
0.0
210
0.0
220
0.0
230
1.0
  2
SOLID
 70
     1
 71
     0
 91
        1
 92
        0
 93
        6
 72
     3
 10
-2.399115970600996
 20
-39.99892507132738
 11
3.960054785062284
 21
1.540850780301639E-10
 40
0.3939339440162633
 50
17.09539180608433
 51
320.0019657685079
 73
     0
 72
     1
 10
-0.7161163149004002
 20
-38.58681907591441
 11
1.589185558800638
 21
-36.65249236586649
 72
     3
 10
-2.399115970653842
 20
-39.99892507127625
 11
6.600054785286829
 21
-1.249000902703301E-13
 40
0.6363583540795982
 50
39.99873849337408
 51
368.4976242363725
 73
     1
 72
     1
 10
4.026216521246767
 20
-39.03892507120613
 11
-3.71904866381792
 21
-39.0389250712061
 72
     1
 10
-3.71904866381792
 20
-39.0389250712061
 11
-3.719073708263854
 21
-40.95892507120602
 72
     1
 10
-3.719073708263854
 20
-40.95892507120602
 11
0.7223060612081831
 21
-40.95892507120599
 97
        0
 75
     0
 76
     1
 98
        1
 10
0.0
 20
0.0
  0
DIMENSION
  5
E7
330
1F
100
AcDbEntity
  8
치수문자_일반주서
100
AcDbDimension
  2
_D
 10
34.88078353099892
 20
1.500000000000094
 30
0.0
 11
34.8807835309989
 21
11.16650000000009
 31
0.0
 70
   160
  1
%%c<>
 71
     2
 42
2.999999999999994
 52
-270.0
  3
SLDDIMSTYLE0
100
AcDbAlignedDimension
 13
24.59807621135331
 23
-1.499999999999939
 33
0.0
 14
24.59807621135331
 24
1.500000000000056
 34
0.0
 50
90.0000000000002
100
AcDbRotatedDimension
  0
DIMENSION
  5
F5
330
1F
100
AcDbEntity
  8
치수문자_일반주서
100
AcDbDimension
  2
_D_1
 10
24.59807621135329
 20
24.23841044024269
 30
0.0
 11
-10.4019237886467
 21
24.23841044024269
 31
0.0
 70
   160
  1
<>
 71
     2
 42
70.00000000000001
  3
SLDDIMSTYLE1
100
AcDbAlignedDimension
 13
-45.40192378864671
 23
2.449999999999994
 33
0.0
 14
24.59807621135331
 24
1.500000000000056
 34
0.0
 50
-0.0000000000000058
100
AcDbRotatedDimension
  0
DIMENSION
  5
100
330
1F
100
AcDbEntity
  8
치수문자_일반주서
100
AcDbDimension
  2
_D_2
 10
24.59807621135331
 20
14.84699780616752
 30
0.0
 11
16.5980762113533
 21
14.84699780616752
 31
0.0
 70
   160
  1
<>
 71
     2
 42
16.0
  3
SLDDIMSTYLE0
100
AcDbAlignedDimension
 13
8.598076211353304
 23
1.5
 33
0.0
 14
24.59807621135331
 24
1.500000000000056
 34
0.0
 50
-0.0000000000000064
100
AcDbRotatedDimension
  0
DIMENSION
  5
10C
330
1F
100
AcDbEntity
  8
치수문자_일반주서
100
AcDbDimension
  2
_D_3
 10
-56.47721006923857
 20
-3.000000000000044
 30
0.0
 11
-56.47721006923862
 21
12.66649999999995
 31
0.0
 70
   160
  1
%%c<>
 71
     2
 42
5.999999999999995
 52
-270.0
  3
SLDDIMSTYLE0
100
AcDbAlignedDimension
 13
-44.8519237886467
 23
2.999999999999994
 33
0.0
 14
-44.8519237886467
 24
-3.0
 34
0.0
 50
90.0000000000002
100
AcDbRotatedDimension
  0
INSERT
  5
11F
330
1F
100
AcDbEntity
  8
외형선
100
AcDbBlockReference
  2
SW_DOWELSYMBOL_0
 10
0.0000000000000104
 20
0.0
 30
0.0
  0
ENDSEC
  0
SECTION
  2
OBJECTS
  0
DICTIONARY
  5
C
330
0
100
AcDbDictionary
281
     1
  3
ACAD_GROUP
350
D
  3
ACAD_IMAGE_VARS
350
143
  3
ACAD_LAYOUT
350
1A
  3
ACAD_MLINESTYLE
350
17
  3
ACAD_PLOTSETTINGS
350
19
  3
ACAD_PLOTSTYLENAME
350
E
  3
ACAD_SCALELIST
350
47
  3
APPDATA
350
141
  3
DWGPROPS
350
153
  0
DICTIONARY
  5
D
102
{ACAD_REACTORS
330
C
102
}
330
C
100
AcDbDictionary
281
     1
  0
RASTERVARIABLES
  5
143
102
{ACAD_REACTORS
330
C
102
}
330
C
100
AcDbRasterVariables
 90
        0
 70
     1
 71
     1
 72
     1
  0
DICTIONARY
  5
1A
102
{ACAD_REACTORS
330
C
102
}
330
C
100
AcDbDictionary
281
     1
  3
Layout1
350
1E
  3
Layout2
350
26
  3
Model
350
22
  0
DICTIONARY
  5
17
102
{ACAD_REACTORS
330
C
102
}
330
C
100
AcDbDictionary
281
     1
  3
Standard
350
18
  0
DICTIONARY
  5
19
102
{ACAD_REACTORS
330
C
102
}
330
C
100
AcDbDictionary
281
     1
  0
ACDBDICTIONARYWDFLT
  5
E
102
{ACAD_REACTORS
330
C
102
}
330
C
100
AcDbDictionary
281
     1
  3
Normal
350
F
100
AcDbDictionaryWithDefault
340
F
  0
DICTIONARY
  5
47
102
{ACAD_REACTORS
330
C
102
}
330
C
100
AcDbDictionary
281
     1
  3
A0
350
48
  3
A1
350
49
  3
A2
350
4A
  3
A3
350
4B
  3
A4
350
4C
  3
A5
350
4D
  3
A6
350
4E
  3
A7
350
4F
  3
A8
350
50
  3
A9
350
51
  3
B0
350
52
  3
B1
350
53
  3
B2
350
54
  3
B3
350
55
  3
B4
350
56
  3
B5
350
57
  3
B6
350
58
  3
B7
350
59
  3
B8
350
5A
  3
B9
350
5B
  3
C0
350
5C
  3
C1
350
5D
  3
C2
350
5E
  3
C3
350
5F
  3
C4
350
60
  3
C5
350
61
  3
C6
350
62
  3
C7
350
63
  3
C8
350
64
  3
C9
350
65
  3
D0
350
66
  3
D1
350
67
  3
D2
350
68
  0
DICTIONARY
  5
141
102
{ACAD_REACTORS
330
C
102
}
330
C
100
AcDbDictionary
281
     1
  0
XRECORD
  5
153
102
{ACAD_REACTORS
330
C
102
}
330
C
100
AcDbXrecord
280
     1
  1
DWGPROPS COOKIE
  2

  3

  4

  6

  7

  8
12014102
  9

300
=
301
=
302
=
303
=
304
=
305
=
306
=
307
=
308
=
309
=
 40
0.0
 41
2458262.162787361
 42
2458265.993864167
  1

 90
        0
  0
LAYOUT
  5
1E
102
{ACAD_REACTORS
330
1A
102
}
330
1A
100
AcDbPlotSettings
  1

  2
none_device
  4

  6

 40
0.0
 41
0.0
 42
0.0
 43
0.0
 44
0.0
 45
0.0
 46
0.0
 47
0.0
 48
0.0
 49
0.0
140
0.0
141
0.0
142
1.0
143
1.0
 70
   688
 72
     1
 73
     0
 74
     5
  7

 75
    16
147
1.0
148
0.0
149
0.0
100
AcDbLayout
  1
Layout1
 70
     1
 71
     1
 10
0.0
 20
0.0
 11
420.0
 21
297.0
 12
0.0
 22
0.0
 32
0.0
 14
1.000000000000000E+20
 24
1.000000000000000E+20
 34
1.000000000000000E+20
 15
-1.000000000000000E+20
 25
-1.000000000000000E+20
 35
-1.000000000000000E+20
146
0.0
 13
0.0
 23
0.0
 33
0.0
 16
1.0
 26
0.0
 36
0.0
 17
0.0
 27
1.0
 37
0.0
 76
     0
330
1B
  0
LAYOUT
  5
26
102
{ACAD_REACTORS
330
1A
102
}
330
1A
100
AcDbPlotSettings
  1

  2
none_device
  4

  6

 40
0.0
 41
0.0
 42
0.0
 43
0.0
 44
0.0
 45
0.0
 46
0.0
 47
0.0
 48
0.0
 49
0.0
140
0.0
141
0.0
142
1.0
143
1.0
 70
   688
 72
     1
 73
     0
 74
     5
  7

 75
    16
147
1.0
148
0.0
149
0.0
100
AcDbLayout
  1
Layout2
 70
     1
 71
     2
 10
0.0
 20
0.0
 11
0.0
 21
0.0
 12
0.0
 22
0.0
 32
0.0
 14
0.0
 24
0.0
 34
0.0
 15
0.0
 25
0.0
 35
0.0
146
0.0
 13
0.0
 23
0.0
 33
0.0
 16
1.0
 26
0.0
 36
0.0
 17
0.0
 27
1.0
 37
0.0
 76
     0
330
23
  0
LAYOUT
  5
22
102
{ACAD_REACTORS
330
1A
102
}
330
1A
100
AcDbPlotSettings
  1

  2
none_device
  4
ANSI_A_(11.00_x_8.50_Inches)
  6

 40
6.35
 41
19.05
 42
6.35000508
 43
19.05000254
 44
279.4
 45
215.9
 46
151.1444528544882
 47
118.4377884955873
 48
0.0
 49
0.0
140
0.0
141
0.0
142
0.1058944507156154
143
1.0
 70
  1696
 72
     0
 73
     0
 74
     0
  7

 75
     0
147
0.0235690232323232
148
0.0
149
0.0
100
AcDbLayout
  1
Model
 70
     1
 71
     0
 10
0.0
 20
0.0
 11
420.0
 21
297.0
 12
0.0
 22
0.0
 32
0.0
 14
-60.85221006923864
 24
-49.97073246008785
 34
0.0
 15
35.43111686433224
 25
28.61341044024269
 35
0.0
146
0.0
 13
0.0
 23
0.0
 33
0.0
 16
1.0
 26
0.0
 36
0.0
 17
0.0
 27
1.0
 37
0.0
 76
     0
330
1F
331
29
  0
MLINESTYLE
  5
18
102
{ACAD_REACTORS
330
17
102
}
330
17
100
AcDbMlineStyle
  2
Standard
 70
     0
  3

 62
   256
 51
90.0
 52
90.0
 71
     2
 49
0.5
 62
   256
  6
BYLAYER
 49
-0.5
 62
   256
  6
BYLAYER
  0
ACDBPLACEHOLDER
  5
F
102
{ACAD_REACTORS
330
E
102
}
330
E
  0
SCALE
  5
48
102
{ACAD_REACTORS
330
47
102
}
330
47
100
AcDbScale
 70
     0
300
1:1
140
1.0
141
1.0
290
     1
  0
SCALE
  5
49
102
{ACAD_REACTORS
330
47
102
}
330
47
100
AcDbScale
 70
     0
300
1:2
140
1.0
141
2.0
290
     0
  0
SCALE
  5
4A
102
{ACAD_REACTORS
330
47
102
}
330
47
100
AcDbScale
 70
     0
300
1:4
140
1.0
141
4.0
290
     0
  0
SCALE
  5
4B
102
{ACAD_REACTORS
330
47
102
}
330
47
100
AcDbScale
 70
     0
300
1:5
140
1.0
141
5.0
290
     0
  0
SCALE
  5
4C
102
{ACAD_REACTORS
330
47
102
}
330
47
100
AcDbScale
 70
     0
300
1:8
140
1.0
141
8.0
290
     0
  0
SCALE
  5
4D
102
{ACAD_REACTORS
330
47
102
}
330
47
100
AcDbScale
 70
     0
300
1:10
140
1.0
141
10.0
290
     0
  0
SCALE
  5
4E
102
{ACAD_REACTORS
330
47
102
}
330
47
100
AcDbScale
 70
     0
300
1:16
140
1.0
141
16.0
290
     0
  0
SCALE
  5
4F
102
{ACAD_REACTORS
330
47
102
}
330
47
100
AcDbScale
 70
     0
300
1:20
140
1.0
141
20.0
290
     0
  0
SCALE
  5
50
102
{ACAD_REACTORS
330
47
102
}
330
47
100
AcDbScale
 70
     0
300
1:30
140
1.0
141
30.0
290
     0
  0
SCALE
  5
51
102
{ACAD_REACTORS
330
47
102
}
330
47
100
AcDbScale
 70
     0
300
1:40
140
1.0
141
40.0
290
     0
  0
SCALE
  5
52
102
{ACAD_REACTORS
330
47
102
}
330
47
100
AcDbScale
 70
     0
300
1:50
140
1.0
141
50.0
290
     0
  0
SCALE
  5
53
102
{ACAD_REACTORS
330
47
102
}
330
47
100
AcDbScale
 70
     0
300
1:100
140
1.0
141
100.0
290
     0
  0
SCALE
  5
54
102
{ACAD_REACTORS
330
47
102
}
330
47
100
AcDbScale
 70
     0
300
2:1
140
2.0
141
1.0
290
     0
  0
SCALE
  5
55
102
{ACAD_REACTORS
330
47
102
}
330
47
100
AcDbScale
 70
     0
300
4:1
140
4.0
141
1.0
290
     0
  0
SCALE
  5
56
102
{ACAD_REACTORS
330
47
102
}
330
47
100
AcDbScale
 70
     0
300
8:1
140
8.0
141
1.0
290
     0
  0
SCALE
  5
57
102
{ACAD_REACTORS
330
47
102
}
330
47
100
AcDbScale
 70
     0
300
10:1
140
10.0
141
1.0
290
     0
  0
SCALE
  5
58
102
{ACAD_REACTORS
330
47
102
}
330
47
100
AcDbScale
 70
     0
300
100:1
140
100.0
141
1.0
290
     0
  0
SCALE
  5
59
102
{ACAD_REACTORS
330
47
102
}
330
47
100
AcDbScale
 70
     0
300
1/128" = 1'-0"
140
0.0078125
141
12.0
290
     0
  0
SCALE
  5
5A
102
{ACAD_REACTORS
330
47
102
}
330
47
100
AcDbScale
 70
     0
300
1/64" = 1'-0"
140
0.015625
141
12.0
290
     0
  0
SCALE
  5
5B
102
{ACAD_REACTORS
330
47
102
}
330
47
100
AcDbScale
 70
     0
300
1/32" = 1'-0"
140
0.03125
141
12.0
290
     0
  0
SCALE
  5
5C
102
{ACAD_REACTORS
330
47
102
}
330
47
100
AcDbScale
 70
     0
300
1/16" = 1'-0"
140
0.0625
141
12.0
290
     0
  0
SCALE
  5
5D
102
{ACAD_REACTORS
330
47
102
}
330
47
100
AcDbScale
 70
     0
300
3/32" = 1'-0"
140
0.09375
141
12.0
290
     0
  0
SCALE
  5
5E
102
{ACAD_REACTORS
330
47
102
}
330
47
100
AcDbScale
 70
     0
300
1/8" = 1'-0"
140
0.125
141
12.0
290
     0
  0
SCALE
  5
5F
102
{ACAD_REACTORS
330
47
102
}
330
47
100
AcDbScale
 70
     0
300
3/16" = 1'-0"
140
0.1875
141
12.0
290
     0
  0
SCALE
  5
60
102
{ACAD_REACTORS
330
47
102
}
330
47
100
AcDbScale
 70
     0
300
1/4" = 1'-0"
140
0.25
141
12.0
290
     0
  0
SCALE
  5
61
102
{ACAD_REACTORS
330
47
102
}
330
47
100
AcDbScale
 70
     0
300
3/8" = 1'-0"
140
0.375
141
12.0
290
     0
  0
SCALE
  5
62
102
{ACAD_REACTORS
330
47
102
}
330
47
100
AcDbScale
 70
     0
300
1/2" = 1'-0"
140
0.5
141
12.0
290
     0
  0
SCALE
  5
63
102
{ACAD_REACTORS
330
47
102
}
330
47
100
AcDbScale
 70
     0
300
3/4" = 1'-0"
140
0.75
141
12.0
290
     0
  0
SCALE
  5
64
102
{ACAD_REACTORS
330
47
102
}
330
47
100
AcDbScale
 70
     0
300
1" = 1'-0"
140
1.0
141
12.0
290
     0
  0
SCALE
  5
65
102
{ACAD_REACTORS
330
47
102
}
330
47
100
AcDbScale
 70
     0
300
1-1/2" = 1'-0"
140
1.5
141
12.0
290
     0
  0
SCALE
  5
66
102
{ACAD_REACTORS
330
47
102
}
330
47
100
AcDbScale
 70
     0
300
3" = 1'-0"
140
3.0
141
12.0
290
     0
  0
SCALE
  5
67
102
{ACAD_REACTORS
330
47
102
}
330
47
100
AcDbScale
 70
     0
300
6" = 1'-0"
140
6.0
141
12.0
290
     0
  0
SCALE
  5
68
102
{ACAD_REACTORS
330
47
102
}
330
47
100
AcDbScale
 70
     0
300
1'-0" = 1'-0"
140
12.0
141
12.0
290
     0
  0
ENDSEC
  0
EOF
