  0
SECTION
  2
HEADER
  9
$ACADVER
  1
AC1015
  9
$ACADMAINTVER
 70
     6
  9
$DWGCODEPAGE
  3
ANSI_949
  9
$INSBASE
 10
0.0
 20
0.0
 30
0.0
  9
$EXTMIN
 10
-67.34935444210672
 20
-49.97073246008785
 30
0.0
  9
$EXTMAX
 10
33.72287308203478
 20
28.61341044024269
 30
0.0
  9
$LIMMIN
 10
0.0
 20
0.0
  9
$LIMMAX
 10
420.0
 20
297.0
  9
$ORTHOMODE
 70
     0
  9
$REGENMODE
 70
     1
  9
$FILLMODE
 70
     1
  9
$QTEXTMODE
 70
     0
  9
$MIRRTEXT
 70
     1
  9
$LTSCALE
 40
1.0
  9
$ATTMODE
 70
     1
  9
$TEXTSIZE
 40
3.5
  9
$TRACEWID
 40
1.0
  9
$TEXTSTYLE
  7
Standard
  9
$CLAYER
  8
0
  9
$CELTYPE
  6
ByLayer
  9
$CECOLOR
 62
   256
  9
$CELTSCALE
 40
1.0
  9
$DISPSILH
 70
     0
  9
$DIMSCALE
 40
1.0
  9
$DIMASZ
 40
3.302
  9
$DIMEXO
 40
1.0
  9
$DIMDLI
 40
3.75
  9
$DIMRND
 40
0.0
  9
$DIMDLE
 40
0.0
  9
$DIMEXE
 40
1.0
  9
$DIMTP
 40
0.0
  9
$DIMTM
 40
0.0
  9
$DIMTXT
 40
3.5
  9
$DIMCEN
 40
2.5
  9
$DIMTSZ
 40
0.0
  9
$DIMTOL
 70
     0
  9
$DIMLIM
 70
     0
  9
$DIMTIH
 70
     1
  9
$DIMTOH
 70
     1
  9
$DIMSE1
 70
     0
  9
$DIMSE2
 70
     0
  9
$DIMTAD
 70
     1
  9
$DIMZIN
 70
     0
  9
$DIMBLK
  1

  9
$DIMASO
 70
     1
  9
$DIMSHO
 70
     1
  9
$DIMPOST
  1

  9
$DIMAPOST
  1

  9
$DIMALT
 70
     0
  9
$DIMALTD
 70
     3
  9
$DIMALTF
 40
0.0393700787401575
  9
$DIMLFAC
 40
1.0
  9
$DIMTOFL
 70
     1
  9
$DIMTVP
 40
0.0
  9
$DIMTIX
 70
     0
  9
$DIMSOXD
 70
     0
  9
$DIMSAH
 70
     0
  9
$DIMBLK1
  1

  9
$DIMBLK2
  1

  9
$DIMSTYLE
  2
ISO-25
  9
$DIMCLRD
 70
     0
  9
$DIMCLRE
 70
     0
  9
$DIMCLRT
 70
     0
  9
$DIMTFAC
 40
1.0
  9
$DIMGAP
 40
1.524
  9
$DIMJUST
 70
     0
  9
$DIMSD1
 70
     0
  9
$DIMSD2
 70
     0
  9
$DIMTOLJ
 70
     0
  9
$DIMTZIN
 70
     0
  9
$DIMALTZ
 70
     0
  9
$DIMALTTZ
 70
     0
  9
$DIMUPT
 70
     0
  9
$DIMDEC
 70
     2
  9
$DIMTDEC
 70
     2
  9
$DIMALTU
 70
     2
  9
$DIMALTTD
 70
     3
  9
$DIMTXSTY
  7
Standard
  9
$DIMAUNIT
 70
     0
  9
$DIMADEC
 70
     2
  9
$DIMALTRND
 40
0.0
  9
$DIMAZIN
 70
     0
  9
$DIMDSEP
 70
    44
  9
$DIMATFIT
 70
     3
  9
$DIMFRAC
 70
     0
  9
$DIMLDRBLK
  1

  9
$DIMLUNIT
 70
     2
  9
$DIMLWD
 70
    -2
  9
$DIMLWE
 70
    -2
  9
$DIMTMOVE
 70
     0
  9
$LUNITS
 70
     2
  9
$LUPREC
 70
     2
  9
$SKETCHINC
 40
1.0
  9
$FILLETRAD
 40
10.0
  9
$AUNITS
 70
     0
  9
$AUPREC
 70
     2
  9
$MENU
  1
.
  9
$ELEVATION
 40
0.0
  9
$PELEVATION
 40
0.0
  9
$THICKNESS
 40
0.0
  9
$LIMCHECK
 70
     0
  9
$CHAMFERA
 40
0.0
  9
$CHAMFERB
 40
0.0
  9
$CHAMFERC
 40
0.0
  9
$CHAMFERD
 40
0.0
  9
$SKPOLY
 70
     0
  9
$TDCREATE
 40
2458262.53853919
  9
$TDUCREATE
 40
2458262.16353919
  9
$TDUPDATE
 40
2458266.378442813
  9
$TDUUPDATE
 40
2458266.003442813
  9
$TDINDWG
 40
0.0015428935
  9
$TDUSRTIMER
 40
2458266.001899965
  9
$USRTIMER
 70
     1
  9
$ANGBASE
 50
0.0
  9
$ANGDIR
 70
     0
  9
$PDMODE
 70
     0
  9
$PDSIZE
 40
-1.0
  9
$PLINEWID
 40
0.0
  9
$SPLFRAME
 70
     0
  9
$SPLINETYPE
 70
     6
  9
$SPLINESEGS
 70
     8
  9
$HANDSEED
  5
142
  9
$SURFTAB1
 70
     6
  9
$SURFTAB2
 70
     6
  9
$SURFTYPE
 70
     6
  9
$SURFU
 70
     6
  9
$SURFV
 70
     6
  9
$UCSBASE
  2

  9
$UCSNAME
  2

  9
$UCSORG
 10
0.0
 20
0.0
 30
0.0
  9
$UCSXDIR
 10
1.0
 20
0.0
 30
0.0
  9
$UCSYDIR
 10
0.0
 20
1.0
 30
0.0
  9
$UCSORTHOREF
  2

  9
$UCSORTHOVIEW
 70
     0
  9
$UCSORGTOP
 10
0.0
 20
0.0
 30
0.0
  9
$UCSORGBOTTOM
 10
0.0
 20
0.0
 30
0.0
  9
$UCSORGLEFT
 10
0.0
 20
0.0
 30
0.0
  9
$UCSORGRIGHT
 10
0.0
 20
0.0
 30
0.0
  9
$UCSORGFRONT
 10
0.0
 20
0.0
 30
0.0
  9
$UCSORGBACK
 10
0.0
 20
0.0
 30
0.0
  9
$PUCSBASE
  2

  9
$PUCSNAME
  2

  9
$PUCSORG
 10
0.0
 20
0.0
 30
0.0
  9
$PUCSXDIR
 10
1.0
 20
0.0
 30
0.0
  9
$PUCSYDIR
 10
0.0
 20
1.0
 30
0.0
  9
$PUCSORTHOREF
  2

  9
$PUCSORTHOVIEW
 70
     0
  9
$PUCSORGTOP
 10
0.0
 20
0.0
 30
0.0
  9
$PUCSORGBOTTOM
 10
0.0
 20
0.0
 30
0.0
  9
$PUCSORGLEFT
 10
0.0
 20
0.0
 30
0.0
  9
$PUCSORGRIGHT
 10
0.0
 20
0.0
 30
0.0
  9
$PUCSORGFRONT
 10
0.0
 20
0.0
 30
0.0
  9
$PUCSORGBACK
 10
0.0
 20
0.0
 30
0.0
  9
$USERI1
 70
     0
  9
$USERI2
 70
     0
  9
$USERI3
 70
     0
  9
$USERI4
 70
     0
  9
$USERI5
 70
     0
  9
$USERR1
 40
0.0
  9
$USERR2
 40
0.0
  9
$USERR3
 40
0.0
  9
$USERR4
 40
0.0
  9
$USERR5
 40
0.0
  9
$WORLDVIEW
 70
     1
  9
$SHADEDGE
 70
     3
  9
$SHADEDIF
 70
    70
  9
$TILEMODE
 70
     1
  9
$MAXACTVP
 70
    64
  9
$PINSBASE
 10
0.0
 20
0.0
 30
0.0
  9
$PLIMCHECK
 70
     0
  9
$PEXTMIN
 10
1.000000000000000E+20
 20
1.000000000000000E+20
 30
1.000000000000000E+20
  9
$PEXTMAX
 10
-1.000000000000000E+20
 20
-1.000000000000000E+20
 30
-1.000000000000000E+20
  9
$PLIMMIN
 10
0.0
 20
0.0
  9
$PLIMMAX
 10
0.0
 20
0.0
  9
$UNITMODE
 70
     0
  9
$VISRETAIN
 70
     1
  9
$PLINEGEN
 70
     0
  9
$PSLTSCALE
 70
     1
  9
$TREEDEPTH
 70
  3020
  9
$CMLSTYLE
  2
Standard
  9
$CMLJUST
 70
     0
  9
$CMLSCALE
 40
20.0
  9
$PROXYGRAPHICS
 70
     1
  9
$MEASUREMENT
 70
     1
  9
$CELWEIGHT
370
    -1
  9
$ENDCAPS
280
     0
  9
$JOINSTYLE
280
     0
  9
$LWDISPLAY
290
     1
  9
$INSUNITS
 70
     4
  9
$HYPERLINKBASE
  1

  9
$STYLESHEET
  1

  9
$XEDIT
290
     1
  9
$CEPSNTYPE
380
     0
  9
$PSTYLEMODE
290
     1
  9
$FINGERPRINTGUID
  2
{E744C7CF-D291-4513-86CB-30F162D8509E}
  9
$VERSIONGUID
  2
{FAEB1C32-E019-11D5-929B-00C0DF256EC4}
  9
$EXTNAMES
290
     1
  9
$PSVPSCALE
 40
0.0
  9
$OLESTARTUP
290
     0
  0
ENDSEC
  0
SECTION
  2
CLASSES
  0
CLASS
  1
ACDBDICTIONARYWDFLT
  2
AcDbDictionaryWithDefault
  3
ObjectDBX Classes
 90
        0
280
     0
281
     0
  0
CLASS
  1
VISUALSTYLE
  2
AcDbVisualStyle
  3
ObjectDBX Classes
 90
     4095
280
     0
281
     0
  0
CLASS
  1
MATERIAL
  2
AcDbMaterial
  3
ObjectDBX Classes
 90
     1153
280
     0
281
     0
  0
CLASS
  1
SCALE
  2
AcDbScale
  3
ObjectDBX Classes
 90
     1153
280
     0
281
     0
  0
CLASS
  1
SUN
  2
AcDbSun
  3
SCENEOE
 90
     1153
280
     0
281
     0
  0
CLASS
  1
ACDBPLACEHOLDER
  2
AcDbPlaceHolder
  3
ObjectDBX Classes
 90
        0
280
     0
281
     0
  0
CLASS
  1
LAYOUT
  2
AcDbLayout
  3
ObjectDBX Classes
 90
        0
280
     0
281
     0
  0
CLASS
  1
TABLESTYLE
  2
AcDbTableStyle
  3
ObjectDBX Classes
 90
     4095
280
     0
281
     0
  0
CLASS
  1
MLEADERSTYLE
  2
AcDbMLeaderStyle
  3
ACDB_MLEADERSTYLE_CLASS
 90
     4095
280
     0
281
     0
  0
CLASS
  1
RASTERVARIABLES
  2
AcDbRasterVariables
  3
ISM
 90
        0
280
     0
281
     0
  0
ENDSEC
  0
SECTION
  2
TABLES
  0
TABLE
  2
VPORT
  5
8
330
0
100
AcDbSymbolTable
 70
     1
  0
VPORT
  5
29
330
8
100
AcDbSymbolTableRecord
100
AcDbViewportTableRecord
  2
*Active
 70
     0
 10
0.0
 20
0.0
 11
1.0
 21
1.0
 12
-16.81324068003596
 22
-10.67866100992259
 13
0.0
 23
0.0
 14
10.0
 24
10.0
 15
10.0
 25
10.0
 16
0.0
 26
0.0
 36
1.0
 17
0.0
 27
0.0
 37
0.0
 40
89.45571993919197
 41
1.152454780361757
 42
50.0
 43
0.0
 44
0.0
 50
0.0
 51
0.0
 71
    16
 72
  2000
 73
     1
 74
     3
 75
     0
 76
     0
 77
     0
 78
     0
281
     0
 65
     1
110
0.0
120
0.0
130
0.0
111
1.0
121
0.0
131
0.0
112
0.0
122
1.0
132
0.0
 79
     0
146
0.0
  0
ENDTAB
  0
TABLE
  2
LTYPE
  5
5
330
0
100
AcDbSymbolTable
 70
     6
  0
LTYPE
  5
14
330
5
100
AcDbSymbolTableRecord
100
AcDbLinetypeTableRecord
  2
ByBlock
 70
     0
  3

 72
    65
 73
     0
 40
0.0
  0
LTYPE
  5
15
330
5
100
AcDbSymbolTableRecord
100
AcDbLinetypeTableRecord
  2
ByLayer
 70
     0
  3

 72
    65
 73
     0
 40
0.0
  0
LTYPE
  5
16
330
5
100
AcDbSymbolTableRecord
100
AcDbLinetypeTableRecord
  2
Continuous
 70
     0
  3
Solid line
 72
    65
 73
     0
 40
0.0
  0
LTYPE
  5
6A
330
5
100
AcDbSymbolTableRecord
100
AcDbLinetypeTableRecord
  2
HIDDEN
 70
     0
  3
Hidden __ __ __ __ __ __ __ __ __ __ __ __ __ __
 72
    65
 73
     2
 40
1.905
 49
1.27
 74
     0
 49
-0.635
 74
     0
  0
LTYPE
  5
6B
330
5
100
AcDbSymbolTableRecord
100
AcDbLinetypeTableRecord
  2
PHANTOM
 70
     0
  3
Phantom ______  __  __  ______  __  __  ______
 72
    65
 73
     6
 40
12.7
 49
6.35
 74
     0
 49
-1.27
 74
     0
 49
1.27
 74
     0
 49
-1.27
 74
     0
 49
1.27
 74
     0
 49
-1.27
 74
     0
  0
LTYPE
  5
6C
330
5
100
AcDbSymbolTableRecord
100
AcDbLinetypeTableRecord
  2
CENTER
 70
     0
  3
Center ____ _ ____ _ ____ _ ____ _ ____ _ ____
 72
    65
 73
     4
 40
10.16
 49
6.35
 74
     0
 49
-1.27
 74
     0
 49
1.27
 74
     0
 49
-1.27
 74
     0
  0
LTYPE
  5
6D
330
5
100
AcDbSymbolTableRecord
100
AcDbLinetypeTableRecord
  2
CENTERX2
 70
     0
  3
Center (2x) ________  __  ________  __  _____
 72
    65
 73
     4
 40
20.32
 49
12.7
 74
     0
 49
-2.54
 74
     0
 49
2.54
 74
     0
 49
-2.54
 74
     0
  0
LTYPE
  5
6E
330
5
100
AcDbSymbolTableRecord
100
AcDbLinetypeTableRecord
  2
DOT2
 70
     0
  3
Dot (.5x) ........................................
 72
    65
 73
     2
 40
0.635
 49
0.0
 74
     0
 49
-0.635
 74
     0
  0
ENDTAB
  0
TABLE
  2
LAYER
  5
2
330
0
100
AcDbSymbolTable
 70
    17
  0
LAYER
  5
10
330
2
100
AcDbSymbolTableRecord
100
AcDbLayerTableRecord
  2
0
 70
     0
 62
     7
  6
Continuous
370
    -3
390
F
  0
LAYER
  5
6F
330
2
100
AcDbSymbolTableRecord
100
AcDbLayerTableRecord
  2
FORMAT
 70
     0
 62
     2
  6
Continuous
370
    -3
390
F
  0
LAYER
  5
70
330
2
100
AcDbSymbolTableRecord
100
AcDbLayerTableRecord
  2
외형선
 70
     0
 62
   100
  6
Continuous
370
    30
390
F
  0
LAYER
  5
71
330
2
100
AcDbSymbolTableRecord
100
AcDbLayerTableRecord
  2
숨은선
 70
     0
 62
     2
  6
HIDDEN
370
    15
390
F
  0
LAYER
  5
72
330
2
100
AcDbSymbolTableRecord
100
AcDbLayerTableRecord
  2
중심선
 70
     0
 62
     1
  6
CENTERX2
370
    -3
390
F
  0
LAYER
  5
73
330
2
100
AcDbSymbolTableRecord
100
AcDbLayerTableRecord
  2
파단선
 70
     0
 62
     4
  6
Continuous
370
    -3
390
F
  0
LAYER
  5
74
330
2
100
AcDbSymbolTableRecord
100
AcDbLayerTableRecord
  2
해칭선
 70
     0
 62
     4
  6
Continuous
370
    -3
390
F
  0
LAYER
  5
75
330
2
100
AcDbSymbolTableRecord
100
AcDbLayerTableRecord
  2
가는실선
 70
     0
 62
     4
  6
Continuous
370
    -3
390
F
  0
LAYER
  5
76
330
2
100
AcDbSymbolTableRecord
100
AcDbLayerTableRecord
  2
치수_보조선
 70
     0
 62
     4
  6
Continuous
370
    -3
390
F
  0
LAYER
  5
77
330
2
100
AcDbSymbolTableRecord
100
AcDbLayerTableRecord
  2
치수문자_일반주서
 70
     0
 62
     7
  6
Continuous
370
    15
390
F
  0
LAYER
  5
78
330
2
100
AcDbSymbolTableRecord
100
AcDbLayerTableRecord
  2
개별주서
 70
     0
 62
   100
  6
Continuous
370
    30
390
F
  0
LAYER
  5
79
330
2
100
AcDbSymbolTableRecord
100
AcDbLayerTableRecord
  2
중간선
 70
     0
 62
     2
  6
Continuous
370
    15
390
F
  0
LAYER
  5
7A
330
2
100
AcDbSymbolTableRecord
100
AcDbLayerTableRecord
  2
윤곽선
 70
     0
 62
     3
  6
Continuous
370
    40
390
F
  0
LAYER
  5
7B
330
2
100
AcDbSymbolTableRecord
100
AcDbLayerTableRecord
  2
중심마크
 70
     0
 62
   100
  6
Continuous
370
    30
390
F
  0
LAYER
  5
7C
330
2
100
AcDbSymbolTableRecord
100
AcDbLayerTableRecord
  2
가상선
 70
     0
 62
     4
  6
PHANTOM
370
    -3
390
F
  0
LAYER
  5
7D
330
2
100
AcDbSymbolTableRecord
100
AcDbLayerTableRecord
  2
특수지정선
 70
     0
 62
     5
  6
CENTERX2
370
    60
390
F
  0
LAYER
  5
135
330
2
100
AcDbSymbolTableRecord
100
AcDbLayerTableRecord
  2
Defpoints
 70
     0
 62
     7
  6
Continuous
290
     0
370
    -3
390
F
  0
ENDTAB
  0
TABLE
  2
STYLE
  5
3
330
0
100
AcDbSymbolTable
 70
     2
  0
STYLE
  5
11
330
3
100
AcDbSymbolTableRecord
100
AcDbTextStyleTableRecord
  2
Standard
 70
     0
 40
0.0
 41
1.0
 50
0.0
 71
     0
 42
3.5
  3
txt
  4

  0
STYLE
  5
93
330
3
100
AcDbSymbolTableRecord
100
AcDbTextStyleTableRecord
  2
SLDTEXTSTYLE0
 70
     0
 40
0.0
 41
0.75
 50
0.0
 71
     0
 42
3.5
  3
TXT
  4

  0
ENDTAB
  0
TABLE
  2
VIEW
  5
6
330
0
100
AcDbSymbolTable
 70
     0
  0
ENDTAB
  0
TABLE
  2
UCS
  5
7
330
0
100
AcDbSymbolTable
 70
     0
  0
ENDTAB
  0
TABLE
  2
APPID
  5
9
330
0
100
AcDbSymbolTable
 70
     1
  0
APPID
  5
12
330
9
100
AcDbSymbolTableRecord
100
AcDbRegAppTableRecord
  2
ACAD
 70
     0
  0
ENDTAB
  0
TABLE
  2
DIMSTYLE
  5
A
330
0
100
AcDbSymbolTable
 70
     3
100
AcDbDimStyleTable
  0
DIMSTYLE
105
27
330
A
100
AcDbSymbolTableRecord
100
AcDbDimStyleTableRecord
  2
ISO-25
 70
     0
 41
2.5
 42
0.625
 43
3.75
 44
1.25
 73
     0
 74
     0
 77
     1
 78
     8
140
2.5
141
2.5
143
0.03937007874016
147
0.625
171
     3
172
     1
178
     0
271
     2
272
     2
274
     3
278
    44
283
     0
284
     8
340
11
  0
DIMSTYLE
105
D9
102
{ACAD_REACTORS
330
D8
330
F1
330
FD
102
}
330
A
100
AcDbSymbolTableRecord
100
AcDbDimStyleTableRecord
  2
SLDDIMSTYLE0
 70
     0
 41
3.302
 44
0.0
 45
0.000000001
 73
     0
 74
     0
 77
     1
 78
    12
 79
     3
140
3.5
147
0.875
172
     1
173
     1
178
     0
271
     2
272
     2
276
     2
284
    12
289
     0
340
93
  0
DIMSTYLE
105
E7
102
{ACAD_REACTORS
330
E6
102
}
330
A
100
AcDbSymbolTableRecord
100
AcDbDimStyleTableRecord
  2
SLDDIMSTYLE1
 70
     0
 41
3.302
 44
0.0
 45
0.000000001
 73
     0
 74
     0
 77
     1
 78
    12
 79
     3
140
3.5
147
0.875
173
     1
178
     0
271
     2
272
     2
276
     2
284
    12
340
93
  0
ENDTAB
  0
TABLE
  2
BLOCK_RECORD
  5
1
330
0
100
AcDbSymbolTable
 70
     7
  0
BLOCK_RECORD
  5
1F
330
1
100
AcDbSymbolTableRecord
100
AcDbBlockTableRecord
  2
*Model_Space
340
22
  0
BLOCK_RECORD
  5
1B
330
1
100
AcDbSymbolTableRecord
100
AcDbBlockTableRecord
  2
*Paper_Space
340
1E
  0
BLOCK_RECORD
  5
23
330
1
100
AcDbSymbolTableRecord
100
AcDbBlockTableRecord
  2
*Paper_Space0
340
26
  0
BLOCK_RECORD
  5
7E
330
1
100
AcDbSymbolTableRecord
100
AcDbBlockTableRecord
  2
블럭10
340
0
102
{BLKREFS
331
D1
102
}
  0
BLOCK_RECORD
  5
DA
330
1
100
AcDbSymbolTableRecord
100
AcDbBlockTableRecord
  2
_D
340
0
  0
BLOCK_RECORD
  5
E8
330
1
100
AcDbSymbolTableRecord
100
AcDbBlockTableRecord
  2
_D_1
340
0
  0
BLOCK_RECORD
  5
F2
330
1
100
AcDbSymbolTableRecord
100
AcDbBlockTableRecord
  2
_D_2
340
0
  0
BLOCK_RECORD
  5
FE
330
1
100
AcDbSymbolTableRecord
100
AcDbBlockTableRecord
  2
_D_3
340
0
  0
BLOCK_RECORD
  5
10A
330
1
100
AcDbSymbolTableRecord
100
AcDbBlockTableRecord
  2
SW_DOWELSYMBOL_0
340
0
102
{BLKREFS
331
110
102
}
  0
ENDTAB
  0
ENDSEC
  0
SECTION
  2
BLOCKS
  0
BLOCK
  5
20
330
1F
100
AcDbEntity
  8
0
100
AcDbBlockBegin
  2
*Model_Space
 70
     0
 10
0.0
 20
0.0
 30
0.0
  3
*Model_Space
  1

  0
ENDBLK
  5
21
330
1F
100
AcDbEntity
  8
0
100
AcDbBlockEnd
  0
BLOCK
  5
1C
330
1B
100
AcDbEntity
 67
     1
  8
0
100
AcDbBlockBegin
  2
*Paper_Space
 70
     0
 10
0.0
 20
0.0
 30
0.0
  3
*Paper_Space
  1

  0
ENDBLK
  5
1D
330
1B
100
AcDbEntity
 67
     1
  8
0
100
AcDbBlockEnd
  0
BLOCK
  5
24
330
23
100
AcDbEntity
  8
0
100
AcDbBlockBegin
  2
*Paper_Space0
 70
     0
 10
0.0
 20
0.0
 30
0.0
  3
*Paper_Space0
  1

  0
ENDBLK
  5
25
330
23
100
AcDbEntity
  8
0
100
AcDbBlockEnd
  0
BLOCK
  5
7F
330
7E
100
AcDbEntity
  8
0
100
AcDbBlockBegin
  2
블럭10
 70
     2
 10
0.0
 20
0.0
 30
0.0
  3
블럭10
  1

  0
ELLIPSE
  5
81
330
7E
100
AcDbEntity
  8
중심선
100
AcDbEllipse
 10
20.54032771741204
 20
12.0471743016438
 30
0.0
 11
6.600054785286829
 21
-1.261213355974178E-13
 31
0.0
210
0.0
220
0.0
230
1.0
 40
0.636358354079598
 41
0.9219305317359503
 42
6.513795318482858
  0
ELLIPSE
  5
82
330
7E
100
AcDbEntity
  8
중심선
100
AcDbEllipse
 10
20.54032771746488
 20
12.04717430159265
 30
0.0
 11
3.960054785062283
 21
1.540847449632565E-10
 31
0.0
210
0.0
220
0.0
230
1.0
 40
0.3939339440162632
 41
1.131841032648279
 42
5.62031148352944
  0
LINE
  5
83
330
7E
100
AcDbEntity
  8
중심선
100
AcDbLine
 10
2.268634060543552
 20
16.24717430164393
 30
0.0
 11
5.714909304380834
 21
16.24717430164393
 31
0.0
  0
LINE
  5
84
330
7E
100
AcDbEntity
  8
중심선
100
AcDbLine
 10
5.245725140726316
 20
7.84717430164391
 30
0.0
 11
8.692000384563599
 21
7.84717430164391
 31
0.0
  0
LINE
  5
85
330
7E
100
AcDbEntity
  8
중심선
100
AcDbLine
 10
15.74043728645272
 20
16.24717430164393
 30
0.0
 11
8.692000384563599
 21
7.84717430164391
 31
0.0
  0
LINE
  5
86
330
7E
100
AcDbEntity
  8
중심선
100
AcDbLine
 10
0.1404042013395286
 20
13.71084872107135
 30
0.0
 11
3.58671253028996
 21
13.71088815037384
 31
0.0
  0
LINE
  5
87
330
7E
100
AcDbEntity
  8
중심선
100
AcDbLine
 10
2.750260043222114
 20
10.84717430164391
 30
0.0
 11
6.196535287059397
 21
10.84717430164391
 31
0.0
  0
LINE
  5
88
330
7E
100
AcDbEntity
  8
중심선
100
AcDbLine
 10
12.29416204261559
 20
16.24717430164393
 30
0.0
 11
5.245725140726316
 21
7.84717430164391
 31
0.0
  0
LINE
  5
89
330
7E
100
AcDbEntity
  8
중심선
100
AcDbLine
 10
10.72767329541681
 20
16.24717430164393
 30
0.0
 11
6.196535287059397
 21
10.84717430164391
 31
0.0
  0
LINE
  5
8A
330
7E
100
AcDbEntity
  8
중심선
100
AcDbLine
 10
7.28139805157953
 20
16.24717430164393
 30
0.0
 11
2.750260043222114
 21
10.84717430164391
 31
0.0
  0
LINE
  5
8B
330
7E
100
AcDbEntity
  8
중심선
100
AcDbLine
 10
5.714909304380834
 20
16.24717430164393
 30
0.0
 11
3.58671253028996
 21
13.71088815037384
 31
0.0
  0
LINE
  5
8C
330
7E
100
AcDbEntity
  8
중심선
100
AcDbLine
 10
2.268634060543552
 20
16.24717430164393
 30
0.0
 11
0.1404042013395286
 21
13.71084872107135
 31
0.0
  0
LINE
  5
8D
330
7E
100
AcDbEntity
  8
중심선
100
AcDbLine
 10
7.28139805157953
 20
16.24717430164393
 30
0.0
 11
10.72767329541681
 21
16.24717430164393
 31
0.0
  0
LINE
  5
8E
330
7E
100
AcDbEntity
  8
중심선
100
AcDbLine
 10
12.29416204261559
 20
16.24717430164393
 30
0.0
 11
15.74043728645272
 21
16.24717430164393
 31
0.0
  0
LINE
  5
8F
330
7E
100
AcDbEntity
  8
중심선
100
AcDbLine
 10
19.22036997980202
 20
11.08717430171403
 30
0.0
 11
23.66174974927406
 21
11.08717430171406
 31
0.0
  0
LINE
  5
90
330
7E
100
AcDbEntity
  8
중심선
100
AcDbLine
 10
19.22039502424796
 20
13.00717430171391
 30
0.0
 11
19.22036997980202
 21
11.08717430171403
 31
0.0
  0
LINE
  5
91
330
7E
100
AcDbEntity
  8
중심선
100
AcDbLine
 10
19.22039502424796
 20
13.00717430171391
 30
0.0
 11
26.96566020931264
 21
13.00717430171391
 31
0.0
  0
LINE
  5
92
330
7E
100
AcDbEntity
  8
중심선
100
AcDbLine
 10
22.22332737316547
 20
13.45928029700563
 30
0.0
 11
24.52862924686651
 21
15.39360700705356
 31
0.0
  0
ATTDEF
  5
94
330
7E
100
AcDbEntity
  8
FORMAT
 62
     2
100
AcDbText
 10
-16.11926103943555
 20
2.075366912832191
 30
0.0
 40
4.233333333333333
  1
SEME7004012E [ 2 FLUTE ]
 41
0.75
  7
SLDTEXTSTYLE0
 11
-16.11926103943555
 21
-0.0412997538344756
 31
0.0
100
AcDbAttributeDefinition
  3

  2
AUTOATTR0
 70
     0
 74
     1
  0
ENDBLK
  5
80
330
7E
100
AcDbEntity
  8
0
100
AcDbBlockEnd
  0
BLOCK
  5
DB
330
DA
100
AcDbEntity
  8
0
100
AcDbBlockBegin
  2
_D
 70
     0
 10
0.0
 20
0.0
 30
0.0
  3
_D
  1

  0
LINE
  5
DD
330
DA
100
AcDbEntity
  8
치수문자_일반주서
 62
     0
370
    -2
100
AcDbLine
 10
18.79455080756887
 20
-1.999999999999956
 30
0.0
 11
33.17253974870144
 21
-1.999999999999902
 31
0.0
  0
LINE
  5
DE
330
DA
100
AcDbEntity
  8
치수문자_일반주서
 62
     0
370
    -2
100
AcDbLine
 10
18.79455080756887
 20
2.000000000000043
 30
0.0
 11
33.17253974870142
 21
2.000000000000096
 31
0.0
  0
LINE
  5
DF
330
DA
100
AcDbEntity
  8
치수문자_일반주서
 62
     0
370
    -2
100
AcDbLine
 10
33.17253974870144
 20
-1.999999999999902
 30
0.0
 11
33.17253974870138
 21
14.7290000000001
 31
0.0
  0
LINE
  5
E0
330
DA
100
AcDbEntity
  8
치수문자_일반주서
 62
     0
370
    -2
100
AcDbLine
 10
33.17253974870144
 20
-1.999999999999902
 30
0.0
 11
33.17253974870142
 21
2.000000000000096
 31
0.0
  0
LINE
  5
E1
330
DA
100
AcDbEntity
  8
치수문자_일반주서
 62
     0
370
    -2
100
AcDbLine
 10
33.17253974870145
 20
-5.301999999999902
 30
0.0
 11
33.17253974870147
 21
-8.603999999999902
 31
0.0
  0
LINE
  5
E2
330
DA
100
AcDbEntity
  8
치수문자_일반주서
 62
     0
370
    -2
100
AcDbLine
 10
33.17253974870141
 20
5.302000000000096
 30
0.0
 11
33.1725397487014
 21
8.604000000000095
 31
0.0
  0
SOLID
  5
E3
330
DA
100
AcDbEntity
  8
치수문자_일반주서
 62
     0
100
AcDbTrace
 10
33.72287308203479
 20
-5.3019999999999
 30
0.0
 11
32.62220641536812
 21
-5.301999999999904
 31
0.0
 12
33.17253974870144
 22
-1.999999999999902
 32
0.0
 13
33.17253974870144
 23
-1.999999999999902
 33
0.0
  0
SOLID
  5
E4
330
DA
100
AcDbEntity
  8
치수문자_일반주서
 62
     0
100
AcDbTrace
 10
32.62220641536808
 20
5.302000000000094
 30
0.0
 11
33.72287308203475
 21
5.302000000000097
 31
0.0
 12
33.17253974870142
 22
2.000000000000096
 32
0.0
 13
33.17253974870142
 23
2.000000000000096
 33
0.0
  0
MTEXT
  5
E5
330
DA
100
AcDbEntity
  8
치수문자_일반주서
 62
     0
100
AcDbMText
 10
28.79753974870139
 20
11.66650000000008
 30
0.0
 40
3.5
 41
0.0
 71
     2
 72
     1
  1
\A1;%%c4
  7
SLDTEXTSTYLE0
 11
-3.552713678800503E-15
 21
1.0
 31
0.0
 73
     1
 44
1.0
  0
POINT
  5
13A
330
DA
100
AcDbEntity
  8
Defpoints
 62
     0
100
AcDbPoint
 10
18.73205080756887
 20
-1.999999999999956
 30
0.0
  0
POINT
  5
13B
330
DA
100
AcDbEntity
  8
Defpoints
 62
     0
100
AcDbPoint
 10
18.73205080756887
 20
2.000000000000043
 30
0.0
  0
POINT
  5
13C
330
DA
100
AcDbEntity
  8
Defpoints
 62
     0
100
AcDbPoint
 10
33.17253974870142
 20
2.000000000000096
 30
0.0
  0
ENDBLK
  5
DC
330
DA
100
AcDbEntity
  8
0
100
AcDbBlockEnd
  0
BLOCK
  5
E9
330
E8
100
AcDbEntity
  8
0
100
AcDbBlockBegin
  2
_D_1
 70
     0
 10
0.0
 20
0.0
 30
0.0
  3
_D_1
  1

  0
LINE
  5
EB
330
E8
100
AcDbEntity
  8
치수문자_일반주서
 62
     0
370
    -2
100
AcDbLine
 10
-51.26794919243113
 20
2.512499999999993
 30
0.0
 11
-51.26794919243113
 21
24.23841044024269
 31
0.0
  0
LINE
  5
EC
330
E8
100
AcDbEntity
  8
치수문자_일반주서
 62
     0
370
    -2
100
AcDbLine
 10
18.73205080756887
 20
2.062500000000043
 30
0.0
 11
18.73205080756887
 21
24.23841044024269
 31
0.0
  0
LINE
  5
ED
330
E8
100
AcDbEntity
  8
치수문자_일반주서
 62
     0
370
    -2
100
AcDbLine
 10
-47.96594919243113
 20
24.23841044024269
 30
0.0
 11
15.43005080756887
 21
24.23841044024269
 31
0.0
  0
SOLID
  5
EE
330
E8
100
AcDbEntity
  8
치수문자_일반주서
 62
     0
100
AcDbTrace
 10
-47.96594919243113
 20
24.78874377357602
 30
0.0
 11
-47.96594919243113
 21
23.68807710690935
 31
0.0
 12
-51.26794919243113
 22
24.23841044024269
 32
0.0
 13
-51.26794919243113
 23
24.23841044024269
 33
0.0
  0
SOLID
  5
EF
330
E8
100
AcDbEntity
  8
치수문자_일반주서
 62
     0
100
AcDbTrace
 10
15.43005080756887
 20
23.68807710690935
 30
0.0
 11
15.43005080756887
 21
24.78874377357602
 31
0.0
 12
18.73205080756887
 22
24.23841044024269
 32
0.0
 13
18.73205080756887
 23
24.23841044024269
 33
0.0
  0
MTEXT
  5
F0
330
E8
100
AcDbEntity
  8
치수문자_일반주서
 62
     0
100
AcDbMText
 10
-16.26794919243113
 20
28.61341044024269
 30
0.0
 40
3.5
 41
0.0
 71
     2
 72
     1
  1
\A1;70
  7
SLDTEXTSTYLE0
 73
     1
 44
1.0
  0
POINT
  5
136
330
E8
100
AcDbEntity
  8
Defpoints
 62
     0
100
AcDbPoint
 10
-51.26794919243113
 20
2.449999999999993
 30
0.0
  0
POINT
  5
137
330
E8
100
AcDbEntity
  8
Defpoints
 62
     0
100
AcDbPoint
 10
18.73205080756887
 20
2.000000000000043
 30
0.0
  0
POINT
  5
138
330
E8
100
AcDbEntity
  8
Defpoints
 62
     0
100
AcDbPoint
 10
18.73205080756887
 20
24.23841044024269
 30
0.0
  0
ENDBLK
  5
EA
330
E8
100
AcDbEntity
  8
0
100
AcDbBlockEnd
  0
BLOCK
  5
F3
330
F2
100
AcDbEntity
  8
0
100
AcDbBlockBegin
  2
_D_2
 70
     0
 10
0.0
 20
0.0
 30
0.0
  3
_D_2
  1

  0
LINE
  5
F5
330
F2
100
AcDbEntity
  8
치수문자_일반주서
 62
     0
370
    -2
100
AcDbLine
 10
6.73205080756887
 20
1.931681258967058
 30
0.0
 11
6.73205080756887
 21
14.68761633900377
 31
0.0
  0
LINE
  5
F6
330
F2
100
AcDbEntity
  8
치수문자_일반주서
 62
     0
370
    -2
100
AcDbLine
 10
18.73205080756887
 20
2.062500000000043
 30
0.0
 11
18.73205080756887
 21
14.68761633900377
 31
0.0
  0
LINE
  5
F7
330
F2
100
AcDbEntity
  8
치수문자_일반주서
 62
     0
370
    -2
100
AcDbLine
 10
10.03405080756887
 20
14.68761633900377
 30
0.0
 11
15.43005080756887
 21
14.68761633900377
 31
0.0
  0
SOLID
  5
F8
330
F2
100
AcDbEntity
  8
치수문자_일반주서
 62
     0
100
AcDbTrace
 10
10.03405080756887
 20
15.2379496723371
 30
0.0
 11
10.03405080756887
 21
14.13728300567044
 31
0.0
 12
6.73205080756887
 22
14.68761633900377
 32
0.0
 13
6.73205080756887
 23
14.68761633900377
 33
0.0
  0
SOLID
  5
F9
330
F2
100
AcDbEntity
  8
치수문자_일반주서
 62
     0
100
AcDbTrace
 10
15.43005080756887
 20
14.13728300567044
 30
0.0
 11
15.43005080756887
 21
15.2379496723371
 31
0.0
 12
18.73205080756887
 22
14.68761633900377
 32
0.0
 13
18.73205080756887
 23
14.68761633900377
 33
0.0
  0
MTEXT
  5
FA
330
F2
100
AcDbEntity
  8
치수문자_일반주서
 62
     0
100
AcDbMText
 10
12.73205080756887
 20
19.06261633900377
 30
0.0
 40
3.5
 41
0.0
 71
     2
 72
     1
  1
\A1;12
  7
SLDTEXTSTYLE0
 73
     1
 44
1.0
  0
POINT
  5
FB
330
F2
100
AcDbEntity
  8
Defpoints
 62
     0
100
AcDbPoint
 10
6.73205080756887
 20
1.869181258967058
 30
0.0
  0
POINT
  5
FC
330
F2
100
AcDbEntity
  8
Defpoints
 62
     0
100
AcDbPoint
 10
18.73205080756887
 20
2.000000000000043
 30
0.0
  0
POINT
  5
139
330
F2
100
AcDbEntity
  8
Defpoints
 62
     0
100
AcDbPoint
 10
18.73205080756887
 20
14.68761633900377
 30
0.0
  0
ENDBLK
  5
F4
330
F2
100
AcDbEntity
  8
0
100
AcDbBlockEnd
  0
BLOCK
  5
FF
330
FE
100
AcDbEntity
  8
0
100
AcDbBlockBegin
  2
_D_3
 70
     0
 10
0.0
 20
0.0
 30
0.0
  3
_D_3
  1

  0
LINE
  5
101
330
FE
100
AcDbEntity
  8
치수문자_일반주서
 62
     0
370
    -2
100
AcDbLine
 10
-50.78044919243114
 20
2.999999999999993
 30
0.0
 11
-62.97435444210667
 21
2.999999999999947
 31
0.0
  0
LINE
  5
102
330
FE
100
AcDbEntity
  8
치수문자_일반주서
 62
     0
370
    -2
100
AcDbLine
 10
-50.78044919243114
 20
-3.000000000000001
 30
0.0
 11
-62.97435444210664
 21
-3.000000000000046
 31
0.0
  0
LINE
  5
103
330
FE
100
AcDbEntity
  8
치수문자_일반주서
 62
     0
370
    -2
100
AcDbLine
 10
-62.97435444210667
 20
2.999999999999947
 30
0.0
 11
-62.97435444210672
 21
15.72899999999995
 31
0.0
  0
LINE
  5
104
330
FE
100
AcDbEntity
  8
치수문자_일반주서
 62
     0
370
    -2
100
AcDbLine
 10
-62.97435444210667
 20
2.999999999999947
 30
0.0
 11
-62.97435444210664
 21
-3.000000000000046
 31
0.0
  0
LINE
  5
105
330
FE
100
AcDbEntity
  8
치수문자_일반주서
 62
     0
370
    -2
100
AcDbLine
 10
-62.97435444210668
 20
6.301999999999946
 30
0.0
 11
-62.97435444210669
 21
9.603999999999946
 31
0.0
  0
LINE
  5
106
330
FE
100
AcDbEntity
  8
치수문자_일반주서
 62
     0
370
    -2
100
AcDbLine
 10
-62.97435444210663
 20
-6.302000000000046
 30
0.0
 11
-62.97435444210662
 21
-9.604000000000045
 31
0.0
  0
SOLID
  5
107
330
FE
100
AcDbEntity
  8
치수문자_일반주서
 62
     0
100
AcDbTrace
 10
-63.52468777544001
 20
6.301999999999945
 30
0.0
 11
-62.42402110877335
 21
6.301999999999948
 31
0.0
 12
-62.97435444210667
 22
2.999999999999947
 32
0.0
 13
-62.97435444210667
 23
2.999999999999947
 33
0.0
  0
SOLID
  5
108
330
FE
100
AcDbEntity
  8
치수문자_일반주서
 62
     0
100
AcDbTrace
 10
-62.4240211087733
 20
-6.302000000000044
 30
0.0
 11
-63.52468777543996
 21
-6.302000000000048
 31
0.0
 12
-62.97435444210664
 22
-3.000000000000046
 32
0.0
 13
-62.97435444210664
 23
-3.000000000000046
 33
0.0
  0
MTEXT
  5
109
330
FE
100
AcDbEntity
  8
치수문자_일반주서
 62
     0
100
AcDbMText
 10
-67.3493544421067
 20
12.66649999999993
 30
0.0
 40
3.5
 41
0.0
 71
     2
 72
     1
  1
\A1;%%c6
  7
SLDTEXTSTYLE0
 11
-3.552713678800505E-15
 21
1.0
 31
0.0
 73
     1
 44
1.0
  0
POINT
  5
13D
330
FE
100
AcDbEntity
  8
Defpoints
 62
     0
100
AcDbPoint
 10
-50.71794919243114
 20
2.999999999999994
 30
0.0
  0
POINT
  5
13E
330
FE
100
AcDbEntity
  8
Defpoints
 62
     0
100
AcDbPoint
 10
-50.71794919243114
 20
-3.0
 30
0.0
  0
POINT
  5
13F
330
FE
100
AcDbEntity
  8
Defpoints
 62
     0
100
AcDbPoint
 10
-62.97435444210664
 20
-3.000000000000046
 30
0.0
  0
ENDBLK
  5
100
330
FE
100
AcDbEntity
  8
0
100
AcDbBlockEnd
  0
BLOCK
  5
10B
330
10A
100
AcDbEntity
  8
0
100
AcDbBlockBegin
  2
SW_DOWELSYMBOL_0
 70
     0
 10
0.0
 20
0.0
 30
0.0
  3
SW_DOWELSYMBOL_0
  1

  0
CIRCLE
  5
10D
330
10A
100
AcDbEntity
  8
외형선
 62
     0
100
AcDbCircle
 10
0.0
 20
0.0
 30
0.0
 40
3.000000000000004
  0
HATCH
  5
10E
330
10A
100
AcDbEntity
  8
0
  6
Continuous
 62
     0
370
    30
100
AcDbHatch
 10
0.0
 20
0.0
 30
0.0
210
0.0
220
0.0
230
1.0
  2
SOLID
 70
     1
 71
     0
 91
        1
 92
        0
 93
        3
 72
     2
 10
0.0000000000000104
 20
0.0
 40
3.000000000000004
 50
0.0
 51
90.0
 73
     1
 72
     1
 10
0.0000000000000104
 20
3.000000000000004
 11
0.0000000000000104
 21
0.0
 72
     1
 10
0.0000000000000104
 20
0.0
 11
3.000000000000015
 21
0.0
 97
        0
 75
     0
 76
     1
 98
        1
 10
0.0
 20
0.0
  0
HATCH
  5
10F
330
10A
100
AcDbEntity
  8
0
  6
Continuous
 62
     0
370
    30
100
AcDbHatch
 10
0.0
 20
0.0
 30
0.0
210
0.0
220
0.0
230
1.0
  2
SOLID
 70
     1
 71
     0
 91
        1
 92
        0
 93
        3
 72
     2
 10
0.0000000000000104
 20
0.0
 40
3.000000000000004
 50
180.0
 51
270.0000000000008
 73
     1
 72
     1
 10
0.0000000000000104
 20
-3.000000000000004
 11
0.0000000000000104
 21
0.0
 72
     1
 10
0.0000000000000104
 20
0.0
 11
-2.999999999999994
 21
0.0
 97
        0
 75
     0
 76
     1
 98
        1
 10
0.0
 20
0.0
  0
ENDBLK
  5
10C
330
10A
100
AcDbEntity
  8
0
100
AcDbBlockEnd
  0
ENDSEC
  0
SECTION
  2
ENTITIES
  0
SPLINE
  5
95
330
1F
100
AcDbEntity
  8
0
  6
Continuous
 62
     1
370
    15
100
AcDbSpline
210
0.0
220
0.0
230
1.0
 70
     8
 71
     3
 72
     9
 73
     5
 74
     0
 42
0.000000001
 43
0.00000001
 40
0.0
 40
0.0
 40
0.0
 40
0.0
 40
0.4806102673675444
 40
1.0
 40
1.0
 40
1.0
 40
1.0
 10
13.54963425242246
 20
0.5125022497695261
 30
0.0
 10
13.46104520912005
 20
0.5548634716689765
 30
0.0
 10
13.27671905273632
 20
0.6430039563312713
 30
0.0
 10
13.09236819483284
 20
0.7397290438069662
 30
0.0
 10
12.99661825203578
 20
0.7899670611298181
 30
0.0
  0
LINE
  5
96
330
1F
100
AcDbEntity
  8
0
  6
Continuous
 62
     1
370
    15
100
AcDbLine
 10
8.961035811727603
 20
2.000000000000001
 30
0.0
 11
7.990944993570546
 21
2.000000000000001
 31
0.0
  0
SPLINE
  5
97
330
1F
100
AcDbEntity
  8
0
  6
Continuous
 62
     1
370
    15
100
AcDbSpline
210
0.0
220
0.0
230
1.0
 70
     8
 71
     3
 72
    16
 73
    12
 74
     0
 42
0.000000001
 43
0.00000001
 40
0.0
 40
0.0
 40
0.0
 40
0.0
 40
0.2323070942499921
 40
0.3956968216310293
 40
0.4976971181257668
 40
0.5907374609517133
 40
0.6852121956382479
 40
0.7804569649244749
 40
0.8757826539997219
 40
0.9708947013244934
 40
1.0
 40
1.0
 40
1.0
 40
1.0
 10
12.89008169951447
 20
1.589285492804668
 30
0.0
 10
12.76311848010286
 20
1.583223262516825
 30
0.0
 10
12.54685757534049
 20
1.572897253039415
 30
0.0
 10
12.27553643982339
 20
1.565860673208651
 30
0.0
 10
12.08009922682388
 20
1.562815291831968
 30
0.0
 10
11.92211987156237
 20
1.56175442776478
 30
0.0
 10
11.76782160429293
 20
1.561974975208796
 30
0.0
 10
11.61225923513101
 20
1.563429256889077
 30
0.0
 10
11.45636402406488
 20
1.566331551050487
 30
0.0
 10
11.33655077210515
 20
1.56907472726909
 30
0.0
 10
11.26880531925644
 20
1.571649095564639
 30
0.0
 10
11.25293191910293
 20
1.572252294397614
 30
0.0
  0
SPLINE
  5
98
330
1F
100
AcDbEntity
  8
0
  6
Continuous
 62
     1
370
    15
100
AcDbSpline
210
0.0
220
0.0
230
1.0
 70
     8
 71
     3
 72
    17
 73
    13
 74
     0
 42
0.000000001
 43
0.00000001
 40
0.0
 40
0.0
 40
0.0
 40
0.0
 40
0.124675681641274
 40
0.2131567427548557
 40
0.2898774477514559
 40
0.3708154038807153
 40
0.4515887831945085
 40
0.6522366499648974
 40
0.698112638346278
 40
0.7646050791596078
 40
0.864879259583586
 40
0.9999999999999999
 40
0.9999999999999999
 40
0.9999999999999999
 40
0.9999999999999999
 10
9.882382135601501
 20
-1.664247412683755
 30
0.0
 10
10.00775945003962
 20
-1.652225084665115
 30
0.0
 10
10.22211576723926
 20
-1.631670632930435
 30
0.0
 10
10.51222658612096
 20
-1.609868532065447
 30
0.0
 10
10.75835430432108
 20
-1.594090838767263
 30
0.0
 10
10.99753874373
 20
-1.581605907909648
 30
0.0
 10
11.36051275938605
 20
-1.567071324284942
 30
0.0
 10
11.68884819570737
 20
-1.561418420474685
 30
0.0
 10
12.00275530417788
 20
-1.562088270283611
 30
0.0
 10
12.21562662609704
 20
-1.56452466546659
 30
0.0
 10
12.51792935522486
 20
-1.57166536998072
 30
0.0
 10
12.75436408871889
 20
-1.582859734621804
 30
0.0
 10
12.89008169951447
 20
-1.589285492804667
 30
0.0
  0
SPLINE
  5
99
330
1F
100
AcDbEntity
  8
0
  6
Continuous
 62
     1
370
    15
100
AcDbSpline
210
0.0
220
0.0
230
1.0
 70
     8
 71
     3
 72
    23
 73
    19
 74
     0
 42
0.000000001
 43
0.00000001
 40
0.0
 40
0.0
 40
0.0
 40
0.0
 40
0.1125262675112583
 40
0.1926883430441969
 40
0.2447719314736598
 40
0.2945394131864482
 40
0.3460492479757071
 40
0.3975355761957096
 40
0.4487801748197299
 40
0.5004140720275495
 40
0.5521996867056311
 40
0.6022783366194362
 40
0.6498705681975013
 40
0.6959596110267202
 40
0.7410624831522665
 40
0.7936689168139992
 40
0.8796134947579493
 40
1.0
 40
1.0
 40
1.0
 40
1.0
 10
17.98817178315628
 20
1.367905944079978
 30
0.0
 10
17.85620799899408
 20
1.357536788629918
 30
0.0
 10
17.63023513528462
 20
1.339780797725485
 30
0.0
 10
17.34465215012095
 20
1.326464911239835
 30
0.0
 10
17.13491212098181
 20
1.319938557087095
 30
0.0
 10
16.95719453689669
 20
1.316704228386065
 30
0.0
 10
16.77916908960533
 20
1.315747332028859
 30
0.0
 10
16.59962355319205
 20
1.31716768597427
 30
0.0
 10
16.41999718714719
 20
1.321004669001801
 30
0.0
 10
16.23985338781432
 20
1.327198632069907
 30
0.0
 10
16.06101453681363
 20
1.335663398617108
 30
0.0
 10
15.88688745167025
 20
1.34611006158511
 30
0.0
 10
15.71943934798836
 20
1.358194930273002
 30
0.0
 10
15.55788124725817
 20
1.37175003366632
 30
0.0
 10
15.39063791449661
 20
1.38774711502007
 30
0.0
 10
15.1769276463466
 20
1.410599386114086
 30
0.0
 10
14.87553484888759
 20
1.446953014129692
 30
0.0
 10
14.63474525951034
 20
1.483159704399438
 30
0.0
 10
14.49425349881104
 20
1.504284960180831
 30
0.0
  0
SPLINE
  5
9A
330
1F
100
AcDbEntity
  8
0
  6
Continuous
 62
     1
370
    15
100
AcDbSpline
210
0.0
220
0.0
230
1.0
 70
     8
 71
     3
 72
    14
 73
    10
 74
     0
 42
0.000000001
 43
0.00000001
 40
0.0
 40
0.0
 40
0.0
 40
0.0
 40
0.2814705423506841
 40
0.4824138866013183
 40
0.6054107406434854
 40
0.7108638381748578
 40
0.8186226592776134
 40
0.9298960217448071
 40
1.0
 40
1.0
 40
1.0
 40
1.0
 10
14.49425349881104
 20
-1.50428496018083
 30
0.0
 10
14.63474526284161
 20
-1.48316003987062
 30
0.0
 10
14.87553485792835
 20
-1.44695392456675
 30
0.0
 10
15.17692762571121
 20
-1.410597308054769
 30
0.0
 10
15.39063795706152
 20
-1.387751401462334
 30
0.0
 10
15.55788111009363
 20
-1.371736220694273
 30
0.0
 10
15.71943988304792
 20
-1.358248812730126
 30
0.0
 10
15.86347977748433
 20
-1.347623621210241
 30
0.0
 10
15.95386064669221
 20
-1.342384729171564
 30
0.0
 10
15.98879366789761
 20
-1.340359850142584
 30
0.0
  0
SPLINE
  5
9B
330
1F
100
AcDbEntity
  8
0
  6
Continuous
 62
     6
370
    15
100
AcDbSpline
210
0.0
220
0.0
230
1.0
 70
     8
 71
     3
 72
     9
 73
     5
 74
     0
 42
0.000000001
 43
0.00000001
 40
0.0
 40
0.0
 40
0.0
 40
0.0
 40
0.5013772540192067
 40
1.0
 40
1.0
 40
1.0
 40
1.0
 10
7.105464540746725
 20
1.367913577392043
 30
0.0
 10
7.0429056713613
 20
1.36274147919601
 30
0.0
 10
6.918131623707703
 20
1.352425697706978
 30
0.0
 10
6.793963739136416
 20
1.344526995906413
 30
0.0
 10
6.732050807568857
 20
1.340588523524932
 30
0.0
  0
LINE
  5
9C
330
1F
100
AcDbEntity
  8
0
  6
Continuous
 62
     1
370
    15
100
AcDbLine
 10
7.990944993570546
 20
-2.000000000000001
 30
0.0
 11
8.961035811727603
 21
-2.000000000000001
 31
0.0
  0
LINE
  5
9D
330
1F
100
AcDbEntity
  8
0
  6
Continuous
 62
   131
370
    15
100
AcDbLine
 10
2.0
 20
-3.0
 30
0.0
 11
5.73205080756887
 21
-2.0
 31
0.0
  0
LINE
  5
9E
330
1F
100
AcDbEntity
  8
0
  6
Continuous
 62
   131
370
    15
100
AcDbLine
 10
5.73205080756887
 20
2.0
 30
0.0
 11
2.0
 21
3.0
 31
0.0
  0
LINE
  5
9F
330
1F
100
AcDbEntity
  8
0
  6
Continuous
 62
   131
370
    15
100
AcDbLine
 10
2.0
 20
2.999999999999999
 30
0.0
 11
-50.71794919243114
 21
2.999999999999996
 31
0.0
  0
LINE
  5
A0
330
1F
100
AcDbEntity
  8
0
  6
Continuous
 62
   131
370
    15
100
AcDbLine
 10
-50.71794919243114
 20
-3.000000000000002
 30
0.0
 11
2.0
 21
-2.999999999999999
 31
0.0
  0
LINE
  5
A1
330
1F
100
AcDbEntity
  8
0
  6
Continuous
 62
   131
370
    15
100
AcDbLine
 10
-50.71794919243114
 20
2.999999999999994
 30
0.0
 11
-51.26794919243113
 21
2.449999999999993
 31
0.0
  0
LINE
  5
A2
330
1F
100
AcDbEntity
  8
0
  6
Continuous
 62
   131
370
    15
100
AcDbLine
 10
-51.26794919243113
 20
-2.45
 30
0.0
 11
-50.71794919243114
 21
-3.0
 31
0.0
  0
LINE
  5
A3
330
1F
100
AcDbEntity
  8
0
  6
Continuous
 62
   131
370
    15
100
AcDbLine
 10
5.841936470115547
 20
2.0
 30
0.0
 11
5.73205080756887
 21
2.0
 31
0.0
  0
LINE
  5
A4
330
1F
100
AcDbEntity
  8
0
  6
Continuous
 62
   131
370
    15
100
AcDbLine
 10
5.73205080756887
 20
-2.0
 30
0.0
 11
5.841936470115547
 21
-2.0
 31
0.0
  0
SPLINE
  5
A5
330
1F
100
AcDbEntity
  8
0
  6
Continuous
 62
   131
370
    15
100
AcDbSpline
210
0.0
220
0.0
230
1.0
 70
     8
 71
     3
 72
     9
 73
     5
 74
     0
 42
0.000000001
 43
0.00000001
 40
0.0
 40
0.0
 40
0.0
 40
0.0
 40
0.43849128077977
 40
1.0
 40
1.0
 40
1.0
 40
1.0
 10
6.732050807568861
 20
1.340588523524933
 30
0.0
 10
6.602070904659888
 20
1.333712519902604
 30
0.0
 10
6.305645619582778
 20
1.318031470076253
 30
0.0
 10
6.005249784083173
 20
1.316958335492202
 30
0.0
 10
5.836574903232695
 20
1.316355761066361
 30
0.0
  0
SPLINE
  5
A6
330
1F
100
AcDbEntity
  8
0
  6
Continuous
 62
     1
370
    15
100
AcDbSpline
210
0.0
220
0.0
230
1.0
 70
     8
 71
     3
 72
    48
 73
    44
 74
     0
 42
0.000000001
 43
0.00000001
 40
0.0
 40
0.0
 40
0.0
 40
0.0
 40
0.0625000000000006
 40
0.0625000000000006
 40
0.1250000000000011
 40
0.1250000000000011
 40
0.1875000000000016
 40
0.1875000000000016
 40
0.250000000000002
 40
0.250000000000002
 40
0.3125000000000024
 40
0.3125000000000024
 40
0.3437500000000027
 40
0.3437500000000027
 40
0.3750000000000029
 40
0.3750000000000029
 40
0.437500000000003
 40
0.437500000000003
 40
0.4687500000000029
 40
0.4687500000000029
 40
0.5000000000000029
 40
0.5000000000000029
 40
0.5312500000000028
 40
0.5312500000000028
 40
0.5625000000000028
 40
0.5625000000000028
 40
0.6250000000000024
 40
0.6250000000000024
 40
0.6562500000000024
 40
0.6562500000000024
 40
0.6875000000000023
 40
0.6875000000000023
 40
0.7187500000000022
 40
0.7187500000000022
 40
0.7500000000000021
 40
0.7500000000000021
 40
0.8125000000000016
 40
0.8125000000000016
 40
0.8750000000000011
 40
0.8750000000000011
 40
0.9375000000000006
 40
0.9375000000000006
 40
1.0
 40
1.0
 40
1.0
 40
1.0
 10
6.732050807569317
 20
1.869181258963561
 30
0.0
 10
6.979459397713898
 20
1.920349244851397
 30
0.0
 10
7.231654293783288
 20
1.957207911455602
 30
0.0
 10
7.733781257979766
 20
1.999584196464409
 30
0.0
 10
7.979704722289307
 20
2.005208936092158
 30
0.0
 10
8.481991472902981
 20
1.985213387188932
 30
0.0
 10
8.733656102436756
 20
1.959451371755393
 30
0.0
 10
9.228945072970655
 20
1.878329278533937
 30
0.0
 10
9.482452324729989
 20
1.822378357979506
 30
0.0
 10
9.983592112960212
 20
1.683252847422158
 30
0.0
 10
10.22985830855975
 20
1.600433113176397
 30
0.0
 10
10.6070075988104
 20
1.457594783300636
 30
0.0
 10
10.73298387473417
 20
1.406989783749168
 30
0.0
 10
10.98324376622831
 20
1.300710895175975
 30
0.0
 10
11.10647623738905
 20
1.245205827997824
 30
0.0
 10
11.47953121441548
 20
1.071269858612429
 30
0.0
 10
11.73324879386128
 20
0.9451921912497063
 30
0.0
 10
12.1081107552134
 20
0.7474176364307362
 30
0.0
 10
12.23111662594823
 20
0.6802554733829378
 30
0.0
 10
12.48028793603939
 20
0.5429816160634613
 30
0.0
 10
12.6060182956033
 20
0.4729394018351917
 30
0.0
 10
12.85757036409386
 20
0.3312542938159413
 30
0.0
 10
12.98338774450279
 20
0.2596138338997282
 30
0.0
 10
13.23290208426782
 20
0.1160040535803019
 30
0.0
 10
13.35584342985772
 20
0.0441825447514984
 30
0.0
 10
13.73024042554882
 20
-0.1721912382013416
 30
0.0
 10
13.98399293424694
 20
-0.3170047183840035
 30
0.0
 10
14.35761174701774
 20
-0.5275200446970055
 30
0.0
 10
14.48065067866397
 20
-0.596524579646989
 30
0.0
 10
14.73063381923501
 20
-0.7326599433894129
 30
0.0
 10
14.85655710448983
 20
-0.7995945484109525
 30
0.0
 10
15.10805783549625
 20
-0.9300035680011601
 30
0.0
 10
15.23363095888634
 20
-0.9934757765622405
 30
0.0
 10
15.48223378253895
 20
-1.115886866011894
 30
0.0
 10
15.60553235711907
 20
-1.174885108153337
 30
0.0
 10
15.98102214411514
 20
-1.345534441969759
 30
0.0
 10
16.23463410232103
 20
-1.450040411186438
 30
0.0
 10
16.73080500394286
 20
-1.633457027270295
 30
0.0
 10
16.981501491953
 20
-1.713432671328218
 30
0.0
 10
17.48405941934544
 20
-1.845442382446683
 30
0.0
 10
17.73005110390091
 20
-1.8971055161923
 30
0.0
 10
18.23182563838873
 20
-1.970774391665352
 30
0.0
 10
18.48512189345427
 20
-1.992400779962453
 30
0.0
 10
18.73205080756887
 20
-1.999999999999956
 30
0.0
  0
SPLINE
  5
A7
330
1F
100
AcDbEntity
  8
0
  6
Continuous
 62
     1
370
    15
100
AcDbSpline
210
0.0
220
0.0
230
1.0
 70
     8
 71
     3
 72
    14
 73
    10
 74
     0
 42
0.000000001
 43
0.00000001
 40
0.0
 40
0.0
 40
0.0
 40
0.0
 40
0.0588255276283276
 40
0.2203348721093147
 40
0.3818426458526059
 40
0.5433488961397509
 40
0.7048536703762777
 40
0.880202139484642
 40
1.0
 40
1.0
 40
1.0
 40
1.0
 10
13.75219728169582
 20
-0.1836586296253767
 30
0.0
 10
13.62178292292622
 20
-0.1321369500505441
 30
0.0
 10
13.13330738825239
 20
0.0608408801136385
 30
0.0
 10
12.28677489055374
 20
0.4072315122712427
 30
0.0
 10
11.21260556065091
 20
0.8024588986377142
 30
0.0
 10
10.13843973389573
 20
1.12388484148274
 30
0.0
 10
9.033620129817011
 20
1.338625356041696
 30
0.0
 10
8.021159552026925
 20
1.429253651897768
 30
0.0
 10
7.366820930547584
 20
1.37331565592273
 30
0.0
 10
7.101229394966811
 20
1.350610808981656
 30
0.0
  0
SPLINE
  5
A8
330
1F
100
AcDbEntity
  8
0
  6
Continuous
 62
   131
370
    15
100
AcDbSpline
210
0.0
220
0.0
230
1.0
 70
    24
 71
     3
 72
    10
 73
     6
 74
     0
 42
0.000000001
 43
0.00000001
 40
0.0
 40
0.0
 40
0.0
 40
0.0
 40
0.5
 40
0.5
 40
1.0
 40
1.0
 40
1.0
 40
1.0
 10
6.73205080756887
 20
1.869181258967058
 30
0.0
 10
6.73205080756887
 20
1.766060021997658
 30
0.0
 10
6.73205080756887
 20
1.661934098754739
 30
0.0
 10
6.73205080756887
 20
1.475064054878947
 30
0.0
 10
6.73205080756887
 20
1.39274730712002
 30
0.0
 10
6.73205080756887
 20
1.327792138868338
 30
0.0
  0
SPLINE
  5
A9
330
1F
100
AcDbEntity
  8
0
  6
Continuous
 62
     1
370
    15
100
AcDbSpline
210
0.0
220
0.0
230
1.0
 70
     8
 71
     3
 72
    18
 73
    14
 74
     0
 42
0.000000001
 43
0.00000001
 40
0.0
 40
0.0
 40
0.0
 40
0.0
 40
0.0983397592756027
 40
0.1966067261638587
 40
0.2948230482649576
 40
0.3930112011608567
 40
0.4911938436322969
 40
0.5893936703616222
 40
0.6876332641417343
 40
0.7778314622391054
 40
0.8679969098921482
 40
0.9580149603290541
 40
1.0
 40
1.0
 40
1.0
 40
1.0
 10
18.73205080756887
 20
-1.897881738463798
 30
0.0
 10
18.41167555070755
 20
-1.82546596932154
 30
0.0
 10
17.77116218297721
 20
-1.680688034144823
 30
0.0
 10
16.81086675166939
 20
-1.296338448961804
 30
0.0
 10
15.85115120596797
 20
-0.8235377105205641
 30
0.0
 10
14.89176830949706
 20
-0.285168944461096
 30
0.0
 10
13.93245158724835
 20
0.2741636453381331
 30
0.0
 10
12.97292422327458
 20
0.812941800562469
 30
0.0
 10
12.03936001446554
 20
1.276159822839559
 30
0.0
 10
11.13173116786487
 20
1.638649433971365
 30
0.0
 10
10.2509351135966
 20
1.878386603455777
 30
0.0
 10
9.527528873614942
 20
1.998182835073112
 30
0.0
 10
9.097736135519197
 20
1.987403012926993
 30
0.0
 10
8.961035811727603
 20
1.983974371521092
 30
0.0
  0
SPLINE
  5
AA
330
1F
100
AcDbEntity
  8
0
  6
Continuous
 62
     1
370
    15
100
AcDbSpline
210
0.0
220
0.0
230
1.0
 70
     8
 71
     3
 72
    14
 73
    10
 74
     0
 42
0.000000001
 43
0.00000001
 40
0.0
 40
0.0
 40
0.0
 40
0.0
 40
0.1552309234403597
 40
0.3100229896816656
 40
0.4648509599341973
 40
0.6201680030708498
 40
0.7753028269917429
 40
0.9300697886843419
 40
0.9999999999999999
 40
0.9999999999999999
 40
0.9999999999999999
 40
0.9999999999999999
 10
18.73205080756887
 20
-1.577944528736431
 30
0.0
 10
18.46308660889707
 20
-1.52067490991352
 30
0.0
 10
17.92591860691967
 20
-1.406297580629449
 30
0.0
 10
17.12099565362782
 20
-1.135808344932383
 30
0.0
 10
16.31591044852468
 20
-0.8101791935630457
 30
0.0
 10
15.50960539360796
 20
-0.4397550780618759
 30
0.0
 10
14.70366174763461
 20
-0.04732006345988
 30
0.0
 10
14.04600448198734
 20
0.2809270737889212
 30
0.0
 10
13.65684020767044
 20
0.4602785494628828
 30
0.0
 10
13.53572457646272
 20
0.516096281505263
 30
0.0
  0
LINE
  5
AB
330
1F
100
AcDbEntity
  8
0
  6
Continuous
 62
     1
370
    15
100
AcDbLine
 10
18.73205080756887
 20
-1.8978817384638
 30
0.0
 11
18.73205080756887
 21
-1.577944528736431
 31
0.0
  0
LINE
  5
AC
330
1F
100
AcDbEntity
  8
0
  6
Continuous
 62
     1
370
    15
100
AcDbLine
 10
18.73205080756887
 20
-1.999999999999956
 30
0.0
 11
18.73205080756887
 21
-1.8978817384638
 31
0.0
  0
SPLINE
  5
AD
330
1F
100
AcDbEntity
  8
0
  6
Continuous
 62
     1
370
    15
100
AcDbSpline
210
0.0
220
0.0
230
1.0
 70
     8
 71
     3
 72
     8
 73
     4
 74
     0
 42
0.000000001
 43
0.00000001
 40
0.0
 40
0.0
 40
0.0
 40
0.0
 40
1.0
 40
1.0
 40
1.0
 40
1.0
 10
17.49388441220071
 20
0.5601200555101735
 30
0.0
 10
17.40440448180897
 20
0.6661245607306504
 30
0.0
 10
17.32678444586533
 20
0.7674220582597978
 30
0.0
 10
17.26551150639243
 20
0.8616562015384638
 30
0.0
  0
LINE
  5
AE
330
1F
100
AcDbEntity
  8
0
  6
Continuous
 62
     1
370
    15
100
AcDbLine
 10
17.26551150639244
 20
0.8616562015384627
 30
0.0
 11
18.73205080756887
 21
0.0000000000000018
 31
0.0
  0
LINE
  5
AF
330
1F
100
AcDbEntity
  8
0
  6
Continuous
 62
     1
370
    15
100
AcDbLine
 10
18.73205080756887
 20
0.0000000000000018
 30
0.0
 11
18.73205080756887
 21
-0.5344858920592878
 31
0.0
  0
SPLINE
  5
B0
330
1F
100
AcDbEntity
  8
0
  6
Continuous
 62
     1
370
    15
100
AcDbSpline
210
0.0
220
0.0
230
1.0
 70
     8
 71
     3
 72
    10
 73
     6
 74
     0
 42
0.000000001
 43
0.00000001
 40
0.0
 40
0.0
 40
0.0
 40
0.0
 40
0.5
 40
0.5
 40
1.0
 40
1.0
 40
1.0
 40
1.0
 10
18.73205080756887
 20
-0.534485892059289
 30
0.0
 10
18.51770992799074
 20
-0.3659754071021858
 30
0.0
 10
18.3069531454821
 20
-0.1905497606416786
 30
0.0
 10
17.89277919016849
 20
0.1744625846972666
 30
0.0
 10
17.68743517480839
 20
0.3659780243935087
 30
0.0
 10
17.49388441220071
 20
0.5601200555101737
 30
0.0
  0
SPLINE
  5
B1
330
1F
100
AcDbEntity
  8
0
  6
Continuous
 62
     1
370
    15
100
AcDbSpline
210
0.0
220
0.0
230
1.0
 70
     8
 71
     3
 72
    12
 73
     8
 74
     0
 42
0.000000001
 43
0.00000001
 40
0.0
 40
0.0
 40
0.0
 40
0.0
 40
0.2153278896026397
 40
0.430741689948241
 40
0.6638926498329075
 40
0.8970412691365374
 40
0.9999999999999999
 40
0.9999999999999999
 40
0.9999999999999999
 40
0.9999999999999999
 10
17.4938844122007
 20
0.5601200555101769
 30
0.0
 10
17.16320830435605
 20
0.6985800430781139
 30
0.0
 10
16.50172415670868
 20
0.9755552604792811
 30
0.0
 10
15.48210537211143
 20
1.310127543067868
 30
0.0
 10
14.43514837069907
 20
1.532539099625838
 30
0.0
 10
13.5608906793082
 20
1.624838584179683
 30
0.0
 10
13.04470436170662
 20
1.583152250595725
 30
0.0
 10
12.88658259458988
 20
1.570382604237138
 30
0.0
  0
SPLINE
  5
B2
330
1F
100
AcDbEntity
  8
0
  6
Continuous
 62
     1
370
    15
100
AcDbSpline
210
0.0
220
0.0
230
1.0
 70
    24
 71
     3
 72
    10
 73
     6
 74
     0
 42
0.000000001
 43
0.00000001
 40
0.0
 40
0.0
 40
0.0
 40
0.0
 40
0.5
 40
0.5
 40
1.0
 40
1.0
 40
1.0
 40
1.0
 10
18.73205080756887
 20
-1.57794452873643
 30
0.0
 10
18.73205080756887
 20
-1.456982778007608
 30
0.0
 10
18.73205080756887
 20
-1.304142967812936
 30
0.0
 10
18.73205080756887
 20
-0.9488051183013592
 30
0.0
 10
18.73205080756887
 20
-0.746614886102619
 30
0.0
 10
18.73205080756887
 20
-0.5344858920593529
 30
0.0
  0
SPLINE
  5
B3
330
1F
100
AcDbEntity
  8
0
  6
Continuous
 62
     1
370
    15
100
AcDbSpline
210
0.0
220
0.0
230
1.0
 70
     8
 71
     3
 72
    12
 73
     8
 74
     0
 42
0.000000001
 43
0.00000001
 40
0.0
 40
0.0
 40
0.0
 40
0.0
 40
0.0033421112954385
 40
0.2596581643923576
 40
0.5152759310153253
 40
0.7705223530930355
 40
1.0
 40
1.0
 40
1.0
 40
1.0
 10
9.882555145357463
 20
-1.663663170479277
 30
0.0
 10
9.87904573551729
 20
-1.664204100169031
 30
0.0
 10
9.606389669741569
 20
-1.70623047149265
 30
0.0
 10
9.064822142555775
 20
-1.708161111719957
 30
0.0
 10
8.25931280507726
 20
-1.6575655053357
 30
0.0
 10
7.482131419892468
 20
-1.516592833458906
 30
0.0
 10
6.973056576774631
 20
-1.366906893724617
 30
0.0
 10
6.732050807568839
 20
-1.296042706399997
 30
0.0
  0
SPLINE
  5
B4
330
1F
100
AcDbEntity
  8
0
  6
Continuous
 62
     1
370
    15
100
AcDbSpline
210
0.0
220
0.0
230
1.0
 70
     8
 71
     3
 72
    16
 73
    12
 74
     0
 42
0.000000001
 43
0.00000001
 40
0.0
 40
0.0
 40
0.0
 40
0.0
 40
0.0078822420972307
 40
0.1462152637637066
 40
0.2845469359296102
 40
0.4228772979297024
 40
0.5612063892045924
 40
0.6995342492976517
 40
0.7996930723618524
 40
0.8997059324399439
 40
1.0
 40
1.0
 40
1.0
 40
1.0
 10
14.49635146026721
 20
-1.500268490063079
 30
0.0
 10
14.47594881211666
 20
-1.504713999046455
 30
0.0
 10
14.09748053570351
 20
-1.5871780061843
 30
0.0
 10
13.36095078862335
 20
-1.61580420956602
 30
0.0
 10
12.28676992607947
 20
-1.560725916753877
 30
0.0
 10
11.21258701349178
 20
-1.341423902209125
 30
0.0
 10
10.13846625829157
 20
-0.9983849022839649
 30
0.0
 10
9.162974022897169
 20
-0.5991385111730273
 30
0.0
 10
8.287174433625436
 20
-0.2040853604217436
 30
0.0
 10
7.51003726540276
 20
0.1594533156394735
 30
0.0
 10
6.991622224860256
 20
0.3911842344687707
 30
0.0
 10
6.732050807568861
 20
0.5072123554272454
 30
0.0
  0
SPLINE
  5
B5
330
1F
100
AcDbEntity
  8
0
  6
Continuous
 62
   131
370
    15
100
AcDbSpline
210
0.0
220
0.0
230
1.0
 70
    24
 71
     3
 72
    10
 73
     6
 74
     0
 42
0.000000001
 43
0.00000001
 40
0.0
 40
0.0
 40
0.0
 40
0.0
 40
0.5
 40
0.5
 40
1.0
 40
1.0
 40
1.0
 40
1.0
 10
6.73205080756887
 20
0.5072123554272413
 30
0.0
 10
6.73205080756887
 20
0.2052943700019464
 30
0.0
 10
6.73205080756887
 20
-0.1252782297553606
 30
0.0
 10
6.73205080756887
 20
-0.7556052297295209
 30
0.0
 10
6.73205080756887
 20
-1.052646456126364
 30
0.0
 10
6.73205080756887
 20
-1.296042706400006
 30
0.0
  0
LINE
  5
B6
330
1F
100
AcDbEntity
  8
0
  6
Continuous
 62
     1
370
    15
100
AcDbLine
 10
18.73205080756887
 20
1.400000000000001
 30
0.0
 11
17.98449706409314
 21
1.353538894555752
 31
0.0
  0
SPLINE
  5
B7
330
1F
100
AcDbEntity
  8
0
  6
Continuous
 62
     1
370
    15
100
AcDbSpline
210
0.0
220
0.0
230
1.0
 70
     8
 71
     3
 72
    10
 73
     6
 74
     0
 42
0.000000001
 43
0.00000001
 40
0.0
 40
0.0
 40
0.0
 40
0.0
 40
0.5
 40
0.5
 40
1.0
 40
1.0
 40
1.0
 40
1.0
 10
18.73205080756887
 20
1.400000000000001
 30
0.0
 10
18.48316458524904
 20
1.332396900670976
 30
0.0
 10
18.23611631379676
 20
1.255079522557298
 30
0.0
 10
17.74632827190167
 20
1.077672677756315
 30
0.0
 10
17.50341991750827
 20
0.9782712124145891
 30
0.0
 10
17.26551150639109
 20
0.8616562015394873
 30
0.0
  0
SPLINE
  5
B8
330
1F
100
AcDbEntity
  8
0
  6
Continuous
 62
   131
370
    15
100
AcDbSpline
210
0.0
220
0.0
230
1.0
 70
    24
 71
     3
 72
    13
 73
     9
 74
     0
 42
0.000000001
 43
0.00000001
 40
0.0
 40
0.0
 40
0.0
 40
0.0
 40
0.0607635617532281
 40
0.2515450263966185
 40
0.4369497417349895
 40
0.6277312063783819
 40
0.8112607120549964
 40
1.0
 40
1.0
 40
1.0
 40
1.0
 10
6.73205080756887
 20
1.333907982804279
 30
0.0
 10
6.73205080756887
 20
1.335614700741722
 30
0.0
 10
6.73205080756887
 20
1.342680060247297
 30
0.0
 10
6.73205080756887
 20
1.291288646684458
 30
0.0
 10
6.73205080756887
 20
1.179848764798966
 30
0.0
 10
6.73205080756887
 20
1.007331950910276
 30
0.0
 10
6.73205080756887
 20
0.7851986906518851
 30
0.0
 10
6.73205080756887
 20
0.6007349706848071
 30
0.0
 10
6.73205080756887
 20
0.5072123554272411
 30
0.0
  0
SPLINE
  5
B9
330
1F
100
AcDbEntity
  8
0
  6
Continuous
 62
     1
370
    15
100
AcDbSpline
210
0.0
220
0.0
230
1.0
 70
     8
 71
     3
 72
    13
 73
     9
 74
     0
 42
0.000000001
 43
0.00000001
 40
0.0
 40
0.0
 40
0.0
 40
0.0
 40
0.0268573570717373
 40
0.2217060395395378
 40
0.4162361947431669
 40
0.6106556908391669
 40
0.805174271250064
 40
1.0
 40
1.0
 40
1.0
 40
1.0
 10
11.25309102246338
 20
-1.572189668243918
 30
0.0
 10
11.21260490467545
 20
-1.588375812985352
 30
0.0
 10
10.87839417771838
 20
-1.721991568119112
 30
0.0
 10
10.25093189571562
 20
-1.876885711874077
 30
0.0
 10
9.37129644713407
 20
-2.009330718083076
 30
0.0
 10
8.492215624935307
 20
-2.001450563019154
 30
0.0
 10
7.612641313440115
 20
-1.874889591725771
 30
0.0
 10
7.025735310201437
 20
-1.69167264342565
 30
0.0
 10
6.73205080756895
 20
-1.599991900617707
 30
0.0
  0
SPLINE
  5
BA
330
1F
100
AcDbEntity
  8
0
  6
Continuous
 62
     1
370
    15
100
AcDbSpline
210
0.0
220
0.0
230
1.0
 70
     8
 71
     3
 72
     9
 73
     5
 74
     0
 42
0.000000001
 43
0.00000001
 40
0.0
 40
0.0
 40
0.0
 40
0.0
 40
0.500176071899273
 40
1.0
 40
1.0
 40
1.0
 40
1.0
 10
6.73205080756887
 20
-1.869181258967074
 30
0.0
 10
6.942001700656951
 20
-1.907218112838878
 30
0.0
 10
7.361755673074811
 20
-1.983265041128289
 30
0.0
 10
7.781264462544849
 20
-1.994222860544288
 30
0.0
 10
7.990944993570546
 20
-1.999699840888211
 30
0.0
  0
SPLINE
  5
BB
330
1F
100
AcDbEntity
  8
0
  6
Continuous
 62
     1
370
    15
100
AcDbSpline
210
0.0
220
0.0
230
1.0
 70
     8
 71
     3
 72
    12
 73
     8
 74
     0
 42
0.000000001
 43
0.00000001
 40
0.0
 40
0.0
 40
0.0
 40
0.0
 40
0.081257256945715
 40
0.3072130918870547
 40
0.5331674085931363
 40
0.7665858187617948
 40
1.0
 40
1.0
 40
1.0
 40
1.0
 10
15.98879366789761
 20
1.340359850142586
 30
0.0
 10
16.06309395082175
 20
1.373304819234384
 30
0.0
 10
16.3440044873472
 20
1.497861396668153
 30
0.0
 10
16.83188006034022
 20
1.668911061972149
 30
0.0
 10
17.45819358387281
 20
1.84497696336166
 30
0.0
 10
18.09225638261093
 20
1.96293137712202
 30
0.0
 10
18.51878728719844
 20
1.98651695056565
 30
0.0
 10
18.73205080756887
 20
2.000000000000043
 30
0.0
  0
LINE
  5
BC
330
1F
100
AcDbEntity
  8
0
  6
Continuous
 62
   131
370
    15
100
AcDbLine
 10
6.73205080756887
 20
-1.869181258967073
 30
0.0
 11
6.73205080756887
 21
-1.599991900618133
 31
0.0
  0
LINE
  5
BD
330
1F
100
AcDbEntity
  8
0
  6
Continuous
 62
     1
370
    15
100
AcDbLine
 10
18.73205080756887
 20
0.0000000000000018
 30
0.0
 11
18.73205080756887
 21
1.400000000000002
 31
0.0
  0
SPLINE
  5
BE
330
1F
100
AcDbEntity
  8
0
  6
Continuous
 62
   131
370
    15
100
AcDbSpline
210
0.0
220
0.0
230
1.0
 70
    24
 71
     3
 72
     8
 73
     4
 74
     0
 42
0.000000001
 43
0.00000001
 40
0.0
 40
0.0
 40
0.0
 40
0.0
 40
1.0
 40
1.0
 40
1.0
 40
1.0
 10
6.7320508075698
 20
-1.296042706400304
 30
0.0
 10
6.7320508075698
 20
-1.394153902901867
 30
0.0
 10
6.7320508075698
 20
-1.496107242072255
 30
0.0
 10
6.7320508075698
 20
-1.599991900617265
 30
0.0
  0
SPLINE
  5
BF
330
1F
100
AcDbEntity
  8
0
  6
Continuous
 62
     1
370
    15
100
AcDbSpline
210
0.0
220
0.0
230
1.0
 70
    24
 71
     3
 72
    10
 73
     6
 74
     0
 42
0.000000001
 43
0.00000001
 40
0.0
 40
0.0
 40
0.0
 40
0.0
 40
0.5
 40
0.5
 40
1.0
 40
1.0
 40
1.0
 40
1.0
 10
18.73205080756887
 20
1.400000000000002
 30
0.0
 10
18.73205080756887
 20
1.484864513614629
 30
0.0
 10
18.73205080756887
 20
1.583484937734237
 30
0.0
 10
18.73205080756887
 20
1.790390321921713
 30
0.0
 10
18.73205080756887
 20
1.898146871602947
 30
0.0
 10
18.73205080756887
 20
2.000000000000043
 30
0.0
  0
LINE
  5
C0
330
1F
100
AcDbEntity
  8
0
  6
Continuous
 62
   131
370
    15
100
AcDbLine
 10
5.73205080756887
 20
2.0
 30
0.0
 11
5.73205080756887
 21
-1.999999999999998
 31
0.0
  0
LINE
  5
C1
330
1F
100
AcDbEntity
  8
0
  6
Continuous
 62
   131
370
    15
100
AcDbLine
 10
2.0
 20
3.0
 30
0.0
 11
2.0
 21
-3.0
 31
0.0
  0
LINE
  5
C2
330
1F
100
AcDbEntity
  8
0
  6
Continuous
 62
   131
370
    15
100
AcDbLine
 10
-50.71794919243114
 20
2.999999999999994
 30
0.0
 11
-50.71794919243114
 21
-3.000000000000002
 31
0.0
  0
LINE
  5
C3
330
1F
100
AcDbEntity
  8
0
  6
Continuous
 62
   131
370
    15
100
AcDbLine
 10
-51.26794919243113
 20
2.449999999999993
 30
0.0
 11
-51.26794919243113
 21
-2.450000000000001
 31
0.0
  0
SPLINE
  5
C4
330
1F
100
AcDbEntity
  8
0
  6
Continuous
 62
   131
370
    15
100
AcDbSpline
210
0.0
220
0.0
230
1.0
 70
     8
 71
     3
 72
     8
 73
     4
 74
     0
 42
0.000000001
 43
0.00000001
 40
0.0
 40
0.0
 40
0.0
 40
0.0
 40
1.0
 40
1.0
 40
1.0
 40
1.0
 10
5.841936470115547
 20
1.627355785653379
 30
0.0
 10
6.137359729115847
 20
1.726677940024735
 30
0.0
 10
6.438941414849507
 20
1.808561628656296
 30
0.0
 10
6.732050807568873
 20
1.869181258967041
 30
0.0
  0
SPLINE
  5
C5
330
1F
100
AcDbEntity
  8
0
  6
Continuous
 62
   131
370
    15
100
AcDbSpline
210
0.0
220
0.0
230
1.0
 70
     8
 71
     3
 72
     8
 73
     4
 74
     0
 42
0.000000001
 43
0.00000001
 40
0.0
 40
0.0
 40
0.0
 40
0.0
 40
1.0
 40
1.0
 40
1.0
 40
1.0
 10
6.73205080756887
 20
-1.599991900617678
 30
0.0
 10
6.438901859954546
 20
-1.497730315280009
 30
0.0
 10
6.137278334768876
 20
-1.376786167148883
 30
0.0
 10
5.841816869003104
 20
-1.242910136606079
 30
0.0
  0
SPLINE
  5
C6
330
1F
100
AcDbEntity
  8
0
  6
Continuous
 62
   131
370
    15
100
AcDbSpline
210
0.0
220
0.0
230
1.0
 70
     8
 71
     3
 72
     8
 73
     4
 74
     0
 42
0.000000001
 43
0.00000001
 40
0.0
 40
0.0
 40
0.0
 40
0.0
 40
1.0
 40
1.0
 40
1.0
 40
1.0
 10
5.841936470115547
 20
-1.627355785653379
 30
0.0
 10
6.137359729115847
 20
-1.726677940024736
 30
0.0
 10
6.438941414849507
 20
-1.808561628656295
 30
0.0
 10
6.732050807568873
 20
-1.869181258967041
 30
0.0
  0
LINE
  5
C7
330
1F
100
AcDbEntity
  8
0
  6
Continuous
 62
   131
370
    15
100
AcDbLine
 10
5.841936470115547
 20
-2.0
 30
0.0
 11
5.841936470115547
 21
-1.626958489465662
 31
0.0
  0
LINE
  5
C8
330
1F
100
AcDbEntity
  8
0
  6
Continuous
 62
   131
370
    15
100
AcDbLine
 10
5.841936470115547
 20
-1.242842982555241
 30
0.0
 11
5.841936470115547
 21
2.0
 31
0.0
  0
SPLINE
  5
C9
330
1F
100
AcDbEntity
  8
0
  6
Continuous
 62
   131
370
    15
100
AcDbSpline
210
0.0
220
0.0
230
1.0
 70
     8
 71
     3
 72
     8
 73
     4
 74
     0
 42
0.000000001
 43
0.00000001
 40
0.0
 40
0.0
 40
0.0
 40
0.0
 40
1.0
 40
1.0
 40
1.0
 40
1.0
 10
6.732050807568836
 20
-1.296042706399996
 30
0.0
 10
6.438901859954523
 20
-1.202293177592011
 30
0.0
 10
6.137278334768864
 20
-1.093307076432326
 30
0.0
 10
5.841816869003104
 20
-0.9742788714346139
 30
0.0
  0
SPLINE
  5
CA
330
1F
100
AcDbEntity
  8
0
  6
Continuous
 62
   131
370
    15
100
AcDbSpline
210
0.0
220
0.0
230
1.0
 70
     8
 71
     3
 72
     8
 73
     4
 74
     0
 42
0.000000001
 43
0.00000001
 40
0.0
 40
0.0
 40
0.0
 40
0.0
 40
1.0
 40
1.0
 40
1.0
 40
1.0
 10
6.732050807568857
 20
0.5072123554272471
 30
0.0
 10
6.438926964489179
 20
0.6365164309125928
 30
0.0
 10
6.137329993825828
 20
0.7614268046975634
 30
0.0
 10
5.841892776857037
 20
0.87582189130554
 30
0.0
  0
SPLINE
  5
CB
330
1F
100
AcDbEntity
  8
0
  6
Continuous
 62
   131
370
    15
100
AcDbSpline
210
0.0
220
0.0
230
1.0
 70
    24
 71
     3
 72
    10
 73
     6
 74
     0
 42
0.000000001
 43
0.00000001
 40
0.0
 40
0.0
 40
0.0
 40
0.0
 40
0.5
 40
0.5
 40
1.0
 40
1.0
 40
1.0
 40
1.0
 10
6.732050807568868
 20
0.5072123554272424
 30
0.0
 10
6.732050807568868
 20
0.2052943700019474
 30
0.0
 10
6.732050807568868
 20
-0.1252782297553595
 30
0.0
 10
6.732050807568868
 20
-0.7556052297295202
 30
0.0
 10
6.732050807568868
 20
-1.052646456126363
 30
0.0
 10
6.732050807568868
 20
-1.296042706400006
 30
0.0
  0
SPLINE
  5
CC
330
1F
100
AcDbEntity
  8
0
  6
Continuous
 62
   131
370
    15
100
AcDbSpline
210
0.0
220
0.0
230
1.0
 70
    24
 71
     3
 72
     8
 73
     4
 74
     0
 42
0.000000001
 43
0.00000001
 40
0.0
 40
0.0
 40
0.0
 40
0.0
 40
1.0
 40
1.0
 40
1.0
 40
1.0
 10
6.732050807569797
 20
-1.296042706400304
 30
0.0
 10
6.732050807569797
 20
-1.394153902901867
 30
0.0
 10
6.732050807569797
 20
-1.496107242072255
 30
0.0
 10
6.732050807569797
 20
-1.599991900617266
 30
0.0
  0
SPLINE
  5
CD
330
1F
100
AcDbEntity
  8
0
  6
Continuous
 62
   131
370
    15
100
AcDbSpline
210
0.0
220
0.0
230
1.0
 70
    24
 71
     3
 72
    13
 73
     9
 74
     0
 42
0.000000001
 43
0.00000001
 40
0.0
 40
0.0
 40
0.0
 40
0.0
 40
0.05913404273354
 40
0.2502465018023821
 40
0.4359728832278867
 40
0.6270853422967305
 40
0.8109332606839209
 40
1.0
 40
1.0
 40
1.0
 40
1.0
 10
6.73205080756887
 20
1.333992964738893
 30
0.0
 10
6.73205080756887
 20
1.335636500040816
 30
0.0
 10
6.73205080756887
 20
1.342591697772655
 30
0.0
 10
6.73205080756887
 20
1.291246363928831
 30
0.0
 10
6.73205080756887
 20
1.17986032949111
 30
0.0
 10
6.73205080756887
 20
1.007328964780407
 30
0.0
 10
6.73205080756887
 20
0.785199449498472
 30
0.0
 10
6.73205080756887
 20
0.6007352259826703
 30
0.0
 10
6.73205080756887
 20
0.5072123554272411
 30
0.0
  0
SPLINE
  5
CE
330
1F
100
AcDbEntity
  8
0
  6
Continuous
 62
   131
370
    15
100
AcDbSpline
210
0.0
220
0.0
230
1.0
 70
    24
 71
     3
 72
    10
 73
     6
 74
     0
 42
0.000000001
 43
0.00000001
 40
0.0
 40
0.0
 40
0.0
 40
0.0
 40
0.5
 40
0.5
 40
1.0
 40
1.0
 40
1.0
 40
1.0
 10
6.73205080756887
 20
1.869181258967057
 30
0.0
 10
6.73205080756887
 20
1.766060021997658
 30
0.0
 10
6.73205080756887
 20
1.661934098754739
 30
0.0
 10
6.73205080756887
 20
1.475064054878946
 30
0.0
 10
6.73205080756887
 20
1.39274730712002
 30
0.0
 10
6.73205080756887
 20
1.327792138868338
 30
0.0
  0
LINE
  5
CF
330
1F
100
AcDbEntity
  8
중심선
 62
     1
100
AcDbLine
 10
-54.26794919243115
 20
-0.0000000000000046
 30
0.0
 11
21.73205080756887
 21
0.0000000000000021
 31
0.0
  0
CIRCLE
  5
D0
330
1F
100
AcDbEntity
  8
외형선
100
AcDbCircle
 10
0.0000000000000104
 20
0.0
 30
0.0
 40
3.000000000000005
  0
INSERT
  5
D1
330
1F
100
AcDbEntity
  8
0
  6
Continuous
 62
     7
100
AcDbBlockReference
 66
     1
  2
블럭10
 10
-22.93944368806589
 20
-52.04609937292004
 30
0.0
  0
ATTRIB
  5
D2
330
D1
100
AcDbEntity
  8
FORMAT
 62
     2
100
AcDbText
 10
-39.05870472750145
 20
-49.97073246008785
 30
0.0
 40
4.233333333333333
  1
SEME7004012E [ 2 FLUTE ]
 41
0.75
  7
SLDTEXTSTYLE0
 11
-39.05870472750145
 21
-52.08739912675452
 31
0.0
100
AcDbAttribute
  2
AUTOATTR0
 70
     0
 74
     1
  0
SEQEND
  5
D3
330
D1
100
AcDbEntity
  8
0
  6
Continuous
 62
     7
  0
HATCH
  5
D4
330
1F
100
AcDbEntity
  8
중심선
100
AcDbHatch
 10
0.0
 20
0.0
 30
0.0
210
0.0
220
0.0
230
1.0
  2
SOLID
 70
     1
 71
     0
 91
        1
 92
        0
 93
        4
 72
     1
 10
-17.22453438368504
 20
-35.7989250712761
 11
-20.67080962752232
 21
-35.7989250712761
 72
     1
 10
-20.67080962752232
 20
-35.7989250712761
 11
-22.79903948672635
 21
-38.3352506518487
 72
     1
 10
-22.79903948672635
 20
-38.3352506518487
 11
-19.35273115777591
 21
-38.33521122254621
 72
     1
 10
-19.35273115777591
 20
-38.33521122254621
 11
-17.22453438368504
 21
-35.7989250712761
 97
        0
 75
     0
 76
     1
 98
        1
 10
0.0
 20
0.0
  0
HATCH
  5
D5
330
1F
100
AcDbEntity
  8
중심선
100
AcDbHatch
 10
0.0
 20
0.0
 30
0.0
210
0.0
220
0.0
230
1.0
  2
SOLID
 70
     1
 71
     0
 91
        1
 92
        0
 93
        4
 72
     1
 10
-12.21177039264909
 20
-35.7989250712761
 11
-15.65804563648637
 21
-35.7989250712761
 72
     1
 10
-15.65804563648637
 20
-35.7989250712761
 11
-20.18918364484376
 21
-41.19892507127612
 72
     1
 10
-20.18918364484376
 20
-41.19892507127612
 11
-16.74290840100648
 21
-41.19892507127612
 72
     1
 10
-16.74290840100648
 20
-41.19892507127612
 11
-12.21177039264909
 21
-35.7989250712761
 97
        0
 75
     0
 76
     1
 98
        1
 10
0.0
 20
0.0
  0
HATCH
  5
D6
330
1F
100
AcDbEntity
  8
중심선
100
AcDbHatch
 10
0.0
 20
0.0
 30
0.0
210
0.0
220
0.0
230
1.0
  2
SOLID
 70
     1
 71
     0
 91
        1
 92
        0
 93
        4
 72
     1
 10
-7.199006401613195
 20
-35.79892507127613
 11
-10.64528164545031
 21
-35.7989250712761
 72
     1
 10
-10.64528164545031
 20
-35.7989250712761
 11
-17.69371854733956
 21
-44.19892507127612
 72
     1
 10
-17.69371854733956
 20
-44.19892507127612
 11
-14.24744330350228
 21
-44.19892507127612
 72
     1
 10
-14.24744330350228
 20
-44.19892507127612
 11
-7.199006401613195
 21
-35.79892507127613
 97
        0
 75
     0
 76
     1
 98
        1
 10
0.0
 20
0.0
  0
HATCH
  5
D7
330
1F
100
AcDbEntity
  8
중심선
100
AcDbHatch
 10
0.0
 20
0.0
 30
0.0
210
0.0
220
0.0
230
1.0
  2
SOLID
 70
     1
 71
     0
 91
        1
 92
        0
 93
        6
 72
     3
 10
-2.399115970600996
 20
-39.99892507132738
 11
3.960054785062284
 21
1.540850780301639E-10
 40
0.3939339440162633
 50
17.09539180608433
 51
320.0019657685079
 73
     0
 72
     1
 10
-0.7161163149004002
 20
-38.58681907591441
 11
1.589185558800638
 21
-36.65249236586649
 72
     3
 10
-2.399115970653842
 20
-39.99892507127625
 11
6.600054785286829
 21
-1.249000902703301E-13
 40
0.6363583540795982
 50
39.99873849337408
 51
368.4976242363725
 73
     1
 72
     1
 10
4.026216521246767
 20
-39.03892507120613
 11
-3.71904866381792
 21
-39.0389250712061
 72
     1
 10
-3.71904866381792
 20
-39.0389250712061
 11
-3.719073708263854
 21
-40.95892507120602
 72
     1
 10
-3.719073708263854
 20
-40.95892507120602
 11
0.7223060612081831
 21
-40.95892507120599
 97
        0
 75
     0
 76
     1
 98
        1
 10
0.0
 20
0.0
  0
DIMENSION
  5
D8
330
1F
100
AcDbEntity
  8
치수문자_일반주서
100
AcDbDimension
  2
_D
 10
33.17253974870142
 20
2.000000000000096
 30
0.0
 11
33.17253974870139
 21
11.6665000000001
 31
0.0
 70
   160
  1
%%c<>
 71
     2
 42
3.999999999999998
 52
-270.0
  3
SLDDIMSTYLE0
100
AcDbAlignedDimension
 13
18.73205080756887
 23
-1.999999999999956
 33
0.0
 14
18.73205080756887
 24
2.000000000000043
 34
0.0
 50
90.0000000000002
100
AcDbRotatedDimension
  0
DIMENSION
  5
E6
330
1F
100
AcDbEntity
  8
치수문자_일반주서
100
AcDbDimension
  2
_D_1
 10
18.73205080756887
 20
24.23841044024269
 30
0.0
 11
-16.26794919243113
 21
24.23841044024269
 31
0.0
 70
   160
  1
<>
 71
     2
 42
70.0
  3
SLDDIMSTYLE1
100
AcDbAlignedDimension
 13
-51.26794919243113
 23
2.449999999999993
 33
0.0
 14
18.73205080756887
 24
2.000000000000043
 34
0.0
 50
-0.0000000000000087
100
AcDbRotatedDimension
  0
DIMENSION
  5
F1
330
1F
100
AcDbEntity
  8
치수문자_일반주서
100
AcDbDimension
  2
_D_2
 10
18.73205080756887
 20
14.68761633900377
 30
0.0
 11
12.73205080756887
 21
14.68761633900377
 31
0.0
 70
   160
  1
<>
 71
     2
 42
12.0
  3
SLDDIMSTYLE0
100
AcDbAlignedDimension
 13
6.73205080756887
 23
1.869181258967058
 33
0.0
 14
18.73205080756887
 24
2.000000000000043
 34
0.0
100
AcDbRotatedDimension
  0
DIMENSION
  5
FD
330
1F
100
AcDbEntity
  8
치수문자_일반주서
100
AcDbDimension
  2
_D_3
 10
-62.97435444210664
 20
-3.000000000000046
 30
0.0
 11
-62.9743544421067
 21
12.66649999999995
 31
0.0
 70
   160
  1
%%c<>
 71
     2
 42
5.999999999999995
 52
-270.0
  3
SLDDIMSTYLE0
100
AcDbAlignedDimension
 13
-50.71794919243114
 23
2.999999999999994
 33
0.0
 14
-50.71794919243114
 24
-3.0
 34
0.0
 50
90.0000000000002
100
AcDbRotatedDimension
  0
INSERT
  5
110
330
1F
100
AcDbEntity
  8
외형선
100
AcDbBlockReference
  2
SW_DOWELSYMBOL_0
 10
0.0000000000000104
 20
0.0
 30
0.0
  0
ENDSEC
  0
SECTION
  2
OBJECTS
  0
DICTIONARY
  5
C
330
0
100
AcDbDictionary
281
     1
  3
ACAD_GROUP
350
D
  3
ACAD_IMAGE_VARS
350
134
  3
ACAD_LAYOUT
350
1A
  3
ACAD_MLINESTYLE
350
17
  3
ACAD_PLOTSETTINGS
350
19
  3
ACAD_PLOTSTYLENAME
350
E
  3
ACAD_SCALELIST
350
47
  3
APPDATA
350
132
  3
DWGPROPS
350
141
  0
DICTIONARY
  5
D
102
{ACAD_REACTORS
330
C
102
}
330
C
100
AcDbDictionary
281
     1
  0
RASTERVARIABLES
  5
134
102
{ACAD_REACTORS
330
C
102
}
330
C
100
AcDbRasterVariables
 90
        0
 70
     1
 71
     1
 72
     1
  0
DICTIONARY
  5
1A
102
{ACAD_REACTORS
330
C
102
}
330
C
100
AcDbDictionary
281
     1
  3
Layout1
350
1E
  3
Layout2
350
26
  3
Model
350
22
  0
DICTIONARY
  5
17
102
{ACAD_REACTORS
330
C
102
}
330
C
100
AcDbDictionary
281
     1
  3
Standard
350
18
  0
DICTIONARY
  5
19
102
{ACAD_REACTORS
330
C
102
}
330
C
100
AcDbDictionary
281
     1
  0
ACDBDICTIONARYWDFLT
  5
E
102
{ACAD_REACTORS
330
C
102
}
330
C
100
AcDbDictionary
281
     1
  3
Normal
350
F
100
AcDbDictionaryWithDefault
340
F
  0
DICTIONARY
  5
47
102
{ACAD_REACTORS
330
C
102
}
330
C
100
AcDbDictionary
281
     1
  3
A0
350
48
  3
A1
350
49
  3
A2
350
4A
  3
A3
350
4B
  3
A4
350
4C
  3
A5
350
4D
  3
A6
350
4E
  3
A7
350
4F
  3
A8
350
50
  3
A9
350
51
  3
B0
350
52
  3
B1
350
53
  3
B2
350
54
  3
B3
350
55
  3
B4
350
56
  3
B5
350
57
  3
B6
350
58
  3
B7
350
59
  3
B8
350
5A
  3
B9
350
5B
  3
C0
350
5C
  3
C1
350
5D
  3
C2
350
5E
  3
C3
350
5F
  3
C4
350
60
  3
C5
350
61
  3
C6
350
62
  3
C7
350
63
  3
C8
350
64
  3
C9
350
65
  3
D0
350
66
  3
D1
350
67
  3
D2
350
68
  0
DICTIONARY
  5
132
102
{ACAD_REACTORS
330
C
102
}
330
C
100
AcDbDictionary
281
     1
  0
XRECORD
  5
141
102
{ACAD_REACTORS
330
C
102
}
330
C
100
AcDbXrecord
280
     1
  1
DWGPROPS COOKIE
  2

  3

  4

  6

  7

  8
12014102
  9

300
=
301
=
302
=
303
=
304
=
305
=
306
=
307
=
308
=
309
=
 40
0.0
 41
2458262.16353919
 42
2458266.003442813
  1

 90
        0
  0
LAYOUT
  5
1E
102
{ACAD_REACTORS
330
1A
102
}
330
1A
100
AcDbPlotSettings
  1

  2
none_device
  4

  6

 40
0.0
 41
0.0
 42
0.0
 43
0.0
 44
0.0
 45
0.0
 46
0.0
 47
0.0
 48
0.0
 49
0.0
140
0.0
141
0.0
142
1.0
143
1.0
 70
   688
 72
     1
 73
     0
 74
     5
  7

 75
    16
147
1.0
148
0.0
149
0.0
100
AcDbLayout
  1
Layout1
 70
     1
 71
     1
 10
0.0
 20
0.0
 11
420.0
 21
297.0
 12
0.0
 22
0.0
 32
0.0
 14
1.000000000000000E+20
 24
1.000000000000000E+20
 34
1.000000000000000E+20
 15
-1.000000000000000E+20
 25
-1.000000000000000E+20
 35
-1.000000000000000E+20
146
0.0
 13
0.0
 23
0.0
 33
0.0
 16
1.0
 26
0.0
 36
0.0
 17
0.0
 27
1.0
 37
0.0
 76
     0
330
1B
  0
LAYOUT
  5
26
102
{ACAD_REACTORS
330
1A
102
}
330
1A
100
AcDbPlotSettings
  1

  2
none_device
  4

  6

 40
0.0
 41
0.0
 42
0.0
 43
0.0
 44
0.0
 45
0.0
 46
0.0
 47
0.0
 48
0.0
 49
0.0
140
0.0
141
0.0
142
1.0
143
1.0
 70
   688
 72
     1
 73
     0
 74
     5
  7

 75
    16
147
1.0
148
0.0
149
0.0
100
AcDbLayout
  1
Layout2
 70
     1
 71
     2
 10
0.0
 20
0.0
 11
0.0
 21
0.0
 12
0.0
 22
0.0
 32
0.0
 14
0.0
 24
0.0
 34
0.0
 15
0.0
 25
0.0
 35
0.0
146
0.0
 13
0.0
 23
0.0
 33
0.0
 16
1.0
 26
0.0
 36
0.0
 17
0.0
 27
1.0
 37
0.0
 76
     0
330
23
  0
LAYOUT
  5
22
102
{ACAD_REACTORS
330
1A
102
}
330
1A
100
AcDbPlotSettings
  1

  2
none_device
  4
ANSI_A_(11.00_x_8.50_Inches)
  6

 40
6.35
 41
19.05
 42
6.35000508
 43
19.05000254
 44
279.4
 45
215.9
 46
156.5238909508415
 47
118.4377884955873
 48
0.0
 49
0.0
140
0.0
141
0.0
142
0.1058944507156154
143
1.0
 70
  1696
 72
     0
 73
     0
 74
     0
  7

 75
     0
147
0.0235690232323232
148
0.0
149
0.0
100
AcDbLayout
  1
Model
 70
     1
 71
     0
 10
0.0
 20
0.0
 11
420.0
 21
297.0
 12
0.0
 22
0.0
 32
0.0
 14
-67.34935444210672
 24
-49.97073246008785
 34
0.0
 15
33.72287308203478
 25
28.61341044024269
 35
0.0
146
0.0
 13
0.0
 23
0.0
 33
0.0
 16
1.0
 26
0.0
 36
0.0
 17
0.0
 27
1.0
 37
0.0
 76
     0
330
1F
331
29
  0
MLINESTYLE
  5
18
102
{ACAD_REACTORS
330
17
102
}
330
17
100
AcDbMlineStyle
  2
Standard
 70
     0
  3

 62
   256
 51
90.0
 52
90.0
 71
     2
 49
0.5
 62
   256
  6
BYLAYER
 49
-0.5
 62
   256
  6
BYLAYER
  0
ACDBPLACEHOLDER
  5
F
102
{ACAD_REACTORS
330
E
102
}
330
E
  0
SCALE
  5
48
102
{ACAD_REACTORS
330
47
102
}
330
47
100
AcDbScale
 70
     0
300
1:1
140
1.0
141
1.0
290
     1
  0
SCALE
  5
49
102
{ACAD_REACTORS
330
47
102
}
330
47
100
AcDbScale
 70
     0
300
1:2
140
1.0
141
2.0
290
     0
  0
SCALE
  5
4A
102
{ACAD_REACTORS
330
47
102
}
330
47
100
AcDbScale
 70
     0
300
1:4
140
1.0
141
4.0
290
     0
  0
SCALE
  5
4B
102
{ACAD_REACTORS
330
47
102
}
330
47
100
AcDbScale
 70
     0
300
1:5
140
1.0
141
5.0
290
     0
  0
SCALE
  5
4C
102
{ACAD_REACTORS
330
47
102
}
330
47
100
AcDbScale
 70
     0
300
1:8
140
1.0
141
8.0
290
     0
  0
SCALE
  5
4D
102
{ACAD_REACTORS
330
47
102
}
330
47
100
AcDbScale
 70
     0
300
1:10
140
1.0
141
10.0
290
     0
  0
SCALE
  5
4E
102
{ACAD_REACTORS
330
47
102
}
330
47
100
AcDbScale
 70
     0
300
1:16
140
1.0
141
16.0
290
     0
  0
SCALE
  5
4F
102
{ACAD_REACTORS
330
47
102
}
330
47
100
AcDbScale
 70
     0
300
1:20
140
1.0
141
20.0
290
     0
  0
SCALE
  5
50
102
{ACAD_REACTORS
330
47
102
}
330
47
100
AcDbScale
 70
     0
300
1:30
140
1.0
141
30.0
290
     0
  0
SCALE
  5
51
102
{ACAD_REACTORS
330
47
102
}
330
47
100
AcDbScale
 70
     0
300
1:40
140
1.0
141
40.0
290
     0
  0
SCALE
  5
52
102
{ACAD_REACTORS
330
47
102
}
330
47
100
AcDbScale
 70
     0
300
1:50
140
1.0
141
50.0
290
     0
  0
SCALE
  5
53
102
{ACAD_REACTORS
330
47
102
}
330
47
100
AcDbScale
 70
     0
300
1:100
140
1.0
141
100.0
290
     0
  0
SCALE
  5
54
102
{ACAD_REACTORS
330
47
102
}
330
47
100
AcDbScale
 70
     0
300
2:1
140
2.0
141
1.0
290
     0
  0
SCALE
  5
55
102
{ACAD_REACTORS
330
47
102
}
330
47
100
AcDbScale
 70
     0
300
4:1
140
4.0
141
1.0
290
     0
  0
SCALE
  5
56
102
{ACAD_REACTORS
330
47
102
}
330
47
100
AcDbScale
 70
     0
300
8:1
140
8.0
141
1.0
290
     0
  0
SCALE
  5
57
102
{ACAD_REACTORS
330
47
102
}
330
47
100
AcDbScale
 70
     0
300
10:1
140
10.0
141
1.0
290
     0
  0
SCALE
  5
58
102
{ACAD_REACTORS
330
47
102
}
330
47
100
AcDbScale
 70
     0
300
100:1
140
100.0
141
1.0
290
     0
  0
SCALE
  5
59
102
{ACAD_REACTORS
330
47
102
}
330
47
100
AcDbScale
 70
     0
300
1/128" = 1'-0"
140
0.0078125
141
12.0
290
     0
  0
SCALE
  5
5A
102
{ACAD_REACTORS
330
47
102
}
330
47
100
AcDbScale
 70
     0
300
1/64" = 1'-0"
140
0.015625
141
12.0
290
     0
  0
SCALE
  5
5B
102
{ACAD_REACTORS
330
47
102
}
330
47
100
AcDbScale
 70
     0
300
1/32" = 1'-0"
140
0.03125
141
12.0
290
     0
  0
SCALE
  5
5C
102
{ACAD_REACTORS
330
47
102
}
330
47
100
AcDbScale
 70
     0
300
1/16" = 1'-0"
140
0.0625
141
12.0
290
     0
  0
SCALE
  5
5D
102
{ACAD_REACTORS
330
47
102
}
330
47
100
AcDbScale
 70
     0
300
3/32" = 1'-0"
140
0.09375
141
12.0
290
     0
  0
SCALE
  5
5E
102
{ACAD_REACTORS
330
47
102
}
330
47
100
AcDbScale
 70
     0
300
1/8" = 1'-0"
140
0.125
141
12.0
290
     0
  0
SCALE
  5
5F
102
{ACAD_REACTORS
330
47
102
}
330
47
100
AcDbScale
 70
     0
300
3/16" = 1'-0"
140
0.1875
141
12.0
290
     0
  0
SCALE
  5
60
102
{ACAD_REACTORS
330
47
102
}
330
47
100
AcDbScale
 70
     0
300
1/4" = 1'-0"
140
0.25
141
12.0
290
     0
  0
SCALE
  5
61
102
{ACAD_REACTORS
330
47
102
}
330
47
100
AcDbScale
 70
     0
300
3/8" = 1'-0"
140
0.375
141
12.0
290
     0
  0
SCALE
  5
62
102
{ACAD_REACTORS
330
47
102
}
330
47
100
AcDbScale
 70
     0
300
1/2" = 1'-0"
140
0.5
141
12.0
290
     0
  0
SCALE
  5
63
102
{ACAD_REACTORS
330
47
102
}
330
47
100
AcDbScale
 70
     0
300
3/4" = 1'-0"
140
0.75
141
12.0
290
     0
  0
SCALE
  5
64
102
{ACAD_REACTORS
330
47
102
}
330
47
100
AcDbScale
 70
     0
300
1" = 1'-0"
140
1.0
141
12.0
290
     0
  0
SCALE
  5
65
102
{ACAD_REACTORS
330
47
102
}
330
47
100
AcDbScale
 70
     0
300
1-1/2" = 1'-0"
140
1.5
141
12.0
290
     0
  0
SCALE
  5
66
102
{ACAD_REACTORS
330
47
102
}
330
47
100
AcDbScale
 70
     0
300
3" = 1'-0"
140
3.0
141
12.0
290
     0
  0
SCALE
  5
67
102
{ACAD_REACTORS
330
47
102
}
330
47
100
AcDbScale
 70
     0
300
6" = 1'-0"
140
6.0
141
12.0
290
     0
  0
SCALE
  5
68
102
{ACAD_REACTORS
330
47
102
}
330
47
100
AcDbScale
 70
     0
300
1'-0" = 1'-0"
140
12.0
141
12.0
290
     0
  0
ENDSEC
  0
EOF
