  0
SECTION
  2
HEADER
  9
$ACADVER
  1
AC1015
  9
$ACADMAINTVER
 70
     6
  9
$DWGCODEPAGE
  3
ANSI_949
  9
$INSBASE
 10
0.0
 20
0.0
 30
0.0
  9
$EXTMIN
 10
-63.15447719687059
 20
-49.97073246008785
 30
0.0
  9
$EXTMAX
 10
33.85715708724063
 20
28.61341044024269
 30
0.0
  9
$LIMMIN
 10
0.0
 20
0.0
  9
$LIMMAX
 10
420.0
 20
297.0
  9
$ORTHOMODE
 70
     0
  9
$REGENMODE
 70
     1
  9
$FILLMODE
 70
     1
  9
$QTEXTMODE
 70
     0
  9
$MIRRTEXT
 70
     1
  9
$LTSCALE
 40
1.0
  9
$ATTMODE
 70
     1
  9
$TEXTSIZE
 40
3.5
  9
$TRACEWID
 40
1.0
  9
$TEXTSTYLE
  7
Standard
  9
$CLAYER
  8
0
  9
$CELTYPE
  6
ByLayer
  9
$CECOLOR
 62
   256
  9
$CELTSCALE
 40
1.0
  9
$DISPSILH
 70
     0
  9
$DIMSCALE
 40
1.0
  9
$DIMASZ
 40
3.302
  9
$DIMEXO
 40
1.0
  9
$DIMDLI
 40
3.75
  9
$DIMRND
 40
0.0
  9
$DIMDLE
 40
0.0
  9
$DIMEXE
 40
1.0
  9
$DIMTP
 40
0.0
  9
$DIMTM
 40
0.0
  9
$DIMTXT
 40
3.5
  9
$DIMCEN
 40
2.5
  9
$DIMTSZ
 40
0.0
  9
$DIMTOL
 70
     0
  9
$DIMLIM
 70
     0
  9
$DIMTIH
 70
     1
  9
$DIMTOH
 70
     1
  9
$DIMSE1
 70
     0
  9
$DIMSE2
 70
     0
  9
$DIMTAD
 70
     1
  9
$DIMZIN
 70
     0
  9
$DIMBLK
  1

  9
$DIMASO
 70
     1
  9
$DIMSHO
 70
     1
  9
$DIMPOST
  1

  9
$DIMAPOST
  1

  9
$DIMALT
 70
     0
  9
$DIMALTD
 70
     3
  9
$DIMALTF
 40
0.0393700787401575
  9
$DIMLFAC
 40
1.0
  9
$DIMTOFL
 70
     1
  9
$DIMTVP
 40
0.0
  9
$DIMTIX
 70
     0
  9
$DIMSOXD
 70
     0
  9
$DIMSAH
 70
     0
  9
$DIMBLK1
  1

  9
$DIMBLK2
  1

  9
$DIMSTYLE
  2
ISO-25
  9
$DIMCLRD
 70
     0
  9
$DIMCLRE
 70
     0
  9
$DIMCLRT
 70
     0
  9
$DIMTFAC
 40
1.0
  9
$DIMGAP
 40
1.524
  9
$DIMJUST
 70
     0
  9
$DIMSD1
 70
     0
  9
$DIMSD2
 70
     0
  9
$DIMTOLJ
 70
     0
  9
$DIMTZIN
 70
     0
  9
$DIMALTZ
 70
     0
  9
$DIMALTTZ
 70
     0
  9
$DIMUPT
 70
     0
  9
$DIMDEC
 70
     2
  9
$DIMTDEC
 70
     2
  9
$DIMALTU
 70
     2
  9
$DIMALTTD
 70
     3
  9
$DIMTXSTY
  7
Standard
  9
$DIMAUNIT
 70
     0
  9
$DIMADEC
 70
     2
  9
$DIMALTRND
 40
0.0
  9
$DIMAZIN
 70
     0
  9
$DIMDSEP
 70
    44
  9
$DIMATFIT
 70
     3
  9
$DIMFRAC
 70
     0
  9
$DIMLDRBLK
  1

  9
$DIMLUNIT
 70
     2
  9
$DIMLWD
 70
    -2
  9
$DIMLWE
 70
    -2
  9
$DIMTMOVE
 70
     0
  9
$LUNITS
 70
     2
  9
$LUPREC
 70
     2
  9
$SKETCHINC
 40
1.0
  9
$FILLETRAD
 40
10.0
  9
$AUNITS
 70
     0
  9
$AUPREC
 70
     2
  9
$MENU
  1
.
  9
$ELEVATION
 40
0.0
  9
$PELEVATION
 40
0.0
  9
$THICKNESS
 40
0.0
  9
$LIMCHECK
 70
     0
  9
$CHAMFERA
 40
0.0
  9
$CHAMFERB
 40
0.0
  9
$CHAMFERC
 40
0.0
  9
$CHAMFERD
 40
0.0
  9
$SKPOLY
 70
     0
  9
$TDCREATE
 40
2458262.538725845
  9
$TDUCREATE
 40
2458262.163725845
  9
$TDUPDATE
 40
2458266.380488854
  9
$TDUUPDATE
 40
2458266.005488854
  9
$TDINDWG
 40
0.0019355208
  9
$TDUSRTIMER
 40
2458266.003553368
  9
$USRTIMER
 70
     1
  9
$ANGBASE
 50
0.0
  9
$ANGDIR
 70
     0
  9
$PDMODE
 70
     0
  9
$PDSIZE
 40
-1.0
  9
$PLINEWID
 40
0.0
  9
$SPLFRAME
 70
     0
  9
$SPLINETYPE
 70
     6
  9
$SPLINESEGS
 70
     8
  9
$HANDSEED
  5
146
  9
$SURFTAB1
 70
     6
  9
$SURFTAB2
 70
     6
  9
$SURFTYPE
 70
     6
  9
$SURFU
 70
     6
  9
$SURFV
 70
     6
  9
$UCSBASE
  2

  9
$UCSNAME
  2

  9
$UCSORG
 10
0.0
 20
0.0
 30
0.0
  9
$UCSXDIR
 10
1.0
 20
0.0
 30
0.0
  9
$UCSYDIR
 10
0.0
 20
1.0
 30
0.0
  9
$UCSORTHOREF
  2

  9
$UCSORTHOVIEW
 70
     0
  9
$UCSORGTOP
 10
0.0
 20
0.0
 30
0.0
  9
$UCSORGBOTTOM
 10
0.0
 20
0.0
 30
0.0
  9
$UCSORGLEFT
 10
0.0
 20
0.0
 30
0.0
  9
$UCSORGRIGHT
 10
0.0
 20
0.0
 30
0.0
  9
$UCSORGFRONT
 10
0.0
 20
0.0
 30
0.0
  9
$UCSORGBACK
 10
0.0
 20
0.0
 30
0.0
  9
$PUCSBASE
  2

  9
$PUCSNAME
  2

  9
$PUCSORG
 10
0.0
 20
0.0
 30
0.0
  9
$PUCSXDIR
 10
1.0
 20
0.0
 30
0.0
  9
$PUCSYDIR
 10
0.0
 20
1.0
 30
0.0
  9
$PUCSORTHOREF
  2

  9
$PUCSORTHOVIEW
 70
     0
  9
$PUCSORGTOP
 10
0.0
 20
0.0
 30
0.0
  9
$PUCSORGBOTTOM
 10
0.0
 20
0.0
 30
0.0
  9
$PUCSORGLEFT
 10
0.0
 20
0.0
 30
0.0
  9
$PUCSORGRIGHT
 10
0.0
 20
0.0
 30
0.0
  9
$PUCSORGFRONT
 10
0.0
 20
0.0
 30
0.0
  9
$PUCSORGBACK
 10
0.0
 20
0.0
 30
0.0
  9
$USERI1
 70
     0
  9
$USERI2
 70
     0
  9
$USERI3
 70
     0
  9
$USERI4
 70
     0
  9
$USERI5
 70
     0
  9
$USERR1
 40
0.0
  9
$USERR2
 40
0.0
  9
$USERR3
 40
0.0
  9
$USERR4
 40
0.0
  9
$USERR5
 40
0.0
  9
$WORLDVIEW
 70
     1
  9
$SHADEDGE
 70
     3
  9
$SHADEDIF
 70
    70
  9
$TILEMODE
 70
     1
  9
$MAXACTVP
 70
    64
  9
$PINSBASE
 10
0.0
 20
0.0
 30
0.0
  9
$PLIMCHECK
 70
     0
  9
$PEXTMIN
 10
1.000000000000000E+20
 20
1.000000000000000E+20
 30
1.000000000000000E+20
  9
$PEXTMAX
 10
-1.000000000000000E+20
 20
-1.000000000000000E+20
 30
-1.000000000000000E+20
  9
$PLIMMIN
 10
0.0
 20
0.0
  9
$PLIMMAX
 10
0.0
 20
0.0
  9
$UNITMODE
 70
     0
  9
$VISRETAIN
 70
     1
  9
$PLINEGEN
 70
     0
  9
$PSLTSCALE
 70
     1
  9
$TREEDEPTH
 70
  3020
  9
$CMLSTYLE
  2
Standard
  9
$CMLJUST
 70
     0
  9
$CMLSCALE
 40
20.0
  9
$PROXYGRAPHICS
 70
     1
  9
$MEASUREMENT
 70
     1
  9
$CELWEIGHT
370
    -1
  9
$ENDCAPS
280
     0
  9
$JOINSTYLE
280
     0
  9
$LWDISPLAY
290
     1
  9
$INSUNITS
 70
     4
  9
$HYPERLINKBASE
  1

  9
$STYLESHEET
  1

  9
$XEDIT
290
     1
  9
$CEPSNTYPE
380
     0
  9
$PSTYLEMODE
290
     1
  9
$FINGERPRINTGUID
  2
{0A309DE8-EE35-401C-BFFE-A72619EA1931}
  9
$VERSIONGUID
  2
{FAEB1C32-E019-11D5-929B-00C0DF256EC4}
  9
$EXTNAMES
290
     1
  9
$PSVPSCALE
 40
0.0
  9
$OLESTARTUP
290
     0
  0
ENDSEC
  0
SECTION
  2
CLASSES
  0
CLASS
  1
ACDBDICTIONARYWDFLT
  2
AcDbDictionaryWithDefault
  3
ObjectDBX Classes
 90
        0
280
     0
281
     0
  0
CLASS
  1
VISUALSTYLE
  2
AcDbVisualStyle
  3
ObjectDBX Classes
 90
     4095
280
     0
281
     0
  0
CLASS
  1
MATERIAL
  2
AcDbMaterial
  3
ObjectDBX Classes
 90
     1153
280
     0
281
     0
  0
CLASS
  1
SCALE
  2
AcDbScale
  3
ObjectDBX Classes
 90
     1153
280
     0
281
     0
  0
CLASS
  1
SUN
  2
AcDbSun
  3
SCENEOE
 90
     1153
280
     0
281
     0
  0
CLASS
  1
ACDBPLACEHOLDER
  2
AcDbPlaceHolder
  3
ObjectDBX Classes
 90
        0
280
     0
281
     0
  0
CLASS
  1
LAYOUT
  2
AcDbLayout
  3
ObjectDBX Classes
 90
        0
280
     0
281
     0
  0
CLASS
  1
TABLESTYLE
  2
AcDbTableStyle
  3
ObjectDBX Classes
 90
     4095
280
     0
281
     0
  0
CLASS
  1
MLEADERSTYLE
  2
AcDbMLeaderStyle
  3
ACDB_MLEADERSTYLE_CLASS
 90
     4095
280
     0
281
     0
  0
CLASS
  1
RASTERVARIABLES
  2
AcDbRasterVariables
  3
ISM
 90
        0
280
     0
281
     0
  0
ENDSEC
  0
SECTION
  2
TABLES
  0
TABLE
  2
VPORT
  5
8
330
0
100
AcDbSymbolTable
 70
     1
  0
VPORT
  5
29
330
8
100
AcDbSymbolTableRecord
100
AcDbViewportTableRecord
  2
*Active
 70
     0
 10
0.0
 20
0.0
 11
1.0
 21
1.0
 12
-14.64866005481498
 22
-10.67866100992259
 13
0.0
 23
0.0
 14
10.0
 24
10.0
 15
10.0
 25
10.0
 16
0.0
 26
0.0
 36
1.0
 17
0.0
 27
0.0
 37
0.0
 40
85.86182178769073
 41
1.152454780361757
 42
50.0
 43
0.0
 44
0.0
 50
0.0
 51
0.0
 71
    16
 72
  2000
 73
     1
 74
     3
 75
     0
 76
     0
 77
     0
 78
     0
281
     0
 65
     1
110
0.0
120
0.0
130
0.0
111
1.0
121
0.0
131
0.0
112
0.0
122
1.0
132
0.0
 79
     0
146
0.0
  0
ENDTAB
  0
TABLE
  2
LTYPE
  5
5
330
0
100
AcDbSymbolTable
 70
     6
  0
LTYPE
  5
14
330
5
100
AcDbSymbolTableRecord
100
AcDbLinetypeTableRecord
  2
ByBlock
 70
     0
  3

 72
    65
 73
     0
 40
0.0
  0
LTYPE
  5
15
330
5
100
AcDbSymbolTableRecord
100
AcDbLinetypeTableRecord
  2
ByLayer
 70
     0
  3

 72
    65
 73
     0
 40
0.0
  0
LTYPE
  5
16
330
5
100
AcDbSymbolTableRecord
100
AcDbLinetypeTableRecord
  2
Continuous
 70
     0
  3
Solid line
 72
    65
 73
     0
 40
0.0
  0
LTYPE
  5
6A
330
5
100
AcDbSymbolTableRecord
100
AcDbLinetypeTableRecord
  2
HIDDEN
 70
     0
  3
Hidden __ __ __ __ __ __ __ __ __ __ __ __ __ __
 72
    65
 73
     2
 40
1.905
 49
1.27
 74
     0
 49
-0.635
 74
     0
  0
LTYPE
  5
6B
330
5
100
AcDbSymbolTableRecord
100
AcDbLinetypeTableRecord
  2
PHANTOM
 70
     0
  3
Phantom ______  __  __  ______  __  __  ______
 72
    65
 73
     6
 40
12.7
 49
6.35
 74
     0
 49
-1.27
 74
     0
 49
1.27
 74
     0
 49
-1.27
 74
     0
 49
1.27
 74
     0
 49
-1.27
 74
     0
  0
LTYPE
  5
6C
330
5
100
AcDbSymbolTableRecord
100
AcDbLinetypeTableRecord
  2
CENTER
 70
     0
  3
Center ____ _ ____ _ ____ _ ____ _ ____ _ ____
 72
    65
 73
     4
 40
10.16
 49
6.35
 74
     0
 49
-1.27
 74
     0
 49
1.27
 74
     0
 49
-1.27
 74
     0
  0
LTYPE
  5
6D
330
5
100
AcDbSymbolTableRecord
100
AcDbLinetypeTableRecord
  2
CENTERX2
 70
     0
  3
Center (2x) ________  __  ________  __  _____
 72
    65
 73
     4
 40
20.32
 49
12.7
 74
     0
 49
-2.54
 74
     0
 49
2.54
 74
     0
 49
-2.54
 74
     0
  0
LTYPE
  5
6E
330
5
100
AcDbSymbolTableRecord
100
AcDbLinetypeTableRecord
  2
DOT2
 70
     0
  3
Dot (.5x) ........................................
 72
    65
 73
     2
 40
0.635
 49
0.0
 74
     0
 49
-0.635
 74
     0
  0
ENDTAB
  0
TABLE
  2
LAYER
  5
2
330
0
100
AcDbSymbolTable
 70
    17
  0
LAYER
  5
10
330
2
100
AcDbSymbolTableRecord
100
AcDbLayerTableRecord
  2
0
 70
     0
 62
     7
  6
Continuous
370
    -3
390
F
  0
LAYER
  5
6F
330
2
100
AcDbSymbolTableRecord
100
AcDbLayerTableRecord
  2
FORMAT
 70
     0
 62
     2
  6
Continuous
370
    -3
390
F
  0
LAYER
  5
70
330
2
100
AcDbSymbolTableRecord
100
AcDbLayerTableRecord
  2
외형선
 70
     0
 62
   100
  6
Continuous
370
    30
390
F
  0
LAYER
  5
71
330
2
100
AcDbSymbolTableRecord
100
AcDbLayerTableRecord
  2
숨은선
 70
     0
 62
     2
  6
HIDDEN
370
    15
390
F
  0
LAYER
  5
72
330
2
100
AcDbSymbolTableRecord
100
AcDbLayerTableRecord
  2
중심선
 70
     0
 62
     1
  6
CENTERX2
370
    -3
390
F
  0
LAYER
  5
73
330
2
100
AcDbSymbolTableRecord
100
AcDbLayerTableRecord
  2
파단선
 70
     0
 62
     4
  6
Continuous
370
    -3
390
F
  0
LAYER
  5
74
330
2
100
AcDbSymbolTableRecord
100
AcDbLayerTableRecord
  2
해칭선
 70
     0
 62
     4
  6
Continuous
370
    -3
390
F
  0
LAYER
  5
75
330
2
100
AcDbSymbolTableRecord
100
AcDbLayerTableRecord
  2
가는실선
 70
     0
 62
     4
  6
Continuous
370
    -3
390
F
  0
LAYER
  5
76
330
2
100
AcDbSymbolTableRecord
100
AcDbLayerTableRecord
  2
치수_보조선
 70
     0
 62
     4
  6
Continuous
370
    -3
390
F
  0
LAYER
  5
77
330
2
100
AcDbSymbolTableRecord
100
AcDbLayerTableRecord
  2
치수문자_일반주서
 70
     0
 62
     7
  6
Continuous
370
    15
390
F
  0
LAYER
  5
78
330
2
100
AcDbSymbolTableRecord
100
AcDbLayerTableRecord
  2
개별주서
 70
     0
 62
   100
  6
Continuous
370
    30
390
F
  0
LAYER
  5
79
330
2
100
AcDbSymbolTableRecord
100
AcDbLayerTableRecord
  2
중간선
 70
     0
 62
     2
  6
Continuous
370
    15
390
F
  0
LAYER
  5
7A
330
2
100
AcDbSymbolTableRecord
100
AcDbLayerTableRecord
  2
윤곽선
 70
     0
 62
     3
  6
Continuous
370
    40
390
F
  0
LAYER
  5
7B
330
2
100
AcDbSymbolTableRecord
100
AcDbLayerTableRecord
  2
중심마크
 70
     0
 62
   100
  6
Continuous
370
    30
390
F
  0
LAYER
  5
7C
330
2
100
AcDbSymbolTableRecord
100
AcDbLayerTableRecord
  2
가상선
 70
     0
 62
     4
  6
PHANTOM
370
    -3
390
F
  0
LAYER
  5
7D
330
2
100
AcDbSymbolTableRecord
100
AcDbLayerTableRecord
  2
특수지정선
 70
     0
 62
     5
  6
CENTERX2
370
    60
390
F
  0
LAYER
  5
139
330
2
100
AcDbSymbolTableRecord
100
AcDbLayerTableRecord
  2
Defpoints
 70
     0
 62
     7
  6
Continuous
290
     0
370
    -3
390
F
  0
ENDTAB
  0
TABLE
  2
STYLE
  5
3
330
0
100
AcDbSymbolTable
 70
     2
  0
STYLE
  5
11
330
3
100
AcDbSymbolTableRecord
100
AcDbTextStyleTableRecord
  2
Standard
 70
     0
 40
0.0
 41
1.0
 50
0.0
 71
     0
 42
3.5
  3
txt
  4

  0
STYLE
  5
93
330
3
100
AcDbSymbolTableRecord
100
AcDbTextStyleTableRecord
  2
SLDTEXTSTYLE0
 70
     0
 40
0.0
 41
0.75
 50
0.0
 71
     0
 42
3.5
  3
TXT
  4

  0
ENDTAB
  0
TABLE
  2
VIEW
  5
6
330
0
100
AcDbSymbolTable
 70
     0
  0
ENDTAB
  0
TABLE
  2
UCS
  5
7
330
0
100
AcDbSymbolTable
 70
     0
  0
ENDTAB
  0
TABLE
  2
APPID
  5
9
330
0
100
AcDbSymbolTable
 70
     1
  0
APPID
  5
12
330
9
100
AcDbSymbolTableRecord
100
AcDbRegAppTableRecord
  2
ACAD
 70
     0
  0
ENDTAB
  0
TABLE
  2
DIMSTYLE
  5
A
330
0
100
AcDbSymbolTable
 70
     3
100
AcDbDimStyleTable
  0
DIMSTYLE
105
27
330
A
100
AcDbSymbolTableRecord
100
AcDbDimStyleTableRecord
  2
ISO-25
 70
     0
 41
2.5
 42
0.625
 43
3.75
 44
1.25
 73
     0
 74
     0
 77
     1
 78
     8
140
2.5
141
2.5
143
0.03937007874016
147
0.625
171
     3
172
     1
178
     0
271
     2
272
     2
274
     3
278
    44
283
     0
284
     8
340
11
  0
DIMSTYLE
105
DD
102
{ACAD_REACTORS
330
DC
330
F5
330
101
102
}
330
A
100
AcDbSymbolTableRecord
100
AcDbDimStyleTableRecord
  2
SLDDIMSTYLE0
 70
     0
 41
3.302
 44
0.0
 45
0.000000001
 73
     0
 74
     0
 77
     1
 78
    12
 79
     3
140
3.5
147
0.875
172
     1
173
     1
178
     0
271
     2
272
     2
276
     2
284
    12
289
     0
340
93
  0
DIMSTYLE
105
EB
102
{ACAD_REACTORS
330
EA
102
}
330
A
100
AcDbSymbolTableRecord
100
AcDbDimStyleTableRecord
  2
SLDDIMSTYLE1
 70
     0
 41
3.302
 44
0.0
 45
0.000000001
 73
     0
 74
     0
 77
     1
 78
    12
 79
     3
140
3.5
147
0.875
173
     1
178
     0
271
     2
272
     2
276
     2
284
    12
340
93
  0
ENDTAB
  0
TABLE
  2
BLOCK_RECORD
  5
1
330
0
100
AcDbSymbolTable
 70
     7
  0
BLOCK_RECORD
  5
1F
330
1
100
AcDbSymbolTableRecord
100
AcDbBlockTableRecord
  2
*Model_Space
340
22
  0
BLOCK_RECORD
  5
1B
330
1
100
AcDbSymbolTableRecord
100
AcDbBlockTableRecord
  2
*Paper_Space
340
1E
  0
BLOCK_RECORD
  5
23
330
1
100
AcDbSymbolTableRecord
100
AcDbBlockTableRecord
  2
*Paper_Space0
340
26
  0
BLOCK_RECORD
  5
7E
330
1
100
AcDbSymbolTableRecord
100
AcDbBlockTableRecord
  2
블럭10
340
0
102
{BLKREFS
331
D5
102
}
  0
BLOCK_RECORD
  5
DE
330
1
100
AcDbSymbolTableRecord
100
AcDbBlockTableRecord
  2
_D
340
0
  0
BLOCK_RECORD
  5
EC
330
1
100
AcDbSymbolTableRecord
100
AcDbBlockTableRecord
  2
_D_1
340
0
  0
BLOCK_RECORD
  5
F6
330
1
100
AcDbSymbolTableRecord
100
AcDbBlockTableRecord
  2
_D_2
340
0
  0
BLOCK_RECORD
  5
102
330
1
100
AcDbSymbolTableRecord
100
AcDbBlockTableRecord
  2
_D_3
340
0
  0
BLOCK_RECORD
  5
10E
330
1
100
AcDbSymbolTableRecord
100
AcDbBlockTableRecord
  2
SW_DOWELSYMBOL_0
340
0
102
{BLKREFS
331
114
102
}
  0
ENDTAB
  0
ENDSEC
  0
SECTION
  2
BLOCKS
  0
BLOCK
  5
20
330
1F
100
AcDbEntity
  8
0
100
AcDbBlockBegin
  2
*Model_Space
 70
     0
 10
0.0
 20
0.0
 30
0.0
  3
*Model_Space
  1

  0
ENDBLK
  5
21
330
1F
100
AcDbEntity
  8
0
100
AcDbBlockEnd
  0
BLOCK
  5
1C
330
1B
100
AcDbEntity
 67
     1
  8
0
100
AcDbBlockBegin
  2
*Paper_Space
 70
     0
 10
0.0
 20
0.0
 30
0.0
  3
*Paper_Space
  1

  0
ENDBLK
  5
1D
330
1B
100
AcDbEntity
 67
     1
  8
0
100
AcDbBlockEnd
  0
BLOCK
  5
24
330
23
100
AcDbEntity
  8
0
100
AcDbBlockBegin
  2
*Paper_Space0
 70
     0
 10
0.0
 20
0.0
 30
0.0
  3
*Paper_Space0
  1

  0
ENDBLK
  5
25
330
23
100
AcDbEntity
  8
0
100
AcDbBlockEnd
  0
BLOCK
  5
7F
330
7E
100
AcDbEntity
  8
0
100
AcDbBlockBegin
  2
블럭10
 70
     2
 10
0.0
 20
0.0
 30
0.0
  3
블럭10
  1

  0
ELLIPSE
  5
81
330
7E
100
AcDbEntity
  8
중심선
100
AcDbEllipse
 10
20.54032771741204
 20
12.0471743016438
 30
0.0
 11
6.600054785286829
 21
-1.261213355974178E-13
 31
0.0
210
0.0
220
0.0
230
1.0
 40
0.636358354079598
 41
0.9219305317359503
 42
6.513795318482858
  0
ELLIPSE
  5
82
330
7E
100
AcDbEntity
  8
중심선
100
AcDbEllipse
 10
20.54032771746488
 20
12.04717430159265
 30
0.0
 11
3.960054785062283
 21
1.540847449632565E-10
 31
0.0
210
0.0
220
0.0
230
1.0
 40
0.3939339440162632
 41
1.131841032648279
 42
5.62031148352944
  0
LINE
  5
83
330
7E
100
AcDbEntity
  8
중심선
100
AcDbLine
 10
2.268634060543552
 20
16.24717430164393
 30
0.0
 11
5.714909304380834
 21
16.24717430164393
 31
0.0
  0
LINE
  5
84
330
7E
100
AcDbEntity
  8
중심선
100
AcDbLine
 10
5.245725140726316
 20
7.84717430164391
 30
0.0
 11
8.692000384563599
 21
7.84717430164391
 31
0.0
  0
LINE
  5
85
330
7E
100
AcDbEntity
  8
중심선
100
AcDbLine
 10
15.74043728645272
 20
16.24717430164393
 30
0.0
 11
8.692000384563599
 21
7.84717430164391
 31
0.0
  0
LINE
  5
86
330
7E
100
AcDbEntity
  8
중심선
100
AcDbLine
 10
0.1404042013395286
 20
13.71084872107135
 30
0.0
 11
3.58671253028996
 21
13.71088815037384
 31
0.0
  0
LINE
  5
87
330
7E
100
AcDbEntity
  8
중심선
100
AcDbLine
 10
2.750260043222114
 20
10.84717430164391
 30
0.0
 11
6.196535287059397
 21
10.84717430164391
 31
0.0
  0
LINE
  5
88
330
7E
100
AcDbEntity
  8
중심선
100
AcDbLine
 10
12.29416204261559
 20
16.24717430164393
 30
0.0
 11
5.245725140726316
 21
7.84717430164391
 31
0.0
  0
LINE
  5
89
330
7E
100
AcDbEntity
  8
중심선
100
AcDbLine
 10
10.72767329541681
 20
16.24717430164393
 30
0.0
 11
6.196535287059397
 21
10.84717430164391
 31
0.0
  0
LINE
  5
8A
330
7E
100
AcDbEntity
  8
중심선
100
AcDbLine
 10
7.28139805157953
 20
16.24717430164393
 30
0.0
 11
2.750260043222114
 21
10.84717430164391
 31
0.0
  0
LINE
  5
8B
330
7E
100
AcDbEntity
  8
중심선
100
AcDbLine
 10
5.714909304380834
 20
16.24717430164393
 30
0.0
 11
3.58671253028996
 21
13.71088815037384
 31
0.0
  0
LINE
  5
8C
330
7E
100
AcDbEntity
  8
중심선
100
AcDbLine
 10
2.268634060543552
 20
16.24717430164393
 30
0.0
 11
0.1404042013395286
 21
13.71084872107135
 31
0.0
  0
LINE
  5
8D
330
7E
100
AcDbEntity
  8
중심선
100
AcDbLine
 10
7.28139805157953
 20
16.24717430164393
 30
0.0
 11
10.72767329541681
 21
16.24717430164393
 31
0.0
  0
LINE
  5
8E
330
7E
100
AcDbEntity
  8
중심선
100
AcDbLine
 10
12.29416204261559
 20
16.24717430164393
 30
0.0
 11
15.74043728645272
 21
16.24717430164393
 31
0.0
  0
LINE
  5
8F
330
7E
100
AcDbEntity
  8
중심선
100
AcDbLine
 10
19.22036997980202
 20
11.08717430171403
 30
0.0
 11
23.66174974927406
 21
11.08717430171406
 31
0.0
  0
LINE
  5
90
330
7E
100
AcDbEntity
  8
중심선
100
AcDbLine
 10
19.22039502424796
 20
13.00717430171391
 30
0.0
 11
19.22036997980202
 21
11.08717430171403
 31
0.0
  0
LINE
  5
91
330
7E
100
AcDbEntity
  8
중심선
100
AcDbLine
 10
19.22039502424796
 20
13.00717430171391
 30
0.0
 11
26.96566020931264
 21
13.00717430171391
 31
0.0
  0
LINE
  5
92
330
7E
100
AcDbEntity
  8
중심선
100
AcDbLine
 10
22.22332737316547
 20
13.45928029700563
 30
0.0
 11
24.52862924686651
 21
15.39360700705356
 31
0.0
  0
ATTDEF
  5
94
330
7E
100
AcDbEntity
  8
FORMAT
 62
     2
100
AcDbText
 10
-16.11926103943555
 20
2.075366912832191
 30
0.0
 40
4.233333333333333
  1
SEME7004016E [ 2 FLUTE ]
 41
0.75
  7
SLDTEXTSTYLE0
 11
-16.11926103943555
 21
-0.0412997538344756
 31
0.0
100
AcDbAttributeDefinition
  3

  2
AUTOATTR0
 70
     0
 74
     1
  0
ENDBLK
  5
80
330
7E
100
AcDbEntity
  8
0
100
AcDbBlockEnd
  0
BLOCK
  5
DF
330
DE
100
AcDbEntity
  8
0
100
AcDbBlockBegin
  2
_D
 70
     0
 10
0.0
 20
0.0
 30
0.0
  3
_D
  1

  0
LINE
  5
E1
330
DE
100
AcDbEntity
  8
치수문자_일반주서
 62
     0
370
    -2
100
AcDbLine
 10
22.79455080756887
 20
-1.99999999999994
 30
0.0
 11
33.30682375390728
 21
-1.999999999999902
 31
0.0
  0
LINE
  5
E2
330
DE
100
AcDbEntity
  8
치수문자_일반주서
 62
     0
370
    -2
100
AcDbLine
 10
22.79455080756887
 20
2.000000000000059
 30
0.0
 11
33.30682375390727
 21
2.000000000000098
 31
0.0
  0
LINE
  5
E3
330
DE
100
AcDbEntity
  8
치수문자_일반주서
 62
     0
370
    -2
100
AcDbLine
 10
33.30682375390728
 20
-1.999999999999902
 30
0.0
 11
33.30682375390721
 21
17.5727500000001
 31
0.0
  0
LINE
  5
E4
330
DE
100
AcDbEntity
  8
치수문자_일반주서
 62
     0
370
    -2
100
AcDbLine
 10
33.30682375390728
 20
-1.999999999999902
 30
0.0
 11
33.30682375390727
 21
2.000000000000098
 31
0.0
  0
LINE
  5
E5
330
DE
100
AcDbEntity
  8
치수문자_일반주서
 62
     0
370
    -2
100
AcDbLine
 10
33.3068237539073
 20
-5.301999999999902
 30
0.0
 11
33.30682375390731
 21
-8.603999999999902
 31
0.0
  0
LINE
  5
E6
330
DE
100
AcDbEntity
  8
치수문자_일반주서
 62
     0
370
    -2
100
AcDbLine
 10
33.30682375390725
 20
5.302000000000097
 30
0.0
 11
33.30682375390724
 21
8.604000000000097
 31
0.0
  0
SOLID
  5
E7
330
DE
100
AcDbEntity
  8
치수문자_일반주서
 62
     0
100
AcDbTrace
 10
33.85715708724063
 20
-5.3019999999999
 30
0.0
 11
32.75649042057396
 21
-5.301999999999904
 31
0.0
 12
33.30682375390728
 22
-1.999999999999902
 32
0.0
 13
33.30682375390728
 23
-1.999999999999902
 33
0.0
  0
SOLID
  5
E8
330
DE
100
AcDbEntity
  8
치수문자_일반주서
 62
     0
100
AcDbTrace
 10
32.75649042057392
 20
5.302000000000096
 30
0.0
 11
33.85715708724059
 21
5.302000000000099
 31
0.0
 12
33.30682375390727
 22
2.000000000000098
 32
0.0
 13
33.30682375390727
 23
2.000000000000098
 33
0.0
  0
MTEXT
  5
E9
330
DE
100
AcDbEntity
  8
치수문자_일반주서
 62
     0
100
AcDbMText
 10
28.93182375390722
 20
14.51025000000008
 30
0.0
 40
3.5
 41
0.0
 71
     2
 72
     1
  1
\A1;%%c4
  7
SLDTEXTSTYLE0
 11
-3.552713678800503E-15
 21
1.0
 31
0.0
 73
     1
 44
1.0
  0
POINT
  5
13E
330
DE
100
AcDbEntity
  8
Defpoints
 62
     0
100
AcDbPoint
 10
22.73205080756887
 20
-1.99999999999994
 30
0.0
  0
POINT
  5
13F
330
DE
100
AcDbEntity
  8
Defpoints
 62
     0
100
AcDbPoint
 10
22.73205080756887
 20
2.000000000000058
 30
0.0
  0
POINT
  5
140
330
DE
100
AcDbEntity
  8
Defpoints
 62
     0
100
AcDbPoint
 10
33.30682375390727
 20
2.000000000000098
 30
0.0
  0
ENDBLK
  5
E0
330
DE
100
AcDbEntity
  8
0
100
AcDbBlockEnd
  0
BLOCK
  5
ED
330
EC
100
AcDbEntity
  8
0
100
AcDbBlockBegin
  2
_D_1
 70
     0
 10
0.0
 20
0.0
 30
0.0
  3
_D_1
  1

  0
LINE
  5
EF
330
EC
100
AcDbEntity
  8
치수문자_일반주서
 62
     0
370
    -2
100
AcDbLine
 10
-47.26794919243114
 20
2.512499999999994
 30
0.0
 11
-47.26794919243113
 21
24.23841044024269
 31
0.0
  0
LINE
  5
F0
330
EC
100
AcDbEntity
  8
치수문자_일반주서
 62
     0
370
    -2
100
AcDbLine
 10
22.73205080756887
 20
2.062500000000058
 30
0.0
 11
22.73205080756887
 21
24.23841044024269
 31
0.0
  0
LINE
  5
F1
330
EC
100
AcDbEntity
  8
치수문자_일반주서
 62
     0
370
    -2
100
AcDbLine
 10
-43.96594919243113
 20
24.23841044024269
 30
0.0
 11
19.43005080756887
 21
24.23841044024269
 31
0.0
  0
SOLID
  5
F2
330
EC
100
AcDbEntity
  8
치수문자_일반주서
 62
     0
100
AcDbTrace
 10
-43.96594919243113
 20
24.78874377357602
 30
0.0
 11
-43.96594919243113
 21
23.68807710690935
 31
0.0
 12
-47.26794919243113
 22
24.23841044024269
 32
0.0
 13
-47.26794919243113
 23
24.23841044024269
 33
0.0
  0
SOLID
  5
F3
330
EC
100
AcDbEntity
  8
치수문자_일반주서
 62
     0
100
AcDbTrace
 10
19.43005080756887
 20
23.68807710690935
 30
0.0
 11
19.43005080756887
 21
24.78874377357602
 31
0.0
 12
22.73205080756887
 22
24.23841044024269
 32
0.0
 13
22.73205080756887
 23
24.23841044024269
 33
0.0
  0
MTEXT
  5
F4
330
EC
100
AcDbEntity
  8
치수문자_일반주서
 62
     0
100
AcDbMText
 10
-12.26794919243114
 20
28.61341044024269
 30
0.0
 40
3.5
 41
0.0
 71
     2
 72
     1
  1
\A1;70
  7
SLDTEXTSTYLE0
 73
     1
 44
1.0
  0
POINT
  5
13A
330
EC
100
AcDbEntity
  8
Defpoints
 62
     0
100
AcDbPoint
 10
-47.26794919243114
 20
2.449999999999994
 30
0.0
  0
POINT
  5
13B
330
EC
100
AcDbEntity
  8
Defpoints
 62
     0
100
AcDbPoint
 10
22.73205080756887
 20
2.000000000000058
 30
0.0
  0
POINT
  5
13C
330
EC
100
AcDbEntity
  8
Defpoints
 62
     0
100
AcDbPoint
 10
22.73205080756887
 20
24.23841044024269
 30
0.0
  0
ENDBLK
  5
EE
330
EC
100
AcDbEntity
  8
0
100
AcDbBlockEnd
  0
BLOCK
  5
F7
330
F6
100
AcDbEntity
  8
0
100
AcDbBlockBegin
  2
_D_2
 70
     0
 10
0.0
 20
0.0
 30
0.0
  3
_D_2
  1

  0
LINE
  5
F9
330
F6
100
AcDbEntity
  8
치수문자_일반주서
 62
     0
370
    -2
100
AcDbLine
 10
6.732050807568866
 20
1.655465598657154
 30
0.0
 11
6.732050807568868
 21
14.93996340482467
 31
0.0
  0
LINE
  5
FA
330
F6
100
AcDbEntity
  8
치수문자_일반주서
 62
     0
370
    -2
100
AcDbLine
 10
22.73205080756887
 20
2.062500000000058
 30
0.0
 11
22.73205080756887
 21
14.93996340482467
 31
0.0
  0
LINE
  5
FB
330
F6
100
AcDbEntity
  8
치수문자_일반주서
 62
     0
370
    -2
100
AcDbLine
 10
10.03405080756887
 20
14.93996340482467
 30
0.0
 11
19.43005080756887
 21
14.93996340482467
 31
0.0
  0
SOLID
  5
FC
330
F6
100
AcDbEntity
  8
치수문자_일반주서
 62
     0
100
AcDbTrace
 10
10.03405080756887
 20
15.49029673815801
 30
0.0
 11
10.03405080756887
 21
14.38963007149134
 31
0.0
 12
6.732050807568868
 22
14.93996340482467
 32
0.0
 13
6.732050807568868
 23
14.93996340482467
 33
0.0
  0
SOLID
  5
FD
330
F6
100
AcDbEntity
  8
치수문자_일반주서
 62
     0
100
AcDbTrace
 10
19.43005080756887
 20
14.38963007149134
 30
0.0
 11
19.43005080756887
 21
15.49029673815801
 31
0.0
 12
22.73205080756887
 22
14.93996340482467
 32
0.0
 13
22.73205080756887
 23
14.93996340482467
 33
0.0
  0
MTEXT
  5
FE
330
F6
100
AcDbEntity
  8
치수문자_일반주서
 62
     0
100
AcDbMText
 10
14.73205080756887
 20
19.31496340482467
 30
0.0
 40
3.5
 41
0.0
 71
     2
 72
     1
  1
\A1;16
  7
SLDTEXTSTYLE0
 73
     1
 44
1.0
  0
POINT
  5
FF
330
F6
100
AcDbEntity
  8
Defpoints
 62
     0
100
AcDbPoint
 10
6.732050807568866
 20
1.592965598657154
 30
0.0
  0
POINT
  5
100
330
F6
100
AcDbEntity
  8
Defpoints
 62
     0
100
AcDbPoint
 10
22.73205080756887
 20
2.000000000000058
 30
0.0
  0
POINT
  5
13D
330
F6
100
AcDbEntity
  8
Defpoints
 62
     0
100
AcDbPoint
 10
22.73205080756887
 20
14.93996340482467
 30
0.0
  0
ENDBLK
  5
F8
330
F6
100
AcDbEntity
  8
0
100
AcDbBlockEnd
  0
BLOCK
  5
103
330
102
100
AcDbEntity
  8
0
100
AcDbBlockBegin
  2
_D_3
 70
     0
 10
0.0
 20
0.0
 30
0.0
  3
_D_3
  1

  0
LINE
  5
105
330
102
100
AcDbEntity
  8
치수문자_일반주서
 62
     0
370
    -2
100
AcDbLine
 10
-46.78044919243113
 20
2.999999999999994
 30
0.0
 11
-58.77947719687054
 21
2.999999999999948
 31
0.0
  0
LINE
  5
106
330
102
100
AcDbEntity
  8
치수문자_일반주서
 62
     0
370
    -2
100
AcDbLine
 10
-46.78044919243113
 20
-3.0
 30
0.0
 11
-58.77947719687052
 21
-3.000000000000046
 31
0.0
  0
LINE
  5
107
330
102
100
AcDbEntity
  8
치수문자_일반주서
 62
     0
370
    -2
100
AcDbLine
 10
-58.77947719687054
 20
2.999999999999948
 30
0.0
 11
-58.77947719687059
 21
15.72899999999995
 31
0.0
  0
LINE
  5
108
330
102
100
AcDbEntity
  8
치수문자_일반주서
 62
     0
370
    -2
100
AcDbLine
 10
-58.77947719687054
 20
2.999999999999948
 30
0.0
 11
-58.77947719687052
 21
-3.000000000000046
 31
0.0
  0
LINE
  5
109
330
102
100
AcDbEntity
  8
치수문자_일반주서
 62
     0
370
    -2
100
AcDbLine
 10
-58.77947719687056
 20
6.301999999999948
 30
0.0
 11
-58.77947719687057
 21
9.603999999999948
 31
0.0
  0
LINE
  5
10A
330
102
100
AcDbEntity
  8
치수문자_일반주서
 62
     0
370
    -2
100
AcDbLine
 10
-58.77947719687051
 20
-6.302000000000046
 30
0.0
 11
-58.77947719687049
 21
-9.604000000000045
 31
0.0
  0
SOLID
  5
10B
330
102
100
AcDbEntity
  8
치수문자_일반주서
 62
     0
100
AcDbTrace
 10
-59.32981053020389
 20
6.301999999999946
 30
0.0
 11
-58.22914386353722
 21
6.30199999999995
 31
0.0
 12
-58.77947719687054
 22
2.999999999999948
 32
0.0
 13
-58.77947719687054
 23
2.999999999999948
 33
0.0
  0
SOLID
  5
10C
330
102
100
AcDbEntity
  8
치수문자_일반주서
 62
     0
100
AcDbTrace
 10
-58.22914386353717
 20
-6.302000000000044
 30
0.0
 11
-59.32981053020384
 21
-6.302000000000048
 31
0.0
 12
-58.77947719687052
 22
-3.000000000000046
 32
0.0
 13
-58.77947719687052
 23
-3.000000000000046
 33
0.0
  0
MTEXT
  5
10D
330
102
100
AcDbEntity
  8
치수문자_일반주서
 62
     0
100
AcDbMText
 10
-63.15447719687058
 20
12.66649999999993
 30
0.0
 40
3.5
 41
0.0
 71
     2
 72
     1
  1
\A1;%%c6
  7
SLDTEXTSTYLE0
 11
-3.552713678800505E-15
 21
1.0
 31
0.0
 73
     1
 44
1.0
  0
POINT
  5
141
330
102
100
AcDbEntity
  8
Defpoints
 62
     0
100
AcDbPoint
 10
-46.71794919243113
 20
2.999999999999994
 30
0.0
  0
POINT
  5
142
330
102
100
AcDbEntity
  8
Defpoints
 62
     0
100
AcDbPoint
 10
-46.71794919243113
 20
-3.0
 30
0.0
  0
POINT
  5
143
330
102
100
AcDbEntity
  8
Defpoints
 62
     0
100
AcDbPoint
 10
-58.77947719687052
 20
-3.000000000000045
 30
0.0
  0
ENDBLK
  5
104
330
102
100
AcDbEntity
  8
0
100
AcDbBlockEnd
  0
BLOCK
  5
10F
330
10E
100
AcDbEntity
  8
0
100
AcDbBlockBegin
  2
SW_DOWELSYMBOL_0
 70
     0
 10
0.0
 20
0.0
 30
0.0
  3
SW_DOWELSYMBOL_0
  1

  0
CIRCLE
  5
111
330
10E
100
AcDbEntity
  8
외형선
 62
     0
100
AcDbCircle
 10
0.0
 20
0.0
 30
0.0
 40
3.000000000000004
  0
HATCH
  5
112
330
10E
100
AcDbEntity
  8
0
  6
Continuous
 62
     0
370
    30
100
AcDbHatch
 10
0.0
 20
0.0
 30
0.0
210
0.0
220
0.0
230
1.0
  2
SOLID
 70
     1
 71
     0
 91
        1
 92
        0
 93
        3
 72
     2
 10
0.0000000000000104
 20
0.0
 40
3.000000000000004
 50
0.0
 51
90.0
 73
     1
 72
     1
 10
0.0000000000000104
 20
3.000000000000004
 11
0.0000000000000104
 21
0.0
 72
     1
 10
0.0000000000000104
 20
0.0
 11
3.000000000000015
 21
0.0
 97
        0
 75
     0
 76
     1
 98
        1
 10
0.0
 20
0.0
  0
HATCH
  5
113
330
10E
100
AcDbEntity
  8
0
  6
Continuous
 62
     0
370
    30
100
AcDbHatch
 10
0.0
 20
0.0
 30
0.0
210
0.0
220
0.0
230
1.0
  2
SOLID
 70
     1
 71
     0
 91
        1
 92
        0
 93
        3
 72
     2
 10
0.0000000000000104
 20
0.0
 40
3.000000000000004
 50
180.0
 51
270.0000000000008
 73
     1
 72
     1
 10
0.0000000000000104
 20
-3.000000000000004
 11
0.0000000000000104
 21
0.0
 72
     1
 10
0.0000000000000104
 20
0.0
 11
-2.999999999999994
 21
0.0
 97
        0
 75
     0
 76
     1
 98
        1
 10
0.0
 20
0.0
  0
ENDBLK
  5
110
330
10E
100
AcDbEntity
  8
0
100
AcDbBlockEnd
  0
ENDSEC
  0
SECTION
  2
ENTITIES
  0
LINE
  5
95
330
1F
100
AcDbEntity
  8
0
  6
Continuous
 62
     1
370
    15
100
AcDbLine
 10
16.64895357704599
 20
0.4516118265460413
 30
0.0
 11
16.4214739397075
 21
0.5753119106038376
 31
0.0
  0
LINE
  5
96
330
1F
100
AcDbEntity
  8
0
  6
Continuous
 62
     1
370
    15
100
AcDbLine
 10
12.96120680921882
 20
2.000000000000002
 30
0.0
 11
11.99194676409871
 21
2.000000000000002
 31
0.0
  0
SPLINE
  5
97
330
1F
100
AcDbEntity
  8
0
  6
Continuous
 62
     1
370
    15
100
AcDbSpline
210
0.0
220
0.0
230
1.0
 70
     8
 71
     3
 72
     9
 73
     5
 74
     0
 42
0.000000001
 43
0.00000001
 40
0.0
 40
0.0
 40
0.0
 40
0.0
 40
0.4550382045037227
 40
1.0
 40
1.0
 40
1.0
 40
1.0
 10
17.54891711061858
 20
0.5128375540074354
 30
0.0
 10
17.46430717299803
 20
0.5532649566255068
 30
0.0
 10
17.27836687879173
 20
0.64210893108291
 30
0.0
 10
17.09631862245134
 20
0.7376440280605483
 30
0.0
 10
16.99710927780911
 20
0.7897070060423931
 30
0.0
  0
LINE
  5
98
330
1F
100
AcDbEntity
  8
0
  6
Continuous
 62
     1
370
    15
100
AcDbLine
 10
11.99194676409869
 20
-2.000000000000002
 30
0.0
 11
12.96120680921882
 21
-2.000000000000002
 31
0.0
  0
SPLINE
  5
99
330
1F
100
AcDbEntity
  8
0
  6
Continuous
 62
     1
370
    15
100
AcDbSpline
210
0.0
220
0.0
230
1.0
 70
     8
 71
     3
 72
    15
 73
    11
 74
     0
 42
0.000000001
 43
0.00000001
 40
0.0
 40
0.0
 40
0.0
 40
0.0
 40
0.1696868466842406
 40
0.2887085134332035
 40
0.3879287387555495
 40
0.4758999763706471
 40
0.5943806700686138
 40
0.7048232014087008
 40
0.8392213512957055
 40
1.0
 40
1.0
 40
1.0
 40
1.0
 10
13.88240689592763
 20
-1.664244927350213
 30
0.0
 10
14.05109495761652
 20
-1.648330911559372
 30
0.0
 10
14.33810411876118
 20
-1.621254494432735
 30
0.0
 10
14.72777099042466
 20
-1.595467534486435
 30
0.0
 10
15.03769418118932
 20
-1.579597085509746
 30
0.0
 10
15.34422905359724
 20
-1.56836283051254
 30
0.0
 10
15.66169642327097
 20
-1.562005017821649
 30
0.0
 10
16.02570739932467
 20
-1.56139112319997
 30
0.0
 10
16.4318797453994
 20
-1.568112231873431
 30
0.0
 10
16.72862897988733
 20
-1.581825674057174
 30
0.0
 10
16.89026411229847
 20
-1.589295193050228
 30
0.0
  0
SPLINE
  5
9A
330
1F
100
AcDbEntity
  8
0
  6
Continuous
 62
     1
370
    15
100
AcDbSpline
210
0.0
220
0.0
230
1.0
 70
     8
 71
     3
 72
    10
 73
     6
 74
     0
 42
0.000000001
 43
0.00000001
 40
0.0
 40
0.0
 40
0.0
 40
0.0
 40
0.6367040594598864
 40
0.9083328329651045
 40
1.0
 40
1.0
 40
1.0
 40
1.0
 10
16.89026411229847
 20
1.589295193050231
 30
0.0
 10
16.53929565599181
 20
1.576231533248835
 30
0.0
 10
16.03859809098987
 20
1.55759469413969
 30
0.0
 10
15.49825927261936
 20
1.563416802181621
 30
0.0
 10
15.30045469712577
 20
1.571415011892207
 30
0.0
 10
15.25054446406596
 20
1.573433127548635
 30
0.0
  0
SPLINE
  5
9B
330
1F
100
AcDbEntity
  8
0
  6
Continuous
 62
     1
370
    15
100
AcDbSpline
210
0.0
220
0.0
230
1.0
 70
     8
 71
     3
 72
    14
 73
    10
 74
     0
 42
0.000000001
 43
0.00000001
 40
0.0
 40
0.0
 40
0.0
 40
0.0
 40
0.2774487014110986
 40
0.4799665532837122
 40
0.608685350702832
 40
0.7197074960089601
 40
0.8347129062178191
 40
0.9538889573957523
 40
1.0
 40
1.0
 40
1.0
 40
1.0
 10
18.49400305589474
 20
-1.50432450463895
 30
0.0
 10
18.6329644370345
 20
-1.483417911220779
 30
0.0
 10
18.87335775949725
 20
-1.447250989073409
 30
0.0
 10
19.17746513166635
 20
-1.410506840383204
 30
0.0
 10
19.39836905716695
 20
-1.386934621595885
 30
0.0
 10
19.57547999566158
 20
-1.370117365006508
 30
0.0
 10
19.74796978681776
 20
-1.356043029643921
 30
0.0
 10
19.88808936952893
 20
-1.345918851757272
 30
0.0
 10
19.97072822532287
 20
-1.341364437111278
 30
0.0
 10
19.99378243792401
 20
-1.340093867201836
 30
0.0
  0
SPLINE
  5
9C
330
1F
100
AcDbEntity
  8
0
  6
Continuous
 62
     1
370
    15
100
AcDbSpline
210
0.0
220
0.0
230
1.0
 70
     8
 71
     3
 72
    22
 73
    18
 74
     0
 42
0.000000001
 43
0.00000001
 40
0.0
 40
0.0
 40
0.0
 40
0.0
 40
0.1196965422634082
 40
0.2097427707774538
 40
0.2720277428674084
 40
0.3290724094321626
 40
0.3866679926271717
 40
0.4432837499343577
 40
0.4991674657425096
 40
0.5477431041421091
 40
0.5962722513808612
 40
0.6445674642906334
 40
0.6922210978110888
 40
0.7390829356793192
 40
0.7943130076861955
 40
0.8811558991440701
 40
1.0
 40
1.0
 40
1.0
 40
1.0
 10
11.10504592029312
 20
1.367877642404161
 30
0.0
 10
10.96506714536625
 20
1.356955660737753
 30
0.0
 10
10.71978406911341
 20
1.337817207330706
 30
0.0
 10
10.40299870353108
 20
1.324062390352296
 30
0.0
 10
10.16007780929592
 20
1.317820721629722
 30
0.0
 10
9.954578792026405
 20
1.315710630920261
 30
0.0
 10
9.755216016067761
 20
1.316565511494555
 30
0.0
 10
9.55745085554157
 20
1.320377754358816
 30
0.0
 10
9.369897153065667
 20
1.326671505515658
 30
0.0
 10
9.191689872565751
 20
1.334981788391305
 30
0.0
 10
9.022340862568994
 20
1.344923285733209
 30
0.0
 10
8.85408948228446
 20
1.356829904709437
 30
0.0
 10
8.687858570163835
 20
1.370586197550977
 30
0.0
 10
8.513688592301426
 20
1.387123672130177
 30
0.0
 10
8.293828447156839
 20
1.410607381303019
 30
0.0
 10
7.990137860047126
 20
1.447311866479361
 30
0.0
 10
7.750137958519106
 20
1.48342018406288
 30
0.0
 10
7.611468166220847
 20
1.504283246371102
 30
0.0
  0
SPLINE
  5
9D
330
1F
100
AcDbEntity
  8
0
  6
Continuous
 62
     1
370
    15
100
AcDbSpline
210
0.0
220
0.0
230
1.0
 70
     8
 71
     3
 72
    14
 73
    10
 74
     0
 42
0.000000001
 43
0.00000001
 40
0.0
 40
0.0
 40
0.0
 40
0.0
 40
0.2778509213759977
 40
0.4808847887092857
 40
0.6100096361712263
 40
0.7195700159905423
 40
0.8309815701628758
 40
0.9438931013906428
 40
1.0
 40
1.0
 40
1.0
 40
1.0
 10
7.611468166220851
 20
-1.504283246371101
 30
0.0
 10
7.750137962610586
 20
-1.483420574360306
 30
0.0
 10
7.990137871219849
 20
-1.44731293227606
 30
0.0
 10
8.293828420672527
 20
-1.410604854892784
 30
0.0
 10
8.513688649051547
 20
-1.387129085678686
 30
0.0
 10
8.68785838998681
 20
-1.370569009974683
 30
0.0
 10
8.854090175903119
 20
-1.356896070878585
 30
0.0
 10
8.99377157711893
 20
-1.346747639450542
 30
0.0
 10
9.077973954530767
 20
-1.341950363772823
 30
0.0
 10
9.10592554689064
 20
-1.340357873176915
 30
0.0
  0
SPLINE
  5
9E
330
1F
100
AcDbEntity
  8
0
  6
Continuous
 62
     1
370
    15
100
AcDbSpline
210
0.0
220
0.0
230
1.0
 70
     8
 71
     3
 72
    20
 73
    16
 74
     0
 42
0.000000001
 43
0.00000001
 40
0.0
 40
0.0
 40
0.0
 40
0.0
 40
0.1263178789052461
 40
0.2216114770035709
 40
0.3039871021443099
 40
0.3933294861493076
 40
0.4828027473723661
 40
0.5379648499176407
 40
0.5911952171083691
 40
0.6422700716288453
 40
0.6915575294479948
 40
0.7391378936572062
 40
0.7943024488446965
 40
0.8810948011668075
 40
1.0
 40
1.0
 40
1.0
 40
1.0
 10
21.9938446226201
 20
1.36839098255494
 30
0.0
 10
21.8453682572366
 20
1.356820069190974
 30
0.0
 10
21.58488203851662
 20
1.336520114639077
 30
0.0
 10
21.23091236884328
 20
1.321942908697279
 30
0.0
 10
20.92128457742136
 20
1.315594646569288
 30
0.0
 10
20.61653299589796
 20
1.316117746612245
 30
0.0
 10
20.34404167753033
 20
1.32294066475631
 30
0.0
 10
20.11316235247435
 20
1.332911912952934
 30
0.0
 10
19.9271331347065
 20
1.343461213428501
 30
0.0
 10
19.74796880004479
 20
1.355951084561928
 30
0.0
 10
19.57548024449123
 20
1.370140550341856
 30
0.0
 10
19.39836898082324
 20
1.386927508075938
 30
0.0
 10
19.17746516710444
 20
1.410510142417674
 30
0.0
 10
18.8733577445259
 20
1.447249594078921
 30
0.0
 10
18.63296443155034
 20
1.483417400220498
 30
0.0
 10
18.49400305589474
 20
1.504324504638952
 30
0.0
  0
LINE
  5
9F
330
1F
100
AcDbEntity
  8
0
  6
Continuous
 62
   131
370
    15
100
AcDbLine
 10
2.0
 20
-3.0
 30
0.0
 11
5.732050807568866
 21
-2.0
 31
0.0
  0
LINE
  5
A0
330
1F
100
AcDbEntity
  8
0
  6
Continuous
 62
   131
370
    15
100
AcDbLine
 10
5.732050807568866
 20
2.0
 30
0.0
 11
2.0
 21
3.0
 31
0.0
  0
LINE
  5
A1
330
1F
100
AcDbEntity
  8
0
  6
Continuous
 62
   131
370
    15
100
AcDbLine
 10
2.0
 20
2.999999999999999
 30
0.0
 11
-46.71794919243113
 21
2.999999999999996
 31
0.0
  0
LINE
  5
A2
330
1F
100
AcDbEntity
  8
0
  6
Continuous
 62
   131
370
    15
100
AcDbLine
 10
-46.71794919243113
 20
-3.000000000000002
 30
0.0
 11
2.0
 21
-2.999999999999999
 31
0.0
  0
LINE
  5
A3
330
1F
100
AcDbEntity
  8
0
  6
Continuous
 62
   131
370
    15
100
AcDbLine
 10
-46.71794919243113
 20
2.999999999999994
 30
0.0
 11
-47.26794919243114
 21
2.449999999999993
 31
0.0
  0
LINE
  5
A4
330
1F
100
AcDbEntity
  8
0
  6
Continuous
 62
   131
370
    15
100
AcDbLine
 10
-47.26794919243114
 20
-2.45
 30
0.0
 11
-46.71794919243113
 21
-3.0
 31
0.0
  0
LINE
  5
A5
330
1F
100
AcDbEntity
  8
0
  6
Continuous
 62
   131
370
    15
100
AcDbLine
 10
5.842038369885557
 20
2.0
 30
0.0
 11
5.732050807568866
 21
2.0
 31
0.0
  0
LINE
  5
A6
330
1F
100
AcDbEntity
  8
0
  6
Continuous
 62
   131
370
    15
100
AcDbLine
 10
5.732050807568866
 20
-2.0
 30
0.0
 11
5.842038369885557
 21
-2.0
 31
0.0
  0
SPLINE
  5
A7
330
1F
100
AcDbEntity
  8
0
  6
Continuous
 62
   131
370
    15
100
AcDbSpline
210
0.0
220
0.0
230
1.0
 70
     8
 71
     3
 72
     9
 73
     5
 74
     0
 42
0.000000001
 43
0.00000001
 40
0.0
 40
0.0
 40
0.0
 40
0.0
 40
0.4566536754773701
 40
1.0
 40
1.0
 40
1.0
 40
1.0
 10
6.593143872699031
 20
0.5468734424557983
 30
0.0
 10
6.520662953177295
 20
0.5822797503362215
 30
0.0
 10
6.361941095861759
 20
0.6598140170721909
 30
0.0
 10
6.1933027950951
 20
0.7483107328356812
 30
0.0
 10
6.101673794199792
 20
0.7963950980780975
 30
0.0
  0
SPLINE
  5
A8
330
1F
100
AcDbEntity
  8
0
  6
Continuous
 62
   131
370
    15
100
AcDbSpline
210
0.0
220
0.0
230
1.0
 70
     8
 71
     3
 72
     9
 73
     5
 74
     0
 42
0.000000001
 43
0.00000001
 40
0.0
 40
0.0
 40
0.0
 40
0.0
 40
0.4974821006195497
 40
1.0
 40
1.0
 40
1.0
 40
1.0
 10
6.028692309861084
 20
1.590394096006378
 30
0.0
 10
5.996624508985613
 20
1.588306726764545
 30
0.0
 10
5.932164298587024
 20
1.584110858733848
 30
0.0
 10
5.868592275514255
 20
1.577582355492242
 30
0.0
 10
5.836646196020363
 20
1.574301665757172
 30
0.0
  0
SPLINE
  5
A9
330
1F
100
AcDbEntity
  8
0
  6
Continuous
 62
   131
370
    15
100
AcDbSpline
210
0.0
220
0.0
230
1.0
 70
     8
 71
     3
 72
     9
 73
     5
 74
     0
 42
0.000000001
 43
0.00000001
 40
0.0
 40
0.0
 40
0.0
 40
0.0
 40
0.0813708304723379
 40
1.0
 40
1.0
 40
1.0
 40
1.0
 10
5.924284915537548
 20
-1.582743282341663
 30
0.0
 10
5.927091789875631
 20
-1.583016538952907
 30
0.0
 10
5.961586636761036
 20
-1.586374703170451
 30
0.0
 10
5.99656248001717
 20
-1.588469632664781
 30
0.0
 10
6.028692309861084
 20
-1.590394096006377
 30
0.0
  0
SPLINE
  5
AA
330
1F
100
AcDbEntity
  8
0
  6
Continuous
 62
     1
370
    15
100
AcDbSpline
210
0.0
220
0.0
230
1.0
 70
     8
 71
     3
 72
    24
 73
    20
 74
     0
 42
0.000000001
 43
0.00000001
 40
0.0
 40
0.0
 40
0.0
 40
0.0
 40
0.009282547453517
 40
0.0703147442941355
 40
0.1322729883788646
 40
0.194373073936611
 40
0.2563608145961502
 40
0.3182550491292805
 40
0.3801671690118327
 40
0.4422081528559864
 40
0.5042753609276074
 40
0.5661992094928805
 40
0.6280891431264701
 40
0.6900566526659725
 40
0.7521587148417747
 40
0.8141360569628234
 40
0.8760278529646096
 40
0.9379455506554497
 40
1.0
 40
1.0
 40
1.0
 40
1.0
 10
9.10592554689064
 20
1.340357873176915
 30
0.0
 10
9.148082237366774
 20
1.359865960963384
 30
0.0
 10
9.467416657789647
 20
1.507638564469264
 30
0.0
 10
10.06792944032307
 20
1.71198416863895
 30
0.0
 10
10.90852249223698
 20
1.923354379464379
 30
0.0
 10
11.75409857669267
 20
2.01479656466034
 30
0.0
 10
12.59882742560032
 20
1.989148475865549
 30
0.0
 10
13.44245562106586
 20
1.845278595176556
 30
0.0
 10
14.28633864753938
 20
1.592314246342521
 30
0.0
 10
15.13149596067312
 20
1.245354290006659
 30
0.0
 10
15.97684435283476
 20
0.8250171501959763
 30
0.0
 10
16.82089364794081
 20
0.3552963706997422
 30
0.0
 10
17.66446463101505
 20
-0.1352423348699849
 30
0.0
 10
18.50900314396111
 20
-0.6179914069046337
 30
0.0
 10
19.35460328846162
 20
-1.063216103781749
 30
0.0
 10
20.19923516031437
 20
-1.446961703329384
 30
0.0
 10
21.0428309897334
 20
-1.742715124950724
 30
0.0
 10
21.88679457456107
 20
-1.943878802261365
 30
0.0
 10
22.45009160864218
 20
-1.980152683351084
 30
0.0
 10
22.73205080756887
 20
-1.99999999999994
 30
0.0
  0
SPLINE
  5
AB
330
1F
100
AcDbEntity
  8
0
  6
Continuous
 62
     1
370
    15
100
AcDbSpline
210
0.0
220
0.0
230
1.0
 70
     8
 71
     3
 72
    14
 73
    10
 74
     0
 42
0.000000001
 43
0.00000001
 40
0.0
 40
0.0
 40
0.0
 40
0.0
 40
0.0930138960453511
 40
0.2613930377205188
 40
0.4297782328679141
 40
0.598168948938377
 40
0.7745928590512052
 40
0.9510422960677043
 40
1.0
 40
1.0
 40
1.0
 40
1.0
 10
17.75224001277417
 20
-0.1835070391666461
 30
0.0
 10
17.54603752766901
 20
-0.1011820028096899
 30
0.0
 10
16.96655536146801
 20
0.1301725823514857
 30
0.0
 10
16.01377705520101
 20
0.514302383570088
 30
0.0
 10
14.8938826083868
 20
0.9085144825722048
 30
0.0
 10
13.75618468810875
 20
1.217214575909806
 30
0.0
 10
12.60046896942419
 20
1.386271289591059
 30
0.0
 10
11.70956673950542
 20
1.43005988267939
 30
0.0
 10
11.20980660574671
 20
1.365897660852339
 30
0.0
 10
11.10126031673948
 20
1.351961833235589
 30
0.0
  0
SPLINE
  5
AC
330
1F
100
AcDbEntity
  8
0
  6
Continuous
 62
     1
370
    15
100
AcDbSpline
210
0.0
220
0.0
230
1.0
 70
     8
 71
     3
 72
    19
 73
    15
 74
     0
 42
0.000000001
 43
0.00000001
 40
0.0
 40
0.0
 40
0.0
 40
0.0
 40
0.0865394298207108
 40
0.1728881502952395
 40
0.2592007483774486
 40
0.3456326447672489
 40
0.4322384740075675
 40
0.518656662738416
 40
0.6049666644283421
 40
0.6913239597655597
 40
0.7778811770314529
 40
0.8644018344160737
 40
0.9507427786746465
 40
0.9999999999999999
 40
0.9999999999999999
 40
0.9999999999999999
 40
0.9999999999999999
 10
22.73205080756887
 20
-1.897881738463799
 30
0.0
 10
22.45009139242116
 20
-1.835705537511819
 30
0.0
 10
21.88679392392375
 20
-1.7114901550296
 30
0.0
 10
21.04282968644662
 20
-1.393567252573961
 30
0.0
 10
20.1992332118822
 20
-1.001323935431415
 30
0.0
 10
19.35460070140626
 20
-0.5475602483738712
 30
0.0
 10
18.50899991280668
 20
-0.06283855207642
 30
0.0
 10
17.66446070801656
 20
0.4266126149702799
 30
0.0
 10
16.82088916078882
 20
0.890708286843152
 30
0.0
 10
15.97683890819593
 20
1.301890958269393
 30
0.0
 10
15.13149114094259
 20
1.637052736130239
 30
0.0
 10
14.28632849285823
 20
1.870191143361972
 30
0.0
 10
13.56312321396021
 20
1.992743622446521
 30
0.0
 10
13.12159558697328
 20
1.987410578125713
 30
0.0
 10
12.96120680921882
 20
1.98547330306512
 30
0.0
  0
LINE
  5
AD
330
1F
100
AcDbEntity
  8
0
  6
Continuous
 62
     6
370
    15
100
AcDbLine
 10
22.73205080756887
 20
-1.99999999999994
 30
0.0
 11
22.73205080756887
 21
-1.897881738463802
 31
0.0
  0
SPLINE
  5
AE
330
1F
100
AcDbEntity
  8
0
  6
Continuous
 62
     1
370
    15
100
AcDbSpline
210
0.0
220
0.0
230
1.0
 70
     8
 71
     3
 72
    12
 73
     8
 74
     0
 42
0.000000001
 43
0.00000001
 40
0.0
 40
0.0
 40
0.0
 40
0.0
 40
0.2029153911930713
 40
0.4058194552375237
 40
0.6087128923662873
 40
0.8115964073259051
 40
1.0
 40
1.0
 40
1.0
 40
1.0
 10
22.73205080756887
 20
-1.57794452873643
 30
0.0
 10
22.38005513471499
 20
-1.499493032326766
 30
0.0
 10
21.67608343811951
 20
-1.342594418829055
 30
0.0
 10
20.62016530931117
 20
-0.9442810252304936
 30
0.0
 10
19.56431014581925
 20
-0.4704260126514206
 30
0.0
 10
18.53361546815742
 20
0.0409906602421047
 30
0.0
 10
17.85487536721564
 20
0.3652948876775968
 30
0.0
 10
17.52806400283735
 20
0.5214464203405125
 30
0.0
  0
LINE
  5
AF
330
1F
100
AcDbEntity
  8
0
  6
Continuous
 62
     1
370
    15
100
AcDbLine
 10
22.73205080756887
 20
-1.8978817384638
 30
0.0
 11
22.73205080756887
 21
-1.57794452873643
 31
0.0
  0
SPLINE
  5
B0
330
1F
100
AcDbEntity
  8
0
  6
Continuous
 62
     1
370
    15
100
AcDbSpline
210
0.0
220
0.0
230
1.0
 70
     8
 71
     3
 72
    18
 73
    14
 74
     0
 42
0.000000001
 43
0.00000001
 40
0.0
 40
0.0
 40
0.0
 40
0.0
 40
0.0143145845433425
 40
0.1135242123312541
 40
0.212527770575975
 40
0.3115027233417671
 40
0.4106271950155071
 40
0.5099313271175505
 40
0.6090086466583691
 40
0.7066047574504082
 40
0.8042837701936991
 40
0.9022164406056117
 40
1.0
 40
1.0
 40
1.0
 40
1.0
 10
15.25340777768901
 20
-1.572312166685307
 30
0.0
 10
15.21273658010404
 20
-1.588485455431393
 30
0.0
 10
14.89018682978311
 20
-1.716750433024419
 30
0.0
 10
14.28632378955451
 20
-1.868258143752817
 30
0.0
 10
13.44245079012977
 20
-2.001852868604703
 30
0.0
 10
12.5988186509643
 20
-2.00844781725879
 30
0.0
 10
11.75409174979952
 20
-1.898453352234057
 30
0.0
 10
10.90850810170259
 20
-1.675959512080972
 30
0.0
 10
10.06794026964818
 20
-1.35561644432236
 30
0.0
 10
9.232161339438212
 20
-0.9578279546049914
 30
0.0
 10
8.399570297554101
 20
-0.5070201042481306
 30
0.0
 10
7.56567233804248
 20
-0.0261709370798511
 30
0.0
 10
7.009783478720449
 20
0.2915994866786952
 30
0.0
 10
6.732050807566955
 20
0.450363648118583
 30
0.0
  0
SPLINE
  5
B1
330
1F
100
AcDbEntity
  8
0
  6
Continuous
 62
     1
370
    15
100
AcDbSpline
210
0.0
220
0.0
230
1.0
 70
     8
 71
     3
 72
    15
 73
    11
 74
     0
 42
0.000000001
 43
0.00000001
 40
0.0
 40
0.0
 40
0.0
 40
0.0
 40
0.0916525864338807
 40
0.239186295065121
 40
0.3867164489232978
 40
0.5342435790735953
 40
0.6817682178847603
 40
0.8292908988004934
 40
0.9144023847838898
 40
1.0
 40
1.0
 40
1.0
 40
1.0
 10
13.88599638602558
 20
-1.645495346116428
 30
0.0
 10
13.66741952453318
 20
-1.668941341618634
 30
0.0
 10
13.09699820068932
 20
-1.730128494283788
 30
0.0
 10
12.17474316173256
 20
-1.651792612532148
 30
0.0
 10
11.11925217134667
 20
-1.433991711419775
 30
0.0
 10
10.06373973258512
 20
-1.077702246713257
 30
0.0
 10
9.008421068061603
 20
-0.6235412733263909
 30
0.0
 10
8.101378591321984
 20
-0.1846657823464693
 30
0.0
 10
7.34346100163634
 20
0.1909581329703099
 30
0.0
 10
6.936240753360742
 20
0.3847646683287914
 30
0.0
 10
6.732050807568887
 20
0.4819438879686094
 30
0.0
  0
SPLINE
  5
B2
330
1F
100
AcDbEntity
  8
0
  6
Continuous
 62
     1
370
    15
100
AcDbSpline
210
0.0
220
0.0
230
1.0
 70
     8
 71
     3
 72
    14
 73
    10
 74
     0
 42
0.000000001
 43
0.00000001
 40
0.0
 40
0.0
 40
0.0
 40
0.0
 40
0.1584221013340027
 40
0.3170857858667806
 40
0.4753385193875154
 40
0.6334569344091796
 40
0.7939744949647386
 40
0.9548595295759409
 40
1.0
 40
1.0
 40
1.0
 40
1.0
 10
6.732050807569072
 20
-0.1053280428015219
 30
0.0
 10
7.009784250861209
 20
-0.2648661383949794
 30
0.0
 10
7.565674662528615
 20
-0.5841856145979081
 30
0.0
 10
8.399575547802543
 20
-1.026896410413673
 30
0.0
 10
9.232167227002757
 20
-1.411254558639381
 30
0.0
 10
10.06795440489335
 20
-1.717812090803688
 30
0.0
 10
10.90849663677199
 20
-1.916555281110603
 30
0.0
 10
11.55160955052208
 20
-2.007485019017357
 30
0.0
 10
11.9128077448517
 20
-1.991511691902357
 30
0.0
 10
11.9919467640987
 20
-1.98801191404677
 30
0.0
  0
SPLINE
  5
B3
330
1F
100
AcDbEntity
  8
0
  6
Continuous
 62
     1
370
    15
100
AcDbSpline
210
0.0
220
0.0
230
1.0
 70
     8
 71
     3
 72
    11
 73
     7
 74
     0
 42
0.000000001
 43
0.00000001
 40
0.0
 40
0.0
 40
0.0
 40
0.0
 40
0.0751548327485743
 40
0.3831238098907084
 40
0.6912216719125759
 40
1.0
 40
1.0
 40
1.0
 40
1.0
 10
19.99378243792401
 20
1.340093867201838
 30
0.0
 10
20.06238716379242
 20
1.371478759559956
 30
0.0
 10
20.41211988210136
 20
1.531472456485324
 30
0.0
 10
21.04281251378212
 20
1.73883883344478
 30
0.0
 10
21.88679920625967
 20
1.944850541884226
 30
0.0
 10
22.45009315367665
 20
1.980476834673403
 30
0.0
 10
22.73205080756887
 20
2.000000000000058
 30
0.0
  0
LINE
  5
B4
330
1F
100
AcDbEntity
  8
0
  6
Continuous
 62
   131
370
    15
100
AcDbLine
 10
6.732050807568866
 20
-0.1053280428019557
 30
0.0
 11
6.732050807568866
 21
0.4503636481195018
 31
0.0
  0
SPLINE
  5
B5
330
1F
100
AcDbEntity
  8
0
  6
Continuous
 62
     1
370
    15
100
AcDbSpline
210
0.0
220
0.0
230
1.0
 70
    24
 71
     3
 72
    10
 73
     6
 74
     0
 42
0.000000001
 43
0.00000001
 40
0.0
 40
0.0
 40
0.0
 40
0.0
 40
0.5
 40
0.5
 40
1.0
 40
1.0
 40
1.0
 40
1.0
 10
22.73205080756887
 20
1.400000000000002
 30
0.0
 10
22.73205080756887
 20
1.484864513614629
 30
0.0
 10
22.73205080756887
 20
1.583484937734237
 30
0.0
 10
22.73205080756887
 20
1.790390321921714
 30
0.0
 10
22.73205080756887
 20
1.898146871602949
 30
0.0
 10
22.73205080756887
 20
2.000000000000058
 30
0.0
  0
LINE
  5
B6
330
1F
100
AcDbEntity
  8
0
  6
Continuous
 62
     1
370
    15
100
AcDbLine
 10
22.73205080756887
 20
1.400000000000002
 30
0.0
 11
21.98978111951831
 21
1.351924187398221
 31
0.0
  0
LINE
  5
B7
330
1F
100
AcDbEntity
  8
0
  6
Continuous
 62
     1
370
    15
100
AcDbLine
 10
6.876317002406402
 20
-0.1871520706597883
 30
0.0
 11
6.732050807568866
 21
-0.1311350373450908
 31
0.0
  0
SPLINE
  5
B8
330
1F
100
AcDbEntity
  8
0
  6
Continuous
 62
     1
370
    15
100
AcDbSpline
210
0.0
220
0.0
230
1.0
 70
     8
 71
     3
 72
     8
 73
     4
 74
     0
 42
0.000000001
 43
0.00000001
 40
0.0
 40
0.0
 40
0.0
 40
0.0
 40
1.0
 40
1.0
 40
1.0
 40
1.0
 10
21.49388441220084
 20
0.560120055510089
 30
0.0
 10
21.40440448180907
 20
0.666124560730594
 30
0.0
 10
21.32678444586535
 20
0.76742205825977
 30
0.0
 10
21.26551150639243
 20
0.8616562015384633
 30
0.0
  0
LINE
  5
B9
330
1F
100
AcDbEntity
  8
0
  6
Continuous
 62
     1
370
    15
100
AcDbLine
 10
21.26551150639243
 20
0.8616562015384627
 30
0.0
 11
22.73205080756887
 21
0.0000000000000023
 31
0.0
  0
LINE
  5
BA
330
1F
100
AcDbEntity
  8
0
  6
Continuous
 62
     1
370
    15
100
AcDbLine
 10
22.73205080756887
 20
0.0000000000000023
 30
0.0
 11
22.73205080756887
 21
-0.5344858920592873
 31
0.0
  0
SPLINE
  5
BB
330
1F
100
AcDbEntity
  8
0
  6
Continuous
 62
     1
370
    15
100
AcDbSpline
210
0.0
220
0.0
230
1.0
 70
     8
 71
     3
 72
    10
 73
     6
 74
     0
 42
0.000000001
 43
0.00000001
 40
0.0
 40
0.0
 40
0.0
 40
0.0
 40
0.5
 40
0.5
 40
1.0
 40
1.0
 40
1.0
 40
1.0
 10
22.73205080756887
 20
-0.5344858920592873
 30
0.0
 10
22.51770992799076
 20
-0.3659754071022003
 30
0.0
 10
22.30695314548215
 20
-0.19054976064171
 30
0.0
 10
21.89277919016857
 20
0.1744625846971977
 30
0.0
 10
21.68743517480848
 20
0.365978024393418
 30
0.0
 10
21.49388441220081
 20
0.5601200555100635
 30
0.0
  0
SPLINE
  5
BC
330
1F
100
AcDbEntity
  8
0
  6
Continuous
 62
     1
370
    15
100
AcDbSpline
210
0.0
220
0.0
230
1.0
 70
     8
 71
     3
 72
    19
 73
    15
 74
     0
 42
0.000000001
 43
0.00000001
 40
0.0
 40
0.0
 40
0.0
 40
0.0
 40
0.0088691594148135
 40
0.0967273198048004
 40
0.1845720230066518
 40
0.2724047916636725
 40
0.3602271629353989
 40
0.4480406866695847
 40
0.5400341040197031
 40
0.6320274394030132
 40
0.7240206947552642
 40
0.8160138720133383
 40
0.9080069731152266
 40
1.0
 40
1.0
 40
1.0
 40
1.0
 10
18.49740326069868
 20
-1.498017977580398
 30
0.0
 10
18.46261946507029
 20
-1.505410471801208
 30
0.0
 10
18.0832663419149
 20
-1.586033236508434
 30
0.0
 10
17.35940353786336
 20
-1.615222455379462
 30
0.0
 10
16.32587945077167
 20
-1.563659194723025
 30
0.0
 10
15.29251653445648
 20
-1.360777063422208
 30
0.0
 10
14.2592823653706
 20
-1.041286829753098
 30
0.0
 10
13.20978283593852
 20
-0.6223829864100742
 30
0.0
 10
12.14379430382456
 20
-0.138466236597649
 30
0.0
 10
11.0614501583116
 20
0.3661630253946361
 30
0.0
 10
9.97909717037153
 20
0.8361100814963415
 30
0.0
 10
8.896747879228991
 20
1.222131209241275
 30
0.0
 10
7.814398887068263
 20
1.500882140639804
 30
0.0
 10
7.092833403712605
 20
1.562271120905821
 30
0.0
 10
6.732050807568866
 20
1.592965598657154
 30
0.0
  0
SPLINE
  5
BD
330
1F
100
AcDbEntity
  8
0
  6
Continuous
 62
   131
370
    15
100
AcDbSpline
210
0.0
220
0.0
230
1.0
 70
    24
 71
     3
 72
    12
 73
     8
 74
     0
 42
0.000000001
 43
0.00000001
 40
0.0
 40
0.0
 40
0.0
 40
0.0
 40
0.2703707372228888
 40
0.4668871360353089
 40
0.6691025237262553
 40
0.845563720228467
 40
1.0
 40
1.0
 40
1.0
 40
1.0
 10
6.732050807568847
 20
1.592965598657157
 30
0.0
 10
6.732050807568857
 20
1.547307647438414
 30
0.0
 10
6.73205080756887
 20
1.468463648636187
 30
0.0
 10
6.732050807568866
 20
1.256648442421066
 30
0.0
 10
6.732050807568866
 20
1.02890003232317
 30
0.0
 10
6.732050807568866
 20
0.781358581123772
 30
0.0
 10
6.732050807568866
 20
0.6050989603071643
 30
0.0
 10
6.732050807568866
 20
0.5228351714762739
 30
0.0
  0
SPLINE
  5
BE
330
1F
100
AcDbEntity
  8
0
  6
Continuous
 62
     1
370
    15
100
AcDbSpline
210
0.0
220
0.0
230
1.0
 70
     8
 71
     3
 72
    12
 73
     8
 74
     0
 42
0.000000001
 43
0.00000001
 40
0.0
 40
0.0
 40
0.0
 40
0.0
 40
0.2243577301131249
 40
0.4487479649976947
 40
0.6731719368594294
 40
0.8975792038500132
 40
1.0
 40
1.0
 40
1.0
 40
1.0
 10
21.49388441220084
 20
0.5601200555101187
 30
0.0
 10
21.14940594362424
 20
0.7041887226536205
 30
0.0
 10
20.46039909870149
 20
0.9923469294957864
 30
0.0
 10
19.42678944939112
 20
1.325622831722831
 30
0.0
 10
18.39307545011253
 20
1.537548957899331
 30
0.0
 10
17.54665267517294
 20
1.623108438473147
 30
0.0
 10
17.04483655033634
 20
1.583982925806993
 30
0.0
 10
16.88757830717085
 20
1.571721842353703
 30
0.0
  0
LINE
  5
BF
330
1F
100
AcDbEntity
  8
0
  6
Continuous
 62
     1
370
    15
100
AcDbLine
 10
7.616855662414938
 20
-1.49225563763619
 30
0.0
 11
6.732050807568866
 21
-1.592965598657154
 31
0.0
  0
SPLINE
  5
C0
330
1F
100
AcDbEntity
  8
0
  6
Continuous
 62
     1
370
    15
100
AcDbSpline
210
0.0
220
0.0
230
1.0
 70
    24
 71
     3
 72
    10
 73
     6
 74
     0
 42
0.000000001
 43
0.00000001
 40
0.0
 40
0.0
 40
0.0
 40
0.0
 40
0.5
 40
0.5
 40
1.0
 40
1.0
 40
1.0
 40
1.0
 10
22.73205080756887
 20
-1.577944528736429
 30
0.0
 10
22.73205080756887
 20
-1.456982778007608
 30
0.0
 10
22.73205080756887
 20
-1.304142967812935
 30
0.0
 10
22.73205080756887
 20
-0.948805118301358
 30
0.0
 10
22.73205080756887
 20
-0.7466148861026175
 30
0.0
 10
22.73205080756887
 20
-0.5344858920593515
 30
0.0
  0
SPLINE
  5
C1
330
1F
100
AcDbEntity
  8
0
  6
Continuous
 62
     1
370
    15
100
AcDbSpline
210
0.0
220
0.0
230
1.0
 70
     8
 71
     3
 72
    10
 73
     6
 74
     0
 42
0.000000001
 43
0.00000001
 40
0.0
 40
0.0
 40
0.0
 40
0.0
 40
0.5
 40
0.5
 40
1.0
 40
1.0
 40
1.0
 40
1.0
 10
22.73205080756887
 20
1.400000000000002
 30
0.0
 10
22.48316458524904
 20
1.332396900670977
 30
0.0
 10
22.23611631379676
 20
1.255079522557298
 30
0.0
 10
21.74632827190167
 20
1.077672677756315
 30
0.0
 10
21.50341991750826
 20
0.9782712124145906
 30
0.0
 10
21.26551150639109
 20
0.8616562015394887
 30
0.0
  0
SPLINE
  5
C2
330
1F
100
AcDbEntity
  8
0
  6
Continuous
 62
   131
370
    15
100
AcDbSpline
210
0.0
220
0.0
230
1.0
 70
    24
 71
     3
 72
    14
 73
    10
 74
     0
 42
0.000000001
 43
0.00000001
 40
0.0
 40
0.0
 40
0.0
 40
0.0
 40
0.2500000000000001
 40
0.2500000000000001
 40
0.5000000000000001
 40
0.5000000000000001
 40
0.75
 40
0.75
 40
1.0
 40
1.0
 40
1.0
 40
1.0
 10
6.732050807568866
 20
-0.1311350373450909
 30
0.0
 10
6.732050807568866
 20
-0.2999484648130643
 30
0.0
 10
6.732050807568866
 20
-0.4675922664443944
 30
0.0
 10
6.732050807568866
 20
-0.7832132286533862
 30
0.0
 10
6.732050807568866
 20
-0.9309987108003469
 30
0.0
 10
6.732050807568866
 20
-1.19080814774334
 30
0.0
 10
6.732050807568866
 20
-1.302693665209199
 30
0.0
 10
6.732050807568866
 20
-1.481524162472624
 30
0.0
 10
6.732050807568866
 20
-1.548469593428376
 30
0.0
 10
6.732050807568866
 20
-1.592965598657153
 30
0.0
  0
LINE
  5
C3
330
1F
100
AcDbEntity
  8
0
  6
Continuous
 62
     1
370
    15
100
AcDbLine
 10
22.73205080756887
 20
0.0000000000000023
 30
0.0
 11
22.73205080756887
 21
1.400000000000002
 31
0.0
  0
LINE
  5
C4
330
1F
100
AcDbEntity
  8
0
  6
Continuous
 62
   131
370
    15
100
AcDbLine
 10
5.732050807568866
 20
2.0
 30
0.0
 11
5.732050807568866
 21
-1.999999999999998
 31
0.0
  0
LINE
  5
C5
330
1F
100
AcDbEntity
  8
0
  6
Continuous
 62
   131
370
    15
100
AcDbLine
 10
2.0
 20
3.0
 30
0.0
 11
2.0
 21
-3.0
 31
0.0
  0
LINE
  5
C6
330
1F
100
AcDbEntity
  8
0
  6
Continuous
 62
   131
370
    15
100
AcDbLine
 10
-46.71794919243113
 20
2.999999999999994
 30
0.0
 11
-46.71794919243113
 21
-3.000000000000002
 31
0.0
  0
LINE
  5
C7
330
1F
100
AcDbEntity
  8
0
  6
Continuous
 62
   131
370
    15
100
AcDbLine
 10
-47.26794919243114
 20
2.449999999999994
 30
0.0
 11
-47.26794919243114
 21
-2.450000000000001
 31
0.0
  0
SPLINE
  5
C8
330
1F
100
AcDbEntity
  8
0
  6
Continuous
 62
   131
370
    15
100
AcDbSpline
210
0.0
220
0.0
230
1.0
 70
     8
 71
     3
 72
    10
 73
     6
 74
     0
 42
0.000000001
 43
0.00000001
 40
0.0
 40
0.0
 40
0.0
 40
0.0
 40
0.5
 40
0.5
 40
1.0
 40
1.0
 40
1.0
 40
1.0
 10
6.732050807568866
 20
-0.1311350373450908
 30
0.0
 10
6.583076323923338
 20
-0.0713189174916863
 30
0.0
 10
6.436452841709643
 20
-0.0114575129151029
 30
0.0
 10
6.140957462199587
 20
0.1083010945018676
 30
0.0
 10
5.991453582911396
 20
0.1682834035962032
 30
0.0
 10
5.842035227436018
 20
0.2276230401963298
 30
0.0
  0
SPLINE
  5
C9
330
1F
100
AcDbEntity
  8
0
  6
Continuous
 62
   131
370
    15
100
AcDbSpline
210
0.0
220
0.0
230
1.0
 70
     8
 71
     3
 72
    10
 73
     6
 74
     0
 42
0.000000001
 43
0.00000001
 40
0.0
 40
0.0
 40
0.0
 40
0.0
 40
0.5
 40
0.5
 40
1.0
 40
1.0
 40
1.0
 40
1.0
 10
6.732050807568866
 20
-0.1053280428014038
 30
0.0
 10
6.583076846109066
 20
-0.0196185023023187
 30
0.0
 10
6.436453865218338
 20
0.0659286921704866
 30
0.0
 10
6.140959546004161
 20
0.2366238449596841
 30
0.0
 10
5.991456202881404
 20
0.3218913095676771
 30
0.0
 10
5.842038369885556
 20
0.4060161084137453
 30
0.0
  0
LINE
  5
CA
330
1F
100
AcDbEntity
  8
0
  6
Continuous
 62
   131
370
    15
100
AcDbLine
 10
5.842038369885556
 20
0.9311666629454414
 30
0.0
 11
5.842038369885557
 21
2.0
 31
0.0
  0
SPLINE
  5
CB
330
1F
100
AcDbEntity
  8
0
  6
Continuous
 62
   131
370
    15
100
AcDbSpline
210
0.0
220
0.0
230
1.0
 70
     8
 71
     3
 72
    10
 73
     6
 74
     0
 42
0.000000001
 43
0.00000001
 40
0.0
 40
0.0
 40
0.0
 40
0.0
 40
0.5
 40
0.5
 40
1.0
 40
1.0
 40
1.0
 40
1.0
 10
6.732050807568866
 20
0.4503636481175111
 30
0.0
 10
6.583074676967973
 20
0.5339891538790402
 30
0.0
 10
6.436449613598757
 20
0.6159340595185492
 30
0.0
 10
6.140950889952338
 20
0.7764163571560837
 30
0.0
 10
5.991445319617311
 20
0.8550539450778241
 30
0.0
 10
5.842025316261175
 20
0.9310908045228027
 30
0.0
  0
LINE
  5
CC
330
1F
100
AcDbEntity
  8
0
  6
Continuous
 62
   131
370
    15
100
AcDbLine
 10
5.842038369885557
 20
-2.0
 30
0.0
 11
5.842038369885556
 21
0.4066851361920864
 31
0.0
  0
LINE
  5
CD
330
1F
100
AcDbEntity
  8
0
  6
Continuous
 62
   131
370
    15
100
AcDbLine
 10
6.732050807568887
 20
0.4819438879686093
 30
0.0
 11
6.576918059974416
 21
0.5514424265744678
 31
0.0
  0
SPLINE
  5
CE
330
1F
100
AcDbEntity
  8
0
  6
Continuous
 62
   131
370
    15
100
AcDbSpline
210
0.0
220
0.0
230
1.0
 70
     8
 71
     3
 72
     9
 73
     5
 74
     0
 42
0.000000001
 43
0.00000001
 40
0.0
 40
0.0
 40
0.0
 40
0.0
 40
0.7060321044825719
 40
1.0
 40
1.0
 40
1.0
 40
1.0
 10
6.732050807568866
 20
1.592965598657154
 30
0.0
 10
6.566567660947335
 20
1.598103882163777
 30
0.0
 10
6.332182927489912
 20
1.605381573183775
 30
0.0
 10
6.097479738289357
 20
1.59183468714363
 30
0.0
 10
6.02848453568884
 20
1.587852337563595
 30
0.0
  0
LINE
  5
CF
330
1F
100
AcDbEntity
  8
0
  6
Continuous
 62
   131
370
    15
100
AcDbLine
 10
5.924284915537548
 20
1.582743282341664
 30
0.0
 11
5.842033606287654
 21
1.57871038394507
 31
0.0
  0
SPLINE
  5
D0
330
1F
100
AcDbEntity
  8
0
  6
Continuous
 62
   131
370
    15
100
AcDbSpline
210
0.0
220
0.0
230
1.0
 70
    24
 71
     3
 72
    12
 73
     8
 74
     0
 42
0.000000001
 43
0.00000001
 40
0.0
 40
0.0
 40
0.0
 40
0.0
 40
0.2703707372228889
 40
0.4668871360353088
 40
0.6691025237262551
 40
0.845563720228467
 40
0.9999999999999999
 40
0.9999999999999999
 40
0.9999999999999999
 40
0.9999999999999999
 10
6.732050807568847
 20
1.592965598657157
 30
0.0
 10
6.732050807568857
 20
1.547307647438415
 30
0.0
 10
6.73205080756887
 20
1.468463648636188
 30
0.0
 10
6.732050807568866
 20
1.256648442421066
 30
0.0
 10
6.732050807568866
 20
1.02890003232317
 30
0.0
 10
6.732050807568866
 20
0.7813585811237719
 30
0.0
 10
6.732050807568866
 20
0.605098960307164
 30
0.0
 10
6.732050807568866
 20
0.5228351714762737
 30
0.0
  0
SPLINE
  5
D1
330
1F
100
AcDbEntity
  8
0
  6
Continuous
 62
   131
370
    15
100
AcDbSpline
210
0.0
220
0.0
230
1.0
 70
     8
 71
     3
 72
    10
 73
     6
 74
     0
 42
0.000000001
 43
0.00000001
 40
0.0
 40
0.0
 40
0.0
 40
0.0
 40
0.5
 40
0.5
 40
1.0
 40
1.0
 40
1.0
 40
1.0
 10
6.732050807568866
 20
-1.592965598657154
 30
0.0
 10
6.583076054534594
 20
-1.599397142942926
 30
0.0
 10
6.436452313694941
 20
-1.601411038543729
 30
0.0
 10
6.140956387192157
 20
-1.596674346819998
 30
0.0
 10
5.991452231303274
 20
-1.589885306192061
 30
0.0
 10
5.842033606287654
 20
-1.578710383945069
 30
0.0
  0
SPLINE
  5
D2
330
1F
100
AcDbEntity
  8
0
  6
Continuous
 62
   131
370
    15
100
AcDbSpline
210
0.0
220
0.0
230
1.0
 70
    24
 71
     3
 72
    14
 73
    10
 74
     0
 42
0.000000001
 43
0.00000001
 40
0.0
 40
0.0
 40
0.0
 40
0.0
 40
0.2500000000000001
 40
0.2500000000000001
 40
0.5000000000000001
 40
0.5000000000000001
 40
0.75
 40
0.75
 40
1.0
 40
1.0
 40
1.0
 40
1.0
 10
6.732050807568866
 20
-0.1311350373450909
 30
0.0
 10
6.732050807568866
 20
-0.2999484648130643
 30
0.0
 10
6.732050807568866
 20
-0.4675922664443944
 30
0.0
 10
6.732050807568866
 20
-0.7832132286533862
 30
0.0
 10
6.732050807568866
 20
-0.9309987108003469
 30
0.0
 10
6.732050807568866
 20
-1.19080814774334
 30
0.0
 10
6.732050807568866
 20
-1.302693665209199
 30
0.0
 10
6.732050807568866
 20
-1.481524162472624
 30
0.0
 10
6.732050807568866
 20
-1.548469593428376
 30
0.0
 10
6.732050807568866
 20
-1.592965598657153
 30
0.0
  0
LINE
  5
D3
330
1F
100
AcDbEntity
  8
중심선
 62
     1
100
AcDbLine
 10
-50.26794919243114
 20
-0.0000000000000046
 30
0.0
 11
25.73205080756886
 21
0.0000000000000026
 31
0.0
  0
CIRCLE
  5
D4
330
1F
100
AcDbEntity
  8
외형선
100
AcDbCircle
 10
0.0000000000000104
 20
0.0
 30
0.0
 40
3.000000000000005
  0
INSERT
  5
D5
330
1F
100
AcDbEntity
  8
0
  6
Continuous
 62
     7
100
AcDbBlockReference
 66
     1
  2
블럭10
 10
-22.93944368806589
 20
-52.04609937292004
 30
0.0
  0
ATTRIB
  5
D6
330
D5
100
AcDbEntity
  8
FORMAT
 62
     2
100
AcDbText
 10
-39.05870472750145
 20
-49.97073246008785
 30
0.0
 40
4.233333333333333
  1
SEME7004016E [ 2 FLUTE ]
 41
0.75
  7
SLDTEXTSTYLE0
 11
-39.05870472750145
 21
-52.08739912675452
 31
0.0
100
AcDbAttribute
  2
AUTOATTR0
 70
     0
 74
     1
  0
SEQEND
  5
D7
330
D5
100
AcDbEntity
  8
0
  6
Continuous
 62
     7
  0
HATCH
  5
D8
330
1F
100
AcDbEntity
  8
중심선
100
AcDbHatch
 10
0.0
 20
0.0
 30
0.0
210
0.0
220
0.0
230
1.0
  2
SOLID
 70
     1
 71
     0
 91
        1
 92
        0
 93
        4
 72
     1
 10
-17.22453438368504
 20
-35.7989250712761
 11
-20.67080962752232
 21
-35.7989250712761
 72
     1
 10
-20.67080962752232
 20
-35.7989250712761
 11
-22.79903948672635
 21
-38.3352506518487
 72
     1
 10
-22.79903948672635
 20
-38.3352506518487
 11
-19.35273115777591
 21
-38.33521122254621
 72
     1
 10
-19.35273115777591
 20
-38.33521122254621
 11
-17.22453438368504
 21
-35.7989250712761
 97
        0
 75
     0
 76
     1
 98
        1
 10
0.0
 20
0.0
  0
HATCH
  5
D9
330
1F
100
AcDbEntity
  8
중심선
100
AcDbHatch
 10
0.0
 20
0.0
 30
0.0
210
0.0
220
0.0
230
1.0
  2
SOLID
 70
     1
 71
     0
 91
        1
 92
        0
 93
        4
 72
     1
 10
-12.21177039264909
 20
-35.7989250712761
 11
-15.65804563648637
 21
-35.7989250712761
 72
     1
 10
-15.65804563648637
 20
-35.7989250712761
 11
-20.18918364484376
 21
-41.19892507127612
 72
     1
 10
-20.18918364484376
 20
-41.19892507127612
 11
-16.74290840100648
 21
-41.19892507127612
 72
     1
 10
-16.74290840100648
 20
-41.19892507127612
 11
-12.21177039264909
 21
-35.7989250712761
 97
        0
 75
     0
 76
     1
 98
        1
 10
0.0
 20
0.0
  0
HATCH
  5
DA
330
1F
100
AcDbEntity
  8
중심선
100
AcDbHatch
 10
0.0
 20
0.0
 30
0.0
210
0.0
220
0.0
230
1.0
  2
SOLID
 70
     1
 71
     0
 91
        1
 92
        0
 93
        4
 72
     1
 10
-7.199006401613195
 20
-35.79892507127613
 11
-10.64528164545031
 21
-35.7989250712761
 72
     1
 10
-10.64528164545031
 20
-35.7989250712761
 11
-17.69371854733956
 21
-44.19892507127612
 72
     1
 10
-17.69371854733956
 20
-44.19892507127612
 11
-14.24744330350228
 21
-44.19892507127612
 72
     1
 10
-14.24744330350228
 20
-44.19892507127612
 11
-7.199006401613195
 21
-35.79892507127613
 97
        0
 75
     0
 76
     1
 98
        1
 10
0.0
 20
0.0
  0
HATCH
  5
DB
330
1F
100
AcDbEntity
  8
중심선
100
AcDbHatch
 10
0.0
 20
0.0
 30
0.0
210
0.0
220
0.0
230
1.0
  2
SOLID
 70
     1
 71
     0
 91
        1
 92
        0
 93
        6
 72
     3
 10
-2.399115970600996
 20
-39.99892507132738
 11
3.960054785062284
 21
1.540850780301639E-10
 40
0.3939339440162633
 50
17.09539180608433
 51
320.0019657685079
 73
     0
 72
     1
 10
-0.7161163149004002
 20
-38.58681907591441
 11
1.589185558800638
 21
-36.65249236586649
 72
     3
 10
-2.399115970653842
 20
-39.99892507127625
 11
6.600054785286829
 21
-1.249000902703301E-13
 40
0.6363583540795982
 50
39.99873849337408
 51
368.4976242363725
 73
     1
 72
     1
 10
4.026216521246767
 20
-39.03892507120613
 11
-3.71904866381792
 21
-39.0389250712061
 72
     1
 10
-3.71904866381792
 20
-39.0389250712061
 11
-3.719073708263854
 21
-40.95892507120602
 72
     1
 10
-3.719073708263854
 20
-40.95892507120602
 11
0.7223060612081831
 21
-40.95892507120599
 97
        0
 75
     0
 76
     1
 98
        1
 10
0.0
 20
0.0
  0
DIMENSION
  5
DC
330
1F
100
AcDbEntity
  8
치수문자_일반주서
100
AcDbDimension
  2
_D
 10
33.30682375390727
 20
2.000000000000098
 30
0.0
 11
33.30682375390722
 21
14.5102500000001
 31
0.0
 70
   160
  1
%%c<>
 71
     2
 42
3.999999999999998
 52
-270.0
  3
SLDDIMSTYLE0
100
AcDbAlignedDimension
 13
22.73205080756887
 23
-1.99999999999994
 33
0.0
 14
22.73205080756887
 24
2.000000000000058
 34
0.0
 50
90.0000000000002
100
AcDbRotatedDimension
  0
DIMENSION
  5
EA
330
1F
100
AcDbEntity
  8
치수문자_일반주서
100
AcDbDimension
  2
_D_1
 10
22.73205080756887
 20
24.23841044024269
 30
0.0
 11
-12.26794919243114
 21
24.23841044024269
 31
0.0
 70
   160
  1
<>
 71
     2
 42
70.0
  3
SLDDIMSTYLE1
100
AcDbAlignedDimension
 13
-47.26794919243114
 23
2.449999999999994
 33
0.0
 14
22.73205080756887
 24
2.000000000000058
 34
0.0
 50
-0.0000000000000058
100
AcDbRotatedDimension
  0
DIMENSION
  5
F5
330
1F
100
AcDbEntity
  8
치수문자_일반주서
100
AcDbDimension
  2
_D_2
 10
22.73205080756887
 20
14.93996340482467
 30
0.0
 11
14.73205080756887
 21
14.93996340482467
 31
0.0
 70
   160
  1
<>
 71
     2
 42
16.0
  3
SLDDIMSTYLE0
100
AcDbAlignedDimension
 13
6.732050807568866
 23
1.592965598657154
 33
0.0
 14
22.73205080756887
 24
2.000000000000058
 34
0.0
100
AcDbRotatedDimension
  0
DIMENSION
  5
101
330
1F
100
AcDbEntity
  8
치수문자_일반주서
100
AcDbDimension
  2
_D_3
 10
-58.77947719687052
 20
-3.000000000000046
 30
0.0
 11
-58.77947719687058
 21
12.66649999999995
 31
0.0
 70
   160
  1
%%c<>
 71
     2
 42
5.999999999999995
 52
-270.0
  3
SLDDIMSTYLE0
100
AcDbAlignedDimension
 13
-46.71794919243113
 23
2.999999999999994
 33
0.0
 14
-46.71794919243113
 24
-3.0
 34
0.0
 50
90.0000000000002
100
AcDbRotatedDimension
  0
INSERT
  5
114
330
1F
100
AcDbEntity
  8
외형선
100
AcDbBlockReference
  2
SW_DOWELSYMBOL_0
 10
0.0000000000000104
 20
0.0
 30
0.0
  0
ENDSEC
  0
SECTION
  2
OBJECTS
  0
DICTIONARY
  5
C
330
0
100
AcDbDictionary
281
     1
  3
ACAD_GROUP
350
D
  3
ACAD_IMAGE_VARS
350
138
  3
ACAD_LAYOUT
350
1A
  3
ACAD_MLINESTYLE
350
17
  3
ACAD_PLOTSETTINGS
350
19
  3
ACAD_PLOTSTYLENAME
350
E
  3
ACAD_SCALELIST
350
47
  3
APPDATA
350
136
  3
DWGPROPS
350
145
  0
DICTIONARY
  5
D
102
{ACAD_REACTORS
330
C
102
}
330
C
100
AcDbDictionary
281
     1
  0
RASTERVARIABLES
  5
138
102
{ACAD_REACTORS
330
C
102
}
330
C
100
AcDbRasterVariables
 90
        0
 70
     1
 71
     1
 72
     1
  0
DICTIONARY
  5
1A
102
{ACAD_REACTORS
330
C
102
}
330
C
100
AcDbDictionary
281
     1
  3
Layout1
350
1E
  3
Layout2
350
26
  3
Model
350
22
  0
DICTIONARY
  5
17
102
{ACAD_REACTORS
330
C
102
}
330
C
100
AcDbDictionary
281
     1
  3
Standard
350
18
  0
DICTIONARY
  5
19
102
{ACAD_REACTORS
330
C
102
}
330
C
100
AcDbDictionary
281
     1
  0
ACDBDICTIONARYWDFLT
  5
E
102
{ACAD_REACTORS
330
C
102
}
330
C
100
AcDbDictionary
281
     1
  3
Normal
350
F
100
AcDbDictionaryWithDefault
340
F
  0
DICTIONARY
  5
47
102
{ACAD_REACTORS
330
C
102
}
330
C
100
AcDbDictionary
281
     1
  3
A0
350
48
  3
A1
350
49
  3
A2
350
4A
  3
A3
350
4B
  3
A4
350
4C
  3
A5
350
4D
  3
A6
350
4E
  3
A7
350
4F
  3
A8
350
50
  3
A9
350
51
  3
B0
350
52
  3
B1
350
53
  3
B2
350
54
  3
B3
350
55
  3
B4
350
56
  3
B5
350
57
  3
B6
350
58
  3
B7
350
59
  3
B8
350
5A
  3
B9
350
5B
  3
C0
350
5C
  3
C1
350
5D
  3
C2
350
5E
  3
C3
350
5F
  3
C4
350
60
  3
C5
350
61
  3
C6
350
62
  3
C7
350
63
  3
C8
350
64
  3
C9
350
65
  3
D0
350
66
  3
D1
350
67
  3
D2
350
68
  0
DICTIONARY
  5
136
102
{ACAD_REACTORS
330
C
102
}
330
C
100
AcDbDictionary
281
     1
  0
XRECORD
  5
145
102
{ACAD_REACTORS
330
C
102
}
330
C
100
AcDbXrecord
280
     1
  1
DWGPROPS COOKIE
  2

  3

  4

  6

  7

  8
12014102
  9

300
=
301
=
302
=
303
=
304
=
305
=
306
=
307
=
308
=
309
=
 40
0.0
 41
2458262.163725845
 42
2458266.005488854
  1

 90
        0
  0
LAYOUT
  5
1E
102
{ACAD_REACTORS
330
1A
102
}
330
1A
100
AcDbPlotSettings
  1

  2
none_device
  4

  6

 40
0.0
 41
0.0
 42
0.0
 43
0.0
 44
0.0
 45
0.0
 46
0.0
 47
0.0
 48
0.0
 49
0.0
140
0.0
141
0.0
142
1.0
143
1.0
 70
   688
 72
     1
 73
     0
 74
     5
  7

 75
    16
147
1.0
148
0.0
149
0.0
100
AcDbLayout
  1
Layout1
 70
     1
 71
     1
 10
0.0
 20
0.0
 11
420.0
 21
297.0
 12
0.0
 22
0.0
 32
0.0
 14
1.000000000000000E+20
 24
1.000000000000000E+20
 34
1.000000000000000E+20
 15
-1.000000000000000E+20
 25
-1.000000000000000E+20
 35
-1.000000000000000E+20
146
0.0
 13
0.0
 23
0.0
 33
0.0
 16
1.0
 26
0.0
 36
0.0
 17
0.0
 27
1.0
 37
0.0
 76
     0
330
1B
  0
LAYOUT
  5
26
102
{ACAD_REACTORS
330
1A
102
}
330
1A
100
AcDbPlotSettings
  1

  2
none_device
  4

  6

 40
0.0
 41
0.0
 42
0.0
 43
0.0
 44
0.0
 45
0.0
 46
0.0
 47
0.0
 48
0.0
 49
0.0
140
0.0
141
0.0
142
1.0
143
1.0
 70
   688
 72
     1
 73
     0
 74
     5
  7

 75
    16
147
1.0
148
0.0
149
0.0
100
AcDbLayout
  1
Layout2
 70
     1
 71
     2
 10
0.0
 20
0.0
 11
0.0
 21
0.0
 12
0.0
 22
0.0
 32
0.0
 14
0.0
 24
0.0
 34
0.0
 15
0.0
 25
0.0
 35
0.0
146
0.0
 13
0.0
 23
0.0
 33
0.0
 16
1.0
 26
0.0
 36
0.0
 17
0.0
 27
1.0
 37
0.0
 76
     0
330
23
  0
LAYOUT
  5
22
102
{ACAD_REACTORS
330
1A
102
}
330
1A
100
AcDbPlotSettings
  1

  2
none_device
  4
ANSI_A_(11.00_x_8.50_Inches)
  6

 40
6.35
 41
19.05
 42
6.35000508
 43
19.05000254
 44
279.4
 45
215.9
 46
151.1444528544882
 47
118.4377884955873
 48
0.0
 49
0.0
140
0.0
141
0.0
142
0.1058944507156154
143
1.0
 70
  1696
 72
     0
 73
     0
 74
     0
  7

 75
     0
147
0.0235690232323232
148
0.0
149
0.0
100
AcDbLayout
  1
Model
 70
     1
 71
     0
 10
0.0
 20
0.0
 11
420.0
 21
297.0
 12
0.0
 22
0.0
 32
0.0
 14
-63.15447719687059
 24
-49.97073246008785
 34
0.0
 15
33.85715708724063
 25
28.61341044024269
 35
0.0
146
0.0
 13
0.0
 23
0.0
 33
0.0
 16
1.0
 26
0.0
 36
0.0
 17
0.0
 27
1.0
 37
0.0
 76
     0
330
1F
331
29
  0
MLINESTYLE
  5
18
102
{ACAD_REACTORS
330
17
102
}
330
17
100
AcDbMlineStyle
  2
Standard
 70
     0
  3

 62
   256
 51
90.0
 52
90.0
 71
     2
 49
0.5
 62
   256
  6
BYLAYER
 49
-0.5
 62
   256
  6
BYLAYER
  0
ACDBPLACEHOLDER
  5
F
102
{ACAD_REACTORS
330
E
102
}
330
E
  0
SCALE
  5
48
102
{ACAD_REACTORS
330
47
102
}
330
47
100
AcDbScale
 70
     0
300
1:1
140
1.0
141
1.0
290
     1
  0
SCALE
  5
49
102
{ACAD_REACTORS
330
47
102
}
330
47
100
AcDbScale
 70
     0
300
1:2
140
1.0
141
2.0
290
     0
  0
SCALE
  5
4A
102
{ACAD_REACTORS
330
47
102
}
330
47
100
AcDbScale
 70
     0
300
1:4
140
1.0
141
4.0
290
     0
  0
SCALE
  5
4B
102
{ACAD_REACTORS
330
47
102
}
330
47
100
AcDbScale
 70
     0
300
1:5
140
1.0
141
5.0
290
     0
  0
SCALE
  5
4C
102
{ACAD_REACTORS
330
47
102
}
330
47
100
AcDbScale
 70
     0
300
1:8
140
1.0
141
8.0
290
     0
  0
SCALE
  5
4D
102
{ACAD_REACTORS
330
47
102
}
330
47
100
AcDbScale
 70
     0
300
1:10
140
1.0
141
10.0
290
     0
  0
SCALE
  5
4E
102
{ACAD_REACTORS
330
47
102
}
330
47
100
AcDbScale
 70
     0
300
1:16
140
1.0
141
16.0
290
     0
  0
SCALE
  5
4F
102
{ACAD_REACTORS
330
47
102
}
330
47
100
AcDbScale
 70
     0
300
1:20
140
1.0
141
20.0
290
     0
  0
SCALE
  5
50
102
{ACAD_REACTORS
330
47
102
}
330
47
100
AcDbScale
 70
     0
300
1:30
140
1.0
141
30.0
290
     0
  0
SCALE
  5
51
102
{ACAD_REACTORS
330
47
102
}
330
47
100
AcDbScale
 70
     0
300
1:40
140
1.0
141
40.0
290
     0
  0
SCALE
  5
52
102
{ACAD_REACTORS
330
47
102
}
330
47
100
AcDbScale
 70
     0
300
1:50
140
1.0
141
50.0
290
     0
  0
SCALE
  5
53
102
{ACAD_REACTORS
330
47
102
}
330
47
100
AcDbScale
 70
     0
300
1:100
140
1.0
141
100.0
290
     0
  0
SCALE
  5
54
102
{ACAD_REACTORS
330
47
102
}
330
47
100
AcDbScale
 70
     0
300
2:1
140
2.0
141
1.0
290
     0
  0
SCALE
  5
55
102
{ACAD_REACTORS
330
47
102
}
330
47
100
AcDbScale
 70
     0
300
4:1
140
4.0
141
1.0
290
     0
  0
SCALE
  5
56
102
{ACAD_REACTORS
330
47
102
}
330
47
100
AcDbScale
 70
     0
300
8:1
140
8.0
141
1.0
290
     0
  0
SCALE
  5
57
102
{ACAD_REACTORS
330
47
102
}
330
47
100
AcDbScale
 70
     0
300
10:1
140
10.0
141
1.0
290
     0
  0
SCALE
  5
58
102
{ACAD_REACTORS
330
47
102
}
330
47
100
AcDbScale
 70
     0
300
100:1
140
100.0
141
1.0
290
     0
  0
SCALE
  5
59
102
{ACAD_REACTORS
330
47
102
}
330
47
100
AcDbScale
 70
     0
300
1/128" = 1'-0"
140
0.0078125
141
12.0
290
     0
  0
SCALE
  5
5A
102
{ACAD_REACTORS
330
47
102
}
330
47
100
AcDbScale
 70
     0
300
1/64" = 1'-0"
140
0.015625
141
12.0
290
     0
  0
SCALE
  5
5B
102
{ACAD_REACTORS
330
47
102
}
330
47
100
AcDbScale
 70
     0
300
1/32" = 1'-0"
140
0.03125
141
12.0
290
     0
  0
SCALE
  5
5C
102
{ACAD_REACTORS
330
47
102
}
330
47
100
AcDbScale
 70
     0
300
1/16" = 1'-0"
140
0.0625
141
12.0
290
     0
  0
SCALE
  5
5D
102
{ACAD_REACTORS
330
47
102
}
330
47
100
AcDbScale
 70
     0
300
3/32" = 1'-0"
140
0.09375
141
12.0
290
     0
  0
SCALE
  5
5E
102
{ACAD_REACTORS
330
47
102
}
330
47
100
AcDbScale
 70
     0
300
1/8" = 1'-0"
140
0.125
141
12.0
290
     0
  0
SCALE
  5
5F
102
{ACAD_REACTORS
330
47
102
}
330
47
100
AcDbScale
 70
     0
300
3/16" = 1'-0"
140
0.1875
141
12.0
290
     0
  0
SCALE
  5
60
102
{ACAD_REACTORS
330
47
102
}
330
47
100
AcDbScale
 70
     0
300
1/4" = 1'-0"
140
0.25
141
12.0
290
     0
  0
SCALE
  5
61
102
{ACAD_REACTORS
330
47
102
}
330
47
100
AcDbScale
 70
     0
300
3/8" = 1'-0"
140
0.375
141
12.0
290
     0
  0
SCALE
  5
62
102
{ACAD_REACTORS
330
47
102
}
330
47
100
AcDbScale
 70
     0
300
1/2" = 1'-0"
140
0.5
141
12.0
290
     0
  0
SCALE
  5
63
102
{ACAD_REACTORS
330
47
102
}
330
47
100
AcDbScale
 70
     0
300
3/4" = 1'-0"
140
0.75
141
12.0
290
     0
  0
SCALE
  5
64
102
{ACAD_REACTORS
330
47
102
}
330
47
100
AcDbScale
 70
     0
300
1" = 1'-0"
140
1.0
141
12.0
290
     0
  0
SCALE
  5
65
102
{ACAD_REACTORS
330
47
102
}
330
47
100
AcDbScale
 70
     0
300
1-1/2" = 1'-0"
140
1.5
141
12.0
290
     0
  0
SCALE
  5
66
102
{ACAD_REACTORS
330
47
102
}
330
47
100
AcDbScale
 70
     0
300
3" = 1'-0"
140
3.0
141
12.0
290
     0
  0
SCALE
  5
67
102
{ACAD_REACTORS
330
47
102
}
330
47
100
AcDbScale
 70
     0
300
6" = 1'-0"
140
6.0
141
12.0
290
     0
  0
SCALE
  5
68
102
{ACAD_REACTORS
330
47
102
}
330
47
100
AcDbScale
 70
     0
300
1'-0" = 1'-0"
140
12.0
141
12.0
290
     0
  0
ENDSEC
  0
EOF
