  0
SECTION
  2
HEADER
  9
$ACADVER
  1
AC1015
  9
$ACADMAINTVER
 70
     6
  9
$DWGCODEPAGE
  3
ANSI_949
  9
$INSBASE
 10
0.0
 20
0.0
 30
0.0
  9
$EXTMIN
 10
-61.06398829081087
 20
-49.97073246008785
 30
0.0
  9
$EXTMAX
 10
34.17326378182331
 20
28.61341044024268
 30
0.0
  9
$LIMMIN
 10
0.0
 20
0.0
  9
$LIMMAX
 10
420.0
 20
297.0
  9
$ORTHOMODE
 70
     0
  9
$REGENMODE
 70
     1
  9
$FILLMODE
 70
     1
  9
$QTEXTMODE
 70
     0
  9
$MIRRTEXT
 70
     1
  9
$LTSCALE
 40
1.0
  9
$ATTMODE
 70
     1
  9
$TEXTSIZE
 40
3.5
  9
$TRACEWID
 40
1.0
  9
$TEXTSTYLE
  7
Standard
  9
$CLAYER
  8
0
  9
$CELTYPE
  6
ByLayer
  9
$CECOLOR
 62
   256
  9
$CELTSCALE
 40
1.0
  9
$DISPSILH
 70
     0
  9
$DIMSCALE
 40
1.0
  9
$DIMASZ
 40
3.302
  9
$DIMEXO
 40
1.0
  9
$DIMDLI
 40
3.75
  9
$DIMRND
 40
0.0
  9
$DIMDLE
 40
0.0
  9
$DIMEXE
 40
1.0
  9
$DIMTP
 40
0.0
  9
$DIMTM
 40
0.0
  9
$DIMTXT
 40
3.5
  9
$DIMCEN
 40
2.5
  9
$DIMTSZ
 40
0.0
  9
$DIMTOL
 70
     0
  9
$DIMLIM
 70
     0
  9
$DIMTIH
 70
     1
  9
$DIMTOH
 70
     1
  9
$DIMSE1
 70
     0
  9
$DIMSE2
 70
     0
  9
$DIMTAD
 70
     1
  9
$DIMZIN
 70
     0
  9
$DIMBLK
  1

  9
$DIMASO
 70
     1
  9
$DIMSHO
 70
     1
  9
$DIMPOST
  1

  9
$DIMAPOST
  1

  9
$DIMALT
 70
     0
  9
$DIMALTD
 70
     3
  9
$DIMALTF
 40
0.0393700787401575
  9
$DIMLFAC
 40
1.0
  9
$DIMTOFL
 70
     1
  9
$DIMTVP
 40
0.0
  9
$DIMTIX
 70
     0
  9
$DIMSOXD
 70
     0
  9
$DIMSAH
 70
     0
  9
$DIMBLK1
  1

  9
$DIMBLK2
  1

  9
$DIMSTYLE
  2
ISO-25
  9
$DIMCLRD
 70
     0
  9
$DIMCLRE
 70
     0
  9
$DIMCLRT
 70
     0
  9
$DIMTFAC
 40
1.0
  9
$DIMGAP
 40
1.524
  9
$DIMJUST
 70
     0
  9
$DIMSD1
 70
     0
  9
$DIMSD2
 70
     0
  9
$DIMTOLJ
 70
     0
  9
$DIMTZIN
 70
     0
  9
$DIMALTZ
 70
     0
  9
$DIMALTTZ
 70
     0
  9
$DIMUPT
 70
     0
  9
$DIMDEC
 70
     2
  9
$DIMTDEC
 70
     2
  9
$DIMALTU
 70
     2
  9
$DIMALTTD
 70
     3
  9
$DIMTXSTY
  7
Standard
  9
$DIMAUNIT
 70
     0
  9
$DIMADEC
 70
     2
  9
$DIMALTRND
 40
0.0
  9
$DIMAZIN
 70
     0
  9
$DIMDSEP
 70
    44
  9
$DIMATFIT
 70
     3
  9
$DIMFRAC
 70
     0
  9
$DIMLDRBLK
  1

  9
$DIMLUNIT
 70
     2
  9
$DIMLWD
 70
    -2
  9
$DIMLWE
 70
    -2
  9
$DIMTMOVE
 70
     0
  9
$LUNITS
 70
     2
  9
$LUPREC
 70
     2
  9
$SKETCHINC
 40
1.0
  9
$FILLETRAD
 40
10.0
  9
$AUNITS
 70
     0
  9
$AUPREC
 70
     2
  9
$MENU
  1
.
  9
$ELEVATION
 40
0.0
  9
$PELEVATION
 40
0.0
  9
$THICKNESS
 40
0.0
  9
$LIMCHECK
 70
     0
  9
$CHAMFERA
 40
0.0
  9
$CHAMFERB
 40
0.0
  9
$CHAMFERC
 40
0.0
  9
$CHAMFERD
 40
0.0
  9
$SKPOLY
 70
     0
  9
$TDCREATE
 40
2458262.539664861
  9
$TDUCREATE
 40
2458262.164664861
  9
$TDUPDATE
 40
2458266.387397257
  9
$TDUUPDATE
 40
2458266.012397257
  9
$TDINDWG
 40
0.00176875
  9
$TDUSRTIMER
 40
2458266.010628541
  9
$USRTIMER
 70
     1
  9
$ANGBASE
 50
0.0
  9
$ANGDIR
 70
     0
  9
$PDMODE
 70
     0
  9
$PDSIZE
 40
-1.0
  9
$PLINEWID
 40
0.0
  9
$SPLFRAME
 70
     0
  9
$SPLINETYPE
 70
     6
  9
$SPLINESEGS
 70
     8
  9
$HANDSEED
  5
142
  9
$SURFTAB1
 70
     6
  9
$SURFTAB2
 70
     6
  9
$SURFTYPE
 70
     6
  9
$SURFU
 70
     6
  9
$SURFV
 70
     6
  9
$UCSBASE
  2

  9
$UCSNAME
  2

  9
$UCSORG
 10
0.0
 20
0.0
 30
0.0
  9
$UCSXDIR
 10
1.0
 20
0.0
 30
0.0
  9
$UCSYDIR
 10
0.0
 20
1.0
 30
0.0
  9
$UCSORTHOREF
  2

  9
$UCSORTHOVIEW
 70
     0
  9
$UCSORGTOP
 10
0.0
 20
0.0
 30
0.0
  9
$UCSORGBOTTOM
 10
0.0
 20
0.0
 30
0.0
  9
$UCSORGLEFT
 10
0.0
 20
0.0
 30
0.0
  9
$UCSORGRIGHT
 10
0.0
 20
0.0
 30
0.0
  9
$UCSORGFRONT
 10
0.0
 20
0.0
 30
0.0
  9
$UCSORGBACK
 10
0.0
 20
0.0
 30
0.0
  9
$PUCSBASE
  2

  9
$PUCSNAME
  2

  9
$PUCSORG
 10
0.0
 20
0.0
 30
0.0
  9
$PUCSXDIR
 10
1.0
 20
0.0
 30
0.0
  9
$PUCSYDIR
 10
0.0
 20
1.0
 30
0.0
  9
$PUCSORTHOREF
  2

  9
$PUCSORTHOVIEW
 70
     0
  9
$PUCSORGTOP
 10
0.0
 20
0.0
 30
0.0
  9
$PUCSORGBOTTOM
 10
0.0
 20
0.0
 30
0.0
  9
$PUCSORGLEFT
 10
0.0
 20
0.0
 30
0.0
  9
$PUCSORGRIGHT
 10
0.0
 20
0.0
 30
0.0
  9
$PUCSORGFRONT
 10
0.0
 20
0.0
 30
0.0
  9
$PUCSORGBACK
 10
0.0
 20
0.0
 30
0.0
  9
$USERI1
 70
     0
  9
$USERI2
 70
     0
  9
$USERI3
 70
     0
  9
$USERI4
 70
     0
  9
$USERI5
 70
     0
  9
$USERR1
 40
0.0
  9
$USERR2
 40
0.0
  9
$USERR3
 40
0.0
  9
$USERR4
 40
0.0
  9
$USERR5
 40
0.0
  9
$WORLDVIEW
 70
     1
  9
$SHADEDGE
 70
     3
  9
$SHADEDIF
 70
    70
  9
$TILEMODE
 70
     1
  9
$MAXACTVP
 70
    64
  9
$PINSBASE
 10
0.0
 20
0.0
 30
0.0
  9
$PLIMCHECK
 70
     0
  9
$PEXTMIN
 10
1.000000000000000E+20
 20
1.000000000000000E+20
 30
1.000000000000000E+20
  9
$PEXTMAX
 10
-1.000000000000000E+20
 20
-1.000000000000000E+20
 30
-1.000000000000000E+20
  9
$PLIMMIN
 10
0.0
 20
0.0
  9
$PLIMMAX
 10
0.0
 20
0.0
  9
$UNITMODE
 70
     0
  9
$VISRETAIN
 70
     1
  9
$PLINEGEN
 70
     0
  9
$PSLTSCALE
 70
     1
  9
$TREEDEPTH
 70
  3020
  9
$CMLSTYLE
  2
Standard
  9
$CMLJUST
 70
     0
  9
$CMLSCALE
 40
20.0
  9
$PROXYGRAPHICS
 70
     1
  9
$MEASUREMENT
 70
     1
  9
$CELWEIGHT
370
    -1
  9
$ENDCAPS
280
     0
  9
$JOINSTYLE
280
     0
  9
$LWDISPLAY
290
     1
  9
$INSUNITS
 70
     4
  9
$HYPERLINKBASE
  1

  9
$STYLESHEET
  1

  9
$XEDIT
290
     1
  9
$CEPSNTYPE
380
     0
  9
$PSTYLEMODE
290
     1
  9
$FINGERPRINTGUID
  2
{28BAE603-872F-4A23-9910-FCD8AC53D14D}
  9
$VERSIONGUID
  2
{FAEB1C32-E019-11D5-929B-00C0DF256EC4}
  9
$EXTNAMES
290
     1
  9
$PSVPSCALE
 40
0.0
  9
$OLESTARTUP
290
     0
  0
ENDSEC
  0
SECTION
  2
CLASSES
  0
CLASS
  1
ACDBDICTIONARYWDFLT
  2
AcDbDictionaryWithDefault
  3
ObjectDBX Classes
 90
        0
280
     0
281
     0
  0
CLASS
  1
VISUALSTYLE
  2
AcDbVisualStyle
  3
ObjectDBX Classes
 90
     4095
280
     0
281
     0
  0
CLASS
  1
MATERIAL
  2
AcDbMaterial
  3
ObjectDBX Classes
 90
     1153
280
     0
281
     0
  0
CLASS
  1
SCALE
  2
AcDbScale
  3
ObjectDBX Classes
 90
     1153
280
     0
281
     0
  0
CLASS
  1
SUN
  2
AcDbSun
  3
SCENEOE
 90
     1153
280
     0
281
     0
  0
CLASS
  1
ACDBPLACEHOLDER
  2
AcDbPlaceHolder
  3
ObjectDBX Classes
 90
        0
280
     0
281
     0
  0
CLASS
  1
LAYOUT
  2
AcDbLayout
  3
ObjectDBX Classes
 90
        0
280
     0
281
     0
  0
CLASS
  1
TABLESTYLE
  2
AcDbTableStyle
  3
ObjectDBX Classes
 90
     4095
280
     0
281
     0
  0
CLASS
  1
MLEADERSTYLE
  2
AcDbMLeaderStyle
  3
ACDB_MLEADERSTYLE_CLASS
 90
     4095
280
     0
281
     0
  0
CLASS
  1
RASTERVARIABLES
  2
AcDbRasterVariables
  3
ISM
 90
        0
280
     0
281
     0
  0
ENDSEC
  0
SECTION
  2
TABLES
  0
TABLE
  2
VPORT
  5
8
330
0
100
AcDbSymbolTable
 70
     1
  0
VPORT
  5
29
330
8
100
AcDbSymbolTableRecord
100
AcDbViewportTableRecord
  2
*Active
 70
     0
 10
0.0
 20
0.0
 11
1.0
 21
1.0
 12
-13.44536225449378
 22
-10.67866100992259
 13
0.0
 23
0.0
 14
10.0
 24
10.0
 15
10.0
 25
10.0
 16
0.0
 26
0.0
 36
1.0
 17
0.0
 27
0.0
 37
0.0
 40
84.29137417746999
 41
1.152454780361757
 42
50.0
 43
0.0
 44
0.0
 50
0.0
 51
0.0
 71
    16
 72
  2000
 73
     1
 74
     3
 75
     0
 76
     0
 77
     0
 78
     0
281
     0
 65
     1
110
0.0
120
0.0
130
0.0
111
1.0
121
0.0
131
0.0
112
0.0
122
1.0
132
0.0
 79
     0
146
0.0
  0
ENDTAB
  0
TABLE
  2
LTYPE
  5
5
330
0
100
AcDbSymbolTable
 70
     6
  0
LTYPE
  5
14
330
5
100
AcDbSymbolTableRecord
100
AcDbLinetypeTableRecord
  2
ByBlock
 70
     0
  3

 72
    65
 73
     0
 40
0.0
  0
LTYPE
  5
15
330
5
100
AcDbSymbolTableRecord
100
AcDbLinetypeTableRecord
  2
ByLayer
 70
     0
  3

 72
    65
 73
     0
 40
0.0
  0
LTYPE
  5
16
330
5
100
AcDbSymbolTableRecord
100
AcDbLinetypeTableRecord
  2
Continuous
 70
     0
  3
Solid line
 72
    65
 73
     0
 40
0.0
  0
LTYPE
  5
6A
330
5
100
AcDbSymbolTableRecord
100
AcDbLinetypeTableRecord
  2
HIDDEN
 70
     0
  3
Hidden __ __ __ __ __ __ __ __ __ __ __ __ __ __
 72
    65
 73
     2
 40
1.905
 49
1.27
 74
     0
 49
-0.635
 74
     0
  0
LTYPE
  5
6B
330
5
100
AcDbSymbolTableRecord
100
AcDbLinetypeTableRecord
  2
PHANTOM
 70
     0
  3
Phantom ______  __  __  ______  __  __  ______
 72
    65
 73
     6
 40
12.7
 49
6.35
 74
     0
 49
-1.27
 74
     0
 49
1.27
 74
     0
 49
-1.27
 74
     0
 49
1.27
 74
     0
 49
-1.27
 74
     0
  0
LTYPE
  5
6C
330
5
100
AcDbSymbolTableRecord
100
AcDbLinetypeTableRecord
  2
CENTER
 70
     0
  3
Center ____ _ ____ _ ____ _ ____ _ ____ _ ____
 72
    65
 73
     4
 40
10.16
 49
6.35
 74
     0
 49
-1.27
 74
     0
 49
1.27
 74
     0
 49
-1.27
 74
     0
  0
LTYPE
  5
6D
330
5
100
AcDbSymbolTableRecord
100
AcDbLinetypeTableRecord
  2
CENTERX2
 70
     0
  3
Center (2x) ________  __  ________  __  _____
 72
    65
 73
     4
 40
20.32
 49
12.7
 74
     0
 49
-2.54
 74
     0
 49
2.54
 74
     0
 49
-2.54
 74
     0
  0
LTYPE
  5
6E
330
5
100
AcDbSymbolTableRecord
100
AcDbLinetypeTableRecord
  2
DOT2
 70
     0
  3
Dot (.5x) ........................................
 72
    65
 73
     2
 40
0.635
 49
0.0
 74
     0
 49
-0.635
 74
     0
  0
ENDTAB
  0
TABLE
  2
LAYER
  5
2
330
0
100
AcDbSymbolTable
 70
    17
  0
LAYER
  5
10
330
2
100
AcDbSymbolTableRecord
100
AcDbLayerTableRecord
  2
0
 70
     0
 62
     7
  6
Continuous
370
    -3
390
F
  0
LAYER
  5
6F
330
2
100
AcDbSymbolTableRecord
100
AcDbLayerTableRecord
  2
FORMAT
 70
     0
 62
     2
  6
Continuous
370
    -3
390
F
  0
LAYER
  5
70
330
2
100
AcDbSymbolTableRecord
100
AcDbLayerTableRecord
  2
외형선
 70
     0
 62
   100
  6
Continuous
370
    30
390
F
  0
LAYER
  5
71
330
2
100
AcDbSymbolTableRecord
100
AcDbLayerTableRecord
  2
숨은선
 70
     0
 62
     2
  6
HIDDEN
370
    15
390
F
  0
LAYER
  5
72
330
2
100
AcDbSymbolTableRecord
100
AcDbLayerTableRecord
  2
중심선
 70
     0
 62
     1
  6
CENTERX2
370
    -3
390
F
  0
LAYER
  5
73
330
2
100
AcDbSymbolTableRecord
100
AcDbLayerTableRecord
  2
파단선
 70
     0
 62
     4
  6
Continuous
370
    -3
390
F
  0
LAYER
  5
74
330
2
100
AcDbSymbolTableRecord
100
AcDbLayerTableRecord
  2
해칭선
 70
     0
 62
     4
  6
Continuous
370
    -3
390
F
  0
LAYER
  5
75
330
2
100
AcDbSymbolTableRecord
100
AcDbLayerTableRecord
  2
가는실선
 70
     0
 62
     4
  6
Continuous
370
    -3
390
F
  0
LAYER
  5
76
330
2
100
AcDbSymbolTableRecord
100
AcDbLayerTableRecord
  2
치수_보조선
 70
     0
 62
     4
  6
Continuous
370
    -3
390
F
  0
LAYER
  5
77
330
2
100
AcDbSymbolTableRecord
100
AcDbLayerTableRecord
  2
치수문자_일반주서
 70
     0
 62
     7
  6
Continuous
370
    15
390
F
  0
LAYER
  5
78
330
2
100
AcDbSymbolTableRecord
100
AcDbLayerTableRecord
  2
개별주서
 70
     0
 62
   100
  6
Continuous
370
    30
390
F
  0
LAYER
  5
79
330
2
100
AcDbSymbolTableRecord
100
AcDbLayerTableRecord
  2
중간선
 70
     0
 62
     2
  6
Continuous
370
    15
390
F
  0
LAYER
  5
7A
330
2
100
AcDbSymbolTableRecord
100
AcDbLayerTableRecord
  2
윤곽선
 70
     0
 62
     3
  6
Continuous
370
    40
390
F
  0
LAYER
  5
7B
330
2
100
AcDbSymbolTableRecord
100
AcDbLayerTableRecord
  2
중심마크
 70
     0
 62
   100
  6
Continuous
370
    30
390
F
  0
LAYER
  5
7C
330
2
100
AcDbSymbolTableRecord
100
AcDbLayerTableRecord
  2
가상선
 70
     0
 62
     4
  6
PHANTOM
370
    -3
390
F
  0
LAYER
  5
7D
330
2
100
AcDbSymbolTableRecord
100
AcDbLayerTableRecord
  2
특수지정선
 70
     0
 62
     5
  6
CENTERX2
370
    60
390
F
  0
LAYER
  5
133
330
2
100
AcDbSymbolTableRecord
100
AcDbLayerTableRecord
  2
Defpoints
 70
     0
 62
     7
  6
Continuous
290
     0
370
    -3
390
F
  0
ENDTAB
  0
TABLE
  2
STYLE
  5
3
330
0
100
AcDbSymbolTable
 70
     2
  0
STYLE
  5
11
330
3
100
AcDbSymbolTableRecord
100
AcDbTextStyleTableRecord
  2
Standard
 70
     0
 40
0.0
 41
1.0
 50
0.0
 71
     0
 42
3.5
  3
txt
  4

  0
STYLE
  5
93
330
3
100
AcDbSymbolTableRecord
100
AcDbTextStyleTableRecord
  2
SLDTEXTSTYLE0
 70
     0
 40
0.0
 41
0.75
 50
0.0
 71
     0
 42
3.5
  3
TXT
  4

  0
ENDTAB
  0
TABLE
  2
VIEW
  5
6
330
0
100
AcDbSymbolTable
 70
     0
  0
ENDTAB
  0
TABLE
  2
UCS
  5
7
330
0
100
AcDbSymbolTable
 70
     0
  0
ENDTAB
  0
TABLE
  2
APPID
  5
9
330
0
100
AcDbSymbolTable
 70
     1
  0
APPID
  5
12
330
9
100
AcDbSymbolTableRecord
100
AcDbRegAppTableRecord
  2
ACAD
 70
     0
  0
ENDTAB
  0
TABLE
  2
DIMSTYLE
  5
A
330
0
100
AcDbSymbolTable
 70
     3
100
AcDbDimStyleTable
  0
DIMSTYLE
105
27
330
A
100
AcDbSymbolTableRecord
100
AcDbDimStyleTableRecord
  2
ISO-25
 70
     0
 41
2.5
 42
0.625
 43
3.75
 44
1.25
 73
     0
 74
     0
 77
     1
 78
     8
140
2.5
141
2.5
143
0.03937007874016
147
0.625
171
     3
172
     1
178
     0
271
     2
272
     2
274
     3
278
    44
283
     0
284
     8
340
11
  0
DIMSTYLE
105
D9
102
{ACAD_REACTORS
330
D8
330
F1
330
FB
102
}
330
A
100
AcDbSymbolTableRecord
100
AcDbDimStyleTableRecord
  2
SLDDIMSTYLE0
 70
     0
 41
3.302
 44
0.0
 45
0.000000001
 73
     0
 74
     0
 77
     1
 78
    12
 79
     3
140
3.5
147
0.875
172
     1
173
     1
178
     0
271
     2
272
     2
276
     2
284
    12
289
     0
340
93
  0
DIMSTYLE
105
E7
102
{ACAD_REACTORS
330
E6
102
}
330
A
100
AcDbSymbolTableRecord
100
AcDbDimStyleTableRecord
  2
SLDDIMSTYLE1
 70
     0
 41
3.302
 44
0.0
 45
0.000000001
 73
     0
 74
     0
 77
     1
 78
    12
 79
     3
140
3.5
147
0.875
173
     1
178
     0
271
     2
272
     2
276
     2
284
    12
340
93
  0
ENDTAB
  0
TABLE
  2
BLOCK_RECORD
  5
1
330
0
100
AcDbSymbolTable
 70
     7
  0
BLOCK_RECORD
  5
1F
330
1
100
AcDbSymbolTableRecord
100
AcDbBlockTableRecord
  2
*Model_Space
340
22
  0
BLOCK_RECORD
  5
1B
330
1
100
AcDbSymbolTableRecord
100
AcDbBlockTableRecord
  2
*Paper_Space
340
1E
  0
BLOCK_RECORD
  5
23
330
1
100
AcDbSymbolTableRecord
100
AcDbBlockTableRecord
  2
*Paper_Space0
340
26
  0
BLOCK_RECORD
  5
7E
330
1
100
AcDbSymbolTableRecord
100
AcDbBlockTableRecord
  2
블럭10
340
0
102
{BLKREFS
331
D1
102
}
  0
BLOCK_RECORD
  5
DA
330
1
100
AcDbSymbolTableRecord
100
AcDbBlockTableRecord
  2
_D
340
0
  0
BLOCK_RECORD
  5
E8
330
1
100
AcDbSymbolTableRecord
100
AcDbBlockTableRecord
  2
_D_1
340
0
  0
BLOCK_RECORD
  5
F2
330
1
100
AcDbSymbolTableRecord
100
AcDbBlockTableRecord
  2
_D_2
340
0
  0
BLOCK_RECORD
  5
FC
330
1
100
AcDbSymbolTableRecord
100
AcDbBlockTableRecord
  2
_D_3
340
0
  0
BLOCK_RECORD
  5
108
330
1
100
AcDbSymbolTableRecord
100
AcDbBlockTableRecord
  2
SW_DOWELSYMBOL_0
340
0
102
{BLKREFS
331
10E
102
}
  0
ENDTAB
  0
ENDSEC
  0
SECTION
  2
BLOCKS
  0
BLOCK
  5
20
330
1F
100
AcDbEntity
  8
0
100
AcDbBlockBegin
  2
*Model_Space
 70
     0
 10
0.0
 20
0.0
 30
0.0
  3
*Model_Space
  1

  0
ENDBLK
  5
21
330
1F
100
AcDbEntity
  8
0
100
AcDbBlockEnd
  0
BLOCK
  5
1C
330
1B
100
AcDbEntity
 67
     1
  8
0
100
AcDbBlockBegin
  2
*Paper_Space
 70
     0
 10
0.0
 20
0.0
 30
0.0
  3
*Paper_Space
  1

  0
ENDBLK
  5
1D
330
1B
100
AcDbEntity
 67
     1
  8
0
100
AcDbBlockEnd
  0
BLOCK
  5
24
330
23
100
AcDbEntity
  8
0
100
AcDbBlockBegin
  2
*Paper_Space0
 70
     0
 10
0.0
 20
0.0
 30
0.0
  3
*Paper_Space0
  1

  0
ENDBLK
  5
25
330
23
100
AcDbEntity
  8
0
100
AcDbBlockEnd
  0
BLOCK
  5
7F
330
7E
100
AcDbEntity
  8
0
100
AcDbBlockBegin
  2
블럭10
 70
     2
 10
0.0
 20
0.0
 30
0.0
  3
블럭10
  1

  0
ELLIPSE
  5
81
330
7E
100
AcDbEntity
  8
중심선
100
AcDbEllipse
 10
20.54032771741204
 20
12.0471743016438
 30
0.0
 11
6.600054785286829
 21
-1.261213355974178E-13
 31
0.0
210
0.0
220
0.0
230
1.0
 40
0.636358354079598
 41
0.9219305317359503
 42
6.513795318482858
  0
ELLIPSE
  5
82
330
7E
100
AcDbEntity
  8
중심선
100
AcDbEllipse
 10
20.54032771746488
 20
12.04717430159265
 30
0.0
 11
3.960054785062283
 21
1.540847449632565E-10
 31
0.0
210
0.0
220
0.0
230
1.0
 40
0.3939339440162632
 41
1.131841032648279
 42
5.62031148352944
  0
LINE
  5
83
330
7E
100
AcDbEntity
  8
중심선
100
AcDbLine
 10
2.268634060543552
 20
16.24717430164393
 30
0.0
 11
5.714909304380834
 21
16.24717430164393
 31
0.0
  0
LINE
  5
84
330
7E
100
AcDbEntity
  8
중심선
100
AcDbLine
 10
5.245725140726316
 20
7.84717430164391
 30
0.0
 11
8.692000384563599
 21
7.84717430164391
 31
0.0
  0
LINE
  5
85
330
7E
100
AcDbEntity
  8
중심선
100
AcDbLine
 10
15.74043728645272
 20
16.24717430164393
 30
0.0
 11
8.692000384563599
 21
7.84717430164391
 31
0.0
  0
LINE
  5
86
330
7E
100
AcDbEntity
  8
중심선
100
AcDbLine
 10
0.1404042013395286
 20
13.71084872107135
 30
0.0
 11
3.58671253028996
 21
13.71088815037384
 31
0.0
  0
LINE
  5
87
330
7E
100
AcDbEntity
  8
중심선
100
AcDbLine
 10
2.750260043222114
 20
10.84717430164391
 30
0.0
 11
6.196535287059397
 21
10.84717430164391
 31
0.0
  0
LINE
  5
88
330
7E
100
AcDbEntity
  8
중심선
100
AcDbLine
 10
12.29416204261559
 20
16.24717430164393
 30
0.0
 11
5.245725140726316
 21
7.84717430164391
 31
0.0
  0
LINE
  5
89
330
7E
100
AcDbEntity
  8
중심선
100
AcDbLine
 10
10.72767329541681
 20
16.24717430164393
 30
0.0
 11
6.196535287059397
 21
10.84717430164391
 31
0.0
  0
LINE
  5
8A
330
7E
100
AcDbEntity
  8
중심선
100
AcDbLine
 10
7.28139805157953
 20
16.24717430164393
 30
0.0
 11
2.750260043222114
 21
10.84717430164391
 31
0.0
  0
LINE
  5
8B
330
7E
100
AcDbEntity
  8
중심선
100
AcDbLine
 10
5.714909304380834
 20
16.24717430164393
 30
0.0
 11
3.58671253028996
 21
13.71088815037384
 31
0.0
  0
LINE
  5
8C
330
7E
100
AcDbEntity
  8
중심선
100
AcDbLine
 10
2.268634060543552
 20
16.24717430164393
 30
0.0
 11
0.1404042013395286
 21
13.71084872107135
 31
0.0
  0
LINE
  5
8D
330
7E
100
AcDbEntity
  8
중심선
100
AcDbLine
 10
7.28139805157953
 20
16.24717430164393
 30
0.0
 11
10.72767329541681
 21
16.24717430164393
 31
0.0
  0
LINE
  5
8E
330
7E
100
AcDbEntity
  8
중심선
100
AcDbLine
 10
12.29416204261559
 20
16.24717430164393
 30
0.0
 11
15.74043728645272
 21
16.24717430164393
 31
0.0
  0
LINE
  5
8F
330
7E
100
AcDbEntity
  8
중심선
100
AcDbLine
 10
19.22036997980202
 20
11.08717430171403
 30
0.0
 11
23.66174974927406
 21
11.08717430171406
 31
0.0
  0
LINE
  5
90
330
7E
100
AcDbEntity
  8
중심선
100
AcDbLine
 10
19.22039502424796
 20
13.00717430171391
 30
0.0
 11
19.22036997980202
 21
11.08717430171403
 31
0.0
  0
LINE
  5
91
330
7E
100
AcDbEntity
  8
중심선
100
AcDbLine
 10
19.22039502424796
 20
13.00717430171391
 30
0.0
 11
26.96566020931264
 21
13.00717430171391
 31
0.0
  0
LINE
  5
92
330
7E
100
AcDbEntity
  8
중심선
100
AcDbLine
 10
22.22332737316547
 20
13.45928029700563
 30
0.0
 11
24.52862924686651
 21
15.39360700705356
 31
0.0
  0
ATTDEF
  5
94
330
7E
100
AcDbEntity
  8
FORMAT
 62
     2
100
AcDbText
 10
-16.11926103943555
 20
2.075366912832191
 30
0.0
 40
4.233333333333333
  1
SEME7005020E [ 2 FLUTE ]
 41
0.75
  7
SLDTEXTSTYLE0
 11
-16.11926103943555
 21
-0.0412997538344756
 31
0.0
100
AcDbAttributeDefinition
  3

  2
AUTOATTR0
 70
     0
 74
     1
  0
ENDBLK
  5
80
330
7E
100
AcDbEntity
  8
0
100
AcDbBlockEnd
  0
BLOCK
  5
DB
330
DA
100
AcDbEntity
  8
0
100
AcDbBlockBegin
  2
_D
 70
     0
 10
0.0
 20
0.0
 30
0.0
  3
_D
  1

  0
LINE
  5
DD
330
DA
100
AcDbEntity
  8
치수문자_일반주서
 62
     0
370
    -2
100
AcDbLine
 10
24.92852540378444
 20
-2.499999999999925
 30
0.0
 11
33.62293044848997
 21
-2.499999999999893
 31
0.0
  0
LINE
  5
DE
330
DA
100
AcDbEntity
  8
치수문자_일반주서
 62
     0
370
    -2
100
AcDbLine
 10
24.92852540378444
 20
2.500000000000073
 30
0.0
 11
33.62293044848995
 21
2.500000000000105
 31
0.0
  0
LINE
  5
DF
330
DA
100
AcDbEntity
  8
치수문자_일반주서
 62
     0
370
    -2
100
AcDbLine
 10
33.62293044848997
 20
-2.499999999999893
 30
0.0
 11
33.62293044848992
 21
15.2290000000001
 31
0.0
  0
LINE
  5
E0
330
DA
100
AcDbEntity
  8
치수문자_일반주서
 62
     0
370
    -2
100
AcDbLine
 10
33.62293044848997
 20
-2.499999999999893
 30
0.0
 11
33.62293044848995
 21
2.500000000000105
 31
0.0
  0
LINE
  5
E1
330
DA
100
AcDbEntity
  8
치수문자_일반주서
 62
     0
370
    -2
100
AcDbLine
 10
33.62293044848997
 20
-5.801999999999893
 30
0.0
 11
33.62293044848998
 21
-9.103999999999893
 31
0.0
  0
LINE
  5
E2
330
DA
100
AcDbEntity
  8
치수문자_일반주서
 62
     0
370
    -2
100
AcDbLine
 10
33.62293044848995
 20
5.802000000000104
 30
0.0
 11
33.62293044848994
 21
9.104000000000104
 31
0.0
  0
SOLID
  5
E3
330
DA
100
AcDbEntity
  8
치수문자_일반주서
 62
     0
100
AcDbTrace
 10
34.17326378182331
 20
-5.801999999999891
 30
0.0
 11
33.07259711515664
 21
-5.801999999999895
 31
0.0
 12
33.62293044848997
 22
-2.499999999999893
 32
0.0
 13
33.62293044848997
 23
-2.499999999999893
 33
0.0
  0
SOLID
  5
E4
330
DA
100
AcDbEntity
  8
치수문자_일반주서
 62
     0
100
AcDbTrace
 10
33.07259711515661
 20
5.802000000000103
 30
0.0
 11
34.17326378182328
 21
5.802000000000106
 31
0.0
 12
33.62293044848995
 22
2.500000000000105
 32
0.0
 13
33.62293044848995
 23
2.500000000000105
 33
0.0
  0
MTEXT
  5
E5
330
DA
100
AcDbEntity
  8
치수문자_일반주서
 62
     0
100
AcDbMText
 10
29.24793044848992
 20
12.16650000000009
 30
0.0
 40
3.5
 41
0.0
 71
     2
 72
     1
  1
\A1;%%c5
  7
SLDTEXTSTYLE0
 11
-2.842170943040402E-15
 21
1.0
 31
0.0
 73
     1
 44
1.0
  0
POINT
  5
137
330
DA
100
AcDbEntity
  8
Defpoints
 62
     0
100
AcDbPoint
 10
24.86602540378444
 20
-2.499999999999926
 30
0.0
  0
POINT
  5
138
330
DA
100
AcDbEntity
  8
Defpoints
 62
     0
100
AcDbPoint
 10
24.86602540378444
 20
2.500000000000072
 30
0.0
  0
POINT
  5
139
330
DA
100
AcDbEntity
  8
Defpoints
 62
     0
100
AcDbPoint
 10
33.62293044848995
 20
2.500000000000105
 30
0.0
  0
ENDBLK
  5
DC
330
DA
100
AcDbEntity
  8
0
100
AcDbBlockEnd
  0
BLOCK
  5
E9
330
E8
100
AcDbEntity
  8
0
100
AcDbBlockBegin
  2
_D_1
 70
     0
 10
0.0
 20
0.0
 30
0.0
  3
_D_1
  1

  0
LINE
  5
EB
330
E8
100
AcDbEntity
  8
치수문자_일반주서
 62
     0
370
    -2
100
AcDbLine
 10
-45.13397459621557
 20
2.512499999999994
 30
0.0
 11
-45.13397459621555
 21
24.23841044024269
 31
0.0
  0
LINE
  5
EC
330
E8
100
AcDbEntity
  8
치수문자_일반주서
 62
     0
370
    -2
100
AcDbLine
 10
24.86602540378444
 20
2.562500000000072
 30
0.0
 11
24.86602540378444
 21
24.23841044024269
 31
0.0
  0
LINE
  5
ED
330
E8
100
AcDbEntity
  8
치수문자_일반주서
 62
     0
370
    -2
100
AcDbLine
 10
-41.83197459621555
 20
24.23841044024269
 30
0.0
 11
21.56402540378444
 21
24.23841044024269
 31
0.0
  0
SOLID
  5
EE
330
E8
100
AcDbEntity
  8
치수문자_일반주서
 62
     0
100
AcDbTrace
 10
-41.83197459621555
 20
24.78874377357602
 30
0.0
 11
-41.83197459621555
 21
23.68807710690935
 31
0.0
 12
-45.13397459621555
 22
24.23841044024269
 32
0.0
 13
-45.13397459621555
 23
24.23841044024269
 33
0.0
  0
SOLID
  5
EF
330
E8
100
AcDbEntity
  8
치수문자_일반주서
 62
     0
100
AcDbTrace
 10
21.56402540378444
 20
23.68807710690935
 30
0.0
 11
21.56402540378444
 21
24.78874377357602
 31
0.0
 12
24.86602540378444
 22
24.23841044024269
 32
0.0
 13
24.86602540378444
 23
24.23841044024269
 33
0.0
  0
MTEXT
  5
F0
330
E8
100
AcDbEntity
  8
치수문자_일반주서
 62
     0
100
AcDbMText
 10
-10.13397459621556
 20
28.61341044024269
 30
0.0
 40
3.5
 41
0.0
 71
     2
 72
     1
  1
\A1;70
  7
SLDTEXTSTYLE0
 73
     1
 44
1.0
  0
POINT
  5
13A
330
E8
100
AcDbEntity
  8
Defpoints
 62
     0
100
AcDbPoint
 10
-45.13397459621557
 20
2.449999999999994
 30
0.0
  0
POINT
  5
13B
330
E8
100
AcDbEntity
  8
Defpoints
 62
     0
100
AcDbPoint
 10
24.86602540378444
 20
2.500000000000072
 30
0.0
  0
POINT
  5
13C
330
E8
100
AcDbEntity
  8
Defpoints
 62
     0
100
AcDbPoint
 10
24.86602540378444
 20
24.23841044024269
 30
0.0
  0
ENDBLK
  5
EA
330
E8
100
AcDbEntity
  8
0
100
AcDbBlockEnd
  0
BLOCK
  5
F3
330
F2
100
AcDbEntity
  8
0
100
AcDbBlockBegin
  2
_D_2
 70
     0
 10
0.0
 20
0.0
 30
0.0
  3
_D_2
  1

  0
LINE
  5
F5
330
F2
100
AcDbEntity
  8
치수문자_일반주서
 62
     0
370
    -2
100
AcDbLine
 10
4.866025403784434
 20
2.053781876445566
 30
0.0
 11
4.866025403784434
 21
15.33827968261309
 31
0.0
  0
LINE
  5
F6
330
F2
100
AcDbEntity
  8
치수문자_일반주서
 62
     0
370
    -2
100
AcDbLine
 10
24.86602540378444
 20
2.562500000000072
 30
0.0
 11
24.86602540378444
 21
15.33827968261309
 31
0.0
  0
LINE
  5
F7
330
F2
100
AcDbEntity
  8
치수문자_일반주서
 62
     0
370
    -2
100
AcDbLine
 10
8.168025403784434
 20
15.33827968261309
 30
0.0
 11
21.56402540378444
 21
15.33827968261309
 31
0.0
  0
SOLID
  5
F8
330
F2
100
AcDbEntity
  8
치수문자_일반주서
 62
     0
100
AcDbTrace
 10
8.168025403784434
 20
15.88861301594642
 30
0.0
 11
8.168025403784434
 21
14.78794634927976
 31
0.0
 12
4.866025403784434
 22
15.33827968261309
 32
0.0
 13
4.866025403784434
 23
15.33827968261309
 33
0.0
  0
SOLID
  5
F9
330
F2
100
AcDbEntity
  8
치수문자_일반주서
 62
     0
100
AcDbTrace
 10
21.56402540378444
 20
14.78794634927976
 30
0.0
 11
21.56402540378444
 21
15.88861301594642
 31
0.0
 12
24.86602540378444
 22
15.33827968261309
 32
0.0
 13
24.86602540378444
 23
15.33827968261309
 33
0.0
  0
MTEXT
  5
FA
330
F2
100
AcDbEntity
  8
치수문자_일반주서
 62
     0
100
AcDbMText
 10
14.86602540378444
 20
19.71327968261309
 30
0.0
 40
3.5
 41
0.0
 71
     2
 72
     1
  1
\A1;20
  7
SLDTEXTSTYLE0
 73
     1
 44
1.0
  0
POINT
  5
13D
330
F2
100
AcDbEntity
  8
Defpoints
 62
     0
100
AcDbPoint
 10
4.866025403784434
 20
1.991281876445566
 30
0.0
  0
POINT
  5
13E
330
F2
100
AcDbEntity
  8
Defpoints
 62
     0
100
AcDbPoint
 10
24.86602540378444
 20
2.500000000000072
 30
0.0
  0
POINT
  5
13F
330
F2
100
AcDbEntity
  8
Defpoints
 62
     0
100
AcDbPoint
 10
24.86602540378444
 20
15.33827968261309
 30
0.0
  0
ENDBLK
  5
F4
330
F2
100
AcDbEntity
  8
0
100
AcDbBlockEnd
  0
BLOCK
  5
FD
330
FC
100
AcDbEntity
  8
0
100
AcDbBlockBegin
  2
_D_3
 70
     0
 10
0.0
 20
0.0
 30
0.0
  3
_D_3
  1

  0
LINE
  5
FF
330
FC
100
AcDbEntity
  8
치수문자_일반주서
 62
     0
370
    -2
100
AcDbLine
 10
-44.64647459621557
 20
2.999999999999994
 30
0.0
 11
-56.68898829081083
 21
2.999999999999948
 31
0.0
  0
LINE
  5
100
330
FC
100
AcDbEntity
  8
치수문자_일반주서
 62
     0
370
    -2
100
AcDbLine
 10
-44.64647459621557
 20
-3.0
 30
0.0
 11
-56.6889882908108
 21
-3.000000000000046
 31
0.0
  0
LINE
  5
101
330
FC
100
AcDbEntity
  8
치수문자_일반주서
 62
     0
370
    -2
100
AcDbLine
 10
-56.68898829081083
 20
2.999999999999948
 30
0.0
 11
-56.68898829081088
 21
15.72899999999995
 31
0.0
  0
LINE
  5
102
330
FC
100
AcDbEntity
  8
치수문자_일반주서
 62
     0
370
    -2
100
AcDbLine
 10
-56.68898829081083
 20
2.999999999999948
 30
0.0
 11
-56.6889882908108
 21
-3.000000000000046
 31
0.0
  0
LINE
  5
103
330
FC
100
AcDbEntity
  8
치수문자_일반주서
 62
     0
370
    -2
100
AcDbLine
 10
-56.68898829081084
 20
6.301999999999948
 30
0.0
 11
-56.68898829081085
 21
9.603999999999948
 31
0.0
  0
LINE
  5
104
330
FC
100
AcDbEntity
  8
치수문자_일반주서
 62
     0
370
    -2
100
AcDbLine
 10
-56.68898829081079
 20
-6.302000000000046
 30
0.0
 11
-56.68898829081078
 21
-9.604000000000045
 31
0.0
  0
SOLID
  5
105
330
FC
100
AcDbEntity
  8
치수문자_일반주서
 62
     0
100
AcDbTrace
 10
-57.23932162414417
 20
6.301999999999946
 30
0.0
 11
-56.13865495747751
 21
6.30199999999995
 31
0.0
 12
-56.68898829081083
 22
2.999999999999948
 32
0.0
 13
-56.68898829081083
 23
2.999999999999948
 33
0.0
  0
SOLID
  5
106
330
FC
100
AcDbEntity
  8
치수문자_일반주서
 62
     0
100
AcDbTrace
 10
-56.13865495747746
 20
-6.302000000000044
 30
0.0
 11
-57.23932162414413
 21
-6.302000000000048
 31
0.0
 12
-56.6889882908108
 22
-3.000000000000046
 32
0.0
 13
-56.6889882908108
 23
-3.000000000000046
 33
0.0
  0
MTEXT
  5
107
330
FC
100
AcDbEntity
  8
치수문자_일반주서
 62
     0
100
AcDbMText
 10
-61.06398829081086
 20
12.66649999999994
 30
0.0
 40
3.5
 41
0.0
 71
     2
 72
     1
  1
\A1;%%c6
  7
SLDTEXTSTYLE0
 11
-3.552713678800505E-15
 21
1.0
 31
0.0
 73
     1
 44
1.0
  0
POINT
  5
134
330
FC
100
AcDbEntity
  8
Defpoints
 62
     0
100
AcDbPoint
 10
-44.58397459621557
 20
2.999999999999994
 30
0.0
  0
POINT
  5
135
330
FC
100
AcDbEntity
  8
Defpoints
 62
     0
100
AcDbPoint
 10
-44.58397459621557
 20
-3.0
 30
0.0
  0
POINT
  5
136
330
FC
100
AcDbEntity
  8
Defpoints
 62
     0
100
AcDbPoint
 10
-56.6889882908108
 20
-3.000000000000045
 30
0.0
  0
ENDBLK
  5
FE
330
FC
100
AcDbEntity
  8
0
100
AcDbBlockEnd
  0
BLOCK
  5
109
330
108
100
AcDbEntity
  8
0
100
AcDbBlockBegin
  2
SW_DOWELSYMBOL_0
 70
     0
 10
0.0
 20
0.0
 30
0.0
  3
SW_DOWELSYMBOL_0
  1

  0
CIRCLE
  5
10B
330
108
100
AcDbEntity
  8
외형선
 62
     0
100
AcDbCircle
 10
0.0
 20
0.0
 30
0.0
 40
3.000000000000004
  0
HATCH
  5
10C
330
108
100
AcDbEntity
  8
0
  6
Continuous
 62
     0
370
    30
100
AcDbHatch
 10
0.0
 20
0.0
 30
0.0
210
0.0
220
0.0
230
1.0
  2
SOLID
 70
     1
 71
     0
 91
        1
 92
        0
 93
        3
 72
     2
 10
0.0000000000000104
 20
0.0
 40
3.000000000000004
 50
0.0
 51
90.0
 73
     1
 72
     1
 10
0.0000000000000104
 20
3.000000000000004
 11
0.0000000000000104
 21
0.0
 72
     1
 10
0.0000000000000104
 20
0.0
 11
3.000000000000015
 21
0.0
 97
        0
 75
     0
 76
     1
 98
        1
 10
0.0
 20
0.0
  0
HATCH
  5
10D
330
108
100
AcDbEntity
  8
0
  6
Continuous
 62
     0
370
    30
100
AcDbHatch
 10
0.0
 20
0.0
 30
0.0
210
0.0
220
0.0
230
1.0
  2
SOLID
 70
     1
 71
     0
 91
        1
 92
        0
 93
        3
 72
     2
 10
0.0000000000000104
 20
0.0
 40
3.000000000000004
 50
180.0
 51
270.0000000000008
 73
     1
 72
     1
 10
0.0000000000000104
 20
-3.000000000000004
 11
0.0000000000000104
 21
0.0
 72
     1
 10
0.0000000000000104
 20
0.0
 11
-2.999999999999994
 21
0.0
 97
        0
 75
     0
 76
     1
 98
        1
 10
0.0
 20
0.0
  0
ENDBLK
  5
10A
330
108
100
AcDbEntity
  8
0
100
AcDbBlockEnd
  0
ENDSEC
  0
SECTION
  2
ENTITIES
  0
SPLINE
  5
95
330
1F
100
AcDbEntity
  8
0
  6
Continuous
 62
     1
370
    15
100
AcDbSpline
210
0.0
220
0.0
230
1.0
 70
     8
 71
     3
 72
     9
 73
     5
 74
     0
 42
0.000000001
 43
0.00000001
 40
0.0
 40
0.0
 40
0.0
 40
0.0
 40
0.4403627720801356
 40
1.0
 40
1.0
 40
1.0
 40
1.0
 10
18.39000590476632
 20
0.6405646668918356
 30
0.0
 10
18.28775134149353
 20
0.689096964790346
 30
0.0
 10
18.05554605586101
 20
0.7993067758269576
 30
0.0
 10
17.82427135401552
 20
0.9199685602286121
 30
0.0
 10
17.69484142098672
 20
0.9874953867670181
 30
0.0
  0
LINE
  5
96
330
1F
100
AcDbEntity
  8
0
  6
Continuous
 62
     1
370
    15
100
AcDbLine
 10
11.43996248685602
 20
-2.500000000000002
 30
0.0
 11
12.65252177971031
 21
-2.500000000000002
 31
0.0
  0
LINE
  5
97
330
1F
100
AcDbEntity
  8
0
  6
Continuous
 62
     1
370
    15
100
AcDbLine
 10
12.65252177971031
 20
2.500000000000002
 30
0.0
 11
11.43996248685601
 21
2.500000000000002
 31
0.0
  0
SPLINE
  5
98
330
1F
100
AcDbEntity
  8
0
  6
Continuous
 62
     1
370
    15
100
AcDbSpline
210
0.0
220
0.0
230
1.0
 70
     8
 71
     3
 72
    17
 73
    13
 74
     0
 42
0.000000001
 43
0.00000001
 40
0.0
 40
0.0
 40
0.0
 40
0.0
 40
0.1625256182632213
 40
0.2873363365721318
 40
0.3872072265217671
 40
0.4730985710230013
 40
0.5734441354379425
 40
0.6640327203883755
 40
0.7099481657214562
 40
0.7813475011755168
 40
0.8784385125037811
 40
0.9999999999999999
 40
0.9999999999999999
 40
0.9999999999999999
 40
0.9999999999999999
 10
13.80217122347448
 20
-2.080353101838863
 30
0.0
 10
14.00141746627558
 20
-2.061337008968905
 30
0.0
 10
14.35367384341797
 20
-2.027717604720156
 30
0.0
 10
14.84705989987302
 20
-1.995219764340688
 30
0.0
 10
15.24306869655853
 20
-1.974510369254019
 30
0.0
 10
15.59738305523392
 20
-1.961736943141733
 30
0.0
 10
15.94430876525902
 20
-1.953995361791248
 30
0.0
 10
16.24093934202543
 20
-1.951937172208886
 30
0.0
 10
16.5008476925519
 20
-1.952959775493233
 30
0.0
 10
16.7697864837913
 20
-1.956606244766156
 30
0.0
 10
17.13400997646428
 20
-1.965937569497527
 30
0.0
 10
17.40909117330518
 20
-1.979212300854632
 30
0.0
 10
17.56202461632548
 20
-1.986592486759473
 30
0.0
  0
SPLINE
  5
99
330
1F
100
AcDbEntity
  8
0
  6
Continuous
 62
     1
370
    15
100
AcDbSpline
210
0.0
220
0.0
230
1.0
 70
     8
 71
     3
 72
    14
 73
    10
 74
     0
 42
0.000000001
 43
0.00000001
 40
0.0
 40
0.0
 40
0.0
 40
0.0
 40
0.2174466902874065
 40
0.4092637132319266
 40
0.5725925404850863
 40
0.692835764630364
 40
0.8023521590897814
 40
0.9117666939554275
 40
1.0
 40
1.0
 40
1.0
 40
1.0
 10
17.56202461632548
 20
1.986592486759475
 30
0.0
 10
17.42039213115548
 20
1.979385941085425
 30
0.0
 10
17.15382087767571
 20
1.965822259622907
 30
0.0
 10
16.75953831908905
 20
1.955560549279376
 30
0.0
 10
16.43027912410017
 20
1.952306821512061
 30
0.0
 10
16.15860948317821
 20
1.952216292052491
 30
0.0
 10
15.93274048758333
 20
1.954827450904567
 30
0.0
 10
15.72363661890348
 20
1.958701966606434
 30
0.0
 10
15.58919533718631
 20
1.963028427595846
 30
0.0
 10
15.52917849763903
 20
1.964959832233563
 30
0.0
  0
SPLINE
  5
9A
330
1F
100
AcDbEntity
  8
0
  6
Continuous
 62
     1
370
    15
100
AcDbSpline
210
0.0
220
0.0
230
1.0
 70
     8
 71
     3
 72
    14
 73
    10
 74
     0
 42
0.000000001
 43
0.00000001
 40
0.0
 40
0.0
 40
0.0
 40
0.0
 40
0.2166720864727224
 40
0.3533061754652391
 40
0.4827360413227604
 40
0.6476302803506521
 40
0.7884144777421203
 40
0.8993069138192823
 40
1.0
 40
1.0
 40
1.0
 40
1.0
 10
19.5705033282013
 20
-1.880333862681636
 30
0.0
 10
19.70388342427009
 20
-1.859971226656029
 30
0.0
 10
19.92137342213918
 20
-1.826767849268035
 30
0.0
 10
20.2218894923684
 20
-1.787307777293732
 30
0.0
 10
20.4914862823594
 20
-1.755313740789978
 30
0.0
 10
20.7612077086364
 20
-1.727244685321525
 30
0.0
 10
21.0195367794618
 20
-1.704316217628396
 30
0.0
 10
21.23785114304962
 20
-1.687491443400128
 30
0.0
 10
21.3684704113473
 20
-1.679350511123557
 30
0.0
 10
21.43063183477177
 20
-1.675476259300613
 30
0.0
  0
SPLINE
  5
9B
330
1F
100
AcDbEntity
  8
0
  6
Continuous
 62
     1
370
    15
100
AcDbSpline
210
0.0
220
0.0
230
1.0
 70
     8
 71
     3
 72
    25
 73
    21
 74
     0
 42
0.000000001
 43
0.00000001
 40
0.0
 40
0.0
 40
0.0
 40
0.0
 40
0.0708007329204444
 40
0.1252833043322625
 40
0.1819426715444004
 40
0.2207361854001609
 40
0.2642429355712646
 40
0.3127185574496529
 40
0.3662239267681444
 40
0.4190850152837452
 40
0.4627175576277311
 40
0.5007315071953344
 40
0.5598567613797366
 40
0.6364266774074239
 40
0.7156982942039494
 40
0.8140848734227555
 40
0.8374519441631764
 40
0.8754636344390038
 40
0.9294942707324684
 40
1.0
 40
1.0
 40
1.0
 40
1.0
 10
10.33266193551663
 20
1.709872360494266
 30
0.0
 10
10.22894132278208
 20
1.701435337081273
 30
0.0
 10
10.04540563671294
 20
1.686505856434567
 30
0.0
 10
9.779785979480952
 20
1.670244707742819
 30
0.0
 10
9.562287527936359
 20
1.659870422381773
 30
0.0
 10
9.36204853782495
 20
1.652759811236105
 30
0.0
 10
9.171756499621793
 20
1.647947318426743
 30
0.0
 10
8.959492534642326
 20
1.645073501818974
 30
0.0
 10
8.732932472629908
 20
1.644983475556696
 30
0.0
 10
8.513269010089616
 20
1.647939655556961
 30
0.0
 10
8.318504402609872
 20
1.653001956961958
 30
0.0
 10
8.116250051521245
 20
1.66030759876198
 30
0.0
 10
7.862998914178814
 20
1.672494996721336
 30
0.0
 10
7.550510124253602
 20
1.693016539592794
 30
0.0
 10
7.180582117234664
 20
1.724447004314411
 30
0.0
 10
6.887858344428142
 20
1.755321477521636
 30
0.0
 10
6.657574274719689
 20
1.782790191351721
 30
0.0
 10
6.489461904549614
 20
1.804065494226082
 30
0.0
 10
6.252546067488957
 20
1.836528852196455
 30
0.0
 10
6.07027062038722
 20
1.864491968878808
 30
0.0
 10
5.967076157729011
 20
1.880323167464066
 30
0.0
  0
SPLINE
  5
9C
330
1F
100
AcDbEntity
  8
0
  6
Continuous
 62
     1
370
    15
100
AcDbSpline
210
0.0
220
0.0
230
1.0
 70
     8
 71
     3
 72
    15
 73
    11
 74
     0
 42
0.000000001
 43
0.00000001
 40
0.0
 40
0.0
 40
0.0
 40
0.0
 40
0.1657637676480965
 40
0.2927934705314492
 40
0.4370827139529032
 40
0.5450256707057208
 40
0.6684059199978314
 40
0.8059628672057568
 40
0.950864161039154
 40
0.9999999999999999
 40
0.9999999999999999
 40
0.9999999999999999
 40
0.9999999999999999
 10
5.967076157729011
 20
-1.880323167464065
 30
0.0
 10
6.070241876556647
 20
-1.864496199951207
 30
0.0
 10
6.252466552575964
 20
-1.836540556737813
 30
0.0
 10
6.523755847357531
 20
-1.799363865642608
 30
0.0
 10
6.757495933059211
 20
-1.770432822830279
 30
0.0
 10
6.988513541712415
 20
-1.744700512765116
 30
0.0
 10
7.21721465207106
 20
-1.72175837300812
 30
0.0
 10
7.468369525375046
 20
-1.700018472352946
 30
0.0
 10
7.673417905958683
 20
-1.684533139419637
 30
0.0
 10
7.793520002930734
 20
-1.677725361888122
 30
0.0
 10
7.823933342948163
 20
-1.67600143484564
 30
0.0
  0
SPLINE
  5
9D
330
1F
100
AcDbEntity
  8
0
  6
Continuous
 62
     1
370
    15
100
AcDbSpline
210
0.0
220
0.0
230
1.0
 70
     8
 71
     3
 72
    25
 73
    21
 74
     0
 42
0.000000001
 43
0.00000001
 40
0.0
 40
0.0
 40
0.0
 40
0.0
 40
0.0753302364133123
 40
0.1287973404764423
 40
0.1639922594407112
 40
0.2054493750923012
 40
0.2575533757042385
 40
0.3078129808741582
 40
0.3714777072517881
 40
0.4254731485635505
 40
0.4792737356536584
 40
0.552254802683791
 40
0.636032301927244
 40
0.710341895497112
 40
0.7402983907736556
 40
0.7679727956385243
 40
0.7959738471484664
 40
0.8423740212980825
 40
0.9103632531991216
 40
1.0
 40
1.0
 40
1.0
 40
1.0
 10
23.9362669807113
 20
1.709881801608469
 30
0.0
 10
23.82706323736249
 20
1.701022798437428
 30
0.0
 10
23.64035000794651
 20
1.685875945035267
 30
0.0
 10
23.4026586868255
 20
1.671519117108123
 30
0.0
 10
23.2116542732761
 20
1.662011307691378
 30
0.0
 10
23.02344235295691
 20
1.654514652744136
 30
0.0
 10
22.81399827515949
 20
1.648647972457045
 30
0.0
 10
22.57246573771446
 20
1.64502302711548
 30
0.0
 10
22.32838629230624
 20
1.644936986791612
 30
0.0
 10
22.07888790168566
 20
1.64865217898633
 30
0.0
 10
21.8156209419911
 20
1.656181392036981
 30
0.0
 10
21.50934330088906
 20
1.669818624350061
 30
0.0
 10
21.17020824800832
 20
1.691713958431561
 30
0.0
 10
20.895646336608
 20
1.714946864408602
 30
0.0
 10
20.70663758398864
 20
1.733196302647469
 30
0.0
 10
20.58350782826432
 20
1.745871136747504
 30
0.0
 10
20.43651366396211
 20
1.761916305590667
 30
0.0
 10
20.22934138745982
 20
1.786351111400762
 30
0.0
 10
19.93213221934828
 20
1.825146297380347
 30
0.0
 10
19.70159966423703
 20
1.86032747551831
 30
0.0
 10
19.5705033282013
 20
1.880333862681639
 30
0.0
  0
LINE
  5
9E
330
1F
100
AcDbEntity
  8
0
  6
Continuous
 62
   131
370
    15
100
AcDbLine
 10
2.0
 20
-3.0
 30
0.0
 11
3.866025403784434
 21
-2.5
 31
0.0
  0
LINE
  5
9F
330
1F
100
AcDbEntity
  8
0
  6
Continuous
 62
   131
370
    15
100
AcDbLine
 10
3.866025403784434
 20
2.5
 30
0.0
 11
2.0
 21
3.0
 31
0.0
  0
LINE
  5
A0
330
1F
100
AcDbEntity
  8
0
  6
Continuous
 62
   131
370
    15
100
AcDbLine
 10
2.0
 20
2.999999999999999
 30
0.0
 11
-44.58397459621557
 21
2.999999999999996
 31
0.0
  0
LINE
  5
A1
330
1F
100
AcDbEntity
  8
0
  6
Continuous
 62
   131
370
    15
100
AcDbLine
 10
-44.58397459621557
 20
-3.000000000000001
 30
0.0
 11
2.0
 21
-2.999999999999998
 31
0.0
  0
LINE
  5
A2
330
1F
100
AcDbEntity
  8
0
  6
Continuous
 62
   131
370
    15
100
AcDbLine
 10
-44.58397459621557
 20
2.999999999999994
 30
0.0
 11
-45.13397459621557
 21
2.449999999999994
 31
0.0
  0
LINE
  5
A3
330
1F
100
AcDbEntity
  8
0
  6
Continuous
 62
   131
370
    15
100
AcDbLine
 10
-45.13397459621557
 20
-2.45
 30
0.0
 11
-44.58397459621557
 21
-3.0
 31
0.0
  0
LINE
  5
A4
330
1F
100
AcDbEntity
  8
0
  6
Continuous
 62
   131
370
    15
100
AcDbLine
 10
3.975935658491142
 20
2.5
 30
0.0
 11
3.866025403784434
 21
2.5
 31
0.0
  0
LINE
  5
A5
330
1F
100
AcDbEntity
  8
0
  6
Continuous
 62
   131
370
    15
100
AcDbLine
 10
3.866025403784434
 20
-2.5
 30
0.0
 11
3.975935658491142
 21
-2.5
 31
0.0
  0
SPLINE
  5
A6
330
1F
100
AcDbEntity
  8
0
  6
Continuous
 62
   131
370
    15
100
AcDbSpline
210
0.0
220
0.0
230
1.0
 70
     8
 71
     3
 72
     9
 73
     5
 74
     0
 42
0.000000001
 43
0.00000001
 40
0.0
 40
0.0
 40
0.0
 40
0.0
 40
0.4285357702785121
 40
0.9999999999999999
 40
0.9999999999999999
 40
0.9999999999999999
 40
0.9999999999999999
 10
4.721019045126056
 20
0.6711011881864057
 30
0.0
 10
4.638599247385727
 20
0.7107041131251913
 30
0.0
 10
4.446270383714058
 20
0.8031186271179135
 30
0.0
 10
4.24981341867764
 20
0.9048212944232582
 30
0.0
 10
4.137545290479686
 20
0.962940730855528
 30
0.0
  0
SPLINE
  5
A7
330
1F
100
AcDbEntity
  8
0
  6
Continuous
 62
     1
370
    15
100
AcDbSpline
210
0.0
220
0.0
230
1.0
 70
     8
 71
     3
 72
    18
 73
    14
 74
     0
 42
0.000000001
 43
0.00000001
 40
0.0
 40
0.0
 40
0.0
 40
0.0
 40
0.0060101539952935
 40
0.1038837253075896
 40
0.2017729290476496
 40
0.2997223360613381
 40
0.3977734649717464
 40
0.4957951977270249
 40
0.5937243137103261
 40
0.6952828940554249
 40
0.7968333082656424
 40
0.8983981681959246
 40
1.0
 40
1.0
 40
1.0
 40
1.0
 10
15.52934253089717
 20
-1.964894018541682
 30
0.0
 10
15.5079815278412
 20
-1.973523845319578
 30
0.0
 10
15.13876293951575
 20
-2.12268783598421
 30
0.0
 10
14.42170910659828
 20
-2.309092368295198
 30
0.0
 10
13.3778437498611
 20
-2.491079821855662
 30
0.0
 10
12.33325683662438
 20
-2.516942347120808
 30
0.0
 10
11.28787071442899
 20
-2.40027679755321
 30
0.0
 10
10.2426616377144
 20
-2.143762903154231
 30
0.0
 10
9.18526968710535
 20
-1.758556492016366
 30
0.0
 10
8.11527989108425
 20
-1.261861959607141
 30
0.0
 10
7.032415814679965
 20
-0.6812547573575922
 30
0.0
 10
5.949367294640446
 20
-0.0556467160171001
 30
0.0
 10
5.227183174615348
 20
0.3573794928871815
 30
0.0
 10
4.866025403782018
 20
0.5639301781867009
 30
0.0
  0
SPLINE
  5
A8
330
1F
100
AcDbEntity
  8
0
  6
Continuous
 62
     1
370
    15
100
AcDbSpline
210
0.0
220
0.0
230
1.0
 70
     8
 71
     3
 72
    18
 73
    14
 74
     0
 42
0.000000001
 43
0.00000001
 40
0.0
 40
0.0
 40
0.0
 40
0.0
 40
0.0282751724099816
 40
0.1258639744228891
 40
0.2231604442897997
 40
0.3203827096955874
 40
0.4179055288076868
 40
0.5153291723350049
 40
0.6125341633801917
 40
0.709904941137519
 40
0.8074668887826343
 40
0.9037174993598224
 40
1.0
 40
1.0
 40
1.0
 40
1.0
 10
13.80487125703356
 20
-2.071584367849262
 30
0.0
 10
13.72063731106973
 20
-2.082521923787329
 30
0.0
 10
13.34567870545613
 20
-2.131209310759791
 30
0.0
 10
12.68025322274844
 20
-2.132373773762324
 30
0.0
 10
11.81010540934984
 20
-2.07141264651445
 30
0.0
 10
10.94025820353629
 20
-1.920488595830036
 30
0.0
 10
10.06934346786157
 20
-1.694472159134816
 30
0.0
 10
9.198736642645674
 20
-1.39963135113119
 30
0.0
 10
8.32903356651343
 20
-1.04798902553915
 30
0.0
 10
7.45860366314405
 20
-0.6542895335778156
 30
0.0
 10
6.590503298478158
 20
-0.2371304492278077
 30
0.0
 10
5.726495727878497
 20
0.1912253929969267
 30
0.0
 10
5.152880515243233
 20
0.4658906766057489
 30
0.0
 10
4.86602540378442
 20
0.6032460653889522
 30
0.0
  0
SPLINE
  5
A9
330
1F
100
AcDbEntity
  8
0
  6
Continuous
 62
     1
370
    15
100
AcDbSpline
210
0.0
220
0.0
230
1.0
 70
     8
 71
     3
 72
    19
 73
    15
 74
     0
 42
0.000000001
 43
0.00000001
 40
0.0
 40
0.0
 40
0.0
 40
0.0
 40
0.0855935960224484
 40
0.1711012606869965
 40
0.2565615050333697
 40
0.3420132803279344
 40
0.4274956166517762
 40
0.513047259953032
 40
0.5986666375403297
 40
0.6842068780303963
 40
0.7696829218185105
 40
0.8551335732939427
 40
0.9405978730006456
 40
1.0
 40
1.0
 40
1.0
 40
1.0
 10
24.86602540378444
 20
-2.372352173079748
 30
0.0
 10
24.51747485955293
 20
-2.295584572394687
 30
0.0
 10
23.82072369705347
 20
-2.142126441558768
 30
0.0
 10
22.77625541039769
 20
-1.750962170980965
 30
0.0
 10
21.73245899892768
 20
-1.268369862491815
 30
0.0
 10
20.6887927436801
 20
-0.7097379357083291
 30
0.0
 10
19.64467603631203
 20
-0.1106354905619075
 30
0.0
 10
18.59971488545855
 20
0.4951452812788638
 30
0.0
 10
17.55422962732294
 20
1.071970095041556
 30
0.0
 10
16.50937862297863
 20
1.586708122840943
 30
0.0
 10
15.46535287023679
 20
2.010842131491363
 30
0.0
 10
14.42169715609219
 20
2.313214223966985
 30
0.0
 10
13.48416871332099
 20
2.482370051177482
 30
0.0
 10
12.89436809365744
 20
2.483951585644946
 30
0.0
 10
12.65252177971031
 20
2.484600090018432
 30
0.0
  0
SPLINE
  5
AA
330
1F
100
AcDbEntity
  8
0
  6
Continuous
 62
     1
370
    15
100
AcDbSpline
210
0.0
220
0.0
230
1.0
 70
     8
 71
     3
 72
    15
 73
    11
 74
     0
 42
0.000000001
 43
0.00000001
 40
0.0
 40
0.0
 40
0.0
 40
0.0
 40
0.1342042747936691
 40
0.2680447737989666
 40
0.4020505228246525
 40
0.5364017335516102
 40
0.6703172729490204
 40
0.8041987510003876
 40
0.9385196736727949
 40
0.9999999999999999
 40
0.9999999999999999
 40
0.9999999999999999
 40
0.9999999999999999
 10
24.86602540378444
 20
-1.972430660920538
 30
0.0
 10
24.57550670206064
 20
-1.911776228619621
 30
0.0
 10
23.99525678224511
 20
-1.790631774681771
 30
0.0
 10
23.12550110656127
 20
-1.51494717737831
 30
0.0
 10
22.25520046174152
 20
-1.183957945544236
 30
0.0
 10
21.38410292884696
 20
-0.8049811516493832
 30
0.0
 10
20.51404483082901
 20
-0.3923327443458743
 30
0.0
 10
19.64412209563893
 20
0.0349044008226728
 30
0.0
 10
18.93020377529978
 20
0.3871462386604456
 30
0.0
 10
18.50648521068388
 20
0.5829273512104005
 30
0.0
 10
18.37344032074279
 20
0.6444013548225956
 30
0.0
  0
LINE
  5
AB
330
1F
100
AcDbEntity
  8
0
  6
Continuous
 62
     1
370
    15
100
AcDbLine
 10
24.86602540378444
 20
-2.372352173079749
 30
0.0
 11
24.86602540378444
 21
-1.972430660920538
 31
0.0
  0
SPLINE
  5
AC
330
1F
100
AcDbEntity
  8
0
  6
Continuous
 62
     1
370
    15
100
AcDbSpline
210
0.0
220
0.0
230
1.0
 70
     8
 71
     3
 72
    32
 73
    28
 74
     0
 42
0.000000001
 43
0.00000001
 40
0.0
 40
0.0
 40
0.0
 40
0.0
 40
0.0037304581991799
 40
0.0459451889698725
 40
0.0884528462054943
 40
0.1306676842723347
 40
0.1731745859772988
 40
0.2153896157649209
 40
0.2578966104220416
 40
0.3000344725997592
 40
0.3424637340778924
 40
0.3845473449223284
 40
0.4269228737721172
 40
0.4690062964681025
 40
0.5113810680567171
 40
0.5534642260528145
 40
0.5958376032305315
 40
0.6379208522925647
 40
0.6802934734625341
 40
0.7223769189107638
 40
0.7647495646147815
 40
0.8068330601487295
 40
0.8492066780816879
 40
0.8863932005900432
 40
0.9237803904458164
 40
0.961782945857464
 40
1.0
 40
1.0
 40
1.0
 40
1.0
 10
7.824231403308669
 20
1.67613677877734
 30
0.0
 10
7.845411007956663
 20
1.685805014893211
 30
0.0
 10
8.106263934300426
 20
1.804881254762793
 30
0.0
 10
8.609535398052095
 20
1.989976907704762
 30
0.0
 10
9.329928437169585
 20
2.220162872256242
 30
0.0
 10
10.05277094637912
 20
2.383501452196901
 30
0.0
 10
10.77425085639836
 20
2.481930428373228
 30
0.0
 10
11.49616426050766
 20
2.511344682101617
 30
0.0
 10
12.21784834101875
 20
2.471443055658495
 30
0.0
 10
12.93876782287143
 20
2.362448080956632
 30
0.0
 10
13.65887078948865
 20
2.18934544828545
 30
0.0
 10
14.37948317271282
 20
1.955077375645496
 30
0.0
 10
15.09790094902928
 20
1.667022825000702
 30
0.0
 10
15.81922162857202
 20
1.334157633178922
 30
0.0
 10
16.53706426944676
 20
0.9625898932748038
 30
0.0
 10
17.25852486492751
 20
0.5667656348494188
 30
0.0
 10
17.97667267869105
 20
0.1534967445793707
 30
0.0
 10
18.69729494335366
 20
-0.2635092987260715
 30
0.0
 10
19.41644801044727
 20
-0.6720906003826648
 30
0.0
 10
20.13612485049326
 20
-1.064778417674472
 30
0.0
 10
20.85598757465268
 20
-1.42455207823439
 30
0.0
 10
21.57544797755347
 20
-1.748709345115191
 30
0.0
 10
22.2672980633286
 20
-2.011036386036747
 30
0.0
 10
22.93096951197804
 20
-2.2165650436398
 30
0.0
 10
23.57089278764487
 20
-2.364518158224193
 30
0.0
 10
24.21589304386206
 20
-2.466207304048796
 30
0.0
 10
24.64890841700461
 20
-2.487307333359094
 30
0.0
 10
24.86602540378444
 20
-2.499999999999926
 30
0.0
  0
SPLINE
  5
AD
330
1F
100
AcDbEntity
  8
0
  6
Continuous
 62
     1
370
    15
100
AcDbSpline
210
0.0
220
0.0
230
1.0
 70
     8
 71
     3
 72
    15
 73
    11
 74
     0
 42
0.000000001
 43
0.00000001
 40
0.0
 40
0.0
 40
0.0
 40
0.0
 40
0.0360879530880978
 40
0.1932393569875295
 40
0.3503993084041883
 40
0.5075649406991242
 40
0.6647333801541481
 40
0.8219017495504963
 40
0.9790671717567886
 40
1.0
 40
1.0
 40
1.0
 40
1.0
 10
18.63914019675938
 20
-0.2287304497286398
 30
0.0
 10
18.53918991256572
 20
-0.1895359404442441
 30
0.0
 10
18.0039883564909
 20
0.020338023675277
 30
0.0
 10
17.03350171265865
 20
0.4206449505196711
 30
0.0
 10
15.72766716713743
 20
0.912831768562577
 30
0.0
 10
14.42177972049103
 20
1.323945016765343
 30
0.0
 10
13.1158666378892
 20
1.61891159960861
 30
0.0
 10
11.80995471082595
 20
1.75323680752996
 30
0.0
 10
10.881372576442
 20
1.775303720485016
 30
0.0
 10
10.38809973364381
 20
1.708673191476872
 30
0.0
 10
10.33012277053903
 20
1.700841753402879
 30
0.0
  0
SPLINE
  5
AE
330
1F
100
AcDbEntity
  8
0
  6
Continuous
 62
     1
370
    15
100
AcDbSpline
210
0.0
220
0.0
230
1.0
 70
     8
 71
     3
 72
    16
 73
    12
 74
     0
 42
0.000000001
 43
0.00000001
 40
0.0
 40
0.0
 40
0.0
 40
0.0
 40
0.11953174966348
 40
0.2400578553083374
 40
0.3494882699735226
 40
0.4596810392164405
 40
0.5691107645203322
 40
0.6792998186652758
 40
0.7887298221040212
 40
0.8989169177498622
 40
1.0
 40
1.0
 40
1.0
 40
1.0
 10
4.866025403784434
 20
-0.1306600506366924
 30
0.0
 10
5.127910065633287
 20
-0.2814035452708276
 30
0.0
 10
5.653857945075991
 20
-0.5841445335474386
 30
0.0
 10
6.419451618909338
 20
-1.005161700511686
 30
0.0
 10
7.165659699421994
 20
-1.382989788324052
 30
0.0
 10
7.885779613574659
 20
-1.712628929609122
 30
0.0
 10
8.609495040748794
 20
-1.992901034911637
 30
0.0
 10
9.329933970901301
 20
-2.219631721377275
 30
0.0
 10
10.05278883339064
 20
-2.382723236842877
 30
0.0
 10
10.75587291247056
 20
-2.482988766803198
 30
0.0
 10
11.21857890762999
 20
-2.492849191941954
 30
0.0
 10
11.43996248685602
 20
-2.497566952750642
 30
0.0
  0
SPLINE
  5
AF
330
1F
100
AcDbEntity
  8
0
  6
Continuous
 62
     1
370
    15
100
AcDbSpline
210
0.0
220
0.0
230
1.0
 70
     8
 71
     3
 72
    13
 73
     9
 74
     0
 42
0.000000001
 43
0.00000001
 40
0.0
 40
0.0
 40
0.0
 40
0.0
 40
0.0413882326746797
 40
0.2516718806216663
 40
0.4362140082231277
 40
0.6217519691732012
 40
0.8103437480463743
 40
1.0
 40
1.0
 40
1.0
 40
1.0
 10
21.43205504564725
 20
1.676112250273156
 30
0.0
 10
21.47940296300541
 20
1.697502421956122
 30
0.0
 10
21.76731425167315
 20
1.82757090728108
 30
0.0
 10
22.26731581415493
 20
2.008885723586242
 30
0.0
 10
22.93096499733992
 20
2.217112030156867
 30
0.0
 10
23.57089401624803
 20
2.364369302580964
 30
0.0
 10
24.21589273258887
 20
2.466245017421375
 30
0.0
 10
24.6489083130524
 20
2.487319928046457
 30
0.0
 10
24.86602540378444
 20
2.500000000000072
 30
0.0
  0
LINE
  5
B0
330
1F
100
AcDbEntity
  8
0
  6
Continuous
 62
   131
370
    15
100
AcDbLine
 10
4.866025403784434
 20
-0.1306600506373871
 30
0.0
 11
4.866025403784434
 21
0.5639301781878486
 31
0.0
  0
LINE
  5
B1
330
1F
100
AcDbEntity
  8
0
  6
Continuous
 62
     1
370
    15
100
AcDbLine
 10
24.86602540378444
 20
-2.499999999999926
 30
0.0
 11
24.86602540378444
 21
-2.372352173079752
 31
0.0
  0
SPLINE
  5
B2
330
1F
100
AcDbEntity
  8
0
  6
Continuous
 62
     1
370
    15
100
AcDbSpline
210
0.0
220
0.0
230
1.0
 70
    24
 71
     3
 72
    10
 73
     6
 74
     0
 42
0.000000001
 43
0.00000001
 40
0.0
 40
0.0
 40
0.0
 40
0.0
 40
0.5
 40
0.5
 40
1.0
 40
1.0
 40
1.0
 40
1.0
 10
24.86602540378444
 20
1.750000000000003
 30
0.0
 10
24.86602540378444
 20
1.856080642018287
 30
0.0
 10
24.86602540378443
 20
1.979356172167795
 30
0.0
 10
24.86602540378443
 20
2.237987902402141
 30
0.0
 10
24.86602540378444
 20
2.372683589503685
 30
0.0
 10
24.86602540378444
 20
2.500000000000072
 30
0.0
  0
LINE
  5
B3
330
1F
100
AcDbEntity
  8
0
  6
Continuous
 62
     1
370
    15
100
AcDbLine
 10
24.86602540378444
 20
1.750000000000003
 30
0.0
 11
23.93251646327163
 21
1.693545323492022
 31
0.0
  0
LINE
  5
B4
330
1F
100
AcDbEntity
  8
0
  6
Continuous
 62
     1
370
    15
100
AcDbLine
 10
5.052055002765513
 20
-0.2369475382071441
 30
0.0
 11
4.866025403784427
 21
-0.16322089798184
 31
0.0
  0
SPLINE
  5
B5
330
1F
100
AcDbEntity
  8
0
  6
Continuous
 62
     1
370
    15
100
AcDbSpline
210
0.0
220
0.0
230
1.0
 70
     8
 71
     3
 72
     8
 73
     4
 74
     0
 42
0.000000001
 43
0.00000001
 40
0.0
 40
0.0
 40
0.0
 40
0.0
 40
1.0
 40
1.0
 40
1.0
 40
1.0
 10
23.31844673555916
 20
0.700016408440572
 30
0.0
 10
23.20660797946343
 20
0.8325404951407994
 30
0.0
 10
23.10957015215358
 20
0.9591847098085262
 30
0.0
 10
23.03295638611385
 20
1.077008495890186
 30
0.0
  0
LINE
  5
B6
330
1F
100
AcDbEntity
  8
0
  6
Continuous
 62
     1
370
    15
100
AcDbLine
 10
23.03295638611385
 20
1.077008495890184
 30
0.0
 11
24.86602540378444
 21
0.0000000000000028
 31
0.0
  0
LINE
  5
B7
330
1F
100
AcDbEntity
  8
0
  6
Continuous
 62
     1
370
    15
100
AcDbLine
 10
24.86602540378444
 20
0.0000000000000028
 30
0.0
 11
24.86602540378444
 21
-0.6681073650741093
 31
0.0
  0
SPLINE
  5
B8
330
1F
100
AcDbEntity
  8
0
  6
Continuous
 62
     1
370
    15
100
AcDbSpline
210
0.0
220
0.0
230
1.0
 70
     8
 71
     3
 72
    10
 73
     6
 74
     0
 42
0.000000001
 43
0.00000001
 40
0.0
 40
0.0
 40
0.0
 40
0.0
 40
0.5
 40
0.5
 40
1.0
 40
1.0
 40
1.0
 40
1.0
 10
24.86602540378444
 20
-0.6681073650741093
 30
0.0
 10
24.59812522224676
 20
-0.4574906938170875
 30
0.0
 10
24.33470397730505
 20
-0.2382331035478558
 30
0.0
 10
23.81703861831597
 20
0.2179869145392505
 30
0.0
 10
23.56038766702056
 20
0.4573610698567273
 30
0.0
 10
23.31844673555923
 20
0.7000164084405459
 30
0.0
  0
SPLINE
  5
B9
330
1F
100
AcDbEntity
  8
0
  6
Continuous
 62
     1
370
    15
100
AcDbSpline
210
0.0
220
0.0
230
1.0
 70
     8
 71
     3
 72
    19
 73
    15
 74
     0
 42
0.000000001
 43
0.00000001
 40
0.0
 40
0.0
 40
0.0
 40
0.0
 40
0.0838602777255531
 40
0.1726424174829821
 40
0.261429260376799
 40
0.3502192290165572
 40
0.4390107421369874
 40
0.5278022165568806
 40
0.616592069143046
 40
0.7053787187741443
 40
0.7941605882991886
 40
0.8829361064855321
 40
0.9414582151818087
 40
1.0
 40
1.0
 40
1.0
 40
1.0
 10
19.5726507091013
 20
-1.875419856943013
 30
0.0
 10
19.16152980137023
 20
-1.927293622325224
 30
0.0
 10
18.31515879815492
 20
-2.034085687679914
 30
0.0
 10
17.03349857234439
 20
-1.970844633454412
 30
0.0
 10
15.72766257511883
 20
-1.742532547351736
 30
0.0
 10
14.42177404438344
 20
-1.353243815845836
 30
0.0
 10
13.11586045647986
 20
-0.8428395299393618
 30
0.0
 10
11.80994534885068
 20
-0.2561273924287134
 30
0.0
 10
10.50406524300221
 20
0.3536757383693835
 30
0.0
 10
9.198208660059514
 20
0.931369601921008
 30
0.0
 10
7.892542921745303
 20
1.425781305933351
 30
0.0
 10
6.734882322814684
 20
1.747448224285687
 30
0.0
 10
5.726513006198935
 20
1.931334158888487
 30
0.0
 10
5.152886742993772
 20
1.971297064935541
 30
0.0
 10
4.866025403784434
 20
1.991281876445566
 30
0.0
  0
SPLINE
  5
BA
330
1F
100
AcDbEntity
  8
0
  6
Continuous
 62
   131
370
    15
100
AcDbSpline
210
0.0
220
0.0
230
1.0
 70
    24
 71
     3
 72
    12
 73
     8
 74
     0
 42
0.000000001
 43
0.00000001
 40
0.0
 40
0.0
 40
0.0
 40
0.0
 40
0.2689658515044103
 40
0.4648889836836393
 40
0.6664938999688422
 40
0.8427075983544048
 40
1.0
 40
1.0
 40
1.0
 40
1.0
 10
4.866025403784434
 20
1.991281876445565
 30
0.0
 10
4.866025403784434
 20
1.934444239770349
 30
0.0
 10
4.866025403784434
 20
1.83620429220404
 30
0.0
 10
4.866025403784434
 20
1.572071749699059
 30
0.0
 10
4.866025403784434
 20
1.28758582191171
 30
0.0
 10
4.866025403784434
 20
0.9761760540606338
 30
0.0
 10
4.866025403784434
 20
0.7534609631338174
 30
0.0
 10
4.866025403784434
 20
0.6484212306332026
 30
0.0
  0
SPLINE
  5
BB
330
1F
100
AcDbEntity
  8
0
  6
Continuous
 62
     1
370
    15
100
AcDbSpline
210
0.0
220
0.0
230
1.0
 70
     8
 71
     3
 72
    12
 73
     8
 74
     0
 42
0.000000001
 43
0.00000001
 40
0.0
 40
0.0
 40
0.0
 40
0.0
 40
0.1845657546853811
 40
0.4112586750327399
 40
0.6379755845765415
 40
0.8647125139819469
 40
0.9999999999999999
 40
0.9999999999999999
 40
0.9999999999999999
 40
0.9999999999999999
 10
23.31844673541212
 20
0.7000164085041365
 30
0.0
 10
22.96426322757592
 20
0.8490187935451046
 30
0.0
 10
22.17505376453405
 20
1.181033383971833
 30
0.0
 10
20.95041551379989
 20
1.596839749715713
 30
0.0
 10
19.64491479078558
 20
1.892095147513299
 30
0.0
 10
18.51482450416151
 20
2.024400146600022
 30
0.0
 10
17.81991372246392
 20
1.980935965117971
 30
0.0
 10
17.56022755584795
 20
1.964693525122146
 30
0.0
  0
SPLINE
  5
BC
330
1F
100
AcDbEntity
  8
0
  6
Continuous
 62
     1
370
    15
100
AcDbSpline
210
0.0
220
0.0
230
1.0
 70
     8
 71
     3
 72
     9
 73
     5
 74
     0
 42
0.000000001
 43
0.00000001
 40
0.0
 40
0.0
 40
0.0
 40
0.0
 40
0.220785532001289
 40
1.0
 40
1.0
 40
1.0
 40
1.0
 10
5.970390865799072
 20
-1.872198084658721
 30
0.0
 10
5.889118128289105
 20
-1.887309018514797
 30
0.0
 10
5.521010957618635
 20
-1.955750703615736
 30
0.0
 10
5.152879085033909
 20
-1.975720849693626
 30
0.0
 10
4.866025403784434
 20
-1.991281876445565
 30
0.0
  0
SPLINE
  5
BD
330
1F
100
AcDbEntity
  8
0
  6
Continuous
 62
     1
370
    15
100
AcDbSpline
210
0.0
220
0.0
230
1.0
 70
    24
 71
     3
 72
    10
 73
     6
 74
     0
 42
0.000000001
 43
0.00000001
 40
0.0
 40
0.0
 40
0.0
 40
0.0
 40
0.5
 40
0.5
 40
1.0
 40
1.0
 40
1.0
 40
1.0
 10
24.86602540378444
 20
-1.972430660920538
 30
0.0
 10
24.86602540378444
 20
-1.82122847250951
 30
0.0
 10
24.86602540378444
 20
-1.63017870976617
 30
0.0
 10
24.86602540378444
 20
-1.186006397876698
 30
0.0
 10
24.86602540378444
 20
-0.9332686076282721
 30
0.0
 10
24.86602540378444
 20
-0.6681073650741894
 30
0.0
  0
SPLINE
  5
BE
330
1F
100
AcDbEntity
  8
0
  6
Continuous
 62
     1
370
    15
100
AcDbSpline
210
0.0
220
0.0
230
1.0
 70
     8
 71
     3
 72
    10
 73
     6
 74
     0
 42
0.000000001
 43
0.00000001
 40
0.0
 40
0.0
 40
0.0
 40
0.0
 40
0.5000000000000001
 40
0.5000000000000001
 40
1.0
 40
1.0
 40
1.0
 40
1.0
 10
24.86602540378444
 20
1.750000000000003
 30
0.0
 10
24.55500079586129
 20
1.665558526326573
 30
0.0
 10
24.24596370855409
 20
1.568788365261295
 30
0.0
 10
23.6337404220492
 20
1.347056598928609
 30
0.0
 10
23.33025680012258
 20
1.222785480388825
 30
0.0
 10
23.03295638611381
 20
1.077008495890222
 30
0.0
  0
SPLINE
  5
BF
330
1F
100
AcDbEntity
  8
0
  6
Continuous
 62
   131
370
    15
100
AcDbSpline
210
0.0
220
0.0
230
1.0
 70
    24
 71
     3
 72
    14
 73
    10
 74
     0
 42
0.000000001
 43
0.00000001
 40
0.0
 40
0.0
 40
0.0
 40
0.0
 40
0.2499999999999998
 40
0.2499999999999998
 40
0.4999999999999999
 40
0.4999999999999999
 40
0.75
 40
0.75
 40
1.0
 40
1.0
 40
1.0
 40
1.0
 10
4.866025403784434
 20
-0.1632208979818436
 30
0.0
 10
4.866025403784434
 20
-0.37426458615781
 30
0.0
 10
4.866025403784434
 20
-0.5838574671450834
 30
0.0
 10
4.866025403784434
 20
-0.9784819271343984
 30
0.0
 10
4.866025403784434
 20
-1.163273903110327
 30
0.0
 10
4.866025403784434
 20
-1.488173044010644
 30
0.0
 10
4.866025403784434
 20
-1.628107089089305
 30
0.0
 10
4.866025403784434
 20
-1.851808338472682
 30
0.0
 10
4.866025403784434
 20
-1.935576010623174
 30
0.0
 10
4.866025403784434
 20
-1.991281876445565
 30
0.0
  0
LINE
  5
C0
330
1F
100
AcDbEntity
  8
0
  6
Continuous
 62
     1
370
    15
100
AcDbLine
 10
24.86602540378444
 20
0.0000000000000028
 30
0.0
 11
24.86602540378444
 21
1.750000000000003
 31
0.0
  0
LINE
  5
C1
330
1F
100
AcDbEntity
  8
0
  6
Continuous
 62
   131
370
    15
100
AcDbLine
 10
3.866025403784434
 20
2.5
 30
0.0
 11
3.866025403784434
 21
-2.5
 31
0.0
  0
LINE
  5
C2
330
1F
100
AcDbEntity
  8
0
  6
Continuous
 62
   131
370
    15
100
AcDbLine
 10
2.0
 20
3.0
 30
0.0
 11
2.0
 21
-3.0
 31
0.0
  0
LINE
  5
C3
330
1F
100
AcDbEntity
  8
0
  6
Continuous
 62
   131
370
    15
100
AcDbLine
 10
-44.58397459621557
 20
2.999999999999994
 30
0.0
 11
-44.58397459621557
 21
-3.000000000000001
 31
0.0
  0
LINE
  5
C4
330
1F
100
AcDbEntity
  8
0
  6
Continuous
 62
   131
370
    15
100
AcDbLine
 10
-45.13397459621557
 20
2.449999999999994
 30
0.0
 11
-45.13397459621557
 21
-2.450000000000001
 31
0.0
  0
SPLINE
  5
C5
330
1F
100
AcDbEntity
  8
0
  6
Continuous
 62
   131
370
    15
100
AcDbSpline
210
0.0
220
0.0
230
1.0
 70
    24
 71
     3
 72
     8
 73
     4
 74
     0
 42
0.000000001
 43
0.00000001
 40
0.0
 40
0.0
 40
0.0
 40
0.0
 40
1.0
 40
1.0
 40
1.0
 40
1.0
 10
4.866025403784391
 20
-0.1632208979818249
 30
0.0
 10
4.570462311895021
 20
-0.0441760498123375
 30
0.0
 10
4.270636911284363
 20
0.0765855414434868
 30
0.0
 10
3.975913038685277
 20
0.1952923746992931
 30
0.0
  0
SPLINE
  5
C6
330
1F
100
AcDbEntity
  8
0
  6
Continuous
 62
   131
370
    15
100
AcDbSpline
210
0.0
220
0.0
230
1.0
 70
     8
 71
     3
 72
     8
 73
     4
 74
     0
 42
0.000000001
 43
0.00000001
 40
0.0
 40
0.0
 40
0.0
 40
0.0
 40
1.0
 40
1.0
 40
1.0
 40
1.0
 10
3.975935658491142
 20
0.3808620125038938
 30
0.0
 10
4.270652250954278
 20
0.2122110685249907
 30
0.0
 10
4.570469873296773
 20
0.0399107759428128
 30
0.0
 10
4.866025403784398
 20
-0.1306600506366825
 30
0.0
  0
LINE
  5
C7
330
1F
100
AcDbEntity
  8
0
  6
Continuous
 62
   131
370
    15
100
AcDbLine
 10
3.975935658491142
 20
1.048587801297482
 30
0.0
 11
3.975935658491142
 21
2.5
 31
0.0
  0
SPLINE
  5
C8
330
1F
100
AcDbEntity
  8
0
  6
Continuous
 62
   131
370
    15
100
AcDbSpline
210
0.0
220
0.0
230
1.0
 70
     8
 71
     3
 72
     8
 73
     4
 74
     0
 42
0.000000001
 43
0.00000001
 40
0.0
 40
0.0
 40
0.0
 40
0.0
 40
1.0
 40
1.0
 40
1.0
 40
1.0
 10
4.866025403784434
 20
0.5639301781853391
 30
0.0
 10
4.570438512572814
 20
0.7303498725550096
 30
0.0
 10
4.270588630023738
 20
0.8935642042395703
 30
0.0
 10
3.975841843544107
 20
1.048490537522292
 30
0.0
  0
LINE
  5
C9
330
1F
100
AcDbEntity
  8
0
  6
Continuous
 62
   131
370
    15
100
AcDbLine
 10
3.975935658491142
 20
-2.5
 30
0.0
 11
3.975935658491142
 21
0.3815207085823483
 31
0.0
  0
LINE
  5
CA
330
1F
100
AcDbEntity
  8
0
  6
Continuous
 62
   131
370
    15
100
AcDbLine
 10
4.86602540378442
 20
0.6032460653889522
 30
0.0
 11
4.705627705399621
 21
0.6757921688564039
 31
0.0
  0
SPLINE
  5
CB
330
1F
100
AcDbEntity
  8
0
  6
Continuous
 62
   131
370
    15
100
AcDbSpline
210
0.0
220
0.0
230
1.0
 70
     8
 71
     3
 72
     8
 73
     4
 74
     0
 42
0.000000001
 43
0.00000001
 40
0.0
 40
0.0
 40
0.0
 40
0.0
 40
1.0
 40
1.0
 40
1.0
 40
1.0
 10
4.866025403784406
 20
1.991281876445567
 30
0.0
 10
4.570458414057228
 20
2.004026976481373
 30
0.0
 10
4.270629003813909
 20
2.002742137051705
 30
0.0
 10
3.975901378376964
 20
1.987506793497998
 30
0.0
  0
SPLINE
  5
CC
330
1F
100
AcDbEntity
  8
0
  6
Continuous
 62
   131
370
    15
100
AcDbSpline
210
0.0
220
0.0
230
1.0
 70
    24
 71
     3
 72
    12
 73
     8
 74
     0
 42
0.000000001
 43
0.00000001
 40
0.0
 40
0.0
 40
0.0
 40
0.0
 40
0.2689658515044103
 40
0.4648889836836397
 40
0.6664938999688423
 40
0.8427075983544049
 40
1.0
 40
1.0
 40
1.0
 40
1.0
 10
4.866025403784434
 20
1.991281876445565
 30
0.0
 10
4.866025403784434
 20
1.934444239770349
 30
0.0
 10
4.866025403784434
 20
1.83620429220404
 30
0.0
 10
4.866025403784434
 20
1.572071749699059
 30
0.0
 10
4.866025403784434
 20
1.28758582191171
 30
0.0
 10
4.866025403784434
 20
0.9761760540606342
 30
0.0
 10
4.866025403784434
 20
0.7534609631338172
 30
0.0
 10
4.866025403784434
 20
0.6484212306332023
 30
0.0
  0
SPLINE
  5
CD
330
1F
100
AcDbEntity
  8
0
  6
Continuous
 62
   131
370
    15
100
AcDbSpline
210
0.0
220
0.0
230
1.0
 70
     8
 71
     3
 72
     8
 73
     4
 74
     0
 42
0.000000001
 43
0.00000001
 40
0.0
 40
0.0
 40
0.0
 40
0.0
 40
1.0
 40
1.0
 40
1.0
 40
1.0
 10
4.866025403784406
 20
-1.991281876445566
 30
0.0
 10
4.570458414057228
 20
-2.004026976481373
 30
0.0
 10
4.270629003813909
 20
-2.002742137051705
 30
0.0
 10
3.975901378376964
 20
-1.987506793497997
 30
0.0
  0
SPLINE
  5
CE
330
1F
100
AcDbEntity
  8
0
  6
Continuous
 62
   131
370
    15
100
AcDbSpline
210
0.0
220
0.0
230
1.0
 70
    24
 71
     3
 72
    14
 73
    10
 74
     0
 42
0.000000001
 43
0.00000001
 40
0.0
 40
0.0
 40
0.0
 40
0.0
 40
0.2499999999999998
 40
0.2499999999999998
 40
0.4999999999999999
 40
0.4999999999999999
 40
0.75
 40
0.75
 40
1.0
 40
1.0
 40
1.0
 40
1.0
 10
4.866025403784437
 20
-0.1632208979818449
 30
0.0
 10
4.866025403784434
 20
-0.3742645861578113
 30
0.0
 10
4.866025403784434
 20
-0.5838574671450846
 30
0.0
 10
4.866025403784434
 20
-0.9784819271343992
 30
0.0
 10
4.866025403784434
 20
-1.163273903110329
 30
0.0
 10
4.866025403784434
 20
-1.488173044010645
 30
0.0
 10
4.866025403784434
 20
-1.628107089089305
 30
0.0
 10
4.866025403784434
 20
-1.851808338472682
 30
0.0
 10
4.866025403784437
 20
-1.935576010623173
 30
0.0
 10
4.866025403784437
 20
-1.991281876445565
 30
0.0
  0
LINE
  5
CF
330
1F
100
AcDbEntity
  8
중심선
 62
     1
100
AcDbLine
 10
-48.13397459621557
 20
-0.0000000000000046
 30
0.0
 11
27.86602540378444
 21
0.0000000000000031
 31
0.0
  0
CIRCLE
  5
D0
330
1F
100
AcDbEntity
  8
외형선
100
AcDbCircle
 10
0.0000000000000104
 20
0.0
 30
0.0
 40
3.000000000000005
  0
INSERT
  5
D1
330
1F
100
AcDbEntity
  8
0
  6
Continuous
 62
     7
100
AcDbBlockReference
 66
     1
  2
블럭10
 10
-22.93944368806589
 20
-52.04609937292004
 30
0.0
  0
ATTRIB
  5
D2
330
D1
100
AcDbEntity
  8
FORMAT
 62
     2
100
AcDbText
 10
-39.05870472750145
 20
-49.97073246008785
 30
0.0
 40
4.233333333333333
  1
SEME7005020E [ 2 FLUTE ]
 41
0.75
  7
SLDTEXTSTYLE0
 11
-39.05870472750145
 21
-52.08739912675452
 31
0.0
100
AcDbAttribute
  2
AUTOATTR0
 70
     0
 74
     1
  0
SEQEND
  5
D3
330
D1
100
AcDbEntity
  8
0
  6
Continuous
 62
     7
  0
HATCH
  5
D4
330
1F
100
AcDbEntity
  8
중심선
100
AcDbHatch
 10
0.0
 20
0.0
 30
0.0
210
0.0
220
0.0
230
1.0
  2
SOLID
 70
     1
 71
     0
 91
        1
 92
        0
 93
        4
 72
     1
 10
-17.22453438368504
 20
-35.7989250712761
 11
-20.67080962752232
 21
-35.7989250712761
 72
     1
 10
-20.67080962752232
 20
-35.7989250712761
 11
-22.79903948672635
 21
-38.3352506518487
 72
     1
 10
-22.79903948672635
 20
-38.3352506518487
 11
-19.35273115777591
 21
-38.33521122254621
 72
     1
 10
-19.35273115777591
 20
-38.33521122254621
 11
-17.22453438368504
 21
-35.7989250712761
 97
        0
 75
     0
 76
     1
 98
        1
 10
0.0
 20
0.0
  0
HATCH
  5
D5
330
1F
100
AcDbEntity
  8
중심선
100
AcDbHatch
 10
0.0
 20
0.0
 30
0.0
210
0.0
220
0.0
230
1.0
  2
SOLID
 70
     1
 71
     0
 91
        1
 92
        0
 93
        4
 72
     1
 10
-12.21177039264909
 20
-35.7989250712761
 11
-15.65804563648637
 21
-35.7989250712761
 72
     1
 10
-15.65804563648637
 20
-35.7989250712761
 11
-20.18918364484376
 21
-41.19892507127612
 72
     1
 10
-20.18918364484376
 20
-41.19892507127612
 11
-16.74290840100648
 21
-41.19892507127612
 72
     1
 10
-16.74290840100648
 20
-41.19892507127612
 11
-12.21177039264909
 21
-35.7989250712761
 97
        0
 75
     0
 76
     1
 98
        1
 10
0.0
 20
0.0
  0
HATCH
  5
D6
330
1F
100
AcDbEntity
  8
중심선
100
AcDbHatch
 10
0.0
 20
0.0
 30
0.0
210
0.0
220
0.0
230
1.0
  2
SOLID
 70
     1
 71
     0
 91
        1
 92
        0
 93
        4
 72
     1
 10
-7.199006401613195
 20
-35.79892507127613
 11
-10.64528164545031
 21
-35.7989250712761
 72
     1
 10
-10.64528164545031
 20
-35.7989250712761
 11
-17.69371854733956
 21
-44.19892507127612
 72
     1
 10
-17.69371854733956
 20
-44.19892507127612
 11
-14.24744330350228
 21
-44.19892507127612
 72
     1
 10
-14.24744330350228
 20
-44.19892507127612
 11
-7.199006401613195
 21
-35.79892507127613
 97
        0
 75
     0
 76
     1
 98
        1
 10
0.0
 20
0.0
  0
HATCH
  5
D7
330
1F
100
AcDbEntity
  8
중심선
100
AcDbHatch
 10
0.0
 20
0.0
 30
0.0
210
0.0
220
0.0
230
1.0
  2
SOLID
 70
     1
 71
     0
 91
        1
 92
        0
 93
        6
 72
     3
 10
-2.399115970600996
 20
-39.99892507132738
 11
3.960054785062284
 21
1.540850780301639E-10
 40
0.3939339440162633
 50
17.09539180608433
 51
320.0019657685079
 73
     0
 72
     1
 10
-0.7161163149004002
 20
-38.58681907591441
 11
1.589185558800638
 21
-36.65249236586649
 72
     3
 10
-2.399115970653842
 20
-39.99892507127625
 11
6.600054785286829
 21
-1.249000902703301E-13
 40
0.6363583540795982
 50
39.99873849337408
 51
368.4976242363725
 73
     1
 72
     1
 10
4.026216521246767
 20
-39.03892507120613
 11
-3.71904866381792
 21
-39.0389250712061
 72
     1
 10
-3.71904866381792
 20
-39.0389250712061
 11
-3.719073708263854
 21
-40.95892507120602
 72
     1
 10
-3.719073708263854
 20
-40.95892507120602
 11
0.7223060612081831
 21
-40.95892507120599
 97
        0
 75
     0
 76
     1
 98
        1
 10
0.0
 20
0.0
  0
DIMENSION
  5
D8
330
1F
100
AcDbEntity
  8
치수문자_일반주서
100
AcDbDimension
  2
_D
 10
33.62293044848995
 20
2.500000000000105
 30
0.0
 11
33.62293044848992
 21
12.1665000000001
 31
0.0
 70
   160
  1
%%c<>
 71
     2
 42
4.999999999999998
 52
-270.0
  3
SLDDIMSTYLE0
100
AcDbAlignedDimension
 13
24.86602540378444
 23
-2.499999999999926
 33
0.0
 14
24.86602540378444
 24
2.500000000000072
 34
0.0
 50
90.0000000000002
100
AcDbRotatedDimension
  0
DIMENSION
  5
E6
330
1F
100
AcDbEntity
  8
치수문자_일반주서
100
AcDbDimension
  2
_D_1
 10
24.86602540378444
 20
24.23841044024269
 30
0.0
 11
-10.13397459621556
 21
24.23841044024269
 31
0.0
 70
   160
  1
<>
 71
     2
 42
70.0
  3
SLDDIMSTYLE1
100
AcDbAlignedDimension
 13
-45.13397459621557
 23
2.449999999999994
 33
0.0
 14
24.86602540378444
 24
2.500000000000072
 34
0.0
 50
-0.0000000000000058
100
AcDbRotatedDimension
  0
DIMENSION
  5
F1
330
1F
100
AcDbEntity
  8
치수문자_일반주서
100
AcDbDimension
  2
_D_2
 10
24.86602540378444
 20
15.33827968261309
 30
0.0
 11
14.86602540378444
 21
15.33827968261309
 31
0.0
 70
   160
  1
<>
 71
     2
 42
20.00000000000001
  3
SLDDIMSTYLE0
100
AcDbAlignedDimension
 13
4.866025403784434
 23
1.991281876445566
 33
0.0
 14
24.86602540378444
 24
2.500000000000072
 34
0.0
 50
-0.0000000000000051
100
AcDbRotatedDimension
  0
DIMENSION
  5
FB
330
1F
100
AcDbEntity
  8
치수문자_일반주서
100
AcDbDimension
  2
_D_3
 10
-56.6889882908108
 20
-3.000000000000046
 30
0.0
 11
-56.68898829081086
 21
12.66649999999995
 31
0.0
 70
   160
  1
%%c<>
 71
     2
 42
5.999999999999995
 52
-270.0
  3
SLDDIMSTYLE0
100
AcDbAlignedDimension
 13
-44.58397459621557
 23
2.999999999999994
 33
0.0
 14
-44.58397459621557
 24
-3.0
 34
0.0
 50
90.0000000000002
100
AcDbRotatedDimension
  0
INSERT
  5
10E
330
1F
100
AcDbEntity
  8
외형선
100
AcDbBlockReference
  2
SW_DOWELSYMBOL_0
 10
0.0000000000000104
 20
0.0
 30
0.0
  0
ENDSEC
  0
SECTION
  2
OBJECTS
  0
DICTIONARY
  5
C
330
0
100
AcDbDictionary
281
     1
  3
ACAD_GROUP
350
D
  3
ACAD_IMAGE_VARS
350
132
  3
ACAD_LAYOUT
350
1A
  3
ACAD_MLINESTYLE
350
17
  3
ACAD_PLOTSETTINGS
350
19
  3
ACAD_PLOTSTYLENAME
350
E
  3
ACAD_SCALELIST
350
47
  3
APPDATA
350
130
  3
DWGPROPS
350
141
  0
DICTIONARY
  5
D
102
{ACAD_REACTORS
330
C
102
}
330
C
100
AcDbDictionary
281
     1
  0
RASTERVARIABLES
  5
132
102
{ACAD_REACTORS
330
C
102
}
330
C
100
AcDbRasterVariables
 90
        0
 70
     1
 71
     1
 72
     1
  0
DICTIONARY
  5
1A
102
{ACAD_REACTORS
330
C
102
}
330
C
100
AcDbDictionary
281
     1
  3
Layout1
350
1E
  3
Layout2
350
26
  3
Model
350
22
  0
DICTIONARY
  5
17
102
{ACAD_REACTORS
330
C
102
}
330
C
100
AcDbDictionary
281
     1
  3
Standard
350
18
  0
DICTIONARY
  5
19
102
{ACAD_REACTORS
330
C
102
}
330
C
100
AcDbDictionary
281
     1
  0
ACDBDICTIONARYWDFLT
  5
E
102
{ACAD_REACTORS
330
C
102
}
330
C
100
AcDbDictionary
281
     1
  3
Normal
350
F
100
AcDbDictionaryWithDefault
340
F
  0
DICTIONARY
  5
47
102
{ACAD_REACTORS
330
C
102
}
330
C
100
AcDbDictionary
281
     1
  3
A0
350
48
  3
A1
350
49
  3
A2
350
4A
  3
A3
350
4B
  3
A4
350
4C
  3
A5
350
4D
  3
A6
350
4E
  3
A7
350
4F
  3
A8
350
50
  3
A9
350
51
  3
B0
350
52
  3
B1
350
53
  3
B2
350
54
  3
B3
350
55
  3
B4
350
56
  3
B5
350
57
  3
B6
350
58
  3
B7
350
59
  3
B8
350
5A
  3
B9
350
5B
  3
C0
350
5C
  3
C1
350
5D
  3
C2
350
5E
  3
C3
350
5F
  3
C4
350
60
  3
C5
350
61
  3
C6
350
62
  3
C7
350
63
  3
C8
350
64
  3
C9
350
65
  3
D0
350
66
  3
D1
350
67
  3
D2
350
68
  0
DICTIONARY
  5
130
102
{ACAD_REACTORS
330
C
102
}
330
C
100
AcDbDictionary
281
     1
  0
XRECORD
  5
141
102
{ACAD_REACTORS
330
C
102
}
330
C
100
AcDbXrecord
280
     1
  1
DWGPROPS COOKIE
  2

  3

  4

  6

  7

  8
12014102
  9

300
=
301
=
302
=
303
=
304
=
305
=
306
=
307
=
308
=
309
=
 40
0.0
 41
2458262.164664861
 42
2458266.012397257
  1

 90
        0
  0
LAYOUT
  5
1E
102
{ACAD_REACTORS
330
1A
102
}
330
1A
100
AcDbPlotSettings
  1

  2
none_device
  4

  6

 40
0.0
 41
0.0
 42
0.0
 43
0.0
 44
0.0
 45
0.0
 46
0.0
 47
0.0
 48
0.0
 49
0.0
140
0.0
141
0.0
142
1.0
143
1.0
 70
   688
 72
     1
 73
     0
 74
     5
  7

 75
    16
147
1.0
148
0.0
149
0.0
100
AcDbLayout
  1
Layout1
 70
     1
 71
     1
 10
0.0
 20
0.0
 11
420.0
 21
297.0
 12
0.0
 22
0.0
 32
0.0
 14
1.000000000000000E+20
 24
1.000000000000000E+20
 34
1.000000000000000E+20
 15
-1.000000000000000E+20
 25
-1.000000000000000E+20
 35
-1.000000000000000E+20
146
0.0
 13
0.0
 23
0.0
 33
0.0
 16
1.0
 26
0.0
 36
0.0
 17
0.0
 27
1.0
 37
0.0
 76
     0
330
1B
  0
LAYOUT
  5
26
102
{ACAD_REACTORS
330
1A
102
}
330
1A
100
AcDbPlotSettings
  1

  2
none_device
  4

  6

 40
0.0
 41
0.0
 42
0.0
 43
0.0
 44
0.0
 45
0.0
 46
0.0
 47
0.0
 48
0.0
 49
0.0
140
0.0
141
0.0
142
1.0
143
1.0
 70
   688
 72
     1
 73
     0
 74
     5
  7

 75
    16
147
1.0
148
0.0
149
0.0
100
AcDbLayout
  1
Layout2
 70
     1
 71
     2
 10
0.0
 20
0.0
 11
0.0
 21
0.0
 12
0.0
 22
0.0
 32
0.0
 14
0.0
 24
0.0
 34
0.0
 15
0.0
 25
0.0
 35
0.0
146
0.0
 13
0.0
 23
0.0
 33
0.0
 16
1.0
 26
0.0
 36
0.0
 17
0.0
 27
1.0
 37
0.0
 76
     0
330
23
  0
LAYOUT
  5
22
102
{ACAD_REACTORS
330
1A
102
}
330
1A
100
AcDbPlotSettings
  1

  2
none_device
  4
ANSI_A_(11.00_x_8.50_Inches)
  6

 40
6.35
 41
19.05
 42
6.35000508
 43
19.05000254
 44
279.4
 45
215.9
 46
145.765014758135
 47
118.4377884955873
 48
0.0
 49
0.0
140
0.0
141
0.0
142
0.1058944507156154
143
1.0
 70
  1696
 72
     0
 73
     0
 74
     0
  7

 75
     0
147
0.0235690232323232
148
0.0
149
0.0
100
AcDbLayout
  1
Model
 70
     1
 71
     0
 10
0.0
 20
0.0
 11
420.0
 21
297.0
 12
0.0
 22
0.0
 32
0.0
 14
-61.06398829081087
 24
-49.97073246008785
 34
0.0
 15
34.17326378182331
 25
28.61341044024268
 35
0.0
146
0.0
 13
0.0
 23
0.0
 33
0.0
 16
1.0
 26
0.0
 36
0.0
 17
0.0
 27
1.0
 37
0.0
 76
     0
330
1F
331
29
  0
MLINESTYLE
  5
18
102
{ACAD_REACTORS
330
17
102
}
330
17
100
AcDbMlineStyle
  2
Standard
 70
     0
  3

 62
   256
 51
90.0
 52
90.0
 71
     2
 49
0.5
 62
   256
  6
BYLAYER
 49
-0.5
 62
   256
  6
BYLAYER
  0
ACDBPLACEHOLDER
  5
F
102
{ACAD_REACTORS
330
E
102
}
330
E
  0
SCALE
  5
48
102
{ACAD_REACTORS
330
47
102
}
330
47
100
AcDbScale
 70
     0
300
1:1
140
1.0
141
1.0
290
     1
  0
SCALE
  5
49
102
{ACAD_REACTORS
330
47
102
}
330
47
100
AcDbScale
 70
     0
300
1:2
140
1.0
141
2.0
290
     0
  0
SCALE
  5
4A
102
{ACAD_REACTORS
330
47
102
}
330
47
100
AcDbScale
 70
     0
300
1:4
140
1.0
141
4.0
290
     0
  0
SCALE
  5
4B
102
{ACAD_REACTORS
330
47
102
}
330
47
100
AcDbScale
 70
     0
300
1:5
140
1.0
141
5.0
290
     0
  0
SCALE
  5
4C
102
{ACAD_REACTORS
330
47
102
}
330
47
100
AcDbScale
 70
     0
300
1:8
140
1.0
141
8.0
290
     0
  0
SCALE
  5
4D
102
{ACAD_REACTORS
330
47
102
}
330
47
100
AcDbScale
 70
     0
300
1:10
140
1.0
141
10.0
290
     0
  0
SCALE
  5
4E
102
{ACAD_REACTORS
330
47
102
}
330
47
100
AcDbScale
 70
     0
300
1:16
140
1.0
141
16.0
290
     0
  0
SCALE
  5
4F
102
{ACAD_REACTORS
330
47
102
}
330
47
100
AcDbScale
 70
     0
300
1:20
140
1.0
141
20.0
290
     0
  0
SCALE
  5
50
102
{ACAD_REACTORS
330
47
102
}
330
47
100
AcDbScale
 70
     0
300
1:30
140
1.0
141
30.0
290
     0
  0
SCALE
  5
51
102
{ACAD_REACTORS
330
47
102
}
330
47
100
AcDbScale
 70
     0
300
1:40
140
1.0
141
40.0
290
     0
  0
SCALE
  5
52
102
{ACAD_REACTORS
330
47
102
}
330
47
100
AcDbScale
 70
     0
300
1:50
140
1.0
141
50.0
290
     0
  0
SCALE
  5
53
102
{ACAD_REACTORS
330
47
102
}
330
47
100
AcDbScale
 70
     0
300
1:100
140
1.0
141
100.0
290
     0
  0
SCALE
  5
54
102
{ACAD_REACTORS
330
47
102
}
330
47
100
AcDbScale
 70
     0
300
2:1
140
2.0
141
1.0
290
     0
  0
SCALE
  5
55
102
{ACAD_REACTORS
330
47
102
}
330
47
100
AcDbScale
 70
     0
300
4:1
140
4.0
141
1.0
290
     0
  0
SCALE
  5
56
102
{ACAD_REACTORS
330
47
102
}
330
47
100
AcDbScale
 70
     0
300
8:1
140
8.0
141
1.0
290
     0
  0
SCALE
  5
57
102
{ACAD_REACTORS
330
47
102
}
330
47
100
AcDbScale
 70
     0
300
10:1
140
10.0
141
1.0
290
     0
  0
SCALE
  5
58
102
{ACAD_REACTORS
330
47
102
}
330
47
100
AcDbScale
 70
     0
300
100:1
140
100.0
141
1.0
290
     0
  0
SCALE
  5
59
102
{ACAD_REACTORS
330
47
102
}
330
47
100
AcDbScale
 70
     0
300
1/128" = 1'-0"
140
0.0078125
141
12.0
290
     0
  0
SCALE
  5
5A
102
{ACAD_REACTORS
330
47
102
}
330
47
100
AcDbScale
 70
     0
300
1/64" = 1'-0"
140
0.015625
141
12.0
290
     0
  0
SCALE
  5
5B
102
{ACAD_REACTORS
330
47
102
}
330
47
100
AcDbScale
 70
     0
300
1/32" = 1'-0"
140
0.03125
141
12.0
290
     0
  0
SCALE
  5
5C
102
{ACAD_REACTORS
330
47
102
}
330
47
100
AcDbScale
 70
     0
300
1/16" = 1'-0"
140
0.0625
141
12.0
290
     0
  0
SCALE
  5
5D
102
{ACAD_REACTORS
330
47
102
}
330
47
100
AcDbScale
 70
     0
300
3/32" = 1'-0"
140
0.09375
141
12.0
290
     0
  0
SCALE
  5
5E
102
{ACAD_REACTORS
330
47
102
}
330
47
100
AcDbScale
 70
     0
300
1/8" = 1'-0"
140
0.125
141
12.0
290
     0
  0
SCALE
  5
5F
102
{ACAD_REACTORS
330
47
102
}
330
47
100
AcDbScale
 70
     0
300
3/16" = 1'-0"
140
0.1875
141
12.0
290
     0
  0
SCALE
  5
60
102
{ACAD_REACTORS
330
47
102
}
330
47
100
AcDbScale
 70
     0
300
1/4" = 1'-0"
140
0.25
141
12.0
290
     0
  0
SCALE
  5
61
102
{ACAD_REACTORS
330
47
102
}
330
47
100
AcDbScale
 70
     0
300
3/8" = 1'-0"
140
0.375
141
12.0
290
     0
  0
SCALE
  5
62
102
{ACAD_REACTORS
330
47
102
}
330
47
100
AcDbScale
 70
     0
300
1/2" = 1'-0"
140
0.5
141
12.0
290
     0
  0
SCALE
  5
63
102
{ACAD_REACTORS
330
47
102
}
330
47
100
AcDbScale
 70
     0
300
3/4" = 1'-0"
140
0.75
141
12.0
290
     0
  0
SCALE
  5
64
102
{ACAD_REACTORS
330
47
102
}
330
47
100
AcDbScale
 70
     0
300
1" = 1'-0"
140
1.0
141
12.0
290
     0
  0
SCALE
  5
65
102
{ACAD_REACTORS
330
47
102
}
330
47
100
AcDbScale
 70
     0
300
1-1/2" = 1'-0"
140
1.5
141
12.0
290
     0
  0
SCALE
  5
66
102
{ACAD_REACTORS
330
47
102
}
330
47
100
AcDbScale
 70
     0
300
3" = 1'-0"
140
3.0
141
12.0
290
     0
  0
SCALE
  5
67
102
{ACAD_REACTORS
330
47
102
}
330
47
100
AcDbScale
 70
     0
300
6" = 1'-0"
140
6.0
141
12.0
290
     0
  0
SCALE
  5
68
102
{ACAD_REACTORS
330
47
102
}
330
47
100
AcDbScale
 70
     0
300
1'-0" = 1'-0"
140
12.0
141
12.0
290
     0
  0
ENDSEC
  0
EOF
