  0
SECTION
  2
HEADER
  9
$ACADVER
  1
AC1015
  9
$ACADMAINTVER
 70
     6
  9
$DWGCODEPAGE
  3
ANSI_949
  9
$INSBASE
 10
0.0
 20
0.0
 30
0.0
  9
$EXTMIN
 10
-58.22264599718098
 20
-49.97073246008785
 30
0.0
  9
$EXTMAX
 10
43.35272636202192
 20
28.61341044024269
 30
0.0
  9
$LIMMIN
 10
0.0
 20
0.0
  9
$LIMMAX
 10
420.0
 20
297.0
  9
$ORTHOMODE
 70
     0
  9
$REGENMODE
 70
     1
  9
$FILLMODE
 70
     1
  9
$QTEXTMODE
 70
     0
  9
$MIRRTEXT
 70
     1
  9
$LTSCALE
 40
1.0
  9
$ATTMODE
 70
     1
  9
$TEXTSIZE
 40
3.5
  9
$TRACEWID
 40
1.0
  9
$TEXTSTYLE
  7
Standard
  9
$CLAYER
  8
0
  9
$CELTYPE
  6
ByLayer
  9
$CECOLOR
 62
   256
  9
$CELTSCALE
 40
1.0
  9
$DISPSILH
 70
     0
  9
$DIMSCALE
 40
1.0
  9
$DIMASZ
 40
3.302
  9
$DIMEXO
 40
1.0
  9
$DIMDLI
 40
3.75
  9
$DIMRND
 40
0.0
  9
$DIMDLE
 40
0.0
  9
$DIMEXE
 40
1.0
  9
$DIMTP
 40
0.0
  9
$DIMTM
 40
0.0
  9
$DIMTXT
 40
3.5
  9
$DIMCEN
 40
2.5
  9
$DIMTSZ
 40
0.0
  9
$DIMTOL
 70
     0
  9
$DIMLIM
 70
     0
  9
$DIMTIH
 70
     1
  9
$DIMTOH
 70
     1
  9
$DIMSE1
 70
     0
  9
$DIMSE2
 70
     0
  9
$DIMTAD
 70
     1
  9
$DIMZIN
 70
     0
  9
$DIMBLK
  1

  9
$DIMASO
 70
     1
  9
$DIMSHO
 70
     1
  9
$DIMPOST
  1

  9
$DIMAPOST
  1

  9
$DIMALT
 70
     0
  9
$DIMALTD
 70
     3
  9
$DIMALTF
 40
0.0393700787401575
  9
$DIMLFAC
 40
1.0
  9
$DIMTOFL
 70
     1
  9
$DIMTVP
 40
0.0
  9
$DIMTIX
 70
     0
  9
$DIMSOXD
 70
     0
  9
$DIMSAH
 70
     0
  9
$DIMBLK1
  1

  9
$DIMBLK2
  1

  9
$DIMSTYLE
  2
ISO-25
  9
$DIMCLRD
 70
     0
  9
$DIMCLRE
 70
     0
  9
$DIMCLRT
 70
     0
  9
$DIMTFAC
 40
1.0
  9
$DIMGAP
 40
1.524
  9
$DIMJUST
 70
     0
  9
$DIMSD1
 70
     0
  9
$DIMSD2
 70
     0
  9
$DIMTOLJ
 70
     0
  9
$DIMTZIN
 70
     0
  9
$DIMALTZ
 70
     0
  9
$DIMALTTZ
 70
     0
  9
$DIMUPT
 70
     0
  9
$DIMDEC
 70
     2
  9
$DIMTDEC
 70
     2
  9
$DIMALTU
 70
     2
  9
$DIMALTTD
 70
     3
  9
$DIMTXSTY
  7
Standard
  9
$DIMAUNIT
 70
     0
  9
$DIMADEC
 70
     2
  9
$DIMALTRND
 40
0.0
  9
$DIMAZIN
 70
     0
  9
$DIMDSEP
 70
    44
  9
$DIMATFIT
 70
     3
  9
$DIMFRAC
 70
     0
  9
$DIMLDRBLK
  1

  9
$DIMLUNIT
 70
     2
  9
$DIMLWD
 70
    -2
  9
$DIMLWE
 70
    -2
  9
$DIMTMOVE
 70
     0
  9
$LUNITS
 70
     2
  9
$LUPREC
 70
     2
  9
$SKETCHINC
 40
1.0
  9
$FILLETRAD
 40
10.0
  9
$AUNITS
 70
     0
  9
$AUPREC
 70
     2
  9
$MENU
  1
.
  9
$ELEVATION
 40
0.0
  9
$PELEVATION
 40
0.0
  9
$THICKNESS
 40
0.0
  9
$LIMCHECK
 70
     0
  9
$CHAMFERA
 40
0.0
  9
$CHAMFERB
 40
0.0
  9
$CHAMFERC
 40
0.0
  9
$CHAMFERD
 40
0.0
  9
$SKPOLY
 70
     0
  9
$TDCREATE
 40
2458262.540227697
  9
$TDUCREATE
 40
2458262.165227697
  9
$TDUPDATE
 40
2458266.391647789
  9
$TDUUPDATE
 40
2458266.016647789
  9
$TDINDWG
 40
0.0022256481
  9
$TDUSRTIMER
 40
2458266.014422188
  9
$USRTIMER
 70
     1
  9
$ANGBASE
 50
0.0
  9
$ANGDIR
 70
     0
  9
$PDMODE
 70
     0
  9
$PDSIZE
 40
-1.0
  9
$PLINEWID
 40
0.0
  9
$SPLFRAME
 70
     0
  9
$SPLINETYPE
 70
     6
  9
$SPLINESEGS
 70
     8
  9
$HANDSEED
  5
14F
  9
$SURFTAB1
 70
     6
  9
$SURFTAB2
 70
     6
  9
$SURFTYPE
 70
     6
  9
$SURFU
 70
     6
  9
$SURFV
 70
     6
  9
$UCSBASE
  2

  9
$UCSNAME
  2

  9
$UCSORG
 10
0.0
 20
0.0
 30
0.0
  9
$UCSXDIR
 10
1.0
 20
0.0
 30
0.0
  9
$UCSYDIR
 10
0.0
 20
1.0
 30
0.0
  9
$UCSORTHOREF
  2

  9
$UCSORTHOVIEW
 70
     0
  9
$UCSORGTOP
 10
0.0
 20
0.0
 30
0.0
  9
$UCSORGBOTTOM
 10
0.0
 20
0.0
 30
0.0
  9
$UCSORGLEFT
 10
0.0
 20
0.0
 30
0.0
  9
$UCSORGRIGHT
 10
0.0
 20
0.0
 30
0.0
  9
$UCSORGFRONT
 10
0.0
 20
0.0
 30
0.0
  9
$UCSORGBACK
 10
0.0
 20
0.0
 30
0.0
  9
$PUCSBASE
  2

  9
$PUCSNAME
  2

  9
$PUCSORG
 10
0.0
 20
0.0
 30
0.0
  9
$PUCSXDIR
 10
1.0
 20
0.0
 30
0.0
  9
$PUCSYDIR
 10
0.0
 20
1.0
 30
0.0
  9
$PUCSORTHOREF
  2

  9
$PUCSORTHOVIEW
 70
     0
  9
$PUCSORGTOP
 10
0.0
 20
0.0
 30
0.0
  9
$PUCSORGBOTTOM
 10
0.0
 20
0.0
 30
0.0
  9
$PUCSORGLEFT
 10
0.0
 20
0.0
 30
0.0
  9
$PUCSORGRIGHT
 10
0.0
 20
0.0
 30
0.0
  9
$PUCSORGFRONT
 10
0.0
 20
0.0
 30
0.0
  9
$PUCSORGBACK
 10
0.0
 20
0.0
 30
0.0
  9
$USERI1
 70
     0
  9
$USERI2
 70
     0
  9
$USERI3
 70
     0
  9
$USERI4
 70
     0
  9
$USERI5
 70
     0
  9
$USERR1
 40
0.0
  9
$USERR2
 40
0.0
  9
$USERR3
 40
0.0
  9
$USERR4
 40
0.0
  9
$USERR5
 40
0.0
  9
$WORLDVIEW
 70
     1
  9
$SHADEDGE
 70
     3
  9
$SHADEDIF
 70
    70
  9
$TILEMODE
 70
     1
  9
$MAXACTVP
 70
    64
  9
$PINSBASE
 10
0.0
 20
0.0
 30
0.0
  9
$PLIMCHECK
 70
     0
  9
$PEXTMIN
 10
1.000000000000000E+20
 20
1.000000000000000E+20
 30
1.000000000000000E+20
  9
$PEXTMAX
 10
-1.000000000000000E+20
 20
-1.000000000000000E+20
 30
-1.000000000000000E+20
  9
$PLIMMIN
 10
0.0
 20
0.0
  9
$PLIMMAX
 10
0.0
 20
0.0
  9
$UNITMODE
 70
     0
  9
$VISRETAIN
 70
     1
  9
$PLINEGEN
 70
     0
  9
$PSLTSCALE
 70
     1
  9
$TREEDEPTH
 70
  3020
  9
$CMLSTYLE
  2
Standard
  9
$CMLJUST
 70
     0
  9
$CMLSCALE
 40
20.0
  9
$PROXYGRAPHICS
 70
     1
  9
$MEASUREMENT
 70
     1
  9
$CELWEIGHT
370
    -1
  9
$ENDCAPS
280
     0
  9
$JOINSTYLE
280
     0
  9
$LWDISPLAY
290
     1
  9
$INSUNITS
 70
     4
  9
$HYPERLINKBASE
  1

  9
$STYLESHEET
  1

  9
$XEDIT
290
     1
  9
$CEPSNTYPE
380
     0
  9
$PSTYLEMODE
290
     1
  9
$FINGERPRINTGUID
  2
{DC15032E-89BA-4134-B9C9-92F8ECC10EE7}
  9
$VERSIONGUID
  2
{FAEB1C32-E019-11D5-929B-00C0DF256EC4}
  9
$EXTNAMES
290
     1
  9
$PSVPSCALE
 40
0.0
  9
$OLESTARTUP
290
     0
  0
ENDSEC
  0
SECTION
  2
CLASSES
  0
CLASS
  1
ACDBDICTIONARYWDFLT
  2
AcDbDictionaryWithDefault
  3
ObjectDBX Classes
 90
        0
280
     0
281
     0
  0
CLASS
  1
VISUALSTYLE
  2
AcDbVisualStyle
  3
ObjectDBX Classes
 90
     4095
280
     0
281
     0
  0
CLASS
  1
MATERIAL
  2
AcDbMaterial
  3
ObjectDBX Classes
 90
     1153
280
     0
281
     0
  0
CLASS
  1
SCALE
  2
AcDbScale
  3
ObjectDBX Classes
 90
     1153
280
     0
281
     0
  0
CLASS
  1
SUN
  2
AcDbSun
  3
SCENEOE
 90
     1153
280
     0
281
     0
  0
CLASS
  1
ACDBPLACEHOLDER
  2
AcDbPlaceHolder
  3
ObjectDBX Classes
 90
        0
280
     0
281
     0
  0
CLASS
  1
LAYOUT
  2
AcDbLayout
  3
ObjectDBX Classes
 90
        0
280
     0
281
     0
  0
CLASS
  1
TABLESTYLE
  2
AcDbTableStyle
  3
ObjectDBX Classes
 90
     4095
280
     0
281
     0
  0
CLASS
  1
MLEADERSTYLE
  2
AcDbMLeaderStyle
  3
ACDB_MLEADERSTYLE_CLASS
 90
     4095
280
     0
281
     0
  0
CLASS
  1
RASTERVARIABLES
  2
AcDbRasterVariables
  3
ISM
 90
        0
280
     0
281
     0
  0
ENDSEC
  0
SECTION
  2
TABLES
  0
TABLE
  2
VPORT
  5
8
330
0
100
AcDbSymbolTable
 70
     1
  0
VPORT
  5
29
330
8
100
AcDbSymbolTableRecord
100
AcDbViewportTableRecord
  2
*Active
 70
     0
 10
0.0
 20
0.0
 11
1.0
 21
1.0
 12
-7.434959817579525
 22
-10.67866100992259
 13
0.0
 23
0.0
 14
10.0
 24
10.0
 15
10.0
 25
10.0
 16
0.0
 26
0.0
 36
1.0
 17
0.0
 27
0.0
 37
0.0
 40
89.90103696204429
 41
1.152454780361757
 42
50.0
 43
0.0
 44
0.0
 50
0.0
 51
0.0
 71
    16
 72
  2000
 73
     1
 74
     3
 75
     0
 76
     0
 77
     0
 78
     0
281
     0
 65
     1
110
0.0
120
0.0
130
0.0
111
1.0
121
0.0
131
0.0
112
0.0
122
1.0
132
0.0
 79
     0
146
0.0
  0
ENDTAB
  0
TABLE
  2
LTYPE
  5
5
330
0
100
AcDbSymbolTable
 70
     6
  0
LTYPE
  5
14
330
5
100
AcDbSymbolTableRecord
100
AcDbLinetypeTableRecord
  2
ByBlock
 70
     0
  3

 72
    65
 73
     0
 40
0.0
  0
LTYPE
  5
15
330
5
100
AcDbSymbolTableRecord
100
AcDbLinetypeTableRecord
  2
ByLayer
 70
     0
  3

 72
    65
 73
     0
 40
0.0
  0
LTYPE
  5
16
330
5
100
AcDbSymbolTableRecord
100
AcDbLinetypeTableRecord
  2
Continuous
 70
     0
  3
Solid line
 72
    65
 73
     0
 40
0.0
  0
LTYPE
  5
6A
330
5
100
AcDbSymbolTableRecord
100
AcDbLinetypeTableRecord
  2
HIDDEN
 70
     0
  3
Hidden __ __ __ __ __ __ __ __ __ __ __ __ __ __
 72
    65
 73
     2
 40
1.905
 49
1.27
 74
     0
 49
-0.635
 74
     0
  0
LTYPE
  5
6B
330
5
100
AcDbSymbolTableRecord
100
AcDbLinetypeTableRecord
  2
PHANTOM
 70
     0
  3
Phantom ______  __  __  ______  __  __  ______
 72
    65
 73
     6
 40
12.7
 49
6.35
 74
     0
 49
-1.27
 74
     0
 49
1.27
 74
     0
 49
-1.27
 74
     0
 49
1.27
 74
     0
 49
-1.27
 74
     0
  0
LTYPE
  5
6C
330
5
100
AcDbSymbolTableRecord
100
AcDbLinetypeTableRecord
  2
CENTER
 70
     0
  3
Center ____ _ ____ _ ____ _ ____ _ ____ _ ____
 72
    65
 73
     4
 40
10.16
 49
6.35
 74
     0
 49
-1.27
 74
     0
 49
1.27
 74
     0
 49
-1.27
 74
     0
  0
LTYPE
  5
6D
330
5
100
AcDbSymbolTableRecord
100
AcDbLinetypeTableRecord
  2
CENTERX2
 70
     0
  3
Center (2x) ________  __  ________  __  _____
 72
    65
 73
     4
 40
20.32
 49
12.7
 74
     0
 49
-2.54
 74
     0
 49
2.54
 74
     0
 49
-2.54
 74
     0
  0
LTYPE
  5
6E
330
5
100
AcDbSymbolTableRecord
100
AcDbLinetypeTableRecord
  2
DOT2
 70
     0
  3
Dot (.5x) ........................................
 72
    65
 73
     2
 40
0.635
 49
0.0
 74
     0
 49
-0.635
 74
     0
  0
ENDTAB
  0
TABLE
  2
LAYER
  5
2
330
0
100
AcDbSymbolTable
 70
    17
  0
LAYER
  5
10
330
2
100
AcDbSymbolTableRecord
100
AcDbLayerTableRecord
  2
0
 70
     0
 62
     7
  6
Continuous
370
    -3
390
F
  0
LAYER
  5
6F
330
2
100
AcDbSymbolTableRecord
100
AcDbLayerTableRecord
  2
FORMAT
 70
     0
 62
     2
  6
Continuous
370
    -3
390
F
  0
LAYER
  5
70
330
2
100
AcDbSymbolTableRecord
100
AcDbLayerTableRecord
  2
외형선
 70
     0
 62
   100
  6
Continuous
370
    30
390
F
  0
LAYER
  5
71
330
2
100
AcDbSymbolTableRecord
100
AcDbLayerTableRecord
  2
숨은선
 70
     0
 62
     2
  6
HIDDEN
370
    15
390
F
  0
LAYER
  5
72
330
2
100
AcDbSymbolTableRecord
100
AcDbLayerTableRecord
  2
중심선
 70
     0
 62
     1
  6
CENTERX2
370
    -3
390
F
  0
LAYER
  5
73
330
2
100
AcDbSymbolTableRecord
100
AcDbLayerTableRecord
  2
파단선
 70
     0
 62
     4
  6
Continuous
370
    -3
390
F
  0
LAYER
  5
74
330
2
100
AcDbSymbolTableRecord
100
AcDbLayerTableRecord
  2
해칭선
 70
     0
 62
     4
  6
Continuous
370
    -3
390
F
  0
LAYER
  5
75
330
2
100
AcDbSymbolTableRecord
100
AcDbLayerTableRecord
  2
가는실선
 70
     0
 62
     4
  6
Continuous
370
    -3
390
F
  0
LAYER
  5
76
330
2
100
AcDbSymbolTableRecord
100
AcDbLayerTableRecord
  2
치수_보조선
 70
     0
 62
     4
  6
Continuous
370
    -3
390
F
  0
LAYER
  5
77
330
2
100
AcDbSymbolTableRecord
100
AcDbLayerTableRecord
  2
치수문자_일반주서
 70
     0
 62
     7
  6
Continuous
370
    15
390
F
  0
LAYER
  5
78
330
2
100
AcDbSymbolTableRecord
100
AcDbLayerTableRecord
  2
개별주서
 70
     0
 62
   100
  6
Continuous
370
    30
390
F
  0
LAYER
  5
79
330
2
100
AcDbSymbolTableRecord
100
AcDbLayerTableRecord
  2
중간선
 70
     0
 62
     2
  6
Continuous
370
    15
390
F
  0
LAYER
  5
7A
330
2
100
AcDbSymbolTableRecord
100
AcDbLayerTableRecord
  2
윤곽선
 70
     0
 62
     3
  6
Continuous
370
    40
390
F
  0
LAYER
  5
7B
330
2
100
AcDbSymbolTableRecord
100
AcDbLayerTableRecord
  2
중심마크
 70
     0
 62
   100
  6
Continuous
370
    30
390
F
  0
LAYER
  5
7C
330
2
100
AcDbSymbolTableRecord
100
AcDbLayerTableRecord
  2
가상선
 70
     0
 62
     4
  6
PHANTOM
370
    -3
390
F
  0
LAYER
  5
7D
330
2
100
AcDbSymbolTableRecord
100
AcDbLayerTableRecord
  2
특수지정선
 70
     0
 62
     5
  6
CENTERX2
370
    60
390
F
  0
LAYER
  5
141
330
2
100
AcDbSymbolTableRecord
100
AcDbLayerTableRecord
  2
Defpoints
 70
     0
 62
     7
  6
Continuous
290
     0
370
    -3
390
F
  0
ENDTAB
  0
TABLE
  2
STYLE
  5
3
330
0
100
AcDbSymbolTable
 70
     2
  0
STYLE
  5
11
330
3
100
AcDbSymbolTableRecord
100
AcDbTextStyleTableRecord
  2
Standard
 70
     0
 40
0.0
 41
1.0
 50
0.0
 71
     0
 42
3.5
  3
txt
  4

  0
STYLE
  5
93
330
3
100
AcDbSymbolTableRecord
100
AcDbTextStyleTableRecord
  2
SLDTEXTSTYLE0
 70
     0
 40
0.0
 41
0.75
 50
0.0
 71
     0
 42
3.5
  3
TXT
  4

  0
ENDTAB
  0
TABLE
  2
VIEW
  5
6
330
0
100
AcDbSymbolTable
 70
     0
  0
ENDTAB
  0
TABLE
  2
UCS
  5
7
330
0
100
AcDbSymbolTable
 70
     0
  0
ENDTAB
  0
TABLE
  2
APPID
  5
9
330
0
100
AcDbSymbolTable
 70
     1
  0
APPID
  5
12
330
9
100
AcDbSymbolTableRecord
100
AcDbRegAppTableRecord
  2
ACAD
 70
     0
  0
ENDTAB
  0
TABLE
  2
DIMSTYLE
  5
A
330
0
100
AcDbSymbolTable
 70
     3
100
AcDbDimStyleTable
  0
DIMSTYLE
105
27
330
A
100
AcDbSymbolTableRecord
100
AcDbDimStyleTableRecord
  2
ISO-25
 70
     0
 41
2.5
 42
0.625
 43
3.75
 44
1.25
 73
     0
 74
     0
 77
     1
 78
     8
140
2.5
141
2.5
143
0.03937007874016
147
0.625
171
     3
172
     1
178
     0
271
     2
272
     2
274
     3
278
    44
283
     0
284
     8
340
11
  0
DIMSTYLE
105
E7
102
{ACAD_REACTORS
330
E6
330
109
102
}
330
A
100
AcDbSymbolTableRecord
100
AcDbDimStyleTableRecord
  2
SLDDIMSTYLE0
 70
     0
 41
3.302
 44
0.0
 45
0.000000001
 73
     0
 74
     0
 77
     1
 78
    12
 79
     3
140
3.5
147
0.875
172
     1
173
     1
178
     0
271
     2
272
     2
276
     2
284
    12
289
     0
340
93
  0
DIMSTYLE
105
F5
102
{ACAD_REACTORS
330
F4
330
FF
102
}
330
A
100
AcDbSymbolTableRecord
100
AcDbDimStyleTableRecord
  2
SLDDIMSTYLE1
 70
     0
 41
3.302
 44
0.0
 45
0.000000001
 73
     0
 74
     0
 77
     1
 78
    12
 79
     3
140
3.5
147
0.875
173
     1
178
     0
271
     2
272
     2
276
     2
284
    12
340
93
  0
ENDTAB
  0
TABLE
  2
BLOCK_RECORD
  5
1
330
0
100
AcDbSymbolTable
 70
     7
  0
BLOCK_RECORD
  5
1F
330
1
100
AcDbSymbolTableRecord
100
AcDbBlockTableRecord
  2
*Model_Space
340
22
  0
BLOCK_RECORD
  5
1B
330
1
100
AcDbSymbolTableRecord
100
AcDbBlockTableRecord
  2
*Paper_Space
340
1E
  0
BLOCK_RECORD
  5
23
330
1
100
AcDbSymbolTableRecord
100
AcDbBlockTableRecord
  2
*Paper_Space0
340
26
  0
BLOCK_RECORD
  5
7E
330
1
100
AcDbSymbolTableRecord
100
AcDbBlockTableRecord
  2
블럭10
340
0
102
{BLKREFS
331
DF
102
}
  0
BLOCK_RECORD
  5
E8
330
1
100
AcDbSymbolTableRecord
100
AcDbBlockTableRecord
  2
_D
340
0
  0
BLOCK_RECORD
  5
F6
330
1
100
AcDbSymbolTableRecord
100
AcDbBlockTableRecord
  2
_D_1
340
0
  0
BLOCK_RECORD
  5
100
330
1
100
AcDbSymbolTableRecord
100
AcDbBlockTableRecord
  2
_D_2
340
0
  0
BLOCK_RECORD
  5
10A
330
1
100
AcDbSymbolTableRecord
100
AcDbBlockTableRecord
  2
_D_3
340
0
  0
BLOCK_RECORD
  5
116
330
1
100
AcDbSymbolTableRecord
100
AcDbBlockTableRecord
  2
SW_DOWELSYMBOL_0
340
0
102
{BLKREFS
331
11C
102
}
  0
ENDTAB
  0
ENDSEC
  0
SECTION
  2
BLOCKS
  0
BLOCK
  5
20
330
1F
100
AcDbEntity
  8
0
100
AcDbBlockBegin
  2
*Model_Space
 70
     0
 10
0.0
 20
0.0
 30
0.0
  3
*Model_Space
  1

  0
ENDBLK
  5
21
330
1F
100
AcDbEntity
  8
0
100
AcDbBlockEnd
  0
BLOCK
  5
1C
330
1B
100
AcDbEntity
 67
     1
  8
0
100
AcDbBlockBegin
  2
*Paper_Space
 70
     0
 10
0.0
 20
0.0
 30
0.0
  3
*Paper_Space
  1

  0
ENDBLK
  5
1D
330
1B
100
AcDbEntity
 67
     1
  8
0
100
AcDbBlockEnd
  0
BLOCK
  5
24
330
23
100
AcDbEntity
  8
0
100
AcDbBlockBegin
  2
*Paper_Space0
 70
     0
 10
0.0
 20
0.0
 30
0.0
  3
*Paper_Space0
  1

  0
ENDBLK
  5
25
330
23
100
AcDbEntity
  8
0
100
AcDbBlockEnd
  0
BLOCK
  5
7F
330
7E
100
AcDbEntity
  8
0
100
AcDbBlockBegin
  2
블럭10
 70
     2
 10
0.0
 20
0.0
 30
0.0
  3
블럭10
  1

  0
ELLIPSE
  5
81
330
7E
100
AcDbEntity
  8
중심선
100
AcDbEllipse
 10
20.54032771741204
 20
12.0471743016438
 30
0.0
 11
6.600054785286829
 21
-1.261213355974178E-13
 31
0.0
210
0.0
220
0.0
230
1.0
 40
0.636358354079598
 41
0.9219305317359503
 42
6.513795318482858
  0
ELLIPSE
  5
82
330
7E
100
AcDbEntity
  8
중심선
100
AcDbEllipse
 10
20.54032771746488
 20
12.04717430159265
 30
0.0
 11
3.960054785062283
 21
1.540847449632565E-10
 31
0.0
210
0.0
220
0.0
230
1.0
 40
0.3939339440162632
 41
1.131841032648279
 42
5.62031148352944
  0
LINE
  5
83
330
7E
100
AcDbEntity
  8
중심선
100
AcDbLine
 10
2.268634060543552
 20
16.24717430164393
 30
0.0
 11
5.714909304380834
 21
16.24717430164393
 31
0.0
  0
LINE
  5
84
330
7E
100
AcDbEntity
  8
중심선
100
AcDbLine
 10
5.245725140726316
 20
7.84717430164391
 30
0.0
 11
8.692000384563599
 21
7.84717430164391
 31
0.0
  0
LINE
  5
85
330
7E
100
AcDbEntity
  8
중심선
100
AcDbLine
 10
15.74043728645272
 20
16.24717430164393
 30
0.0
 11
8.692000384563599
 21
7.84717430164391
 31
0.0
  0
LINE
  5
86
330
7E
100
AcDbEntity
  8
중심선
100
AcDbLine
 10
0.1404042013395286
 20
13.71084872107135
 30
0.0
 11
3.58671253028996
 21
13.71088815037384
 31
0.0
  0
LINE
  5
87
330
7E
100
AcDbEntity
  8
중심선
100
AcDbLine
 10
2.750260043222114
 20
10.84717430164391
 30
0.0
 11
6.196535287059397
 21
10.84717430164391
 31
0.0
  0
LINE
  5
88
330
7E
100
AcDbEntity
  8
중심선
100
AcDbLine
 10
12.29416204261559
 20
16.24717430164393
 30
0.0
 11
5.245725140726316
 21
7.84717430164391
 31
0.0
  0
LINE
  5
89
330
7E
100
AcDbEntity
  8
중심선
100
AcDbLine
 10
10.72767329541681
 20
16.24717430164393
 30
0.0
 11
6.196535287059397
 21
10.84717430164391
 31
0.0
  0
LINE
  5
8A
330
7E
100
AcDbEntity
  8
중심선
100
AcDbLine
 10
7.28139805157953
 20
16.24717430164393
 30
0.0
 11
2.750260043222114
 21
10.84717430164391
 31
0.0
  0
LINE
  5
8B
330
7E
100
AcDbEntity
  8
중심선
100
AcDbLine
 10
5.714909304380834
 20
16.24717430164393
 30
0.0
 11
3.58671253028996
 21
13.71088815037384
 31
0.0
  0
LINE
  5
8C
330
7E
100
AcDbEntity
  8
중심선
100
AcDbLine
 10
2.268634060543552
 20
16.24717430164393
 30
0.0
 11
0.1404042013395286
 21
13.71084872107135
 31
0.0
  0
LINE
  5
8D
330
7E
100
AcDbEntity
  8
중심선
100
AcDbLine
 10
7.28139805157953
 20
16.24717430164393
 30
0.0
 11
10.72767329541681
 21
16.24717430164393
 31
0.0
  0
LINE
  5
8E
330
7E
100
AcDbEntity
  8
중심선
100
AcDbLine
 10
12.29416204261559
 20
16.24717430164393
 30
0.0
 11
15.74043728645272
 21
16.24717430164393
 31
0.0
  0
LINE
  5
8F
330
7E
100
AcDbEntity
  8
중심선
100
AcDbLine
 10
19.22036997980202
 20
11.08717430171403
 30
0.0
 11
23.66174974927406
 21
11.08717430171406
 31
0.0
  0
LINE
  5
90
330
7E
100
AcDbEntity
  8
중심선
100
AcDbLine
 10
19.22039502424796
 20
13.00717430171391
 30
0.0
 11
19.22036997980202
 21
11.08717430171403
 31
0.0
  0
LINE
  5
91
330
7E
100
AcDbEntity
  8
중심선
100
AcDbLine
 10
19.22039502424796
 20
13.00717430171391
 30
0.0
 11
26.96566020931264
 21
13.00717430171391
 31
0.0
  0
LINE
  5
92
330
7E
100
AcDbEntity
  8
중심선
100
AcDbLine
 10
22.22332737316547
 20
13.45928029700563
 30
0.0
 11
24.52862924686651
 21
15.39360700705356
 31
0.0
  0
ATTDEF
  5
94
330
7E
100
AcDbEntity
  8
FORMAT
 62
     2
100
AcDbText
 10
-16.11926103943555
 20
2.075366912832191
 30
0.0
 40
4.233333333333333
  1
SEME7005030E [ 2 FLUTE ]
 41
0.75
  7
SLDTEXTSTYLE0
 11
-16.11926103943555
 21
-0.0412997538344756
 31
0.0
100
AcDbAttributeDefinition
  3

  2
AUTOATTR0
 70
     0
 74
     1
  0
ENDBLK
  5
80
330
7E
100
AcDbEntity
  8
0
100
AcDbBlockEnd
  0
BLOCK
  5
E9
330
E8
100
AcDbEntity
  8
0
100
AcDbBlockBegin
  2
_D
 70
     0
 10
0.0
 20
0.0
 30
0.0
  3
_D
  1

  0
LINE
  5
EB
330
E8
100
AcDbEntity
  8
치수문자_일반주서
 62
     0
370
    -2
100
AcDbLine
 10
34.92852540378432
 20
-2.499999999999886
 30
0.0
 11
42.80239302868858
 21
-2.499999999999858
 31
0.0
  0
LINE
  5
EC
330
E8
100
AcDbEntity
  8
치수문자_일반주서
 62
     0
370
    -2
100
AcDbLine
 10
34.92852540378428
 20
2.500000000000112
 30
0.0
 11
42.80239302868857
 21
2.50000000000014
 31
0.0
  0
LINE
  5
ED
330
E8
100
AcDbEntity
  8
치수문자_일반주서
 62
     0
370
    -2
100
AcDbLine
 10
42.80239302868858
 20
-2.499999999999858
 30
0.0
 11
42.80239302868853
 21
15.22900000000014
 31
0.0
  0
LINE
  5
EE
330
E8
100
AcDbEntity
  8
치수문자_일반주서
 62
     0
370
    -2
100
AcDbLine
 10
42.80239302868858
 20
-2.499999999999858
 30
0.0
 11
42.80239302868857
 21
2.50000000000014
 31
0.0
  0
LINE
  5
EF
330
E8
100
AcDbEntity
  8
치수문자_일반주서
 62
     0
370
    -2
100
AcDbLine
 10
42.80239302868859
 20
-5.801999999999857
 30
0.0
 11
42.8023930286886
 21
-9.103999999999857
 31
0.0
  0
LINE
  5
F0
330
E8
100
AcDbEntity
  8
치수문자_일반주서
 62
     0
370
    -2
100
AcDbLine
 10
42.80239302868856
 20
5.80200000000014
 30
0.0
 11
42.80239302868856
 21
9.10400000000014
 31
0.0
  0
SOLID
  5
F1
330
E8
100
AcDbEntity
  8
치수문자_일반주서
 62
     0
100
AcDbTrace
 10
43.35272636202193
 20
-5.801999999999856
 30
0.0
 11
42.25205969535526
 21
-5.801999999999859
 31
0.0
 12
42.80239302868858
 22
-2.499999999999858
 32
0.0
 13
42.80239302868858
 23
-2.499999999999858
 33
0.0
  0
SOLID
  5
F2
330
E8
100
AcDbEntity
  8
치수문자_일반주서
 62
     0
100
AcDbTrace
 10
42.25205969535523
 20
5.802000000000138
 30
0.0
 11
43.3527263620219
 21
5.802000000000142
 31
0.0
 12
42.80239302868857
 22
2.50000000000014
 32
0.0
 13
42.80239302868857
 23
2.50000000000014
 33
0.0
  0
MTEXT
  5
F3
330
E8
100
AcDbEntity
  8
치수문자_일반주서
 62
     0
100
AcDbMText
 10
38.42739302868854
 20
12.16650000000013
 30
0.0
 40
3.5
 41
0.0
 71
     2
 72
     1
  1
\A1;%%c5
  7
SLDTEXTSTYLE0
 11
-2.842170943040401E-15
 21
1.0
 31
0.0
 73
     1
 44
1.0
  0
POINT
  5
148
330
E8
100
AcDbEntity
  8
Defpoints
 62
     0
100
AcDbPoint
 10
34.86602540378432
 20
-2.499999999999886
 30
0.0
  0
POINT
  5
149
330
E8
100
AcDbEntity
  8
Defpoints
 62
     0
100
AcDbPoint
 10
34.86602540378428
 20
2.500000000000112
 30
0.0
  0
POINT
  5
14A
330
E8
100
AcDbEntity
  8
Defpoints
 62
     0
100
AcDbPoint
 10
42.80239302868857
 20
2.500000000000142
 30
0.0
  0
ENDBLK
  5
EA
330
E8
100
AcDbEntity
  8
0
100
AcDbBlockEnd
  0
BLOCK
  5
F7
330
F6
100
AcDbEntity
  8
0
100
AcDbBlockBegin
  2
_D_1
 70
     0
 10
0.0
 20
0.0
 30
0.0
  3
_D_1
  1

  0
LINE
  5
F9
330
F6
100
AcDbEntity
  8
치수문자_일반주서
 62
     0
370
    -2
100
AcDbLine
 10
-45.13397459621557
 20
2.512499999999996
 30
0.0
 11
-45.13397459621557
 21
24.23841044024269
 31
0.0
  0
LINE
  5
FA
330
F6
100
AcDbEntity
  8
치수문자_일반주서
 62
     0
370
    -2
100
AcDbLine
 10
34.86602540378428
 20
2.562500000000112
 30
0.0
 11
34.86602540378428
 21
24.23841044024269
 31
0.0
  0
LINE
  5
FB
330
F6
100
AcDbEntity
  8
치수문자_일반주서
 62
     0
370
    -2
100
AcDbLine
 10
-41.83197459621557
 20
24.23841044024269
 30
0.0
 11
31.56402540378428
 21
24.23841044024269
 31
0.0
  0
SOLID
  5
FC
330
F6
100
AcDbEntity
  8
치수문자_일반주서
 62
     0
100
AcDbTrace
 10
-41.83197459621557
 20
24.78874377357603
 30
0.0
 11
-41.83197459621557
 21
23.68807710690936
 31
0.0
 12
-45.13397459621557
 22
24.23841044024269
 32
0.0
 13
-45.13397459621557
 23
24.23841044024269
 33
0.0
  0
SOLID
  5
FD
330
F6
100
AcDbEntity
  8
치수문자_일반주서
 62
     0
100
AcDbTrace
 10
31.56402540378428
 20
23.68807710690936
 30
0.0
 11
31.56402540378428
 21
24.78874377357603
 31
0.0
 12
34.86602540378428
 22
24.23841044024269
 32
0.0
 13
34.86602540378428
 23
24.23841044024269
 33
0.0
  0
MTEXT
  5
FE
330
F6
100
AcDbEntity
  8
치수문자_일반주서
 62
     0
100
AcDbMText
 10
-5.133974596215634
 20
28.61341044024269
 30
0.0
 40
3.5
 41
0.0
 71
     2
 72
     1
  1
\A1;80
  7
SLDTEXTSTYLE0
 73
     1
 44
1.0
  0
POINT
  5
142
330
F6
100
AcDbEntity
  8
Defpoints
 62
     0
100
AcDbPoint
 10
-45.13397459621557
 20
2.449999999999996
 30
0.0
  0
POINT
  5
143
330
F6
100
AcDbEntity
  8
Defpoints
 62
     0
100
AcDbPoint
 10
34.86602540378428
 20
2.500000000000112
 30
0.0
  0
POINT
  5
144
330
F6
100
AcDbEntity
  8
Defpoints
 62
     0
100
AcDbPoint
 10
34.86602540378428
 20
24.23841044024269
 30
0.0
  0
ENDBLK
  5
F8
330
F6
100
AcDbEntity
  8
0
100
AcDbBlockEnd
  0
BLOCK
  5
101
330
100
100
AcDbEntity
  8
0
100
AcDbBlockBegin
  2
_D_2
 70
     0
 10
0.0
 20
0.0
 30
0.0
  3
_D_2
  1

  0
LINE
  5
103
330
100
100
AcDbEntity
  8
치수문자_일반주서
 62
     0
370
    -2
100
AcDbLine
 10
4.866025403784432
 20
1.996466257117966
 30
0.0
 11
4.866025403784434
 21
15.28096406328549
 31
0.0
  0
LINE
  5
104
330
100
100
AcDbEntity
  8
치수문자_일반주서
 62
     0
370
    -2
100
AcDbLine
 10
34.86602540378428
 20
2.562500000000112
 30
0.0
 11
34.86602540378428
 21
15.28096406328549
 31
0.0
  0
LINE
  5
105
330
100
100
AcDbEntity
  8
치수문자_일반주서
 62
     0
370
    -2
100
AcDbLine
 10
8.168025403784434
 20
15.28096406328549
 30
0.0
 11
31.56402540378428
 21
15.28096406328549
 31
0.0
  0
SOLID
  5
106
330
100
100
AcDbEntity
  8
치수문자_일반주서
 62
     0
100
AcDbTrace
 10
8.168025403784434
 20
15.83129739661882
 30
0.0
 11
8.168025403784434
 21
14.73063072995216
 31
0.0
 12
4.866025403784434
 22
15.28096406328549
 32
0.0
 13
4.866025403784434
 23
15.28096406328549
 33
0.0
  0
SOLID
  5
107
330
100
100
AcDbEntity
  8
치수문자_일반주서
 62
     0
100
AcDbTrace
 10
31.56402540378428
 20
14.73063072995216
 30
0.0
 11
31.56402540378428
 21
15.83129739661882
 31
0.0
 12
34.86602540378428
 22
15.28096406328549
 32
0.0
 13
34.86602540378428
 23
15.28096406328549
 33
0.0
  0
MTEXT
  5
108
330
100
100
AcDbEntity
  8
치수문자_일반주서
 62
     0
100
AcDbMText
 10
19.86602540378443
 20
19.65596406328549
 30
0.0
 40
3.5
 41
0.0
 71
     2
 72
     1
  1
\A1;30
  7
SLDTEXTSTYLE0
 73
     1
 44
1.0
  0
POINT
  5
145
330
100
100
AcDbEntity
  8
Defpoints
 62
     0
100
AcDbPoint
 10
4.866025403784432
 20
1.933966257117966
 30
0.0
  0
POINT
  5
146
330
100
100
AcDbEntity
  8
Defpoints
 62
     0
100
AcDbPoint
 10
34.86602540378428
 20
2.500000000000112
 30
0.0
  0
POINT
  5
147
330
100
100
AcDbEntity
  8
Defpoints
 62
     0
100
AcDbPoint
 10
34.86602540378428
 20
15.28096406328549
 30
0.0
  0
ENDBLK
  5
102
330
100
100
AcDbEntity
  8
0
100
AcDbBlockEnd
  0
BLOCK
  5
10B
330
10A
100
AcDbEntity
  8
0
100
AcDbBlockBegin
  2
_D_3
 70
     0
 10
0.0
 20
0.0
 30
0.0
  3
_D_3
  1

  0
LINE
  5
10D
330
10A
100
AcDbEntity
  8
치수문자_일반주서
 62
     0
370
    -2
100
AcDbLine
 10
-44.64647459621557
 20
2.999999999999996
 30
0.0
 11
-53.84764599718094
 21
2.999999999999961
 31
0.0
  0
LINE
  5
10E
330
10A
100
AcDbEntity
  8
치수문자_일반주서
 62
     0
370
    -2
100
AcDbLine
 10
-44.64647459621557
 20
-2.999999999999999
 30
0.0
 11
-53.84764599718092
 21
-3.000000000000034
 31
0.0
  0
LINE
  5
10F
330
10A
100
AcDbEntity
  8
치수문자_일반주서
 62
     0
370
    -2
100
AcDbLine
 10
-53.84764599718094
 20
2.999999999999961
 30
0.0
 11
-53.84764599718099
 21
15.72899999999996
 31
0.0
  0
LINE
  5
110
330
10A
100
AcDbEntity
  8
치수문자_일반주서
 62
     0
370
    -2
100
AcDbLine
 10
-53.84764599718094
 20
2.999999999999961
 30
0.0
 11
-53.84764599718092
 21
-3.000000000000034
 31
0.0
  0
LINE
  5
111
330
10A
100
AcDbEntity
  8
치수문자_일반주서
 62
     0
370
    -2
100
AcDbLine
 10
-53.84764599718095
 20
6.301999999999961
 30
0.0
 11
-53.84764599718097
 21
9.60399999999996
 31
0.0
  0
LINE
  5
112
330
10A
100
AcDbEntity
  8
치수문자_일반주서
 62
     0
370
    -2
100
AcDbLine
 10
-53.8476459971809
 20
-6.302000000000033
 30
0.0
 11
-53.84764599718089
 21
-9.604000000000033
 31
0.0
  0
SOLID
  5
113
330
10A
100
AcDbEntity
  8
치수문자_일반주서
 62
     0
100
AcDbTrace
 10
-54.39797933051429
 20
6.301999999999959
 30
0.0
 11
-53.29731266384762
 21
6.301999999999962
 31
0.0
 12
-53.84764599718094
 22
2.999999999999961
 32
0.0
 13
-53.84764599718094
 23
2.999999999999961
 33
0.0
  0
SOLID
  5
114
330
10A
100
AcDbEntity
  8
치수문자_일반주서
 62
     0
100
AcDbTrace
 10
-53.29731266384757
 20
-6.302000000000032
 30
0.0
 11
-54.39797933051424
 21
-6.302000000000035
 31
0.0
 12
-53.84764599718092
 22
-3.000000000000034
 32
0.0
 13
-53.84764599718092
 23
-3.000000000000034
 33
0.0
  0
MTEXT
  5
115
330
10A
100
AcDbEntity
  8
치수문자_일반주서
 62
     0
100
AcDbMText
 10
-58.22264599718098
 20
12.66649999999995
 30
0.0
 40
3.5
 41
0.0
 71
     2
 72
     1
  1
\A1;%%c6
  7
SLDTEXTSTYLE0
 11
-3.552713678800505E-15
 21
1.0
 31
0.0
 73
     1
 44
1.0
  0
POINT
  5
14B
330
10A
100
AcDbEntity
  8
Defpoints
 62
     0
100
AcDbPoint
 10
-44.58397459621557
 20
2.999999999999996
 30
0.0
  0
POINT
  5
14C
330
10A
100
AcDbEntity
  8
Defpoints
 62
     0
100
AcDbPoint
 10
-44.58397459621557
 20
-2.999999999999998
 30
0.0
  0
POINT
  5
14D
330
10A
100
AcDbEntity
  8
Defpoints
 62
     0
100
AcDbPoint
 10
-53.84764599718092
 20
-3.000000000000033
 30
0.0
  0
ENDBLK
  5
10C
330
10A
100
AcDbEntity
  8
0
100
AcDbBlockEnd
  0
BLOCK
  5
117
330
116
100
AcDbEntity
  8
0
100
AcDbBlockBegin
  2
SW_DOWELSYMBOL_0
 70
     0
 10
0.0
 20
0.0
 30
0.0
  3
SW_DOWELSYMBOL_0
  1

  0
CIRCLE
  5
119
330
116
100
AcDbEntity
  8
외형선
 62
     0
100
AcDbCircle
 10
0.0
 20
0.0
 30
0.0
 40
3.000000000000004
  0
HATCH
  5
11A
330
116
100
AcDbEntity
  8
0
  6
Continuous
 62
     0
370
    30
100
AcDbHatch
 10
0.0
 20
0.0
 30
0.0
210
0.0
220
0.0
230
1.0
  2
SOLID
 70
     1
 71
     0
 91
        1
 92
        0
 93
        3
 72
     2
 10
0.0000000000000104
 20
0.0
 40
3.000000000000004
 50
0.0
 51
90.0
 73
     1
 72
     1
 10
0.0000000000000104
 20
3.000000000000004
 11
0.0000000000000104
 21
0.0
 72
     1
 10
0.0000000000000104
 20
0.0
 11
3.000000000000015
 21
0.0
 97
        0
 75
     0
 76
     1
 98
        1
 10
0.0
 20
0.0
  0
HATCH
  5
11B
330
116
100
AcDbEntity
  8
0
  6
Continuous
 62
     0
370
    30
100
AcDbHatch
 10
0.0
 20
0.0
 30
0.0
210
0.0
220
0.0
230
1.0
  2
SOLID
 70
     1
 71
     0
 91
        1
 92
        0
 93
        3
 72
     2
 10
0.0000000000000104
 20
0.0
 40
3.000000000000004
 50
180.0
 51
270.0000000000008
 73
     1
 72
     1
 10
0.0000000000000104
 20
-3.000000000000004
 11
0.0000000000000104
 21
0.0
 72
     1
 10
0.0000000000000104
 20
0.0
 11
-2.999999999999994
 21
0.0
 97
        0
 75
     0
 76
     1
 98
        1
 10
0.0
 20
0.0
  0
ENDBLK
  5
118
330
116
100
AcDbEntity
  8
0
100
AcDbBlockEnd
  0
ENDSEC
  0
SECTION
  2
ENTITIES
  0
SPLINE
  5
95
330
1F
100
AcDbEntity
  8
0
  6
Continuous
 62
     1
370
    15
100
AcDbSpline
210
0.0
220
0.0
230
1.0
 70
     8
 71
     3
 72
     9
 73
     5
 74
     0
 42
0.000000001
 43
0.00000001
 40
0.0
 40
0.0
 40
0.0
 40
0.0
 40
0.4742028051436916
 40
1.0
 40
1.0
 40
1.0
 40
1.0
 10
14.78654815598904
 20
0.6405471380344314
 30
0.0
 10
14.67658118307314
 20
0.6927943231520339
 30
0.0
 10
14.44468256981511
 20
0.8029733110257367
 30
0.0
 10
14.212859567307
 20
0.9240397798657071
 30
0.0
 10
14.09096768288507
 20
0.9876961895729219
 30
0.0
  0
LINE
  5
96
330
1F
100
AcDbEntity
  8
0
  6
Continuous
 62
     1
370
    15
100
AcDbLine
 10
27.72715325245336
 20
0.9708868768453485
 30
0.0
 11
27.694492977907
 21
0.9876802408196801
 31
0.0
  0
SPLINE
  5
97
330
1F
100
AcDbEntity
  8
0
  6
Continuous
 62
     1
370
    15
100
AcDbSpline
210
0.0
220
0.0
230
1.0
 70
     8
 71
     3
 72
     9
 73
     5
 74
     0
 42
0.000000001
 43
0.00000001
 40
0.0
 40
0.0
 40
0.0
 40
0.0
 40
0.5045674021809571
 40
1.0
 40
1.0
 40
1.0
 40
1.0
 10
28.39007088546985
 20
0.6405342787284583
 30
0.0
 10
28.27855429602126
 20
0.6934876920960165
 30
0.0
 10
28.05754003912207
 20
0.7984358380497011
 30
0.0
 10
27.83660946214351
 20
0.913754334548408
 30
0.0
 10
27.72715325245336
 20
0.9708868768453485
 30
0.0
  0
LINE
  5
98
330
1F
100
AcDbEntity
  8
0
  6
Continuous
 62
     1
370
    15
100
AcDbLine
 10
21.44015323146989
 20
-2.500000000000001
 30
0.0
 11
22.6517614769923
 21
-2.500000000000001
 31
0.0
  0
LINE
  5
99
330
1F
100
AcDbEntity
  8
0
  6
Continuous
 62
     1
370
    15
100
AcDbLine
 10
9.049021405153614
 20
2.500000000000005
 30
0.0
 11
7.836435340835209
 21
2.500000000000005
 31
0.0
  0
LINE
  5
9A
330
1F
100
AcDbEntity
  8
0
  6
Continuous
 62
     1
370
    15
100
AcDbLine
 10
7.836435340835191
 20
-2.500000000000001
 30
0.0
 11
9.049021405153606
 21
-2.500000000000001
 31
0.0
  0
LINE
  5
9B
330
1F
100
AcDbEntity
  8
0
  6
Continuous
 62
     1
370
    15
100
AcDbLine
 10
22.65176147699231
 20
2.500000000000005
 30
0.0
 11
21.44015323146989
 21
2.500000000000005
 31
0.0
  0
SPLINE
  5
9C
330
1F
100
AcDbEntity
  8
0
  6
Continuous
 62
     1
370
    15
100
AcDbSpline
210
0.0
220
0.0
230
1.0
 70
     8
 71
     3
 72
    17
 73
    13
 74
     0
 42
0.000000001
 43
0.00000001
 40
0.0
 40
0.0
 40
0.0
 40
0.0
 40
0.1273016654729321
 40
0.2164092117028684
 40
0.2926399083512863
 40
0.3731179610168757
 40
0.4547045534951376
 40
0.6547225489381493
 40
0.700348118710834
 40
0.7670345501222253
 40
0.8673798331032126
 40
1.0
 40
1.0
 40
1.0
 40
1.0
 10
10.19849901269353
 20
-2.080370894203524
 30
0.0
 10
10.35863899782296
 20
-2.065104415416538
 30
0.0
 10
10.63087241924146
 20
-2.039151835554393
 30
0.0
 10
10.99697648472016
 20
-2.011775343308943
 30
0.0
 10
11.30397227280653
 20
-1.992092026367079
 30
0.0
 10
11.60263169549043
 20
-1.976508923899163
 30
0.0
 10
12.05647041755591
 20
-1.958739663823802
 30
0.0
 10
12.46661425650402
 20
-1.951680432682656
 30
0.0
 10
12.85796058620462
 20
-1.952677260091638
 30
0.0
 10
13.12426201938823
 20
-1.955811677013672
 30
0.0
 10
13.49969121752233
 20
-1.964671362961794
 30
0.0
 10
13.79196334282545
 20
-1.978634064807494
 30
0.0
 10
13.95834500181101
 20
-1.986582607606773
 30
0.0
  0
SPLINE
  5
9D
330
1F
100
AcDbEntity
  8
0
  6
Continuous
 62
     1
370
    15
100
AcDbSpline
210
0.0
220
0.0
230
1.0
 70
     8
 71
     3
 72
    16
 73
    12
 74
     0
 42
0.000000001
 43
0.00000001
 40
0.0
 40
0.0
 40
0.0
 40
0.0
 40
0.2268928786729205
 40
0.3891560092304449
 40
0.4909774556534156
 40
0.5828011767817224
 40
0.6753606911344626
 40
0.7688748085031125
 40
0.8628655839842787
 40
0.9570599418861431
 40
1.0
 40
1.0
 40
1.0
 40
1.0
 10
27.56183977703163
 20
1.986582583141207
 30
0.0
 10
27.40497318692913
 20
1.979030969704796
 30
0.0
 10
27.13592297899432
 20
1.966078797008354
 30
0.0
 10
26.79691182420203
 20
1.957348199572421
 30
0.0
 10
26.55109092054043
 20
1.953541301752549
 30
0.0
 10
26.35340878478079
 20
1.952197537705445
 30
0.0
 10
26.16155815353678
 20
1.952460121327673
 30
0.0
 10
25.96813675573877
 20
1.954284183404545
 30
0.0
 10
25.77355736795042
 20
1.957877532061542
 30
0.0
 10
25.61388548380297
 20
1.961615652926464
 30
0.0
 10
25.51915559968032
 20
1.965220216366382
 30
0.0
 10
25.48949341240795
 20
1.966348891195664
 30
0.0
  0
SPLINE
  5
9E
330
1F
100
AcDbEntity
  8
0
  6
Continuous
 62
     1
370
    15
100
AcDbSpline
210
0.0
220
0.0
230
1.0
 70
     8
 71
     3
 72
    17
 73
    13
 74
     0
 42
0.000000001
 43
0.00000001
 40
0.0
 40
0.0
 40
0.0
 40
0.0
 40
0.1254135228605956
 40
0.2139571584755254
 40
0.2901875459743389
 40
0.3706526532630382
 40
0.4522293755490851
 40
0.6522831814449092
 40
0.6979007562766844
 40
0.7649044278310819
 40
0.8660724998367575
 40
1.0
 40
1.0
 40
1.0
 40
1.0
 10
23.80208092057516
 20
-2.080362180754459
 30
0.0
 10
23.95978710582165
 20
-2.065317335570974
 30
0.0
 10
24.22883598109215
 20
-2.039650627135229
 30
0.0
 10
24.5919242835306
 20
-2.01237843682609
 30
0.0
 10
24.89833256859158
 20
-1.992626320862991
 30
0.0
 10
25.19692715106174
 20
-1.976930166559176
 30
0.0
 10
25.6507724285254
 20
-1.958985567575972
 30
0.0
 10
26.06093876368699
 20
-1.951768251994926
 30
0.0
 10
26.452696913673
 20
-1.952612395130987
 30
0.0
 10
26.72040171114925
 20
-1.955667291139833
 30
0.0
 10
27.09888247347541
 20
-1.964492864668323
 30
0.0
 10
27.39382124649435
 20
-1.978565683938433
 30
0.0
 10
27.56183977703163
 20
-1.9865825831412
 30
0.0
  0
SPLINE
  5
9F
330
1F
100
AcDbEntity
  8
0
  6
Continuous
 62
     1
370
    15
100
AcDbSpline
210
0.0
220
0.0
230
1.0
 70
     8
 71
     3
 72
    16
 73
    12
 74
     0
 42
0.000000001
 43
0.00000001
 40
0.0
 40
0.0
 40
0.0
 40
0.0
 40
0.2290864846010103
 40
0.3929126017583119
 40
0.4957103614759898
 40
0.5884167588058594
 40
0.6818662634794058
 40
0.7762802493522354
 40
0.8711764854363372
 40
0.9662785468148295
 40
1.0
 40
1.0
 40
1.0
 40
1.0
 10
13.95834500181101
 20
1.986582607606779
 30
0.0
 10
13.80147123224733
 20
1.979030688399786
 30
0.0
 10
13.53241266663943
 20
1.966078181711947
 30
0.0
 10
13.19339564292622
 20
1.957347716161283
 30
0.0
 10
12.94757713834699
 20
1.953541186667237
 30
0.0
 10
12.74989894458906
 20
1.952197233144906
 30
0.0
 10
12.55804991175235
 20
1.952461216982131
 30
0.0
 10
12.36462854595707
 20
1.954280495309582
 30
0.0
 10
12.17004769355023
 20
1.957892352613124
 30
0.0
 10
12.01696398636723
 20
1.96142236074808
 30
0.0
 10
11.92882344118194
 20
1.964755001425511
 30
0.0
 10
11.90575135470574
 20
1.965627369230159
 30
0.0
  0
SPLINE
  5
A0
330
1F
100
AcDbEntity
  8
0
  6
Continuous
 62
     1
370
    15
100
AcDbSpline
210
0.0
220
0.0
230
1.0
 70
     8
 71
     3
 72
    13
 73
     9
 74
     0
 42
0.000000001
 43
0.00000001
 40
0.0
 40
0.0
 40
0.0
 40
0.0
 40
0.2810491075694426
 40
0.4822266686394738
 40
0.6275758030462858
 40
0.7561866743342016
 40
0.8866057533348312
 40
1.0
 40
1.0
 40
1.0
 40
1.0
 10
29.57050204784387
 20
-1.880334063873729
 30
0.0
 10
29.74529780496418
 20
-1.853930260871304
 30
0.0
 10
30.04521398821557
 20
-1.808626370489347
 30
0.0
 10
30.43453553248797
 20
-1.761537800490603
 30
0.0
 10
30.72951204760968
 20
-1.730455949340471
 30
0.0
 10
30.98057405145781
 20
-1.707592532711072
 30
0.0
 10
31.21153571236689
 20
-1.689128110276526
 30
0.0
 10
31.3628934010555
 20
-1.679880429600048
 30
0.0
 10
31.43328779413864
 20
-1.675579459663948
 30
0.0
  0
SPLINE
  5
A1
330
1F
100
AcDbEntity
  8
0
  6
Continuous
 62
     1
370
    15
100
AcDbSpline
210
0.0
220
0.0
230
1.0
 70
     8
 71
     3
 72
    21
 73
    17
 74
     0
 42
0.000000001
 43
0.00000001
 40
0.0
 40
0.0
 40
0.0
 40
0.0
 40
0.1111207685502602
 40
0.1909187197687956
 40
0.2429426796782212
 40
0.2925857278009045
 40
0.3438183088228832
 40
0.3952160592302786
 40
0.4469191805343535
 40
0.4988044080111587
 40
0.6120791381021513
 40
0.7162621794215506
 40
0.7566890204999176
 40
0.8113065119675678
 40
0.8925616065872243
 40
0.9999999999999999
 40
0.9999999999999999
 40
0.9999999999999999
 40
0.9999999999999999
 10
20.33276586210799
 20
1.709881295520266
 30
0.0
 10
20.16994780434763
 20
1.697058370911275
 30
0.0
 10
19.89020698228168
 20
1.675027058655429
 30
0.0
 10
19.53578925875378
 20
1.658423372543255
 30
0.0
 10
19.2745352150002
 20
1.650151648877289
 30
0.0
 10
19.05320048523911
 20
1.645996612038036
 30
0.0
 10
18.83159130948441
 20
1.644673072997802
 30
0.0
 10
18.60720455556677
 20
1.646337985445982
 30
0.0
 10
18.38156772886216
 20
1.650990335934754
 30
0.0
 10
18.06582565428194
 20
1.661641197063557
 30
0.0
 10
17.67381243297336
 20
1.683056277139954
 30
0.0
 10
17.30043495489408
 20
1.713772565597388
 30
0.0
 10
17.00966750090049
 20
1.742475321298182
 30
0.0
 10
16.7528039279883
 20
1.770734985886755
 30
0.0
 10
16.3987665511833
 20
1.814831270948305
 30
0.0
 10
16.12366132098688
 20
1.856567767292185
 30
0.0
 10
15.96702176622558
 20
1.880331714636748
 30
0.0
  0
SPLINE
  5
A2
330
1F
100
AcDbEntity
  8
0
  6
Continuous
 62
     1
370
    15
100
AcDbSpline
210
0.0
220
0.0
230
1.0
 70
     8
 71
     3
 72
    12
 73
     8
 74
     0
 42
0.000000001
 43
0.00000001
 40
0.0
 40
0.0
 40
0.0
 40
0.0
 40
0.3090567641906375
 40
0.5187004326067028
 40
0.6462192125156268
 40
0.7671952507547419
 40
0.9999999999999999
 40
0.9999999999999999
 40
0.9999999999999999
 40
0.9999999999999999
 10
15.96702176622558
 20
-1.880331714636742
 30
0.0
 10
16.15970001233871
 20
-1.851369512904596
 30
0.0
 10
16.48307843725205
 20
-1.802761269020827
 30
0.0
 10
16.88507540355452
 20
-1.755400907064465
 30
0.0
 10
17.17114518254115
 20
-1.726336064030338
 30
0.0
 10
17.4703537155753
 20
-1.698571056660748
 30
0.0
 10
17.69013461198968
 20
-1.686796380891534
 30
0.0
 10
17.83476099727893
 20
-1.679048078731353
 30
0.0
  0
SPLINE
  5
A3
330
1F
100
AcDbEntity
  8
0
  6
Continuous
 62
     1
370
    15
100
AcDbSpline
210
0.0
220
0.0
230
1.0
 70
     8
 71
     3
 72
    18
 73
    14
 74
     0
 42
0.000000001
 43
0.00000001
 40
0.0
 40
0.0
 40
0.0
 40
0.0
 40
0.1238239723978821
 40
0.2074369159699427
 40
0.2627232237320961
 40
0.3191734931084247
 40
0.5009280295685304
 40
0.6025448086324703
 40
0.6957252139389883
 40
0.7413011635623586
 40
0.7942470765603585
 40
0.8800840366716661
 40
1.0
 40
1.0
 40
1.0
 40
1.0
 10
33.93626987679577
 20
1.709882050581707
 30
0.0
 10
33.75484497325865
 20
1.695748000644398
 30
0.0
 10
33.45091172236153
 20
1.672069841460977
 30
0.0
 10
33.06827357150658
 20
1.655634798219141
 30
0.0
 10
32.78733336738244
 20
1.648001918301848
 30
0.0
 10
32.3609648883446
 20
1.642482434307368
 30
0.0
 10
31.86609079788911
 20
1.651352407513971
 30
0.0
 10
31.31791255003603
 20
1.680733035729532
 30
0.0
 10
30.96855039674048
 20
1.708228748593813
 30
0.0
 10
30.68957415459533
 20
1.734617873206189
 30
0.0
 10
30.42135190995094
 20
1.763130334124047
 30
0.0
 10
30.04521202983455
 20
1.808627492009757
 30
0.0
 10
29.74529708386014
 20
1.853930673831237
 30
0.0
 10
29.57050204784387
 20
1.880334063873736
 30
0.0
  0
SPLINE
  5
A4
330
1F
100
AcDbEntity
  8
0
  6
Continuous
 62
     1
370
    15
100
AcDbSpline
210
0.0
220
0.0
230
1.0
 70
     8
 71
     3
 72
     9
 73
     5
 74
     0
 42
0.000000001
 43
0.00000001
 40
0.0
 40
0.0
 40
0.0
 40
0.0
 40
0.4960538351406836
 40
1.0
 40
1.0
 40
1.0
 40
1.0
 10
6.729236773196604
 20
1.709878384781495
 30
0.0
 10
6.4198514320497
 20
1.687226462642544
 30
0.0
 10
5.796158358375234
 20
1.641562221114147
 30
0.0
 10
5.177696756275393
 20
1.646719554970416
 30
0.0
 10
4.866025403784432
 20
1.649318573588182
 30
0.0
  0
LINE
  5
A5
330
1F
100
AcDbEntity
  8
0
  6
Continuous
 62
   131
370
    15
100
AcDbLine
 10
2.0
 20
-2.999999999999998
 30
0.0
 11
3.866025403784434
 21
-2.499999999999998
 31
0.0
  0
LINE
  5
A6
330
1F
100
AcDbEntity
  8
0
  6
Continuous
 62
   131
370
    15
100
AcDbLine
 10
3.866025403784434
 20
2.500000000000002
 30
0.0
 11
2.0
 21
3.000000000000002
 31
0.0
  0
LINE
  5
A7
330
1F
100
AcDbEntity
  8
0
  6
Continuous
 62
   131
370
    15
100
AcDbLine
 10
2.0
 20
3.0
 30
0.0
 11
-44.58397459621557
 21
2.999999999999997
 31
0.0
  0
LINE
  5
A8
330
1F
100
AcDbEntity
  8
0
  6
Continuous
 62
   131
370
    15
100
AcDbLine
 10
-44.58397459621557
 20
-3.0
 30
0.0
 11
2.0
 21
-2.999999999999996
 31
0.0
  0
LINE
  5
A9
330
1F
100
AcDbEntity
  8
0
  6
Continuous
 62
   131
370
    15
100
AcDbLine
 10
-44.58397459621557
 20
2.999999999999996
 30
0.0
 11
-45.13397459621557
 21
2.449999999999995
 31
0.0
  0
LINE
  5
AA
330
1F
100
AcDbEntity
  8
0
  6
Continuous
 62
   131
370
    15
100
AcDbLine
 10
-45.13397459621557
 20
-2.449999999999998
 30
0.0
 11
-44.58397459621557
 21
-2.999999999999998
 31
0.0
  0
LINE
  5
AB
330
1F
100
AcDbEntity
  8
0
  6
Continuous
 62
   131
370
    15
100
AcDbLine
 10
3.976000987703925
 20
2.500000000000002
 30
0.0
 11
3.866025403784434
 21
2.500000000000002
 31
0.0
  0
LINE
  5
AC
330
1F
100
AcDbEntity
  8
0
  6
Continuous
 62
   131
370
    15
100
AcDbLine
 10
3.866025403784434
 20
-2.499999999999998
 30
0.0
 11
3.976000987703928
 21
-2.499999999999998
 31
0.0
  0
SPLINE
  5
AD
330
1F
100
AcDbEntity
  8
0
  6
Continuous
 62
   131
370
    15
100
AcDbSpline
210
0.0
220
0.0
230
1.0
 70
     8
 71
     3
 72
     9
 73
     5
 74
     0
 42
0.000000001
 43
0.00000001
 40
0.0
 40
0.0
 40
0.0
 40
0.0
 40
0.4385787536006621
 40
0.9999999999999999
 40
0.9999999999999999
 40
0.9999999999999999
 40
0.9999999999999999
 10
4.866025403784437
 20
1.649318573588181
 30
0.0
 10
4.735890727008073
 20
1.652926853381676
 30
0.0
 10
4.439171664107791
 20
1.661154064033973
 30
0.0
 10
4.142533697426858
 20
1.680873501388751
 30
0.0
 10
3.975994840443487
 20
1.691944412486765
 30
0.0
  0
LINE
  5
AE
330
1F
100
AcDbEntity
  8
0
  6
Continuous
 62
   131
370
    15
100
AcDbLine
 10
3.975994840443487
 20
-1.691944412486762
 30
0.0
 11
4.234130209258307
 21
-1.675805777119038
 31
0.0
  0
SPLINE
  5
AF
330
1F
100
AcDbEntity
  8
0
  6
Continuous
 62
     1
370
    15
100
AcDbSpline
210
0.0
220
0.0
230
1.0
 70
     8
 71
     3
 72
    23
 73
    19
 74
     0
 42
0.000000001
 43
0.00000001
 40
0.0
 40
0.0
 40
0.0
 40
0.0
 40
0.0336358467062088
 40
0.1007917277720739
 40
0.1679132730814101
 40
0.2350068295292747
 40
0.3020819889683461
 40
0.3691484261685491
 40
0.4362158553046232
 40
0.5032939860669896
 40
0.5703924798155317
 40
0.6375209061951842
 40
0.7046789353456399
 40
0.7718095009016568
 40
0.838909552279391
 40
0.9081679140483057
 40
0.9774188315170643
 40
1.0
 40
1.0
 40
1.0
 40
1.0
 10
25.49057293306709
 20
-1.965970361385619
 30
0.0
 10
25.30621597089075
 20
-2.033891190593414
 30
0.0
 10
24.75377984799884
 20
-2.237419818469517
 30
0.0
 10
23.83333842045546
 20
-2.429474858238196
 30
0.0
 10
22.72968993530529
 20
-2.527908174483715
 30
0.0
 10
21.62655617304603
 20
-2.456427422517661
 30
0.0
 10
20.52379024143787
 20
-2.22817834407945
 30
0.0
 10
19.42119485595217
 20
-1.855649772126062
 30
0.0
 10
18.31858014502144
 20
-1.363479734656357
 30
0.0
 10
17.21575497114146
 20
-0.7832371108448917
 30
0.0
 10
16.11252640601644
 20
-0.1523521860337078
 30
0.0
 10
15.0087694825361
 20
0.4884092271956935
 30
0.0
 10
13.90467823329963
 20
1.097689836889219
 30
0.0
 10
12.80088533602513
 20
1.635416995066772
 30
0.0
 10
11.6857089923355
 20
2.075265983640385
 30
0.0
 10
10.55886100612649
 20
2.369034291385676
 30
0.0
 10
9.676037027059593
 20
2.507771647658869
 30
0.0
 10
9.172772324307662
 20
2.486313679613088
 30
0.0
 10
9.04902140515361
 20
2.481037245056236
 30
0.0
  0
SPLINE
  5
B0
330
1F
100
AcDbEntity
  8
0
  6
Continuous
 62
     1
370
    15
100
AcDbSpline
210
0.0
220
0.0
230
1.0
 70
     8
 71
     3
 72
    15
 73
    11
 74
     0
 42
0.000000001
 43
0.00000001
 40
0.0
 40
0.0
 40
0.0
 40
0.0
 40
0.0582426257503184
 40
0.2007684438169025
 40
0.3432965203200595
 40
0.4858258609851803
 40
0.6283554707016552
 40
0.7708843541809113
 40
0.9134115166147114
 40
1.0
 40
1.0
 40
1.0
 40
1.0
 10
23.8091820704995
 20
-2.057670436974977
 30
0.0
 10
23.63383372657641
 20
-2.080737810078781
 30
0.0
 10
23.02938958138573
 20
-2.160253466204046
 30
0.0
 10
21.99583796565183
 20
-2.101282740566735
 30
0.0
 10
20.70852519882463
 20
-1.884741640520564
 30
0.0
 10
19.4211990294685
 20
-1.491996204091384
 30
0.0
 10
18.13387010044962
 20
-0.9707236950378151
 30
0.0
 10
16.84654887214793
 20
-0.365837248868497
 30
0.0
 10
15.72764955892261
 20
0.1951567895132885
 30
0.0
 10
15.03786049706643
 20
0.5165349132326912
 30
0.0
 10
14.77717210754872
 20
0.6379916746275268
 30
0.0
  0
SPLINE
  5
B1
330
1F
100
AcDbEntity
  8
0
  6
Continuous
 62
     1
370
    15
100
AcDbSpline
210
0.0
220
0.0
230
1.0
 70
     8
 71
     3
 72
    19
 73
    15
 74
     0
 42
0.000000001
 43
0.00000001
 40
0.0
 40
0.0
 40
0.0
 40
0.0
 40
0.0903876399758693
 40
0.1807282227776356
 40
0.2710345411975475
 40
0.3613195420280786
 40
0.4515962682182207
 40
0.5418778001124397
 40
0.63217719633199
 40
0.7225074348640431
 40
0.8128813549207475
 40
0.903279401790529
 40
0.9936312295462322
 40
0.9999999999999999
 40
0.9999999999999999
 40
0.9999999999999999
 40
0.9999999999999999
 10
34.86602540378443
 20
-2.372352173079746
 30
0.0
 10
34.49796386451773
 20
-2.290463146288016
 30
0.0
 10
33.76203240439517
 20
-2.126727725371939
 30
0.0
 10
32.65852409096522
 20
-1.702690475589453
 30
0.0
 10
31.55550697223683
 20
-1.179782114395654
 30
0.0
 10
30.45280477515803
 20
-0.5778330290625082
 30
0.0
 10
29.35022293782812
 20
0.0606233758945419
 30
0.0
 10
28.2475711478685
 20
0.6953021607132025
 30
0.0
 10
27.14465692497044
 20
1.285428521989456
 30
0.0
 10
26.04129421877872
 20
1.791402724157463
 30
0.0
 10
24.93741196344472
 20
2.186400907446665
 30
0.0
 10
23.83334698396276
 20
2.422645091633047
 30
0.0
 10
23.07146618657881
 20
2.522909229614672
 30
0.0
 10
22.67769046451433
 20
2.496447660688917
 30
0.0
 10
22.65176147699231
 20
2.494705243236434
 30
0.0
  0
SPLINE
  5
B2
330
1F
100
AcDbEntity
  8
0
  6
Continuous
 62
     1
370
    15
100
AcDbSpline
210
0.0
220
0.0
230
1.0
 70
     8
 71
     3
 72
    14
 73
    10
 74
     0
 42
0.000000001
 43
0.00000001
 40
0.0
 40
0.0
 40
0.0
 40
0.0
 40
0.0297107862919081
 40
0.191439478466668
 40
0.3531507870808345
 40
0.5148535938280399
 40
0.6765568010725347
 40
0.8382693102044334
 40
1.0
 40
1.0
 40
1.0
 40
1.0
 10
11.90671590263854
 20
-1.965253181301255
 30
0.0
 10
11.83698694589825
 20
-1.992867317794977
 30
0.0
 10
11.38769304363557
 20
-2.170797172519333
 30
0.0
 10
10.55886186541764
 20
-2.369582313193352
 30
0.0
 10
9.420293053061307
 20
-2.521473748187491
 30
0.0
 10
8.281791395519573
 20
-2.489231623870057
 30
0.0
 10
7.143286920269958
 20
-2.286927064728344
 30
0.0
 10
6.004706276006889
 20
-1.933545820227443
 30
0.0
 10
5.245599917584501
 20
-1.591997022253992
 30
0.0
 10
4.866025403781274
 20
-1.42121302407977
 30
0.0
  0
SPLINE
  5
B3
330
1F
100
AcDbEntity
  8
0
  6
Continuous
 62
   131
370
    15
100
AcDbSpline
210
0.0
220
0.0
230
1.0
 70
    24
 71
     3
 72
     8
 73
     4
 74
     0
 42
0.000000001
 43
0.00000001
 40
0.0
 40
0.0
 40
0.0
 40
0.0
 40
1.0
 40
1.0
 40
1.0
 40
1.0
 10
4.866025403784432
 20
-1.100466029337039
 30
0.0
 10
4.866025403784432
 20
-1.20044864835062
 30
0.0
 10
4.866025403784432
 20
-1.308020699381214
 30
0.0
 10
4.866025403784432
 20
-1.4212130240731
 30
0.0
  0
SPLINE
  5
B4
330
1F
100
AcDbEntity
  8
0
  6
Continuous
 62
     1
370
    15
100
AcDbSpline
210
0.0
220
0.0
230
1.0
 70
     8
 71
     3
 72
    13
 73
     9
 74
     0
 42
0.000000001
 43
0.00000001
 40
0.0
 40
0.0
 40
0.0
 40
0.0
 40
0.1980130496653224
 40
0.3960414749221011
 40
0.594083944709155
 40
0.792139118798068
 40
0.9902056486475834
 40
1.0
 40
1.0
 40
1.0
 40
1.0
 10
34.86602540378443
 20
-1.972430660920535
 30
0.0
 10
34.43715236366138
 20
-1.877184860161812
 30
0.0
 10
33.57937298168759
 20
-1.686685862866546
 30
0.0
 10
32.29263766482551
 20
-1.207245168988096
 30
0.0
 10
31.00579901832186
 20
-0.6321789304849766
 30
0.0
 10
29.71886424620732
 20
-0.0064633487113089
 30
0.0
 10
28.83966228141437
 20
0.4415099799445852
 30
0.0
 10
28.38943741684928
 20
0.6396981271830154
 30
0.0
 10
28.36822293682953
 20
0.6490367017946177
 30
0.0
  0
SPLINE
  5
B5
330
1F
100
AcDbEntity
  8
0
  6
Continuous
 62
     1
370
    15
100
AcDbSpline
210
0.0
220
0.0
230
1.0
 70
     8
 71
     3
 72
    12
 73
     8
 74
     0
 42
0.000000001
 43
0.00000001
 40
0.0
 40
0.0
 40
0.0
 40
0.0
 40
0.2021123280820087
 40
0.4432497029980892
 40
0.6289220695414788
 40
0.8144404988610445
 40
1.0
 40
1.0
 40
1.0
 40
1.0
 10
10.20204403864998
 20
-2.067386799568652
 30
0.0
 10
9.842480606297116
 20
-2.09612421141401
 30
0.0
 10
9.053927101858168
 20
-2.159147824996948
 30
0.0
 10
7.934921935948079
 20
-2.040063809245213
 30
0.0
 10
6.845953944169867
 20
-1.805933606758373
 30
0.0
 10
5.855926329403944
 20
-1.49942705010445
 30
0.0
 10
5.196016725797742
 20
-1.233462848783818
 30
0.0
 10
4.866025403784425
 20
-1.100466029337036
 30
0.0
  0
LINE
  5
B6
330
1F
100
AcDbEntity
  8
0
  6
Continuous
 62
     1
370
    15
100
AcDbLine
 10
34.86602540378429
 20
-2.372352173079749
 30
0.0
 11
34.86602540378443
 21
-1.972430660920535
 31
0.0
  0
SPLINE
  5
B7
330
1F
100
AcDbEntity
  8
0
  6
Continuous
 62
     1
370
    15
100
AcDbSpline
210
0.0
220
0.0
230
1.0
 70
     8
 71
     3
 72
    30
 73
    26
 74
     0
 42
0.000000001
 43
0.00000001
 40
0.0
 40
0.0
 40
0.0
 40
0.0
 40
0.0472403271512467
 40
0.0948697021629804
 40
0.1381976926387764
 40
0.1818273310612716
 40
0.2251548402695409
 40
0.2687825255879133
 40
0.3121099326466627
 40
0.3557364960970203
 40
0.3990641120028249
 40
0.4426902273722498
 40
0.4860179718237196
 40
0.5296445933177151
 40
0.5729122404431892
 40
0.616478988704667
 40
0.6597468938754653
 40
0.7033152909046652
 40
0.7465826977881733
 40
0.7901491080289168
 40
0.8334163875136873
 40
0.8769816467518421
 40
0.9202491211747987
 40
0.963813873099632
 40
1.0
 40
1.0
 40
1.0
 40
1.0
 10
4.866025403784432
 20
1.93396625711797
 30
0.0
 10
5.126893647545312
 20
2.023482250159153
 30
0.0
 10
5.650778516296088
 20
2.203251445479305
 30
0.0
 10
6.414504769021526
 20
2.377607053905034
 30
0.0
 10
7.158401287654719
 20
2.480909755704614
 30
0.0
 10
7.877427382715808
 20
2.511369742583971
 30
0.0
 10
8.59990572713178
 20
2.472914887799902
 30
0.0
 10
9.318739798138992
 20
2.365659524400979
 30
0.0
 10
10.04088543253934
 20
2.193520383265814
 30
0.0
 10
10.7604075130078
 20
1.960709137121178
 30
0.0
 10
11.48147511426352
 20
1.672706443870982
 30
0.0
 10
12.20204482168325
 20
1.340857498202954
 30
0.0
 10
12.92248869802346
 20
0.9685301584000785
 30
0.0
 10
13.64294822880501
 20
0.5736118054580167
 30
0.0
 10
14.36299546952177
 20
0.159333389062868
 30
0.0
 10
15.08201153102226
 20
-0.256639959659982
 30
0.0
 10
15.80272529784838
 20
-0.6664273307930871
 30
0.0
 10
16.52078492196721
 20
-1.058535268987782
 30
0.0
 10
17.24224108374035
 20
-1.41965749791199
 30
0.0
 10
17.9600497821185
 20
-1.743749223197252
 30
0.0
 10
18.68124937659299
 20
-2.01804141932257
 30
0.0
 10
19.39967922440379
 20
-2.238102278684173
 30
0.0
 10
20.11984590474768
 20
-2.394559051113102
 30
0.0
 10
20.80009465052291
 20
-2.486446146195539
 30
0.0
 10
21.24037887220585
 20
-2.492536276211299
 30
0.0
 10
21.44015323146989
 20
-2.495299608990028
 30
0.0
  0
SPLINE
  5
B8
330
1F
100
AcDbEntity
  8
0
  6
Continuous
 62
     1
370
    15
100
AcDbSpline
210
0.0
220
0.0
230
1.0
 70
     8
 71
     3
 72
    13
 73
     9
 74
     0
 42
0.000000001
 43
0.00000001
 40
0.0
 40
0.0
 40
0.0
 40
0.0
 40
0.0573754463295658
 40
0.2678250153484972
 40
0.4484896121241541
 40
0.6300879716166952
 40
0.8145467227179787
 40
1.0
 40
1.0
 40
1.0
 40
1.0
 10
31.43508825712545
 20
1.676375021211951
 30
0.0
 10
31.50067250783605
 20
1.705771534005508
 30
0.0
 10
31.80681571153837
 20
1.842992627588005
 30
0.0
 10
32.32020363191916
 20
2.027440626069894
 30
0.0
 10
32.97481466355457
 20
2.228341559862655
 30
0.0
 10
33.60030101741565
 20
2.36975354322517
 30
0.0
 10
34.23084363826792
 20
2.467311299962756
 30
0.0
 10
34.6539189958342
 20
2.487676874096855
 30
0.0
 10
34.86602540378428
 20
2.500000000000112
 30
0.0
  0
SPLINE
  5
B9
330
1F
100
AcDbEntity
  8
0
  6
Continuous
 62
     1
370
    15
100
AcDbSpline
210
0.0
220
0.0
230
1.0
 70
    24
 71
     3
 72
    10
 73
     6
 74
     0
 42
0.000000001
 43
0.00000001
 40
0.0
 40
0.0
 40
0.0
 40
0.0
 40
0.5
 40
0.5
 40
1.0
 40
1.0
 40
1.0
 40
1.0
 10
34.86602540378443
 20
1.750000000000006
 30
0.0
 10
34.86602540378443
 20
1.85608064201829
 30
0.0
 10
34.86602540378443
 20
1.979356172167801
 30
0.0
 10
34.86602540378443
 20
2.237987902402147
 30
0.0
 10
34.86602540378443
 20
2.37268358950369
 30
0.0
 10
34.86602540378428
 20
2.500000000000112
 30
0.0
  0
LINE
  5
BA
330
1F
100
AcDbEntity
  8
0
  6
Continuous
 62
     1
370
    15
100
AcDbLine
 10
34.86602540378443
 20
1.750000000000006
 30
0.0
 11
33.93257757962684
 21
1.694338867574972
 31
0.0
  0
SPLINE
  5
BB
330
1F
100
AcDbEntity
  8
0
  6
Continuous
 62
     1
370
    15
100
AcDbSpline
210
0.0
220
0.0
230
1.0
 70
     8
 71
     3
 72
    14
 73
    10
 74
     0
 42
0.000000001
 43
0.00000001
 40
0.0
 40
0.0
 40
0.0
 40
0.0
 40
0.0925124197001702
 40
0.2472969159894251
 40
0.4020761030512881
 40
0.5568488657740933
 40
0.711614093313536
 40
0.8663706798227329
 40
1.0
 40
1.0
 40
1.0
 40
1.0
 10
15.04133849803086
 20
-0.2320007321694874
 30
0.0
 10
14.78488307734122
 20
-0.1294145810254952
 30
0.0
 10
14.09934663984601
 20
0.1448106406620923
 30
0.0
 10
12.98474788407207
 20
0.5940364808447224
 30
0.0
 10
11.69755984306385
 20
1.057304124291454
 30
0.0
 10
10.41043409816426
 20
1.430095819164793
 30
0.0
 10
9.123365348029317
 20
1.671845251048547
 30
0.0
 10
7.894958323238932
 20
1.781922888898699
 30
0.0
 10
7.09546523287354
 20
1.719341339168438
 30
0.0
 10
6.725004278732317
 20
1.690342938926964
 30
0.0
  0
SPLINE
  5
BC
330
1F
100
AcDbEntity
  8
0
  6
Continuous
 62
   131
370
    15
100
AcDbSpline
210
0.0
220
0.0
230
1.0
 70
    24
 71
     3
 72
     9
 73
     5
 74
     0
 42
0.000000001
 43
0.00000001
 40
0.0
 40
0.0
 40
0.0
 40
0.0
 40
0.2255793359609327
 40
1.0
 40
1.0
 40
1.0
 40
1.0
 10
4.866025403784429
 20
1.933966257117966
 30
0.0
 10
4.866025403784429
 20
1.914225002310693
 30
0.0
 10
4.866025403784429
 20
1.82671142433522
 30
0.0
 10
4.866025403784429
 20
1.75356501651397
 30
0.0
 10
4.866025403784429
 20
1.696918926796964
 30
0.0
  0
SPLINE
  5
BD
330
1F
100
AcDbEntity
  8
0
  6
Continuous
 62
     1
370
    15
100
AcDbSpline
210
0.0
220
0.0
230
1.0
 70
     8
 71
     3
 72
    11
 73
     7
 74
     0
 42
0.000000001
 43
0.00000001
 40
0.0
 40
0.0
 40
0.0
 40
0.0
 40
0.2635674761727976
 40
0.5293055631114927
 40
0.7710449791147369
 40
0.9999999999999999
 40
0.9999999999999999
 40
0.9999999999999999
 40
0.9999999999999999
 10
4.866025403784432
 20
-1.933966257117966
 30
0.0
 10
5.126891712648909
 20
-2.023571880596322
 30
0.0
 10
5.650772695672025
 20
-2.203521074942565
 30
0.0
 10
6.414527390147377
 20
-2.376559172792174
 30
0.0
 10
7.143994227404846
 20
-2.482375897211501
 30
0.0
 10
7.609839196400642
 20
-2.492920920653508
 30
0.0
 10
7.836435340835191
 20
-2.498050227212473
 30
0.0
  0
SPLINE
  5
BE
330
1F
100
AcDbEntity
  8
0
  6
Continuous
 62
     1
370
    15
100
AcDbSpline
210
0.0
220
0.0
230
1.0
 70
     8
 71
     3
 72
    30
 73
    26
 74
     0
 42
0.000000001
 43
0.00000001
 40
0.0
 40
0.0
 40
0.0
 40
0.0
 40
0.0077558681936542
 40
0.0498543891373382
 40
0.0922428406483704
 40
0.1343415512644673
 40
0.1767295091659927
 40
0.2188283585160797
 40
0.2612167115483881
 40
0.3033155846001436
 40
0.3457052854391059
 40
0.387803489215043
 40
0.430194006616485
 40
0.4722917911367484
 40
0.5146806090681595
 40
0.5567782317518466
 40
0.5991658602699735
 40
0.6412636525766898
 40
0.6836507109753487
 40
0.7257486588402313
 40
0.7681360114880867
 40
0.8102339862955682
 40
0.8526225836901147
 40
0.9255424783655062
 40
1.0
 40
1.0
 40
1.0
 40
1.0
 10
17.82993991094355
 20
1.676889207904105
 30
0.0
 10
17.8739536043309
 20
1.696800898842517
 30
0.0
 10
18.15687174356639
 20
1.824792396846342
 30
0.0
 10
18.68126655759206
 20
2.015587945426342
 30
0.0
 10
19.39967938087424
 20
2.238457789315206
 30
0.0
 10
20.11982829675731
 20
2.395570689905052
 30
0.0
 10
20.83932350756693
 20
2.487306236194752
 30
0.0
 10
21.55877741268156
 20
2.510545627965643
 30
0.0
 10
22.27859175129922
 20
2.464842903704617
 30
0.0
 10
22.99822602361962
 20
2.350596850184584
 30
0.0
 10
23.71736394233189
 20
2.172295144568433
 30
0.0
 10
24.43793568838915
 20
1.933818109702417
 30
0.0
 10
25.15605703598812
 20
1.641481403223109
 30
0.0
 10
25.87746386110579
 20
1.305503256921477
 30
0.0
 10
26.59524099347921
 20
0.9314429688528918
 30
0.0
 10
27.31649681957417
 20
0.5337429974107819
 30
0.0
 10
28.03481952768045
 20
0.120146197396137
 30
0.0
 10
28.7550566869654
 20
-0.2972232660081975
 30
0.0
 10
29.47444677934111
 20
-0.704179689304945
 30
0.0
 10
30.19392188244804
 20
-1.095133087104455
 30
0.0
 10
30.91372785643482
 20
-1.451961323676872
 30
0.0
 10
31.63331128673536
 20
-1.772710942645843
 30
0.0
 10
32.52755083587353
 20
-2.105709560005632
 30
0.0
 10
33.60569866995056
 20
-2.406359009581858
 30
0.0
 10
34.443004549087
 20
-2.467166222747193
 30
0.0
 10
34.86602540378432
 20
-2.499999999999886
 30
0.0
  0
SPLINE
  5
BF
330
1F
100
AcDbEntity
  8
0
  6
Continuous
 62
     1
370
    15
100
AcDbSpline
210
0.0
220
0.0
230
1.0
 70
     8
 71
     3
 72
    15
 73
    11
 74
     0
 42
0.000000001
 43
0.00000001
 40
0.0
 40
0.0
 40
0.0
 40
0.0
 40
0.0252695253407229
 40
0.1800973635101885
 40
0.3349322302696212
 40
0.4897730123007205
 40
0.6446185923534866
 40
0.7994678499849998
 40
0.9543196623027194
 40
1.0
 40
1.0
 40
1.0
 40
1.0
 10
28.6419366991784
 20
-0.230351853502741
 30
0.0
 10
28.57191463354597
 20
-0.202996927020413
 30
0.0
 10
28.072863336068
 20
-0.0080367893820941
 30
0.0
 10
27.14475641833561
 20
0.3763258568980279
 30
0.0
 10
25.85760032076041
 20
0.8663140175957899
 30
0.0
 10
24.57038930337414
 20
1.282290071231847
 30
0.0
 10
23.28313449535837
 20
1.588003060662904
 30
0.0
 10
21.99584585865535
 20
1.743672296067821
 30
0.0
 10
21.01105963830001
 20
1.777011460959877
 30
0.0
 10
20.45537073265719
 20
1.709345396881939
 30
0.0
 10
20.328787255332
 20
1.693931366475868
 30
0.0
  0
LINE
  5
C0
330
1F
100
AcDbEntity
  8
0
  6
Continuous
 62
   131
370
    15
100
AcDbLine
 10
4.866025403784429
 20
-1.933966257117962
 30
0.0
 11
4.866025403784437
 21
-1.421213024065586
 31
0.0
  0
LINE
  5
C1
330
1F
100
AcDbEntity
  8
0
  6
Continuous
 62
     1
370
    15
100
AcDbLine
 10
34.86602540378432
 20
-2.499999999999886
 30
0.0
 11
34.86602540378398
 21
-2.372352173079742
 31
0.0
  0
SPLINE
  5
C2
330
1F
100
AcDbEntity
  8
0
  6
Continuous
 62
     1
370
    15
100
AcDbSpline
210
0.0
220
0.0
230
1.0
 70
     8
 71
     3
 72
     8
 73
     4
 74
     0
 42
0.000000001
 43
0.00000001
 40
0.0
 40
0.0
 40
0.0
 40
0.0
 40
1.0
 40
1.0
 40
1.0
 40
1.0
 10
33.31844673555916
 20
0.7000164084405727
 30
0.0
 10
33.20660797946343
 20
0.8325404951408014
 30
0.0
 10
33.10957015215357
 20
0.9591847098085277
 30
0.0
 10
33.03295638611384
 20
1.077008495890188
 30
0.0
  0
LINE
  5
C3
330
1F
100
AcDbEntity
  8
0
  6
Continuous
 62
     1
370
    15
100
AcDbLine
 10
33.03295638611385
 20
1.077008495890186
 30
0.0
 11
34.86602540378443
 21
0.0000000000000058
 31
0.0
  0
LINE
  5
C4
330
1F
100
AcDbEntity
  8
0
  6
Continuous
 62
     1
370
    15
100
AcDbLine
 10
34.86602540378443
 20
0.0000000000000058
 30
0.0
 11
34.86602540378443
 21
-0.6681073650741063
 31
0.0
  0
SPLINE
  5
C5
330
1F
100
AcDbEntity
  8
0
  6
Continuous
 62
     1
370
    15
100
AcDbSpline
210
0.0
220
0.0
230
1.0
 70
     8
 71
     3
 72
    10
 73
     6
 74
     0
 42
0.000000001
 43
0.00000001
 40
0.0
 40
0.0
 40
0.0
 40
0.0
 40
0.5
 40
0.5
 40
1.0
 40
1.0
 40
1.0
 40
1.0
 10
34.86602540378443
 20
-0.6681073650741063
 30
0.0
 10
34.59812522224808
 20
-0.4574906938181196
 30
0.0
 10
34.33470397730764
 20
-0.2382331035500044
 30
0.0
 10
33.81703861832101
 20
0.2179869145346814
 30
0.0
 10
33.56038766702677
 20
0.4573610698508117
 30
0.0
 10
33.31844673556632
 20
0.7000164084333924
 30
0.0
  0
SPLINE
  5
C6
330
1F
100
AcDbEntity
  8
0
  6
Continuous
 62
   131
370
    15
100
AcDbSpline
210
0.0
220
0.0
230
1.0
 70
    24
 71
     3
 72
    10
 73
     6
 74
     0
 42
0.000000001
 43
0.00000001
 40
0.0
 40
0.0
 40
0.0
 40
0.0
 40
0.5
 40
0.5
 40
1.0
 40
1.0
 40
1.0
 40
1.0
 10
4.866025403784432
 20
1.202713069420385
 30
0.0
 10
4.866025403784432
 20
0.869882992127449
 30
0.0
 10
4.866025403784432
 20
0.4779115429231536
 30
0.0
 10
4.866025403784432
 20
-0.3271636804630959
 30
0.0
 10
4.866025403784432
 20
-0.736802096157599
 30
0.0
 10
4.866025403784432
 20
-1.100466029337038
 30
0.0
  0
SPLINE
  5
C7
330
1F
100
AcDbEntity
  8
0
  6
Continuous
 62
     1
370
    15
100
AcDbSpline
210
0.0
220
0.0
230
1.0
 70
     8
 71
     3
 72
    12
 73
     8
 74
     0
 42
0.000000001
 43
0.00000001
 40
0.0
 40
0.0
 40
0.0
 40
0.0
 40
0.2144243050810933
 40
0.4288486245193468
 40
0.6432729584045933
 40
0.8576973068266461
 40
1.0
 40
1.0
 40
1.0
 40
1.0
 10
33.31844673556819
 20
0.7000164084366733
 30
0.0
 10
32.90686865119056
 20
0.8724836805692009
 30
0.0
 10
32.08371245487734
 20
1.217418236382109
 30
0.0
 10
30.84897810512834
 20
1.622905146771921
 30
0.0
 10
29.61424366150415
 20
1.895169886815471
 30
0.0
 10
28.51794352231379
 20
2.020736038404769
 30
0.0
 10
27.83322152621554
 20
1.98329716063971
 30
0.0
 10
27.5600777138372
 20
1.968362343499051
 30
0.0
  0
SPLINE
  5
C8
330
1F
100
AcDbEntity
  8
0
  6
Continuous
 62
     1
370
    15
100
AcDbSpline
210
0.0
220
0.0
230
1.0
 70
     8
 71
     3
 72
    16
 73
    12
 74
     0
 42
0.000000001
 43
0.00000001
 40
0.0
 40
0.0
 40
0.0
 40
0.0
 40
0.0374327237269073
 40
0.1533106491058792
 40
0.2691855189850785
 40
0.3850565177107441
 40
0.5080823804894742
 40
0.6310631607086947
 40
0.7539995177504424
 40
0.8769767513978585
 40
1.0
 40
1.0
 40
1.0
 40
1.0
 10
15.97508572885671
 20
-1.86100423855043
 30
0.0
 10
15.83647305422215
 20
-1.887920048668406
 30
0.0
 10
15.26876659295676
 20
-1.998157293238219
 30
0.0
 10
14.27198340064198
 20
-2.020524473441049
 30
0.0
 10
12.98473654154432
 20
-1.914930495714532
 30
0.0
 10
11.67107739337944
 20
-1.624077115417228
 30
0.0
 10
10.33091619005545
 20
-1.177208071873169
 30
0.0
 10
8.964716445356537
 20
-0.6037053573462958
 30
0.0
 10
7.598786279119366
 20
0.0270450930194638
 30
0.0
 10
6.232605866808068
 20
0.6635827997595534
 30
0.0
 10
5.321609026142175
 20
1.022980570807501
 30
0.0
 10
4.866025403784432
 20
1.202713069420385
 30
0.0
  0
SPLINE
  5
C9
330
1F
100
AcDbEntity
  8
0
  6
Continuous
 62
     1
370
    15
100
AcDbSpline
210
0.0
220
0.0
230
1.0
 70
    24
 71
     3
 72
    10
 73
     6
 74
     0
 42
0.000000001
 43
0.00000001
 40
0.0
 40
0.0
 40
0.0
 40
0.0
 40
0.5
 40
0.5
 40
1.0
 40
1.0
 40
1.0
 40
1.0
 10
34.86602540378443
 20
-1.972430660920534
 30
0.0
 10
34.86602540378443
 20
-1.821228472509507
 30
0.0
 10
34.86602540378444
 20
-1.630178709766167
 30
0.0
 10
34.86602540378442
 20
-1.186006397876695
 30
0.0
 10
34.86602540378443
 20
-0.9332686076282694
 30
0.0
 10
34.86602540378443
 20
-0.6681073650741866
 30
0.0
  0
SPLINE
  5
CA
330
1F
100
AcDbEntity
  8
0
  6
Continuous
 62
     1
370
    15
100
AcDbSpline
210
0.0
220
0.0
230
1.0
 70
     8
 71
     3
 72
    20
 73
    16
 74
     0
 42
0.000000001
 43
0.00000001
 40
0.0
 40
0.0
 40
0.0
 40
0.0
 40
0.0763564307858222
 40
0.1554311140723564
 40
0.2378583041819765
 40
0.3202885613274897
 40
0.4027213062030032
 40
0.485155957856093
 40
0.5675919340711169
 40
0.650028651754316
 40
0.732465527320156
 40
0.8149019770783682
 40
0.8973374176211367
 40
0.9797712662098861
 40
1.0
 40
1.0
 40
1.0
 40
1.0
 10
29.57179882838897
 20
-1.877534798770663
 30
0.0
 10
29.17436733506948
 20
-1.927381900894852
 30
0.0
 10
28.36535597691207
 20
-2.028850638193135
 30
0.0
 10
27.12734556503289
 20
-1.979014458198978
 30
0.0
 10
25.85759435178148
 20
-1.77217269602885
 30
0.0
 10
24.57039027714114
 20
-1.403660550639212
 30
0.0
 10
23.28313327259953
 20
-0.9129458883916681
 30
0.0
 10
21.99584494468676
 20
-0.3418891554588581
 30
0.0
 10
20.70853255392113
 20
0.2590218170182663
 30
0.0
 10
19.42120721541676
 20
0.8375001378612057
 30
0.0
 10
18.13387906782883
 20
1.341518243176124
 30
0.0
 10
16.8465583543589
 20
1.7315894410323
 30
0.0
 10
15.55925588786763
 20
1.95589430881005
 30
0.0
 10
14.59576506523446
 20
2.034158647361481
 30
0.0
 10
14.0613780952528
 20
1.980862009610516
 30
0.0
 10
13.95608197366517
 20
1.970360388942202
 30
0.0
  0
SPLINE
  5
CB
330
1F
100
AcDbEntity
  8
0
  6
Continuous
 62
     1
370
    15
100
AcDbSpline
210
0.0
220
0.0
230
1.0
 70
     8
 71
     3
 72
    10
 73
     6
 74
     0
 42
0.000000001
 43
0.00000001
 40
0.0
 40
0.0
 40
0.0
 40
0.0
 40
0.5
 40
0.5
 40
1.0
 40
1.0
 40
1.0
 40
1.0
 10
34.86602540378443
 20
1.750000000000006
 30
0.0
 10
34.55492357788158
 20
1.665537562068976
 30
0.0
 10
34.2461356665799
 20
1.568844760243828
 30
0.0
 10
33.63392002552209
 20
1.347127527237781
 30
0.0
 10
33.33031802148765
 20
1.222815499406804
 30
0.0
 10
33.03295638611235
 20
1.07700849589135
 30
0.0
  0
SPLINE
  5
CC
330
1F
100
AcDbEntity
  8
0
  6
Continuous
 62
   131
370
    15
100
AcDbSpline
210
0.0
220
0.0
230
1.0
 70
    24
 71
     3
 72
    11
 73
     7
 74
     0
 42
0.000000001
 43
0.00000001
 40
0.0
 40
0.0
 40
0.0
 40
0.0
 40
0.1302094313921938
 40
0.4249254290782798
 40
0.7084387225286305
 40
1.0
 40
1.0
 40
1.0
 40
1.0
 10
4.866025403784434
 20
1.639890193679219
 30
0.0
 10
4.866025403784437
 20
1.642162908333271
 30
0.0
 10
4.866025403784445
 20
1.649579684823421
 30
0.0
 10
4.866025403784421
 20
1.578333081147625
 30
0.0
 10
4.866025403784429
 20
1.436453495126519
 30
0.0
 10
4.866025403784429
 20
1.281350085465757
 30
0.0
 10
4.866025403784429
 20
1.202713069420385
 30
0.0
  0
LINE
  5
CD
330
1F
100
AcDbEntity
  8
0
  6
Continuous
 62
     1
370
    15
100
AcDbLine
 10
34.86602540378443
 20
0.0000000000000058
 30
0.0
 11
34.86602540378443
 21
1.750000000000006
 31
0.0
  0
LINE
  5
CE
330
1F
100
AcDbEntity
  8
0
  6
Continuous
 62
   131
370
    15
100
AcDbLine
 10
3.866025403784434
 20
2.500000000000002
 30
0.0
 11
3.866025403784434
 21
-2.5
 31
0.0
  0
LINE
  5
CF
330
1F
100
AcDbEntity
  8
0
  6
Continuous
 62
   131
370
    15
100
AcDbLine
 10
2.0
 20
3.000000000000002
 30
0.0
 11
2.0
 21
-3.000000000000001
 31
0.0
  0
LINE
  5
D0
330
1F
100
AcDbEntity
  8
0
  6
Continuous
 62
   131
370
    15
100
AcDbLine
 10
-44.58397459621557
 20
2.999999999999996
 30
0.0
 11
-44.58397459621557
 21
-3.000000000000001
 31
0.0
  0
LINE
  5
D1
330
1F
100
AcDbEntity
  8
0
  6
Continuous
 62
   131
370
    15
100
AcDbLine
 10
-45.13397459621557
 20
2.449999999999996
 30
0.0
 11
-45.13397459621557
 21
-2.449999999999998
 31
0.0
  0
SPLINE
  5
D2
330
1F
100
AcDbEntity
  8
0
  6
Continuous
 62
   131
370
    15
100
AcDbSpline
210
0.0
220
0.0
230
1.0
 70
     8
 71
     3
 72
     8
 73
     4
 74
     0
 42
0.000000001
 43
0.00000001
 40
0.0
 40
0.0
 40
0.0
 40
0.0
 40
1.0
 40
1.0
 40
1.0
 40
1.0
 10
4.866025403784432
 20
-1.421213024081267
 30
0.0
 10
4.569358466539729
 20
-1.280446868871803
 30
0.0
 10
4.26955536970916
 20
-1.129108384066111
 30
0.0
 10
3.975975509841261
 20
-0.9720145182158026
 30
0.0
  0
SPLINE
  5
D3
330
1F
100
AcDbEntity
  8
0
  6
Continuous
 62
   131
370
    15
100
AcDbSpline
210
0.0
220
0.0
230
1.0
 70
     8
 71
     3
 72
     8
 73
     4
 74
     0
 42
0.000000001
 43
0.00000001
 40
0.0
 40
0.0
 40
0.0
 40
0.0
 40
1.0
 40
1.0
 40
1.0
 40
1.0
 10
3.976000987703925
 20
-1.570347206907557
 30
0.0
 10
4.269572712472076
 20
-1.703017160443888
 30
0.0
 10
4.569367048457728
 20
-1.825542370170718
 30
0.0
 10
4.866025403784382
 20
-1.933966257117938
 30
0.0
  0
LINE
  5
D4
330
1F
100
AcDbEntity
  8
0
  6
Continuous
 62
   131
370
    15
100
AcDbLine
 10
3.976000987703928
 20
-2.499999999999998
 30
0.0
 11
3.976000987703925
 21
-1.56982855497184
 31
0.0
  0
LINE
  5
D5
330
1F
100
AcDbEntity
  8
0
  6
Continuous
 62
   131
370
    15
100
AcDbLine
 10
4.235949484878333
 20
1.676549041304915
 30
0.0
 11
4.866025403784425
 21
1.933966257117964
 31
0.0
  0
LINE
  5
D6
330
1F
100
AcDbEntity
  8
0
  6
Continuous
 62
   131
370
    15
100
AcDbLine
 10
3.976000987703928
 20
-0.9719158043936839
 30
0.0
 11
3.976000987703925
 21
2.500000000000002
 31
0.0
  0
SPLINE
  5
D7
330
1F
100
AcDbEntity
  8
0
  6
Continuous
 62
   131
370
    15
100
AcDbSpline
210
0.0
220
0.0
230
1.0
 70
    24
 71
     3
 72
     8
 73
     4
 74
     0
 42
0.000000001
 43
0.00000001
 40
0.0
 40
0.0
 40
0.0
 40
0.0
 40
1.0
 40
1.0
 40
1.0
 40
1.0
 10
4.866025403784432
 20
-1.100466029337039
 30
0.0
 10
4.866025403784432
 20
-1.200448648350619
 30
0.0
 10
4.866025403784432
 20
-1.308020699381211
 30
0.0
 10
4.866025403784432
 20
-1.421213024073096
 30
0.0
  0
SPLINE
  5
D8
330
1F
100
AcDbEntity
  8
0
  6
Continuous
 62
   131
370
    15
100
AcDbSpline
210
0.0
220
0.0
230
1.0
 70
     8
 71
     3
 72
     8
 73
     4
 74
     0
 42
0.000000001
 43
0.00000001
 40
0.0
 40
0.0
 40
0.0
 40
0.0
 40
1.0
 40
1.0
 40
1.0
 40
1.0
 10
4.866025403784425
 20
-1.100466029337036
 30
0.0
 10
4.569358466539722
 20
-0.9760490649759821
 30
0.0
 10
4.26955536970916
 20
-0.8433930114940887
 30
0.0
 10
3.975975509841261
 20
-0.7067096079355386
 30
0.0
  0
SPLINE
  5
D9
330
1F
100
AcDbEntity
  8
0
  6
Continuous
 62
   131
370
    15
100
AcDbSpline
210
0.0
220
0.0
230
1.0
 70
     8
 71
     3
 72
     8
 73
     4
 74
     0
 42
0.000000001
 43
0.00000001
 40
0.0
 40
0.0
 40
0.0
 40
0.0
 40
1.0
 40
1.0
 40
1.0
 40
1.0
 10
4.866025403784432
 20
1.202713069420385
 30
0.0
 10
4.569363910816362
 20
1.312078118384072
 30
0.0
 10
4.269566371772257
 20
1.413278650621066
 30
0.0
 10
3.975991672720117
 20
1.503250241767067
 30
0.0
  0
SPLINE
  5
DA
330
1F
100
AcDbEntity
  8
0
  6
Continuous
 62
   131
370
    15
100
AcDbSpline
210
0.0
220
0.0
230
1.0
 70
    24
 71
     3
 72
    10
 73
     6
 74
     0
 42
0.000000001
 43
0.00000001
 40
0.0
 40
0.0
 40
0.0
 40
0.0
 40
0.5
 40
0.5
 40
1.0
 40
1.0
 40
1.0
 40
1.0
 10
4.866025403784432
 20
1.202713069420385
 30
0.0
 10
4.866025403784432
 20
0.869882992127449
 30
0.0
 10
4.866025403784432
 20
0.4779115429231536
 30
0.0
 10
4.866025403784432
 20
-0.3271636804630959
 30
0.0
 10
4.866025403784432
 20
-0.736802096157599
 30
0.0
 10
4.866025403784432
 20
-1.100466029337038
 30
0.0
  0
SPLINE
  5
DB
330
1F
100
AcDbEntity
  8
0
  6
Continuous
 62
   131
370
    15
100
AcDbSpline
210
0.0
220
0.0
230
1.0
 70
    24
 71
     3
 72
    11
 73
     7
 74
     0
 42
0.000000001
 43
0.00000001
 40
0.0
 40
0.0
 40
0.0
 40
0.0
 40
0.1241834311185887
 40
0.4209412521432923
 40
0.7064187554224949
 40
0.9999999999999999
 40
0.9999999999999999
 40
0.9999999999999999
 40
0.9999999999999999
 10
4.866025403784429
 20
1.640001638268645
 30
0.0
 10
4.866025403784429
 20
1.642101324671341
 30
0.0
 10
4.866025403784429
 20
1.649218575463154
 30
0.0
 10
4.866025403784429
 20
1.578221071900916
 30
0.0
 10
4.866025403784429
 20
1.436481959338862
 30
0.0
 10
4.866025403784429
 20
1.281359661647181
 30
0.0
 10
4.866025403784429
 20
1.202713069420385
 30
0.0
  0
SPLINE
  5
DC
330
1F
100
AcDbEntity
  8
0
  6
Continuous
 62
   131
370
    15
100
AcDbSpline
210
0.0
220
0.0
230
1.0
 70
    24
 71
     3
 72
     9
 73
     5
 74
     0
 42
0.000000001
 43
0.00000001
 40
0.0
 40
0.0
 40
0.0
 40
0.0
 40
0.2255793359609236
 40
1.0
 40
1.0
 40
1.0
 40
1.0
 10
4.866025403784432
 20
1.933966257117966
 30
0.0
 10
4.866025403784429
 20
1.914225002310694
 30
0.0
 10
4.866025403784429
 20
1.82671142433522
 30
0.0
 10
4.866025403784429
 20
1.75356501651397
 30
0.0
 10
4.866025403784429
 20
1.696918926796964
 30
0.0
  0
LINE
  5
DD
330
1F
100
AcDbEntity
  8
중심선
 62
     1
100
AcDbLine
 10
-48.13397459621557
 20
-0.0000000000000028
 30
0.0
 11
37.86602540378443
 21
0.0000000000000061
 31
0.0
  0
CIRCLE
  5
DE
330
1F
100
AcDbEntity
  8
외형선
100
AcDbCircle
 10
0.0000000000000104
 20
0.0
 30
0.0
 40
3.000000000000005
  0
INSERT
  5
DF
330
1F
100
AcDbEntity
  8
0
  6
Continuous
 62
     7
100
AcDbBlockReference
 66
     1
  2
블럭10
 10
-22.93944368806589
 20
-52.04609937292004
 30
0.0
  0
ATTRIB
  5
E0
330
DF
100
AcDbEntity
  8
FORMAT
 62
     2
100
AcDbText
 10
-39.05870472750145
 20
-49.97073246008785
 30
0.0
 40
4.233333333333333
  1
SEME7005030E [ 2 FLUTE ]
 41
0.75
  7
SLDTEXTSTYLE0
 11
-39.05870472750145
 21
-52.08739912675452
 31
0.0
100
AcDbAttribute
  2
AUTOATTR0
 70
     0
 74
     1
  0
SEQEND
  5
E1
330
DF
100
AcDbEntity
  8
0
  6
Continuous
 62
     7
  0
HATCH
  5
E2
330
1F
100
AcDbEntity
  8
중심선
100
AcDbHatch
 10
0.0
 20
0.0
 30
0.0
210
0.0
220
0.0
230
1.0
  2
SOLID
 70
     1
 71
     0
 91
        1
 92
        0
 93
        4
 72
     1
 10
-17.22453438368504
 20
-35.7989250712761
 11
-20.67080962752232
 21
-35.7989250712761
 72
     1
 10
-20.67080962752232
 20
-35.7989250712761
 11
-22.79903948672635
 21
-38.3352506518487
 72
     1
 10
-22.79903948672635
 20
-38.3352506518487
 11
-19.35273115777591
 21
-38.33521122254621
 72
     1
 10
-19.35273115777591
 20
-38.33521122254621
 11
-17.22453438368504
 21
-35.7989250712761
 97
        0
 75
     0
 76
     1
 98
        1
 10
0.0
 20
0.0
  0
HATCH
  5
E3
330
1F
100
AcDbEntity
  8
중심선
100
AcDbHatch
 10
0.0
 20
0.0
 30
0.0
210
0.0
220
0.0
230
1.0
  2
SOLID
 70
     1
 71
     0
 91
        1
 92
        0
 93
        4
 72
     1
 10
-12.21177039264909
 20
-35.7989250712761
 11
-15.65804563648637
 21
-35.7989250712761
 72
     1
 10
-15.65804563648637
 20
-35.7989250712761
 11
-20.18918364484376
 21
-41.19892507127612
 72
     1
 10
-20.18918364484376
 20
-41.19892507127612
 11
-16.74290840100648
 21
-41.19892507127612
 72
     1
 10
-16.74290840100648
 20
-41.19892507127612
 11
-12.21177039264909
 21
-35.7989250712761
 97
        0
 75
     0
 76
     1
 98
        1
 10
0.0
 20
0.0
  0
HATCH
  5
E4
330
1F
100
AcDbEntity
  8
중심선
100
AcDbHatch
 10
0.0
 20
0.0
 30
0.0
210
0.0
220
0.0
230
1.0
  2
SOLID
 70
     1
 71
     0
 91
        1
 92
        0
 93
        4
 72
     1
 10
-7.199006401613195
 20
-35.79892507127613
 11
-10.64528164545031
 21
-35.7989250712761
 72
     1
 10
-10.64528164545031
 20
-35.7989250712761
 11
-17.69371854733956
 21
-44.19892507127612
 72
     1
 10
-17.69371854733956
 20
-44.19892507127612
 11
-14.24744330350228
 21
-44.19892507127612
 72
     1
 10
-14.24744330350228
 20
-44.19892507127612
 11
-7.199006401613195
 21
-35.79892507127613
 97
        0
 75
     0
 76
     1
 98
        1
 10
0.0
 20
0.0
  0
HATCH
  5
E5
330
1F
100
AcDbEntity
  8
중심선
100
AcDbHatch
 10
0.0
 20
0.0
 30
0.0
210
0.0
220
0.0
230
1.0
  2
SOLID
 70
     1
 71
     0
 91
        1
 92
        0
 93
        6
 72
     3
 10
-2.399115970600996
 20
-39.99892507132738
 11
3.960054785062284
 21
1.540850780301639E-10
 40
0.3939339440162633
 50
17.09539180608433
 51
320.0019657685079
 73
     0
 72
     1
 10
-0.7161163149004002
 20
-38.58681907591441
 11
1.589185558800638
 21
-36.65249236586649
 72
     3
 10
-2.399115970653842
 20
-39.99892507127625
 11
6.600054785286829
 21
-1.249000902703301E-13
 40
0.6363583540795982
 50
39.99873849337408
 51
368.4976242363725
 73
     1
 72
     1
 10
4.026216521246767
 20
-39.03892507120613
 11
-3.71904866381792
 21
-39.0389250712061
 72
     1
 10
-3.71904866381792
 20
-39.0389250712061
 11
-3.719073708263854
 21
-40.95892507120602
 72
     1
 10
-3.719073708263854
 20
-40.95892507120602
 11
0.7223060612081831
 21
-40.95892507120599
 97
        0
 75
     0
 76
     1
 98
        1
 10
0.0
 20
0.0
  0
DIMENSION
  5
E6
330
1F
100
AcDbEntity
  8
치수문자_일반주서
100
AcDbDimension
  2
_D
 10
42.80239302868857
 20
2.50000000000014
 30
0.0
 11
42.80239302868854
 21
12.16650000000014
 31
0.0
 70
   160
  1
%%c<>
 71
     2
 42
4.999999999999998
 52
-270.0
  3
SLDDIMSTYLE0
100
AcDbAlignedDimension
 13
34.86602540378432
 23
-2.499999999999886
 33
0.0
 14
34.86602540378428
 24
2.500000000000112
 34
0.0
 50
90.0000000000002
100
AcDbRotatedDimension
  0
DIMENSION
  5
F4
330
1F
100
AcDbEntity
  8
치수문자_일반주서
100
AcDbDimension
  2
_D_1
 10
34.86602540378428
 20
24.23841044024269
 30
0.0
 11
-5.133974596215634
 21
24.23841044024269
 31
0.0
 70
   160
  1
<>
 71
     2
 42
79.99999999999984
  3
SLDDIMSTYLE1
100
AcDbAlignedDimension
 13
-45.13397459621557
 23
2.449999999999996
 33
0.0
 14
34.86602540378428
 24
2.500000000000112
 34
0.0
 50
-0.0000000000000051
100
AcDbRotatedDimension
  0
DIMENSION
  5
FF
330
1F
100
AcDbEntity
  8
치수문자_일반주서
100
AcDbDimension
  2
_D_2
 10
34.86602540378428
 20
15.28096406328549
 30
0.0
 11
19.86602540378443
 21
15.28096406328549
 31
0.0
 70
   160
  1
<>
 71
     2
 42
29.99999999999984
  3
SLDDIMSTYLE1
100
AcDbAlignedDimension
 13
4.866025403784432
 23
1.933966257117966
 33
0.0
 14
34.86602540378428
 24
2.500000000000112
 34
0.0
 50
-0.0000000000000102
100
AcDbRotatedDimension
  0
DIMENSION
  5
109
330
1F
100
AcDbEntity
  8
치수문자_일반주서
100
AcDbDimension
  2
_D_3
 10
-53.84764599718092
 20
-3.000000000000034
 30
0.0
 11
-53.84764599718098
 21
12.66649999999996
 31
0.0
 70
   160
  1
%%c<>
 71
     2
 42
5.999999999999995
 52
-270.0
  3
SLDDIMSTYLE0
100
AcDbAlignedDimension
 13
-44.58397459621557
 23
2.999999999999996
 33
0.0
 14
-44.58397459621557
 24
-2.999999999999998
 34
0.0
 50
90.0000000000002
100
AcDbRotatedDimension
  0
INSERT
  5
11C
330
1F
100
AcDbEntity
  8
외형선
100
AcDbBlockReference
  2
SW_DOWELSYMBOL_0
 10
0.0000000000000104
 20
0.0
 30
0.0
  0
ENDSEC
  0
SECTION
  2
OBJECTS
  0
DICTIONARY
  5
C
330
0
100
AcDbDictionary
281
     1
  3
ACAD_GROUP
350
D
  3
ACAD_IMAGE_VARS
350
140
  3
ACAD_LAYOUT
350
1A
  3
ACAD_MLINESTYLE
350
17
  3
ACAD_PLOTSETTINGS
350
19
  3
ACAD_PLOTSTYLENAME
350
E
  3
ACAD_SCALELIST
350
47
  3
APPDATA
350
13E
  3
DWGPROPS
350
14E
  0
DICTIONARY
  5
D
102
{ACAD_REACTORS
330
C
102
}
330
C
100
AcDbDictionary
281
     1
  0
RASTERVARIABLES
  5
140
102
{ACAD_REACTORS
330
C
102
}
330
C
100
AcDbRasterVariables
 90
        0
 70
     1
 71
     1
 72
     1
  0
DICTIONARY
  5
1A
102
{ACAD_REACTORS
330
C
102
}
330
C
100
AcDbDictionary
281
     1
  3
Layout1
350
1E
  3
Layout2
350
26
  3
Model
350
22
  0
DICTIONARY
  5
17
102
{ACAD_REACTORS
330
C
102
}
330
C
100
AcDbDictionary
281
     1
  3
Standard
350
18
  0
DICTIONARY
  5
19
102
{ACAD_REACTORS
330
C
102
}
330
C
100
AcDbDictionary
281
     1
  0
ACDBDICTIONARYWDFLT
  5
E
102
{ACAD_REACTORS
330
C
102
}
330
C
100
AcDbDictionary
281
     1
  3
Normal
350
F
100
AcDbDictionaryWithDefault
340
F
  0
DICTIONARY
  5
47
102
{ACAD_REACTORS
330
C
102
}
330
C
100
AcDbDictionary
281
     1
  3
A0
350
48
  3
A1
350
49
  3
A2
350
4A
  3
A3
350
4B
  3
A4
350
4C
  3
A5
350
4D
  3
A6
350
4E
  3
A7
350
4F
  3
A8
350
50
  3
A9
350
51
  3
B0
350
52
  3
B1
350
53
  3
B2
350
54
  3
B3
350
55
  3
B4
350
56
  3
B5
350
57
  3
B6
350
58
  3
B7
350
59
  3
B8
350
5A
  3
B9
350
5B
  3
C0
350
5C
  3
C1
350
5D
  3
C2
350
5E
  3
C3
350
5F
  3
C4
350
60
  3
C5
350
61
  3
C6
350
62
  3
C7
350
63
  3
C8
350
64
  3
C9
350
65
  3
D0
350
66
  3
D1
350
67
  3
D2
350
68
  0
DICTIONARY
  5
13E
102
{ACAD_REACTORS
330
C
102
}
330
C
100
AcDbDictionary
281
     1
  0
XRECORD
  5
14E
102
{ACAD_REACTORS
330
C
102
}
330
C
100
AcDbXrecord
280
     1
  1
DWGPROPS COOKIE
  2

  3

  4

  6

  7

  8
12014102
  9

300
=
301
=
302
=
303
=
304
=
305
=
306
=
307
=
308
=
309
=
 40
0.0
 41
2458262.165227697
 42
2458266.016647789
  1

 90
        0
  0
LAYOUT
  5
1E
102
{ACAD_REACTORS
330
1A
102
}
330
1A
100
AcDbPlotSettings
  1

  2
none_device
  4

  6

 40
0.0
 41
0.0
 42
0.0
 43
0.0
 44
0.0
 45
0.0
 46
0.0
 47
0.0
 48
0.0
 49
0.0
140
0.0
141
0.0
142
1.0
143
1.0
 70
   688
 72
     1
 73
     0
 74
     5
  7

 75
    16
147
1.0
148
0.0
149
0.0
100
AcDbLayout
  1
Layout1
 70
     1
 71
     1
 10
0.0
 20
0.0
 11
420.0
 21
297.0
 12
0.0
 22
0.0
 32
0.0
 14
1.000000000000000E+20
 24
1.000000000000000E+20
 34
1.000000000000000E+20
 15
-1.000000000000000E+20
 25
-1.000000000000000E+20
 35
-1.000000000000000E+20
146
0.0
 13
0.0
 23
0.0
 33
0.0
 16
1.0
 26
0.0
 36
0.0
 17
0.0
 27
1.0
 37
0.0
 76
     0
330
1B
  0
LAYOUT
  5
26
102
{ACAD_REACTORS
330
1A
102
}
330
1A
100
AcDbPlotSettings
  1

  2
none_device
  4

  6

 40
0.0
 41
0.0
 42
0.0
 43
0.0
 44
0.0
 45
0.0
 46
0.0
 47
0.0
 48
0.0
 49
0.0
140
0.0
141
0.0
142
1.0
143
1.0
 70
   688
 72
     1
 73
     0
 74
     5
  7

 75
    16
147
1.0
148
0.0
149
0.0
100
AcDbLayout
  1
Layout2
 70
     1
 71
     2
 10
0.0
 20
0.0
 11
0.0
 21
0.0
 12
0.0
 22
0.0
 32
0.0
 14
0.0
 24
0.0
 34
0.0
 15
0.0
 25
0.0
 35
0.0
146
0.0
 13
0.0
 23
0.0
 33
0.0
 16
1.0
 26
0.0
 36
0.0
 17
0.0
 27
1.0
 37
0.0
 76
     0
330
23
  0
LAYOUT
  5
22
102
{ACAD_REACTORS
330
1A
102
}
330
1A
100
AcDbPlotSettings
  1

  2
none_device
  4
ANSI_A_(11.00_x_8.50_Inches)
  6

 40
6.35
 41
19.05
 42
6.35000508
 43
19.05000254
 44
279.4
 45
215.9
 46
142.1106378172249
 47
118.4377884955873
 48
0.0
 49
0.0
140
0.0
141
0.0
142
0.1058944507156154
143
1.0
 70
  1696
 72
     0
 73
     0
 74
     0
  7

 75
     0
147
0.0235690232323232
148
0.0
149
0.0
100
AcDbLayout
  1
Model
 70
     1
 71
     0
 10
0.0
 20
0.0
 11
420.0
 21
297.0
 12
0.0
 22
0.0
 32
0.0
 14
-58.22264599718098
 24
-49.97073246008785
 34
0.0
 15
43.35272636202192
 25
28.61341044024269
 35
0.0
146
0.0
 13
0.0
 23
0.0
 33
0.0
 16
1.0
 26
0.0
 36
0.0
 17
0.0
 27
1.0
 37
0.0
 76
     0
330
1F
331
29
  0
MLINESTYLE
  5
18
102
{ACAD_REACTORS
330
17
102
}
330
17
100
AcDbMlineStyle
  2
Standard
 70
     0
  3

 62
   256
 51
90.0
 52
90.0
 71
     2
 49
0.5
 62
   256
  6
BYLAYER
 49
-0.5
 62
   256
  6
BYLAYER
  0
ACDBPLACEHOLDER
  5
F
102
{ACAD_REACTORS
330
E
102
}
330
E
  0
SCALE
  5
48
102
{ACAD_REACTORS
330
47
102
}
330
47
100
AcDbScale
 70
     0
300
1:1
140
1.0
141
1.0
290
     1
  0
SCALE
  5
49
102
{ACAD_REACTORS
330
47
102
}
330
47
100
AcDbScale
 70
     0
300
1:2
140
1.0
141
2.0
290
     0
  0
SCALE
  5
4A
102
{ACAD_REACTORS
330
47
102
}
330
47
100
AcDbScale
 70
     0
300
1:4
140
1.0
141
4.0
290
     0
  0
SCALE
  5
4B
102
{ACAD_REACTORS
330
47
102
}
330
47
100
AcDbScale
 70
     0
300
1:5
140
1.0
141
5.0
290
     0
  0
SCALE
  5
4C
102
{ACAD_REACTORS
330
47
102
}
330
47
100
AcDbScale
 70
     0
300
1:8
140
1.0
141
8.0
290
     0
  0
SCALE
  5
4D
102
{ACAD_REACTORS
330
47
102
}
330
47
100
AcDbScale
 70
     0
300
1:10
140
1.0
141
10.0
290
     0
  0
SCALE
  5
4E
102
{ACAD_REACTORS
330
47
102
}
330
47
100
AcDbScale
 70
     0
300
1:16
140
1.0
141
16.0
290
     0
  0
SCALE
  5
4F
102
{ACAD_REACTORS
330
47
102
}
330
47
100
AcDbScale
 70
     0
300
1:20
140
1.0
141
20.0
290
     0
  0
SCALE
  5
50
102
{ACAD_REACTORS
330
47
102
}
330
47
100
AcDbScale
 70
     0
300
1:30
140
1.0
141
30.0
290
     0
  0
SCALE
  5
51
102
{ACAD_REACTORS
330
47
102
}
330
47
100
AcDbScale
 70
     0
300
1:40
140
1.0
141
40.0
290
     0
  0
SCALE
  5
52
102
{ACAD_REACTORS
330
47
102
}
330
47
100
AcDbScale
 70
     0
300
1:50
140
1.0
141
50.0
290
     0
  0
SCALE
  5
53
102
{ACAD_REACTORS
330
47
102
}
330
47
100
AcDbScale
 70
     0
300
1:100
140
1.0
141
100.0
290
     0
  0
SCALE
  5
54
102
{ACAD_REACTORS
330
47
102
}
330
47
100
AcDbScale
 70
     0
300
2:1
140
2.0
141
1.0
290
     0
  0
SCALE
  5
55
102
{ACAD_REACTORS
330
47
102
}
330
47
100
AcDbScale
 70
     0
300
4:1
140
4.0
141
1.0
290
     0
  0
SCALE
  5
56
102
{ACAD_REACTORS
330
47
102
}
330
47
100
AcDbScale
 70
     0
300
8:1
140
8.0
141
1.0
290
     0
  0
SCALE
  5
57
102
{ACAD_REACTORS
330
47
102
}
330
47
100
AcDbScale
 70
     0
300
10:1
140
10.0
141
1.0
290
     0
  0
SCALE
  5
58
102
{ACAD_REACTORS
330
47
102
}
330
47
100
AcDbScale
 70
     0
300
100:1
140
100.0
141
1.0
290
     0
  0
SCALE
  5
59
102
{ACAD_REACTORS
330
47
102
}
330
47
100
AcDbScale
 70
     0
300
1/128" = 1'-0"
140
0.0078125
141
12.0
290
     0
  0
SCALE
  5
5A
102
{ACAD_REACTORS
330
47
102
}
330
47
100
AcDbScale
 70
     0
300
1/64" = 1'-0"
140
0.015625
141
12.0
290
     0
  0
SCALE
  5
5B
102
{ACAD_REACTORS
330
47
102
}
330
47
100
AcDbScale
 70
     0
300
1/32" = 1'-0"
140
0.03125
141
12.0
290
     0
  0
SCALE
  5
5C
102
{ACAD_REACTORS
330
47
102
}
330
47
100
AcDbScale
 70
     0
300
1/16" = 1'-0"
140
0.0625
141
12.0
290
     0
  0
SCALE
  5
5D
102
{ACAD_REACTORS
330
47
102
}
330
47
100
AcDbScale
 70
     0
300
3/32" = 1'-0"
140
0.09375
141
12.0
290
     0
  0
SCALE
  5
5E
102
{ACAD_REACTORS
330
47
102
}
330
47
100
AcDbScale
 70
     0
300
1/8" = 1'-0"
140
0.125
141
12.0
290
     0
  0
SCALE
  5
5F
102
{ACAD_REACTORS
330
47
102
}
330
47
100
AcDbScale
 70
     0
300
3/16" = 1'-0"
140
0.1875
141
12.0
290
     0
  0
SCALE
  5
60
102
{ACAD_REACTORS
330
47
102
}
330
47
100
AcDbScale
 70
     0
300
1/4" = 1'-0"
140
0.25
141
12.0
290
     0
  0
SCALE
  5
61
102
{ACAD_REACTORS
330
47
102
}
330
47
100
AcDbScale
 70
     0
300
3/8" = 1'-0"
140
0.375
141
12.0
290
     0
  0
SCALE
  5
62
102
{ACAD_REACTORS
330
47
102
}
330
47
100
AcDbScale
 70
     0
300
1/2" = 1'-0"
140
0.5
141
12.0
290
     0
  0
SCALE
  5
63
102
{ACAD_REACTORS
330
47
102
}
330
47
100
AcDbScale
 70
     0
300
3/4" = 1'-0"
140
0.75
141
12.0
290
     0
  0
SCALE
  5
64
102
{ACAD_REACTORS
330
47
102
}
330
47
100
AcDbScale
 70
     0
300
1" = 1'-0"
140
1.0
141
12.0
290
     0
  0
SCALE
  5
65
102
{ACAD_REACTORS
330
47
102
}
330
47
100
AcDbScale
 70
     0
300
1-1/2" = 1'-0"
140
1.5
141
12.0
290
     0
  0
SCALE
  5
66
102
{ACAD_REACTORS
330
47
102
}
330
47
100
AcDbScale
 70
     0
300
3" = 1'-0"
140
3.0
141
12.0
290
     0
  0
SCALE
  5
67
102
{ACAD_REACTORS
330
47
102
}
330
47
100
AcDbScale
 70
     0
300
6" = 1'-0"
140
6.0
141
12.0
290
     0
  0
SCALE
  5
68
102
{ACAD_REACTORS
330
47
102
}
330
47
100
AcDbScale
 70
     0
300
1'-0" = 1'-0"
140
12.0
141
12.0
290
     0
  0
ENDSEC
  0
EOF
