  0
SECTION
  2
HEADER
  9
$ACADVER
  1
AC1015
  9
$ACADMAINTVER
 70
     6
  9
$DWGCODEPAGE
  3
ANSI_949
  9
$INSBASE
 10
0.0
 20
0.0
 30
0.0
  9
$EXTMIN
 10
-65.51461305272585
 20
-49.97073246008785
 30
0.0
  9
$EXTMAX
 10
50.54848613666773
 20
28.61341044024268
 30
0.0
  9
$LIMMIN
 10
0.0
 20
0.0
  9
$LIMMAX
 10
420.0
 20
297.0
  9
$ORTHOMODE
 70
     0
  9
$REGENMODE
 70
     1
  9
$FILLMODE
 70
     1
  9
$QTEXTMODE
 70
     0
  9
$MIRRTEXT
 70
     1
  9
$LTSCALE
 40
1.0
  9
$ATTMODE
 70
     1
  9
$TEXTSIZE
 40
3.5
  9
$TRACEWID
 40
1.0
  9
$TEXTSTYLE
  7
Standard
  9
$CLAYER
  8
0
  9
$CELTYPE
  6
ByLayer
  9
$CECOLOR
 62
   256
  9
$CELTSCALE
 40
1.0
  9
$DISPSILH
 70
     0
  9
$DIMSCALE
 40
1.0
  9
$DIMASZ
 40
3.302
  9
$DIMEXO
 40
1.0
  9
$DIMDLI
 40
3.75
  9
$DIMRND
 40
0.0
  9
$DIMDLE
 40
0.0
  9
$DIMEXE
 40
1.0
  9
$DIMTP
 40
0.0
  9
$DIMTM
 40
0.0
  9
$DIMTXT
 40
3.5
  9
$DIMCEN
 40
2.5
  9
$DIMTSZ
 40
0.0
  9
$DIMTOL
 70
     0
  9
$DIMLIM
 70
     0
  9
$DIMTIH
 70
     1
  9
$DIMTOH
 70
     1
  9
$DIMSE1
 70
     0
  9
$DIMSE2
 70
     0
  9
$DIMTAD
 70
     1
  9
$DIMZIN
 70
     0
  9
$DIMBLK
  1

  9
$DIMASO
 70
     1
  9
$DIMSHO
 70
     1
  9
$DIMPOST
  1

  9
$DIMAPOST
  1

  9
$DIMALT
 70
     0
  9
$DIMALTD
 70
     3
  9
$DIMALTF
 40
0.0393700787401575
  9
$DIMLFAC
 40
1.0
  9
$DIMTOFL
 70
     1
  9
$DIMTVP
 40
0.0
  9
$DIMTIX
 70
     0
  9
$DIMSOXD
 70
     0
  9
$DIMSAH
 70
     0
  9
$DIMBLK1
  1

  9
$DIMBLK2
  1

  9
$DIMSTYLE
  2
ISO-25
  9
$DIMCLRD
 70
     0
  9
$DIMCLRE
 70
     0
  9
$DIMCLRT
 70
     0
  9
$DIMTFAC
 40
1.0
  9
$DIMGAP
 40
1.524
  9
$DIMJUST
 70
     0
  9
$DIMSD1
 70
     0
  9
$DIMSD2
 70
     0
  9
$DIMTOLJ
 70
     0
  9
$DIMTZIN
 70
     0
  9
$DIMALTZ
 70
     0
  9
$DIMALTTZ
 70
     0
  9
$DIMUPT
 70
     0
  9
$DIMDEC
 70
     2
  9
$DIMTDEC
 70
     2
  9
$DIMALTU
 70
     2
  9
$DIMALTTD
 70
     3
  9
$DIMTXSTY
  7
Standard
  9
$DIMAUNIT
 70
     0
  9
$DIMADEC
 70
     2
  9
$DIMALTRND
 40
0.0
  9
$DIMAZIN
 70
     0
  9
$DIMDSEP
 70
    44
  9
$DIMATFIT
 70
     3
  9
$DIMFRAC
 70
     0
  9
$DIMLDRBLK
  1

  9
$DIMLUNIT
 70
     2
  9
$DIMLWD
 70
    -2
  9
$DIMLWE
 70
    -2
  9
$DIMTMOVE
 70
     0
  9
$LUNITS
 70
     2
  9
$LUPREC
 70
     2
  9
$SKETCHINC
 40
1.0
  9
$FILLETRAD
 40
10.0
  9
$AUNITS
 70
     0
  9
$AUPREC
 70
     2
  9
$MENU
  1
.
  9
$ELEVATION
 40
0.0
  9
$PELEVATION
 40
0.0
  9
$THICKNESS
 40
0.0
  9
$LIMCHECK
 70
     0
  9
$CHAMFERA
 40
0.0
  9
$CHAMFERB
 40
0.0
  9
$CHAMFERC
 40
0.0
  9
$CHAMFERD
 40
0.0
  9
$SKPOLY
 70
     0
  9
$TDCREATE
 40
2458262.540415613
  9
$TDUCREATE
 40
2458262.165415613
  9
$TDUPDATE
 40
2458266.393638669
  9
$TDUUPDATE
 40
2458266.018638669
  9
$TDINDWG
 40
0.0018807523
  9
$TDUSRTIMER
 40
2458266.016757952
  9
$USRTIMER
 70
     1
  9
$ANGBASE
 50
0.0
  9
$ANGDIR
 70
     0
  9
$PDMODE
 70
     0
  9
$PDSIZE
 40
-1.0
  9
$PLINEWID
 40
0.0
  9
$SPLFRAME
 70
     0
  9
$SPLINETYPE
 70
     6
  9
$SPLINESEGS
 70
     8
  9
$HANDSEED
  5
159
  9
$SURFTAB1
 70
     6
  9
$SURFTAB2
 70
     6
  9
$SURFTYPE
 70
     6
  9
$SURFU
 70
     6
  9
$SURFV
 70
     6
  9
$UCSBASE
  2

  9
$UCSNAME
  2

  9
$UCSORG
 10
0.0
 20
0.0
 30
0.0
  9
$UCSXDIR
 10
1.0
 20
0.0
 30
0.0
  9
$UCSYDIR
 10
0.0
 20
1.0
 30
0.0
  9
$UCSORTHOREF
  2

  9
$UCSORTHOVIEW
 70
     0
  9
$UCSORGTOP
 10
0.0
 20
0.0
 30
0.0
  9
$UCSORGBOTTOM
 10
0.0
 20
0.0
 30
0.0
  9
$UCSORGLEFT
 10
0.0
 20
0.0
 30
0.0
  9
$UCSORGRIGHT
 10
0.0
 20
0.0
 30
0.0
  9
$UCSORGFRONT
 10
0.0
 20
0.0
 30
0.0
  9
$UCSORGBACK
 10
0.0
 20
0.0
 30
0.0
  9
$PUCSBASE
  2

  9
$PUCSNAME
  2

  9
$PUCSORG
 10
0.0
 20
0.0
 30
0.0
  9
$PUCSXDIR
 10
1.0
 20
0.0
 30
0.0
  9
$PUCSYDIR
 10
0.0
 20
1.0
 30
0.0
  9
$PUCSORTHOREF
  2

  9
$PUCSORTHOVIEW
 70
     0
  9
$PUCSORGTOP
 10
0.0
 20
0.0
 30
0.0
  9
$PUCSORGBOTTOM
 10
0.0
 20
0.0
 30
0.0
  9
$PUCSORGLEFT
 10
0.0
 20
0.0
 30
0.0
  9
$PUCSORGRIGHT
 10
0.0
 20
0.0
 30
0.0
  9
$PUCSORGFRONT
 10
0.0
 20
0.0
 30
0.0
  9
$PUCSORGBACK
 10
0.0
 20
0.0
 30
0.0
  9
$USERI1
 70
     0
  9
$USERI2
 70
     0
  9
$USERI3
 70
     0
  9
$USERI4
 70
     0
  9
$USERI5
 70
     0
  9
$USERR1
 40
0.0
  9
$USERR2
 40
0.0
  9
$USERR3
 40
0.0
  9
$USERR4
 40
0.0
  9
$USERR5
 40
0.0
  9
$WORLDVIEW
 70
     1
  9
$SHADEDGE
 70
     3
  9
$SHADEDIF
 70
    70
  9
$TILEMODE
 70
     1
  9
$MAXACTVP
 70
    64
  9
$PINSBASE
 10
0.0
 20
0.0
 30
0.0
  9
$PLIMCHECK
 70
     0
  9
$PEXTMIN
 10
1.000000000000000E+20
 20
1.000000000000000E+20
 30
1.000000000000000E+20
  9
$PEXTMAX
 10
-1.000000000000000E+20
 20
-1.000000000000000E+20
 30
-1.000000000000000E+20
  9
$PLIMMIN
 10
0.0
 20
0.0
  9
$PLIMMAX
 10
0.0
 20
0.0
  9
$UNITMODE
 70
     0
  9
$VISRETAIN
 70
     1
  9
$PLINEGEN
 70
     0
  9
$PSLTSCALE
 70
     1
  9
$TREEDEPTH
 70
  3020
  9
$CMLSTYLE
  2
Standard
  9
$CMLJUST
 70
     0
  9
$CMLSCALE
 40
20.0
  9
$PROXYGRAPHICS
 70
     1
  9
$MEASUREMENT
 70
     1
  9
$CELWEIGHT
370
    -1
  9
$ENDCAPS
280
     0
  9
$JOINSTYLE
280
     0
  9
$LWDISPLAY
290
     1
  9
$INSUNITS
 70
     4
  9
$HYPERLINKBASE
  1

  9
$STYLESHEET
  1

  9
$XEDIT
290
     1
  9
$CEPSNTYPE
380
     0
  9
$PSTYLEMODE
290
     1
  9
$FINGERPRINTGUID
  2
{D9B556C0-3ECF-4C60-8DEE-112F838D1693}
  9
$VERSIONGUID
  2
{FAEB1C32-E019-11D5-929B-00C0DF256EC4}
  9
$EXTNAMES
290
     1
  9
$PSVPSCALE
 40
0.0
  9
$OLESTARTUP
290
     0
  0
ENDSEC
  0
SECTION
  2
CLASSES
  0
CLASS
  1
ACDBDICTIONARYWDFLT
  2
AcDbDictionaryWithDefault
  3
ObjectDBX Classes
 90
        0
280
     0
281
     0
  0
CLASS
  1
VISUALSTYLE
  2
AcDbVisualStyle
  3
ObjectDBX Classes
 90
     4095
280
     0
281
     0
  0
CLASS
  1
MATERIAL
  2
AcDbMaterial
  3
ObjectDBX Classes
 90
     1153
280
     0
281
     0
  0
CLASS
  1
SCALE
  2
AcDbScale
  3
ObjectDBX Classes
 90
     1153
280
     0
281
     0
  0
CLASS
  1
SUN
  2
AcDbSun
  3
SCENEOE
 90
     1153
280
     0
281
     0
  0
CLASS
  1
ACDBPLACEHOLDER
  2
AcDbPlaceHolder
  3
ObjectDBX Classes
 90
        0
280
     0
281
     0
  0
CLASS
  1
LAYOUT
  2
AcDbLayout
  3
ObjectDBX Classes
 90
        0
280
     0
281
     0
  0
CLASS
  1
TABLESTYLE
  2
AcDbTableStyle
  3
ObjectDBX Classes
 90
     4095
280
     0
281
     0
  0
CLASS
  1
MLEADERSTYLE
  2
AcDbMLeaderStyle
  3
ACDB_MLEADERSTYLE_CLASS
 90
     4095
280
     0
281
     0
  0
CLASS
  1
RASTERVARIABLES
  2
AcDbRasterVariables
  3
ISM
 90
        0
280
     0
281
     0
  0
ENDSEC
  0
SECTION
  2
TABLES
  0
TABLE
  2
VPORT
  5
8
330
0
100
AcDbSymbolTable
 70
     1
  0
VPORT
  5
29
330
8
100
AcDbSymbolTableRecord
100
AcDbViewportTableRecord
  2
*Active
 70
     0
 10
0.0
 20
0.0
 11
1.0
 21
1.0
 12
-7.483063458029051
 22
-10.67866100992259
 13
0.0
 23
0.0
 14
10.0
 24
10.0
 15
10.0
 25
10.0
 16
0.0
 26
0.0
 36
1.0
 17
0.0
 27
0.0
 37
0.0
 40
102.7236497175364
 41
1.152454780361757
 42
50.0
 43
0.0
 44
0.0
 50
0.0
 51
0.0
 71
    16
 72
  2000
 73
     1
 74
     3
 75
     0
 76
     0
 77
     0
 78
     0
281
     0
 65
     1
110
0.0
120
0.0
130
0.0
111
1.0
121
0.0
131
0.0
112
0.0
122
1.0
132
0.0
 79
     0
146
0.0
  0
ENDTAB
  0
TABLE
  2
LTYPE
  5
5
330
0
100
AcDbSymbolTable
 70
     6
  0
LTYPE
  5
14
330
5
100
AcDbSymbolTableRecord
100
AcDbLinetypeTableRecord
  2
ByBlock
 70
     0
  3

 72
    65
 73
     0
 40
0.0
  0
LTYPE
  5
15
330
5
100
AcDbSymbolTableRecord
100
AcDbLinetypeTableRecord
  2
ByLayer
 70
     0
  3

 72
    65
 73
     0
 40
0.0
  0
LTYPE
  5
16
330
5
100
AcDbSymbolTableRecord
100
AcDbLinetypeTableRecord
  2
Continuous
 70
     0
  3
Solid line
 72
    65
 73
     0
 40
0.0
  0
LTYPE
  5
6A
330
5
100
AcDbSymbolTableRecord
100
AcDbLinetypeTableRecord
  2
HIDDEN
 70
     0
  3
Hidden __ __ __ __ __ __ __ __ __ __ __ __ __ __
 72
    65
 73
     2
 40
1.905
 49
1.27
 74
     0
 49
-0.635
 74
     0
  0
LTYPE
  5
6B
330
5
100
AcDbSymbolTableRecord
100
AcDbLinetypeTableRecord
  2
PHANTOM
 70
     0
  3
Phantom ______  __  __  ______  __  __  ______
 72
    65
 73
     6
 40
12.7
 49
6.35
 74
     0
 49
-1.27
 74
     0
 49
1.27
 74
     0
 49
-1.27
 74
     0
 49
1.27
 74
     0
 49
-1.27
 74
     0
  0
LTYPE
  5
6C
330
5
100
AcDbSymbolTableRecord
100
AcDbLinetypeTableRecord
  2
CENTER
 70
     0
  3
Center ____ _ ____ _ ____ _ ____ _ ____ _ ____
 72
    65
 73
     4
 40
10.16
 49
6.35
 74
     0
 49
-1.27
 74
     0
 49
1.27
 74
     0
 49
-1.27
 74
     0
  0
LTYPE
  5
6D
330
5
100
AcDbSymbolTableRecord
100
AcDbLinetypeTableRecord
  2
CENTERX2
 70
     0
  3
Center (2x) ________  __  ________  __  _____
 72
    65
 73
     4
 40
20.32
 49
12.7
 74
     0
 49
-2.54
 74
     0
 49
2.54
 74
     0
 49
-2.54
 74
     0
  0
LTYPE
  5
6E
330
5
100
AcDbSymbolTableRecord
100
AcDbLinetypeTableRecord
  2
DOT2
 70
     0
  3
Dot (.5x) ........................................
 72
    65
 73
     2
 40
0.635
 49
0.0
 74
     0
 49
-0.635
 74
     0
  0
ENDTAB
  0
TABLE
  2
LAYER
  5
2
330
0
100
AcDbSymbolTable
 70
    17
  0
LAYER
  5
10
330
2
100
AcDbSymbolTableRecord
100
AcDbLayerTableRecord
  2
0
 70
     0
 62
     7
  6
Continuous
370
    -3
390
F
  0
LAYER
  5
6F
330
2
100
AcDbSymbolTableRecord
100
AcDbLayerTableRecord
  2
FORMAT
 70
     0
 62
     2
  6
Continuous
370
    -3
390
F
  0
LAYER
  5
70
330
2
100
AcDbSymbolTableRecord
100
AcDbLayerTableRecord
  2
외형선
 70
     0
 62
   100
  6
Continuous
370
    30
390
F
  0
LAYER
  5
71
330
2
100
AcDbSymbolTableRecord
100
AcDbLayerTableRecord
  2
숨은선
 70
     0
 62
     2
  6
HIDDEN
370
    15
390
F
  0
LAYER
  5
72
330
2
100
AcDbSymbolTableRecord
100
AcDbLayerTableRecord
  2
중심선
 70
     0
 62
     1
  6
CENTERX2
370
    -3
390
F
  0
LAYER
  5
73
330
2
100
AcDbSymbolTableRecord
100
AcDbLayerTableRecord
  2
파단선
 70
     0
 62
     4
  6
Continuous
370
    -3
390
F
  0
LAYER
  5
74
330
2
100
AcDbSymbolTableRecord
100
AcDbLayerTableRecord
  2
해칭선
 70
     0
 62
     4
  6
Continuous
370
    -3
390
F
  0
LAYER
  5
75
330
2
100
AcDbSymbolTableRecord
100
AcDbLayerTableRecord
  2
가는실선
 70
     0
 62
     4
  6
Continuous
370
    -3
390
F
  0
LAYER
  5
76
330
2
100
AcDbSymbolTableRecord
100
AcDbLayerTableRecord
  2
치수_보조선
 70
     0
 62
     4
  6
Continuous
370
    -3
390
F
  0
LAYER
  5
77
330
2
100
AcDbSymbolTableRecord
100
AcDbLayerTableRecord
  2
치수문자_일반주서
 70
     0
 62
     7
  6
Continuous
370
    15
390
F
  0
LAYER
  5
78
330
2
100
AcDbSymbolTableRecord
100
AcDbLayerTableRecord
  2
개별주서
 70
     0
 62
   100
  6
Continuous
370
    30
390
F
  0
LAYER
  5
79
330
2
100
AcDbSymbolTableRecord
100
AcDbLayerTableRecord
  2
중간선
 70
     0
 62
     2
  6
Continuous
370
    15
390
F
  0
LAYER
  5
7A
330
2
100
AcDbSymbolTableRecord
100
AcDbLayerTableRecord
  2
윤곽선
 70
     0
 62
     3
  6
Continuous
370
    40
390
F
  0
LAYER
  5
7B
330
2
100
AcDbSymbolTableRecord
100
AcDbLayerTableRecord
  2
중심마크
 70
     0
 62
   100
  6
Continuous
370
    30
390
F
  0
LAYER
  5
7C
330
2
100
AcDbSymbolTableRecord
100
AcDbLayerTableRecord
  2
가상선
 70
     0
 62
     4
  6
PHANTOM
370
    -3
390
F
  0
LAYER
  5
7D
330
2
100
AcDbSymbolTableRecord
100
AcDbLayerTableRecord
  2
특수지정선
 70
     0
 62
     5
  6
CENTERX2
370
    60
390
F
  0
LAYER
  5
14A
330
2
100
AcDbSymbolTableRecord
100
AcDbLayerTableRecord
  2
Defpoints
 70
     0
 62
     7
  6
Continuous
290
     0
370
    -3
390
F
  0
ENDTAB
  0
TABLE
  2
STYLE
  5
3
330
0
100
AcDbSymbolTable
 70
     2
  0
STYLE
  5
11
330
3
100
AcDbSymbolTableRecord
100
AcDbTextStyleTableRecord
  2
Standard
 70
     0
 40
0.0
 41
1.0
 50
0.0
 71
     0
 42
3.5
  3
txt
  4

  0
STYLE
  5
93
330
3
100
AcDbSymbolTableRecord
100
AcDbTextStyleTableRecord
  2
SLDTEXTSTYLE0
 70
     0
 40
0.0
 41
0.75
 50
0.0
 71
     0
 42
3.5
  3
TXT
  4

  0
ENDTAB
  0
TABLE
  2
VIEW
  5
6
330
0
100
AcDbSymbolTable
 70
     0
  0
ENDTAB
  0
TABLE
  2
UCS
  5
7
330
0
100
AcDbSymbolTable
 70
     0
  0
ENDTAB
  0
TABLE
  2
APPID
  5
9
330
0
100
AcDbSymbolTable
 70
     1
  0
APPID
  5
12
330
9
100
AcDbSymbolTableRecord
100
AcDbRegAppTableRecord
  2
ACAD
 70
     0
  0
ENDTAB
  0
TABLE
  2
DIMSTYLE
  5
A
330
0
100
AcDbSymbolTable
 70
     3
100
AcDbDimStyleTable
  0
DIMSTYLE
105
27
330
A
100
AcDbSymbolTableRecord
100
AcDbDimStyleTableRecord
  2
ISO-25
 70
     0
 41
2.5
 42
0.625
 43
3.75
 44
1.25
 73
     0
 74
     0
 77
     1
 78
     8
140
2.5
141
2.5
143
0.03937007874016
147
0.625
171
     3
172
     1
178
     0
271
     2
272
     2
274
     3
278
    44
283
     0
284
     8
340
11
  0
DIMSTYLE
105
F0
102
{ACAD_REACTORS
330
EF
330
112
102
}
330
A
100
AcDbSymbolTableRecord
100
AcDbDimStyleTableRecord
  2
SLDDIMSTYLE0
 70
     0
 41
3.302
 44
0.0
 45
0.000000001
 73
     0
 74
     0
 77
     1
 78
    12
 79
     3
140
3.5
147
0.875
172
     1
173
     1
178
     0
271
     2
272
     2
276
     2
284
    12
289
     0
340
93
  0
DIMSTYLE
105
FE
102
{ACAD_REACTORS
330
FD
330
108
102
}
330
A
100
AcDbSymbolTableRecord
100
AcDbDimStyleTableRecord
  2
SLDDIMSTYLE1
 70
     0
 41
3.302
 44
0.0
 45
0.000000001
 73
     0
 74
     0
 77
     1
 78
    12
 79
     3
140
3.5
147
0.875
173
     1
178
     0
271
     2
272
     2
276
     2
284
    12
340
93
  0
ENDTAB
  0
TABLE
  2
BLOCK_RECORD
  5
1
330
0
100
AcDbSymbolTable
 70
     7
  0
BLOCK_RECORD
  5
1F
330
1
100
AcDbSymbolTableRecord
100
AcDbBlockTableRecord
  2
*Model_Space
340
22
  0
BLOCK_RECORD
  5
1B
330
1
100
AcDbSymbolTableRecord
100
AcDbBlockTableRecord
  2
*Paper_Space
340
1E
  0
BLOCK_RECORD
  5
23
330
1
100
AcDbSymbolTableRecord
100
AcDbBlockTableRecord
  2
*Paper_Space0
340
26
  0
BLOCK_RECORD
  5
7E
330
1
100
AcDbSymbolTableRecord
100
AcDbBlockTableRecord
  2
블럭10
340
0
102
{BLKREFS
331
E8
102
}
  0
BLOCK_RECORD
  5
F1
330
1
100
AcDbSymbolTableRecord
100
AcDbBlockTableRecord
  2
_D
340
0
  0
BLOCK_RECORD
  5
FF
330
1
100
AcDbSymbolTableRecord
100
AcDbBlockTableRecord
  2
_D_1
340
0
  0
BLOCK_RECORD
  5
109
330
1
100
AcDbSymbolTableRecord
100
AcDbBlockTableRecord
  2
_D_2
340
0
  0
BLOCK_RECORD
  5
113
330
1
100
AcDbSymbolTableRecord
100
AcDbBlockTableRecord
  2
_D_3
340
0
  0
BLOCK_RECORD
  5
11F
330
1
100
AcDbSymbolTableRecord
100
AcDbBlockTableRecord
  2
SW_DOWELSYMBOL_0
340
0
102
{BLKREFS
331
125
102
}
  0
ENDTAB
  0
ENDSEC
  0
SECTION
  2
BLOCKS
  0
BLOCK
  5
20
330
1F
100
AcDbEntity
  8
0
100
AcDbBlockBegin
  2
*Model_Space
 70
     0
 10
0.0
 20
0.0
 30
0.0
  3
*Model_Space
  1

  0
ENDBLK
  5
21
330
1F
100
AcDbEntity
  8
0
100
AcDbBlockEnd
  0
BLOCK
  5
1C
330
1B
100
AcDbEntity
 67
     1
  8
0
100
AcDbBlockBegin
  2
*Paper_Space
 70
     0
 10
0.0
 20
0.0
 30
0.0
  3
*Paper_Space
  1

  0
ENDBLK
  5
1D
330
1B
100
AcDbEntity
 67
     1
  8
0
100
AcDbBlockEnd
  0
BLOCK
  5
24
330
23
100
AcDbEntity
  8
0
100
AcDbBlockBegin
  2
*Paper_Space0
 70
     0
 10
0.0
 20
0.0
 30
0.0
  3
*Paper_Space0
  1

  0
ENDBLK
  5
25
330
23
100
AcDbEntity
  8
0
100
AcDbBlockEnd
  0
BLOCK
  5
7F
330
7E
100
AcDbEntity
  8
0
100
AcDbBlockBegin
  2
블럭10
 70
     2
 10
0.0
 20
0.0
 30
0.0
  3
블럭10
  1

  0
ELLIPSE
  5
81
330
7E
100
AcDbEntity
  8
중심선
100
AcDbEllipse
 10
20.54032771741204
 20
12.0471743016438
 30
0.0
 11
6.600054785286829
 21
-1.261213355974178E-13
 31
0.0
210
0.0
220
0.0
230
1.0
 40
0.636358354079598
 41
0.9219305317359503
 42
6.513795318482858
  0
ELLIPSE
  5
82
330
7E
100
AcDbEntity
  8
중심선
100
AcDbEllipse
 10
20.54032771746488
 20
12.04717430159265
 30
0.0
 11
3.960054785062283
 21
1.540847449632565E-10
 31
0.0
210
0.0
220
0.0
230
1.0
 40
0.3939339440162632
 41
1.131841032648279
 42
5.62031148352944
  0
LINE
  5
83
330
7E
100
AcDbEntity
  8
중심선
100
AcDbLine
 10
2.268634060543552
 20
16.24717430164393
 30
0.0
 11
5.714909304380834
 21
16.24717430164393
 31
0.0
  0
LINE
  5
84
330
7E
100
AcDbEntity
  8
중심선
100
AcDbLine
 10
5.245725140726316
 20
7.84717430164391
 30
0.0
 11
8.692000384563599
 21
7.84717430164391
 31
0.0
  0
LINE
  5
85
330
7E
100
AcDbEntity
  8
중심선
100
AcDbLine
 10
15.74043728645272
 20
16.24717430164393
 30
0.0
 11
8.692000384563599
 21
7.84717430164391
 31
0.0
  0
LINE
  5
86
330
7E
100
AcDbEntity
  8
중심선
100
AcDbLine
 10
0.1404042013395286
 20
13.71084872107135
 30
0.0
 11
3.58671253028996
 21
13.71088815037384
 31
0.0
  0
LINE
  5
87
330
7E
100
AcDbEntity
  8
중심선
100
AcDbLine
 10
2.750260043222114
 20
10.84717430164391
 30
0.0
 11
6.196535287059397
 21
10.84717430164391
 31
0.0
  0
LINE
  5
88
330
7E
100
AcDbEntity
  8
중심선
100
AcDbLine
 10
12.29416204261559
 20
16.24717430164393
 30
0.0
 11
5.245725140726316
 21
7.84717430164391
 31
0.0
  0
LINE
  5
89
330
7E
100
AcDbEntity
  8
중심선
100
AcDbLine
 10
10.72767329541681
 20
16.24717430164393
 30
0.0
 11
6.196535287059397
 21
10.84717430164391
 31
0.0
  0
LINE
  5
8A
330
7E
100
AcDbEntity
  8
중심선
100
AcDbLine
 10
7.28139805157953
 20
16.24717430164393
 30
0.0
 11
2.750260043222114
 21
10.84717430164391
 31
0.0
  0
LINE
  5
8B
330
7E
100
AcDbEntity
  8
중심선
100
AcDbLine
 10
5.714909304380834
 20
16.24717430164393
 30
0.0
 11
3.58671253028996
 21
13.71088815037384
 31
0.0
  0
LINE
  5
8C
330
7E
100
AcDbEntity
  8
중심선
100
AcDbLine
 10
2.268634060543552
 20
16.24717430164393
 30
0.0
 11
0.1404042013395286
 21
13.71084872107135
 31
0.0
  0
LINE
  5
8D
330
7E
100
AcDbEntity
  8
중심선
100
AcDbLine
 10
7.28139805157953
 20
16.24717430164393
 30
0.0
 11
10.72767329541681
 21
16.24717430164393
 31
0.0
  0
LINE
  5
8E
330
7E
100
AcDbEntity
  8
중심선
100
AcDbLine
 10
12.29416204261559
 20
16.24717430164393
 30
0.0
 11
15.74043728645272
 21
16.24717430164393
 31
0.0
  0
LINE
  5
8F
330
7E
100
AcDbEntity
  8
중심선
100
AcDbLine
 10
19.22036997980202
 20
11.08717430171403
 30
0.0
 11
23.66174974927406
 21
11.08717430171406
 31
0.0
  0
LINE
  5
90
330
7E
100
AcDbEntity
  8
중심선
100
AcDbLine
 10
19.22039502424796
 20
13.00717430171391
 30
0.0
 11
19.22036997980202
 21
11.08717430171403
 31
0.0
  0
LINE
  5
91
330
7E
100
AcDbEntity
  8
중심선
100
AcDbLine
 10
19.22039502424796
 20
13.00717430171391
 30
0.0
 11
26.96566020931264
 21
13.00717430171391
 31
0.0
  0
LINE
  5
92
330
7E
100
AcDbEntity
  8
중심선
100
AcDbLine
 10
22.22332737316547
 20
13.45928029700563
 30
0.0
 11
24.52862924686651
 21
15.39360700705356
 31
0.0
  0
ATTDEF
  5
94
330
7E
100
AcDbEntity
  8
FORMAT
 62
     2
100
AcDbText
 10
-16.11926103943555
 20
2.075366912832191
 30
0.0
 40
4.233333333333333
  1
SEME7005035E [ 2 FLUTE ]
 41
0.75
  7
SLDTEXTSTYLE0
 11
-16.11926103943555
 21
-0.0412997538344756
 31
0.0
100
AcDbAttributeDefinition
  3

  2
AUTOATTR0
 70
     0
 74
     1
  0
ENDBLK
  5
80
330
7E
100
AcDbEntity
  8
0
100
AcDbBlockEnd
  0
BLOCK
  5
F2
330
F1
100
AcDbEntity
  8
0
100
AcDbBlockBegin
  2
_D
 70
     0
 10
0.0
 20
0.0
 30
0.0
  3
_D
  1

  0
LINE
  5
F4
330
F1
100
AcDbEntity
  8
치수문자_일반주서
 62
     0
370
    -2
100
AcDbLine
 10
39.92852540378443
 20
-2.499999999999869
 30
0.0
 11
49.99815280333441
 21
-2.499999999999831
 31
0.0
  0
LINE
  5
F5
330
F1
100
AcDbEntity
  8
치수문자_일반주서
 62
     0
370
    -2
100
AcDbLine
 10
39.92852540378444
 20
2.500000000000129
 30
0.0
 11
49.99815280333439
 21
2.500000000000165
 31
0.0
  0
LINE
  5
F6
330
F1
100
AcDbEntity
  8
치수문자_일반주서
 62
     0
370
    -2
100
AcDbLine
 10
49.99815280333441
 20
-2.499999999999831
 30
0.0
 11
49.99815280333436
 21
15.22900000000017
 31
0.0
  0
LINE
  5
F7
330
F1
100
AcDbEntity
  8
치수문자_일반주서
 62
     0
370
    -2
100
AcDbLine
 10
49.99815280333441
 20
-2.499999999999831
 30
0.0
 11
49.99815280333439
 21
2.500000000000165
 31
0.0
  0
LINE
  5
F8
330
F1
100
AcDbEntity
  8
치수문자_일반주서
 62
     0
370
    -2
100
AcDbLine
 10
49.99815280333441
 20
-5.801999999999831
 30
0.0
 11
49.99815280333442
 21
-9.10399999999983
 31
0.0
  0
LINE
  5
F9
330
F1
100
AcDbEntity
  8
치수문자_일반주서
 62
     0
370
    -2
100
AcDbLine
 10
49.99815280333438
 20
5.802000000000165
 30
0.0
 11
49.99815280333438
 21
9.104000000000164
 31
0.0
  0
SOLID
  5
FA
330
F1
100
AcDbEntity
  8
치수문자_일반주서
 62
     0
100
AcDbTrace
 10
50.54848613666775
 20
-5.801999999999829
 30
0.0
 11
49.44781947000108
 21
-5.801999999999833
 31
0.0
 12
49.99815280333441
 22
-2.499999999999831
 32
0.0
 13
49.99815280333441
 23
-2.499999999999831
 33
0.0
  0
SOLID
  5
FB
330
F1
100
AcDbEntity
  8
치수문자_일반주서
 62
     0
100
AcDbTrace
 10
49.44781947000105
 20
5.802000000000163
 30
0.0
 11
50.54848613666772
 21
5.802000000000167
 31
0.0
 12
49.99815280333439
 22
2.500000000000165
 32
0.0
 13
49.99815280333439
 23
2.500000000000165
 33
0.0
  0
MTEXT
  5
FC
330
F1
100
AcDbEntity
  8
치수문자_일반주서
 62
     0
100
AcDbMText
 10
45.62315280333436
 20
12.16650000000015
 30
0.0
 40
3.5
 41
0.0
 71
     2
 72
     1
  1
\A1;%%c5
  7
SLDTEXTSTYLE0
 11
-2.842170943040402E-15
 21
1.0
 31
0.0
 73
     1
 44
1.0
  0
POINT
  5
151
330
F1
100
AcDbEntity
  8
Defpoints
 62
     0
100
AcDbPoint
 10
39.86602540378443
 20
-2.499999999999869
 30
0.0
  0
POINT
  5
152
330
F1
100
AcDbEntity
  8
Defpoints
 62
     0
100
AcDbPoint
 10
39.86602540378444
 20
2.500000000000129
 30
0.0
  0
POINT
  5
153
330
F1
100
AcDbEntity
  8
Defpoints
 62
     0
100
AcDbPoint
 10
49.99815280333439
 20
2.500000000000167
 30
0.0
  0
ENDBLK
  5
F3
330
F1
100
AcDbEntity
  8
0
100
AcDbBlockEnd
  0
BLOCK
  5
100
330
FF
100
AcDbEntity
  8
0
100
AcDbBlockBegin
  2
_D_1
 70
     0
 10
0.0
 20
0.0
 30
0.0
  3
_D_1
  1

  0
LINE
  5
102
330
FF
100
AcDbEntity
  8
치수문자_일반주서
 62
     0
370
    -2
100
AcDbLine
 10
-50.13397459621556
 20
2.512499999999994
 30
0.0
 11
-50.13397459621556
 21
24.23841044024269
 31
0.0
  0
LINE
  5
103
330
FF
100
AcDbEntity
  8
치수문자_일반주서
 62
     0
370
    -2
100
AcDbLine
 10
39.86602540378444
 20
2.562500000000129
 30
0.0
 11
39.86602540378444
 21
24.23841044024269
 31
0.0
  0
LINE
  5
104
330
FF
100
AcDbEntity
  8
치수문자_일반주서
 62
     0
370
    -2
100
AcDbLine
 10
-46.83197459621556
 20
24.23841044024269
 30
0.0
 11
36.56402540378444
 21
24.23841044024269
 31
0.0
  0
SOLID
  5
105
330
FF
100
AcDbEntity
  8
치수문자_일반주서
 62
     0
100
AcDbTrace
 10
-46.83197459621556
 20
24.78874377357602
 30
0.0
 11
-46.83197459621556
 21
23.68807710690935
 31
0.0
 12
-50.13397459621556
 22
24.23841044024269
 32
0.0
 13
-50.13397459621556
 23
24.23841044024269
 33
0.0
  0
SOLID
  5
106
330
FF
100
AcDbEntity
  8
치수문자_일반주서
 62
     0
100
AcDbTrace
 10
36.56402540378444
 20
23.68807710690935
 30
0.0
 11
36.56402540378444
 21
24.78874377357602
 31
0.0
 12
39.86602540378444
 22
24.23841044024269
 32
0.0
 13
39.86602540378444
 23
24.23841044024269
 33
0.0
  0
MTEXT
  5
107
330
FF
100
AcDbEntity
  8
치수문자_일반주서
 62
     0
100
AcDbMText
 10
-5.133974596215558
 20
28.61341044024269
 30
0.0
 40
3.5
 41
0.0
 71
     2
 72
     1
  1
\A1;90
  7
SLDTEXTSTYLE0
 73
     1
 44
1.0
  0
POINT
  5
14B
330
FF
100
AcDbEntity
  8
Defpoints
 62
     0
100
AcDbPoint
 10
-50.13397459621556
 20
2.449999999999994
 30
0.0
  0
POINT
  5
14C
330
FF
100
AcDbEntity
  8
Defpoints
 62
     0
100
AcDbPoint
 10
39.86602540378444
 20
2.500000000000129
 30
0.0
  0
POINT
  5
14D
330
FF
100
AcDbEntity
  8
Defpoints
 62
     0
100
AcDbPoint
 10
39.86602540378444
 20
24.23841044024269
 30
0.0
  0
ENDBLK
  5
101
330
FF
100
AcDbEntity
  8
0
100
AcDbBlockEnd
  0
BLOCK
  5
10A
330
109
100
AcDbEntity
  8
0
100
AcDbBlockBegin
  2
_D_2
 70
     0
 10
0.0
 20
0.0
 30
0.0
  3
_D_2
  1

  0
LINE
  5
10C
330
109
100
AcDbEntity
  8
치수문자_일반주서
 62
     0
370
    -2
100
AcDbLine
 10
4.866025403784437
 20
2.027865554352574
 30
0.0
 11
4.866025403784441
 21
15.31236336052008
 31
0.0
  0
LINE
  5
10D
330
109
100
AcDbEntity
  8
치수문자_일반주서
 62
     0
370
    -2
100
AcDbLine
 10
39.86602540378444
 20
2.562500000000129
 30
0.0
 11
39.86602540378445
 21
15.31236336052008
 31
0.0
  0
LINE
  5
10E
330
109
100
AcDbEntity
  8
치수문자_일반주서
 62
     0
370
    -2
100
AcDbLine
 10
8.16802540378444
 20
15.31236336052008
 30
0.0
 11
36.56402540378445
 21
15.31236336052008
 31
0.0
  0
SOLID
  5
10F
330
109
100
AcDbEntity
  8
치수문자_일반주서
 62
     0
100
AcDbTrace
 10
8.16802540378444
 20
15.86269669385341
 30
0.0
 11
8.16802540378444
 21
14.76203002718674
 31
0.0
 12
4.866025403784441
 22
15.31236336052008
 32
0.0
 13
4.866025403784441
 23
15.31236336052008
 33
0.0
  0
SOLID
  5
110
330
109
100
AcDbEntity
  8
치수문자_일반주서
 62
     0
100
AcDbTrace
 10
36.56402540378445
 20
14.76203002718674
 30
0.0
 11
36.56402540378445
 21
15.86269669385341
 31
0.0
 12
39.86602540378445
 22
15.31236336052008
 32
0.0
 13
39.86602540378445
 23
15.31236336052008
 33
0.0
  0
MTEXT
  5
111
330
109
100
AcDbEntity
  8
치수문자_일반주서
 62
     0
100
AcDbMText
 10
22.36602540378445
 20
19.68736336052008
 30
0.0
 40
3.5
 41
0.0
 71
     2
 72
     1
  1
\A1;35
  7
SLDTEXTSTYLE0
 73
     1
 44
1.0
  0
POINT
  5
14E
330
109
100
AcDbEntity
  8
Defpoints
 62
     0
100
AcDbPoint
 10
4.866025403784437
 20
1.965365554352574
 30
0.0
  0
POINT
  5
14F
330
109
100
AcDbEntity
  8
Defpoints
 62
     0
100
AcDbPoint
 10
39.86602540378444
 20
2.500000000000129
 30
0.0
  0
POINT
  5
150
330
109
100
AcDbEntity
  8
Defpoints
 62
     0
100
AcDbPoint
 10
39.86602540378444
 20
15.31236336052008
 30
0.0
  0
ENDBLK
  5
10B
330
109
100
AcDbEntity
  8
0
100
AcDbBlockEnd
  0
BLOCK
  5
114
330
113
100
AcDbEntity
  8
0
100
AcDbBlockBegin
  2
_D_3
 70
     0
 10
0.0
 20
0.0
 30
0.0
  3
_D_3
  1

  0
LINE
  5
116
330
113
100
AcDbEntity
  8
치수문자_일반주서
 62
     0
370
    -2
100
AcDbLine
 10
-49.64647459621555
 20
2.999999999999993
 30
0.0
 11
-61.13961305272582
 21
2.999999999999948
 31
0.0
  0
LINE
  5
117
330
113
100
AcDbEntity
  8
치수문자_일반주서
 62
     0
370
    -2
100
AcDbLine
 10
-49.64647459621555
 20
-3.0
 30
0.0
 11
-61.1396130527258
 21
-3.000000000000044
 31
0.0
  0
LINE
  5
118
330
113
100
AcDbEntity
  8
치수문자_일반주서
 62
     0
370
    -2
100
AcDbLine
 10
-61.13961305272582
 20
2.999999999999948
 30
0.0
 11
-61.13961305272587
 21
15.72899999999995
 31
0.0
  0
LINE
  5
119
330
113
100
AcDbEntity
  8
치수문자_일반주서
 62
     0
370
    -2
100
AcDbLine
 10
-61.13961305272582
 20
2.999999999999948
 30
0.0
 11
-61.1396130527258
 21
-3.000000000000044
 31
0.0
  0
LINE
  5
11A
330
113
100
AcDbEntity
  8
치수문자_일반주서
 62
     0
370
    -2
100
AcDbLine
 10
-61.13961305272584
 20
6.301999999999948
 30
0.0
 11
-61.13961305272585
 21
9.603999999999948
 31
0.0
  0
LINE
  5
11B
330
113
100
AcDbEntity
  8
치수문자_일반주서
 62
     0
370
    -2
100
AcDbLine
 10
-61.13961305272579
 20
-6.302000000000044
 30
0.0
 11
-61.13961305272577
 21
-9.604000000000044
 31
0.0
  0
SOLID
  5
11C
330
113
100
AcDbEntity
  8
치수문자_일반주서
 62
     0
100
AcDbTrace
 10
-61.68994638605917
 20
6.301999999999946
 30
0.0
 11
-60.5892797193925
 21
6.30199999999995
 31
0.0
 12
-61.13961305272582
 22
2.999999999999948
 32
0.0
 13
-61.13961305272582
 23
2.999999999999948
 33
0.0
  0
SOLID
  5
11D
330
113
100
AcDbEntity
  8
치수문자_일반주서
 62
     0
100
AcDbTrace
 10
-60.58927971939245
 20
-6.302000000000042
 30
0.0
 11
-61.68994638605912
 21
-6.302000000000046
 31
0.0
 12
-61.1396130527258
 22
-3.000000000000044
 32
0.0
 13
-61.1396130527258
 23
-3.000000000000044
 33
0.0
  0
MTEXT
  5
11E
330
113
100
AcDbEntity
  8
치수문자_일반주서
 62
     0
100
AcDbMText
 10
-65.51461305272585
 20
12.66649999999994
 30
0.0
 40
3.5
 41
0.0
 71
     2
 72
     1
  1
\A1;%%c6
  7
SLDTEXTSTYLE0
 11
-3.552713678800505E-15
 21
1.0
 31
0.0
 73
     1
 44
1.0
  0
POINT
  5
154
330
113
100
AcDbEntity
  8
Defpoints
 62
     0
100
AcDbPoint
 10
-49.58397459621555
 20
2.999999999999993
 30
0.0
  0
POINT
  5
155
330
113
100
AcDbEntity
  8
Defpoints
 62
     0
100
AcDbPoint
 10
-49.58397459621555
 20
-3.0
 30
0.0
  0
POINT
  5
156
330
113
100
AcDbEntity
  8
Defpoints
 62
     0
100
AcDbPoint
 10
-61.1396130527258
 20
-3.000000000000043
 30
0.0
  0
ENDBLK
  5
115
330
113
100
AcDbEntity
  8
0
100
AcDbBlockEnd
  0
BLOCK
  5
120
330
11F
100
AcDbEntity
  8
0
100
AcDbBlockBegin
  2
SW_DOWELSYMBOL_0
 70
     0
 10
0.0
 20
0.0
 30
0.0
  3
SW_DOWELSYMBOL_0
  1

  0
CIRCLE
  5
122
330
11F
100
AcDbEntity
  8
외형선
 62
     0
100
AcDbCircle
 10
0.0
 20
0.0
 30
0.0
 40
3.000000000000004
  0
HATCH
  5
123
330
11F
100
AcDbEntity
  8
0
  6
Continuous
 62
     0
370
    30
100
AcDbHatch
 10
0.0
 20
0.0
 30
0.0
210
0.0
220
0.0
230
1.0
  2
SOLID
 70
     1
 71
     0
 91
        1
 92
        0
 93
        3
 72
     2
 10
0.0000000000000104
 20
0.0
 40
3.000000000000004
 50
0.0
 51
90.0
 73
     1
 72
     1
 10
0.0000000000000104
 20
3.000000000000004
 11
0.0000000000000104
 21
0.0
 72
     1
 10
0.0000000000000104
 20
0.0
 11
3.000000000000015
 21
0.0
 97
        0
 75
     0
 76
     1
 98
        1
 10
0.0
 20
0.0
  0
HATCH
  5
124
330
11F
100
AcDbEntity
  8
0
  6
Continuous
 62
     0
370
    30
100
AcDbHatch
 10
0.0
 20
0.0
 30
0.0
210
0.0
220
0.0
230
1.0
  2
SOLID
 70
     1
 71
     0
 91
        1
 92
        0
 93
        3
 72
     2
 10
0.0000000000000104
 20
0.0
 40
3.000000000000004
 50
180.0
 51
270.0000000000008
 73
     1
 72
     1
 10
0.0000000000000104
 20
-3.000000000000004
 11
0.0000000000000104
 21
0.0
 72
     1
 10
0.0000000000000104
 20
0.0
 11
-2.999999999999994
 21
0.0
 97
        0
 75
     0
 76
     1
 98
        1
 10
0.0
 20
0.0
  0
ENDBLK
  5
121
330
11F
100
AcDbEntity
  8
0
100
AcDbBlockEnd
  0
ENDSEC
  0
SECTION
  2
ENTITIES
  0
SPLINE
  5
95
330
1F
100
AcDbEntity
  8
0
  6
Continuous
 62
     1
370
    15
100
AcDbSpline
210
0.0
220
0.0
230
1.0
 70
     8
 71
     3
 72
     9
 73
     5
 74
     0
 42
0.000000001
 43
0.00000001
 40
0.0
 40
0.0
 40
0.0
 40
0.0
 40
0.5589113580639942
 40
1.0
 40
1.0
 40
1.0
 40
1.0
 10
19.78682112270224
 20
0.6404194837828977
 30
0.0
 10
19.65720467255808
 20
0.7021720451344565
 30
0.0
 10
19.42529589440562
 20
0.8126592636541566
 30
0.0
 10
19.19355904267643
 20
0.9339828581933234
 30
0.0
 10
19.09134254946068
 20
0.987497317743399
 30
0.0
  0
LINE
  5
96
330
1F
100
AcDbEntity
  8
0
  6
Continuous
 62
     1
370
    15
100
AcDbLine
 10
32.7383310148056
 20
0.9650975282534671
 30
0.0
 11
32.69473313428978
 21
0.98755283496241
 31
0.0
  0
SPLINE
  5
97
330
1F
100
AcDbEntity
  8
0
  6
Continuous
 62
     1
370
    15
100
AcDbSpline
210
0.0
220
0.0
230
1.0
 70
     8
 71
     3
 72
     9
 73
     5
 74
     0
 42
0.000000001
 43
0.00000001
 40
0.0
 40
0.0
 40
0.0
 40
0.0
 40
0.5431771692421878
 40
1.0
 40
1.0
 40
1.0
 40
1.0
 10
33.39008196355217
 20
0.6405290980561403
 30
0.0
 10
33.27204388228426
 20
0.6966122039646422
 30
0.0
 10
33.05473342088803
 20
0.7998623202880986
 30
0.0
 10
32.83754681493825
 20
0.9132839419683519
 30
0.0
 10
32.7383310148056
 20
0.9650975282534671
 30
0.0
  0
LINE
  5
98
330
1F
100
AcDbEntity
  8
0
  6
Continuous
 62
     1
370
    15
100
AcDbLine
 10
5.503358050690489
 20
0.9797317812606089
 30
0.0
 11
5.465914643728818
 21
0.9991229116581901
 31
0.0
  0
SPLINE
  5
99
330
1F
100
AcDbEntity
  8
0
  6
Continuous
 62
     1
370
    15
100
AcDbSpline
210
0.0
220
0.0
230
1.0
 70
     8
 71
     3
 72
     9
 73
     5
 74
     0
 42
0.000000001
 43
0.00000001
 40
0.0
 40
0.0
 40
0.0
 40
0.0
 40
0.5764879672226485
 40
1.0
 40
1.0
 40
1.0
 40
1.0
 10
6.16727995447814
 20
0.6479181027227313
 30
0.0
 10
6.040742586147953
 20
0.7082887442029713
 30
0.0
 10
5.821245605248588
 20
0.8130101693024204
 30
0.0
 10
5.597933439816529
 20
0.93013008688605
 30
0.0
 10
5.503358050690489
 20
0.9797317812606089
 30
0.0
  0
LINE
  5
9A
330
1F
100
AcDbEntity
  8
0
  6
Continuous
 62
     1
370
    15
100
AcDbLine
 10
18.45879486028596
 20
0.6738379199060129
 30
0.0
 11
18.37644332447768
 21
0.7188243925098542
 31
0.0
  0
LINE
  5
9B
330
1F
100
AcDbEntity
  8
0
  6
Continuous
 62
   131
370
    15
100
AcDbLine
 10
4.97879924119681
 20
0.6029934709733891
 30
0.0
 11
4.866025403656696
 21
0.6639539860962481
 31
0.0
  0
LINE
  5
9C
330
1F
100
AcDbEntity
  8
0
  6
Continuous
 62
     1
370
    15
100
AcDbLine
 10
32.10031230719078
 20
0.6528209714598449
 30
0.0
 11
31.98016884233822
 21
0.7186974043936988
 31
0.0
  0
LINE
  5
9D
330
1F
100
AcDbEntity
  8
0
  6
Continuous
 62
     1
370
    15
100
AcDbLine
 10
26.44116086828448
 20
-2.500000000000003
 30
0.0
 11
27.6526649523822
 21
-2.500000000000003
 31
0.0
  0
LINE
  5
9E
330
1F
100
AcDbEntity
  8
0
  6
Continuous
 62
     1
370
    15
100
AcDbLine
 10
14.04877153017759
 20
2.500000000000003
 30
0.0
 11
12.83676304269381
 21
2.500000000000003
 31
0.0
  0
LINE
  5
9F
330
1F
100
AcDbEntity
  8
0
  6
Continuous
 62
     1
370
    15
100
AcDbLine
 10
12.83676304269382
 20
-2.500000000000003
 30
0.0
 11
14.04877153017758
 21
-2.500000000000003
 31
0.0
  0
LINE
  5
A0
330
1F
100
AcDbEntity
  8
0
  6
Continuous
 62
     1
370
    15
100
AcDbLine
 10
27.65266495238221
 20
2.500000000000003
 30
0.0
 11
26.44116086828448
 21
2.500000000000003
 31
0.0
  0
SPLINE
  5
A1
330
1F
100
AcDbEntity
  8
0
  6
Continuous
 62
     1
370
    15
100
AcDbSpline
210
0.0
220
0.0
230
1.0
 70
     8
 71
     3
 72
    18
 73
    14
 74
     0
 42
0.000000001
 43
0.00000001
 40
0.0
 40
0.0
 40
0.0
 40
0.0
 40
0.1113071786245402
 40
0.201116303696795
 40
0.2793203027754347
 40
0.3302044519228246
 40
0.3851545929931777
 40
0.4496801910056999
 40
0.5225832422564675
 40
0.6347025583709557
 40
0.7297317679718802
 40
0.8444141654910051
 40
1.0
 40
1.0
 40
1.0
 40
1.0
 10
15.19878919528011
 20
-2.080341719269802
 30
0.0
 10
15.33823989154938
 20
-2.066965805167414
 30
0.0
 10
15.59020754474293
 20
-2.042797423252782
 30
0.0
 10
15.93994465959561
 20
-2.01580172600644
 30
0.0
 10
16.21389134239884
 20
-1.997667498995811
 30
0.0
 10
16.44512004797768
 20
-1.984593760857307
 30
0.0
 10
16.65901876106732
 20
-1.97430924501143
 30
0.0
 10
16.90042048112697
 20
-1.964987279138476
 30
0.0
 10
17.21331687596089
 20
-1.956275423919442
 30
0.0
 10
17.56517026173058
 20
-1.951590301354863
 30
0.0
 10
17.97360218822627
 20
-1.952886916571631
 30
0.0
 10
18.43224015172488
 20
-1.961689407101981
 30
0.0
 10
18.76621318416312
 20
-1.977492195392479
 30
0.0
 10
18.95847208401783
 20
-1.986589417013
 30
0.0
  0
SPLINE
  5
A2
330
1F
100
AcDbEntity
  8
0
  6
Continuous
 62
     1
370
    15
100
AcDbSpline
210
0.0
220
0.0
230
1.0
 70
     8
 71
     3
 72
    11
 73
     7
 74
     0
 42
0.000000001
 43
0.00000001
 40
0.0
 40
0.0
 40
0.0
 40
0.0
 40
0.3372517843024525
 40
0.5892399790800753
 40
0.8469542258996854
 40
1.0
 40
1.0
 40
1.0
 40
1.0
 10
32.56194880840104
 20
1.986588425446806
 30
0.0
 10
32.33249198275847
 20
1.975833086319419
 30
0.0
 10
31.93158932950475
 20
1.957041559936456
 30
0.0
 10
31.33328641499983
 20
1.950740226434871
 30
0.0
 10
30.86997989147085
 20
1.95415593602712
 30
0.0
 10
30.5845674278611
 20
1.963465937332858
 30
0.0
 10
30.47822511311196
 20
1.966934766537611
 30
0.0
  0
SPLINE
  5
A3
330
1F
100
AcDbEntity
  8
0
  6
Continuous
 62
     1
370
    15
100
AcDbSpline
210
0.0
220
0.0
230
1.0
 70
     8
 71
     3
 72
     9
 73
     5
 74
     0
 42
0.000000001
 43
0.00000001
 40
0.0
 40
0.0
 40
0.0
 40
0.0
 40
0.4975083122434824
 40
1.0
 40
1.0
 40
1.0
 40
1.0
 10
5.375169029640256
 20
1.987649203096147
 30
0.0
 10
5.290520847792068
 20
1.983102695112762
 30
0.0
 10
5.120376591374573
 20
1.973964138285677
 30
0.0
 10
4.951090338634115
 20
1.966526499701063
 30
0.0
 10
4.866025403780585
 20
1.962789148135758
 30
0.0
  0
SPLINE
  5
A4
330
1F
100
AcDbEntity
  8
0
  6
Continuous
 62
     1
370
    15
100
AcDbSpline
210
0.0
220
0.0
230
1.0
 70
     8
 71
     3
 72
     9
 73
     5
 74
     0
 42
0.000000001
 43
0.00000001
 40
0.0
 40
0.0
 40
0.0
 40
0.0
 40
0.5024916877565077
 40
1.0
 40
1.0
 40
1.0
 40
1.0
 10
4.866025403780585
 20
-1.962789148135757
 30
0.0
 10
4.951090338634142
 20
-1.966526499701063
 30
0.0
 10
5.12037659137466
 20
-1.973964138285677
 30
0.0
 10
5.290520847792218
 20
-1.983102695112769
 30
0.0
 10
5.375169029640437
 20
-1.987649203096155
 30
0.0
  0
SPLINE
  5
A5
330
1F
100
AcDbEntity
  8
0
  6
Continuous
 62
     1
370
    15
100
AcDbSpline
210
0.0
220
0.0
230
1.0
 70
     8
 71
     3
 72
    17
 73
    13
 74
     0
 42
0.000000001
 43
0.00000001
 40
0.0
 40
0.0
 40
0.0
 40
0.0
 40
0.119379266706826
 40
0.2148386126782471
 40
0.2965318044295234
 40
0.3478230922042249
 40
0.4012600784049093
 40
0.4623867281878669
 40
0.5303126210819047
 40
0.6732307687184838
 40
0.812973473936911
 40
1.0
 40
1.0
 40
1.0
 40
1.0
 10
28.80226499235579
 20
-2.080343673517875
 30
0.0
 10
28.9522388607093
 20
-2.06600843467926
 30
0.0
 10
29.22213646272913
 20
-2.040210296447578
 30
0.0
 10
29.59415594643261
 20
-2.012125326160831
 30
0.0
 10
29.88037524022106
 20
-1.993836520394608
 30
0.0
 10
30.11383197234832
 20
-1.981281672565239
 30
0.0
 10
30.321691085308
 20
-1.971856414963664
 30
0.0
 10
30.55048009778734
 20
-1.963550161437207
 30
0.0
 10
30.89130617485078
 20
-1.954586019178296
 30
0.0
 10
31.33329869174213
 20
-1.95054582614883
 30
0.0
 10
31.93158506291781
 20
-1.957109120670401
 30
0.0
 10
32.33249042968038
 20
-1.975857679066996
 30
0.0
 10
32.56194880840104
 20
-1.986588425446802
 30
0.0
  0
SPLINE
  5
A6
330
1F
100
AcDbEntity
  8
0
  6
Continuous
 62
     1
370
    15
100
AcDbSpline
210
0.0
220
0.0
230
1.0
 70
     8
 71
     3
 72
    12
 73
     8
 74
     0
 42
0.000000001
 43
0.00000001
 40
0.0
 40
0.0
 40
0.0
 40
0.0
 40
0.2857785570072275
 40
0.4964260763046928
 40
0.6709748099923961
 40
0.8769144861393517
 40
1.0
 40
1.0
 40
1.0
 40
1.0
 10
18.95847208401782
 20
1.986589417013003
 30
0.0
 10
18.76621290760911
 20
1.977499928514411
 30
0.0
 10
18.43223939476875
 20
1.961710573433938
 30
0.0
 10
17.97360416573836
 20
1.952831620530609
 30
0.0
 10
17.56516374549951
 20
1.951772511002071
 30
0.0
 10
17.22074372449945
 20
1.955494817975231
 30
0.0
 10
16.9960709397478
 20
1.963183890044817
 30
0.0
 10
16.91202276957268
 20
1.96606030624497
 30
0.0
  0
SPLINE
  5
A7
330
1F
100
AcDbEntity
  8
0
  6
Continuous
 62
     1
370
    15
100
AcDbSpline
210
0.0
220
0.0
230
1.0
 70
     8
 71
     3
 72
    14
 73
    10
 74
     0
 42
0.000000001
 43
0.00000001
 40
0.0
 40
0.0
 40
0.0
 40
0.0
 40
0.2899631164775443
 40
0.4974890345449651
 40
0.6284291873187821
 40
0.7466286732045293
 40
0.8658432989061837
 40
0.9863231760166705
 40
1.0
 40
1.0
 40
1.0
 40
1.0
 10
7.363695122824055
 20
-1.880305221393792
 30
0.0
 10
7.54495883399175
 20
-1.852972670268431
 30
0.0
 10
7.85595255540817
 20
-1.806078276815259
 30
0.0
 10
8.247822666158978
 20
-1.759245316836649
 30
0.0
 10
8.532818382432858
 20
-1.729574840434395
 30
0.0
 10
8.762709886861025
 20
-1.708486269697312
 30
0.0
 10
8.985891144204551
 20
-1.690913780772657
 30
0.0
 10
9.143948014274184
 20
-1.679742083958085
 30
0.0
 10
9.227674857033616
 20
-1.675315631351584
 30
0.0
 10
9.236210526752412
 20
-1.674864369411808
 30
0.0
  0
SPLINE
  5
A8
330
1F
100
AcDbEntity
  8
0
  6
Continuous
 62
     1
370
    15
100
AcDbSpline
210
0.0
220
0.0
230
1.0
 70
     8
 71
     3
 72
    13
 73
     9
 74
     0
 42
0.000000001
 43
0.00000001
 40
0.0
 40
0.0
 40
0.0
 40
0.0
 40
0.2645144974788692
 40
0.4605217349069039
 40
0.6080404679740642
 40
0.7605548037023183
 40
0.9169352321979524
 40
1.0
 40
1.0
 40
1.0
 40
1.0
 10
34.57091516243214
 20
-1.880269139405459
 30
0.0
 10
34.73851266743648
 20
-1.854901042850562
 30
0.0
 10
35.03030118756036
 20
-1.810734995438811
 30
0.0
 10
35.41354485517994
 20
-1.763919071640571
 30
0.0
 10
35.72362470450462
 20
-1.730892442623555
 30
0.0
 10
36.01085038615824
 20
-1.704888667043384
 30
0.0
 10
36.25764475173253
 20
-1.685593002221087
 30
0.0
 10
36.40854196375481
 20
-1.677231327054607
 30
0.0
 10
36.4608889812453
 20
-1.674330619014191
 30
0.0
  0
SPLINE
  5
A9
330
1F
100
AcDbEntity
  8
0
  6
Continuous
 62
     1
370
    15
100
AcDbSpline
210
0.0
220
0.0
230
1.0
 70
     8
 71
     3
 72
    20
 73
    16
 74
     0
 42
0.000000001
 43
0.00000001
 40
0.0
 40
0.0
 40
0.0
 40
0.0
 40
0.124069270000209
 40
0.2131061212301568
 40
0.2693256517434973
 40
0.3199896158912607
 40
0.37113982394826
 40
0.4229621849955331
 40
0.4750789494359611
 40
0.5272824719359276
 40
0.6104453076967071
 40
0.6895970048779876
 40
0.7603842752513698
 40
0.859435947585965
 40
1.0
 40
1.0
 40
1.0
 40
1.0
 10
25.33254257088294
 20
1.709862096959598
 30
0.0
 10
25.1517050182438
 20
1.695791277792015
 30
0.0
 10
24.84109152454292
 20
1.671622700872608
 30
0.0
 10
24.44960997540335
 20
1.655030097673321
 30
0.0
 10
24.16459528419253
 20
1.647662172210754
 30
0.0
 10
23.93469579795975
 20
1.64493014735989
 30
0.0
 10
23.71139667403661
 20
1.645191162517106
 30
0.0
 10
23.4857901796202
 20
1.648468457536465
 30
0.0
 10
23.25860703464271
 20
1.65476573510719
 30
0.0
 10
22.98577815683961
 20
1.665920722544772
 30
0.0
 10
22.67369292348732
 20
1.684020298973414
 30
0.0
 10
22.33482623567889
 20
1.710712806398992
 30
0.0
 10
21.97249499295048
 20
1.745655063615426
 30
0.0
 10
21.52130538859825
 20
1.797271117330133
 30
0.0
 10
21.17216081776184
 20
1.849589698728779
 30
0.0
 10
20.96734464467216
 20
1.880280972540889
 30
0.0
  0
SPLINE
  5
AA
330
1F
100
AcDbEntity
  8
0
  6
Continuous
 62
     1
370
    15
100
AcDbSpline
210
0.0
220
0.0
230
1.0
 70
     8
 71
     3
 72
    12
 73
     8
 74
     0
 42
0.000000001
 43
0.00000001
 40
0.0
 40
0.0
 40
0.0
 40
0.0
 40
0.2825425832101056
 40
0.4858333123929808
 40
0.66474779781866
 40
0.8526676165077404
 40
0.9999999999999999
 40
0.9999999999999999
 40
0.9999999999999999
 40
0.9999999999999999
 10
20.96734464467216
 20
-1.880280972540887
 30
0.0
 10
21.14532348382085
 20
-1.853428551459272
 30
0.0
 10
21.45135894218278
 20
-1.807255686004329
 30
0.0
 10
21.86768782300832
 20
-1.757147185148436
 30
0.0
 10
22.22476169678453
 20
-1.720682767327364
 30
0.0
 10
22.54743711088198
 20
-1.692897206582594
 30
0.0
 10
22.75781157380207
 20
-1.680281891138155
 30
0.0
 10
22.85026427313186
 20
-1.67473787239393
 30
0.0
  0
SPLINE
  5
AB
330
1F
100
AcDbEntity
  8
0
  6
Continuous
 62
     1
370
    15
100
AcDbSpline
210
0.0
220
0.0
230
1.0
 70
     8
 71
     3
 72
    20
 73
    16
 74
     0
 42
0.000000001
 43
0.00000001
 40
0.0
 40
0.0
 40
0.0
 40
0.0
 40
0.1241078533149088
 40
0.213157074103055
 40
0.2693696101368662
 40
0.3200271236817348
 40
0.3711690778936853
 40
0.4229846206875333
 40
0.4750991418842335
 40
0.5273028464784456
 40
0.6104447833280601
 40
0.6895747454923239
 40
0.7603775071456629
 40
0.859434184921429
 40
1.0
 40
1.0
 40
1.0
 40
1.0
 10
38.93619206175907
 20
1.709875360638009
 30
0.0
 10
38.75528826863131
 20
1.695798386193992
 30
0.0
 10
38.44458332766828
 20
1.671620974333549
 30
0.0
 10
38.05301803502829
 20
1.655026824625009
 30
0.0
 10
37.76800000719592
 20
1.647660559502777
 30
0.0
 10
37.53813063273184
 20
1.644929939011108
 30
0.0
 10
37.31486289714434
 20
1.645191533594702
 30
0.0
 10
37.08928007034265
 20
1.648468640190863
 30
0.0
 10
36.86210342978081
 20
1.654765667308704
 30
0.0
 10
36.58929418983239
 20
1.665919893261586
 30
0.0
 10
36.27727226464578
 20
1.684015320015696
 30
0.0
 10
35.93846180033349
 20
1.710700571270517
 30
0.0
 10
35.57610702147119
 20
1.745642233861479
 30
0.0
 10
35.1248808150405
 20
1.797260562801106
 30
0.0
 10
34.77573112299599
 20
1.849578642129669
 30
0.0
 10
34.57091516243214
 20
1.880269139405463
 30
0.0
  0
SPLINE
  5
AC
330
1F
100
AcDbEntity
  8
0
  6
Continuous
 62
     1
370
    15
100
AcDbSpline
210
0.0
220
0.0
230
1.0
 70
     8
 71
     3
 72
    17
 73
    13
 74
     0
 42
0.000000001
 43
0.00000001
 40
0.0
 40
0.0
 40
0.0
 40
0.0
 40
0.1215919687897515
 40
0.2092216113833216
 40
0.2864083475235264
 40
0.3672900253567326
 40
0.4488457663976765
 40
0.6494768062926033
 40
0.6952786077599683
 40
0.7629709833966706
 40
0.8649608034448785
 40
1.0
 40
1.0
 40
1.0
 40
1.0
 10
11.7289139052324
 20
1.709850622123933
 30
0.0
 10
11.55129650013352
 20
1.696006237155704
 30
0.0
 10
11.24567269887105
 20
1.672184396285009
 30
0.0
 10
10.82993365288827
 20
1.654234404871838
 30
0.0
 10
10.47323928200235
 20
1.645586061885237
 30
0.0
 10
10.12470738321433
 20
1.64433106178409
 30
0.0
 10
9.59653740259337
 20
1.653481053228596
 30
0.0
 10
9.119076527122843
 20
1.678907475284019
 30
0.0
 10
8.662183339934622
 20
1.717287001296117
 30
0.0
 10
8.349064820072702
 20
1.747784460799817
 30
0.0
 10
7.90601609515106
 20
1.798876352792673
 30
0.0
 10
7.560526203222864
 20
1.850751261653606
 30
0.0
 10
7.363695122824062
 20
1.880305221393791
 30
0.0
  0
LINE
  5
AD
330
1F
100
AcDbEntity
  8
0
  6
Continuous
 62
   131
370
    15
100
AcDbLine
 10
2.0
 20
-3.0
 30
0.0
 11
3.866025403784434
 21
-2.5
 31
0.0
  0
LINE
  5
AE
330
1F
100
AcDbEntity
  8
0
  6
Continuous
 62
   131
370
    15
100
AcDbLine
 10
3.866025403784434
 20
2.5
 30
0.0
 11
2.0
 21
3.0
 31
0.0
  0
LINE
  5
AF
330
1F
100
AcDbEntity
  8
0
  6
Continuous
 62
   131
370
    15
100
AcDbLine
 10
2.0
 20
2.999999999999999
 30
0.0
 11
-49.58397459621555
 21
2.999999999999995
 31
0.0
  0
LINE
  5
B0
330
1F
100
AcDbEntity
  8
0
  6
Continuous
 62
   131
370
    15
100
AcDbLine
 10
-49.58397459621555
 20
-3.000000000000002
 30
0.0
 11
2.0
 21
-2.999999999999998
 31
0.0
  0
LINE
  5
B1
330
1F
100
AcDbEntity
  8
0
  6
Continuous
 62
   131
370
    15
100
AcDbLine
 10
-49.58397459621555
 20
2.999999999999993
 30
0.0
 11
-50.13397459621556
 21
2.449999999999994
 31
0.0
  0
LINE
  5
B2
330
1F
100
AcDbEntity
  8
0
  6
Continuous
 62
   131
370
    15
100
AcDbLine
 10
-50.13397459621556
 20
-2.450000000000001
 30
0.0
 11
-49.58397459621555
 21
-3.0
 31
0.0
  0
LINE
  5
B3
330
1F
100
AcDbEntity
  8
0
  6
Continuous
 62
   131
370
    15
100
AcDbLine
 10
3.976049150444595
 20
2.5
 30
0.0
 11
3.866025403784434
 21
2.5
 31
0.0
  0
LINE
  5
B4
330
1F
100
AcDbEntity
  8
0
  6
Continuous
 62
   131
370
    15
100
AcDbLine
 10
3.866025403784434
 20
-2.5
 30
0.0
 11
3.976049150444595
 21
-2.5
 31
0.0
  0
SPLINE
  5
B5
330
1F
100
AcDbEntity
  8
0
  6
Continuous
 62
   131
370
    15
100
AcDbSpline
210
0.0
220
0.0
230
1.0
 70
     8
 71
     3
 72
     9
 73
     5
 74
     0
 42
0.000000001
 43
0.00000001
 40
0.0
 40
0.0
 40
0.0
 40
0.0
 40
0.5017477408589731
 40
1.0
 40
1.0
 40
1.0
 40
1.0
 10
4.866025403784441
 20
1.962789148135832
 30
0.0
 10
4.717172027645335
 20
1.959389836243101
 30
0.0
 10
4.420502279049609
 20
1.952614894143887
 30
0.0
 10
4.12386059781233
 20
1.952595164584093
 30
0.0
 10
3.976058209980463
 20
1.952585334286353
 30
0.0
  0
SPLINE
  5
B6
330
1F
100
AcDbEntity
  8
0
  6
Continuous
 62
   131
370
    15
100
AcDbSpline
210
0.0
220
0.0
230
1.0
 70
     8
 71
     3
 72
     9
 73
     5
 74
     0
 42
0.000000001
 43
0.00000001
 40
0.0
 40
0.0
 40
0.0
 40
0.0
 40
0.4982522591410271
 40
1.0
 40
1.0
 40
1.0
 40
1.0
 10
3.976058209980463
 20
-1.952585334286352
 30
0.0
 10
4.12386059781233
 20
-1.952595164584091
 30
0.0
 10
4.420502279049609
 20
-1.952614894143885
 30
0.0
 10
4.717172027645335
 20
-1.9593898362431
 30
0.0
 10
4.866025403784441
 20
-1.962789148135831
 30
0.0
  0
SPLINE
  5
B7
330
1F
100
AcDbEntity
  8
0
  6
Continuous
 62
     1
370
    15
100
AcDbSpline
210
0.0
220
0.0
230
1.0
 70
     8
 71
     3
 72
    21
 73
    17
 74
     0
 42
0.000000001
 43
0.00000001
 40
0.0
 40
0.0
 40
0.0
 40
0.0
 40
0.0527569131343123
 40
0.1307768063910512
 40
0.2087984645270456
 40
0.286821513610109
 40
0.3648455789791523
 40
0.4428702854401739
 40
0.5208952574628516
 40
0.5989201193775138
 40
0.6769444955722682
 40
0.7549680106900661
 40
0.8329902898254798
 40
0.9110109587209654
 40
0.9890296439624002
 40
1.0
 40
1.0
 40
1.0
 40
1.0
 10
30.47959857115242
 20
-1.966488277183051
 30
0.0
 10
30.19065571670768
 20
-2.067850901858728
 30
0.0
 10
29.47440790217772
 20
-2.319114282427489
 30
0.0
 10
28.33083711515369
 20
-2.501548452021854
 30
0.0
 10
27.04888124368632
 20
-2.513279232583273
 30
0.0
 10
25.76689765619103
 20
-2.299706902122621
 30
0.0
 10
24.48489411481368
 20
-1.887846989036089
 30
0.0
 10
23.20287791465393
 20
-1.311276536429846
 30
0.0
 10
21.92085648412159
 20
-0.6207257976908355
 30
0.0
 10
20.63883722670075
 20
0.12375356338955
 30
0.0
 10
19.35682752936103
 20
0.8578562065767411
 30
0.0
 10
18.07483486296676
 20
1.51583154273818
 30
0.0
 10
16.79286634806133
 20
2.047510861930382
 30
0.0
 10
15.51093036714225
 20
2.380236696664157
 30
0.0
 10
14.59623469345403
 20
2.525357450409454
 30
0.0
 10
14.1088545836957
 20
2.491053456413215
 30
0.0
 10
14.04877153017759
 20
2.48682454213072
 30
0.0
  0
SPLINE
  5
B8
330
1F
100
AcDbEntity
  8
0
  6
Continuous
 62
     1
370
    15
100
AcDbSpline
210
0.0
220
0.0
230
1.0
 70
     8
 71
     3
 72
    16
 73
    12
 74
     0
 42
0.000000001
 43
0.00000001
 40
0.0
 40
0.0
 40
0.0
 40
0.0
 40
0.0170392497381319
 40
0.1410907392519399
 40
0.2651171324549853
 40
0.3890952803067169
 40
0.5130367572278574
 40
0.6369532619957247
 40
0.7608565783538379
 40
0.8847585350106197
 40
1.0
 40
1.0
 40
1.0
 40
1.0
 10
28.80521589142897
 20
-2.072002118864662
 30
0.0
 10
28.75382285164918
 20
-2.079771030286547
 30
0.0
 10
28.3282711350905
 20
-2.144100239174403
 30
0.0
 10
27.5285490391451
 20
-2.132099014617472
 30
0.0
 10
26.40633598062429
 20
-2.022421696579974
 30
0.0
 10
25.28451711428606
 20
-1.764524894226663
 30
0.0
 10
24.1630795490783
 20
-1.392550584248656
 30
0.0
 10
23.04190126983651
 20
-0.9265102733976276
 30
0.0
 10
21.92085934214708
 20
-0.3998972184626189
 30
0.0
 10
20.82598378194139
 20
0.1440099594358761
 30
0.0
 10
20.10476129887643
 20
0.487540022484743
 30
0.0
 10
19.75720946174222
 20
0.6530846461299693
 30
0.0
  0
SPLINE
  5
B9
330
1F
100
AcDbEntity
  8
0
  6
Continuous
 62
     1
370
    15
100
AcDbSpline
210
0.0
220
0.0
230
1.0
 70
     8
 71
     3
 72
    17
 73
    13
 74
     0
 42
0.000000001
 43
0.00000001
 40
0.0
 40
0.0
 40
0.0
 40
0.0
 40
0.1049208062195512
 40
0.2098479445490728
 40
0.314780929091923
 40
0.4197192709257492
 40
0.5246624783492485
 40
0.6296100571320132
 40
0.7345615107672028
 40
0.8395163407267583
 40
0.944474046718883
 40
1.0
 40
1.0
 40
1.0
 40
1.0
 10
39.86602540378444
 20
-2.372352173079748
 30
0.0
 10
39.43889898987508
 20
-2.27440020341481
 30
0.0
 10
38.58462038441014
 20
-2.078490352553503
 30
0.0
 10
37.30314592388689
 20
-1.54857394043749
 30
0.0
 10
36.0215870253536
 20
-0.8987557457915557
 30
0.0
 10
34.73994933240348
 20
-0.1668352724293891
 30
0.0
 10
33.45824045371414
 20
0.5787539947910859
 30
0.0
 10
32.1764674934945
 20
1.273525664623347
 30
0.0
 10
30.89463783919041
 20
1.860328561809561
 30
0.0
 10
29.61275845733897
 20
2.274578307607676
 30
0.0
 10
28.53209586943105
 20
2.490801842818987
 30
0.0
 10
27.87872544773046
 20
2.477395462220587
 30
0.0
 10
27.6526649523822
 20
2.472756970886661
 30
0.0
  0
SPLINE
  5
BA
330
1F
100
AcDbEntity
  8
0
  6
Continuous
 62
     1
370
    15
100
AcDbSpline
210
0.0
220
0.0
230
1.0
 70
     8
 71
     3
 72
    18
 73
    14
 74
     0
 42
0.000000001
 43
0.00000001
 40
0.0
 40
0.0
 40
0.0
 40
0.0
 40
0.0100808700574341
 40
0.1164636479710912
 40
0.2228437211318753
 40
0.3292205817973325
 40
0.4250586059799154
 40
0.5208874044615872
 40
0.6167100266398782
 40
0.7125295324725293
 40
0.8083489872508174
 40
0.9041714563534263
 40
0.9999999999999999
 40
0.9999999999999999
 40
0.9999999999999999
 40
0.9999999999999999
 10
16.91433598889007
 20
-1.965122782000391
 30
0.0
 10
16.8738435082414
 20
-1.981740512841796
 30
0.0
 10
16.40603646531012
 20
-2.173724095981481
 30
0.0
 10
15.51092456613694
 20
-2.382827671925171
 30
0.0
 10
14.22905221043618
 20
-2.537408295443068
 30
0.0
 10
12.98942678836784
 20
-2.457164557168575
 30
0.0
 10
11.79258821988712
 20
-2.194495132708037
 30
0.0
 10
10.63806332703986
 20
-1.784949569650191
 30
0.0
 10
9.483651957624964
 20
-1.249636913302056
 30
0.0
 10
8.329279231384213
 20
-0.6254531547745601
 30
0.0
 10
7.174908563453851
 20
0.0411436484262849
 30
0.0
 10
6.020495444794523
 20
0.7114793678661355
 30
0.0
 10
5.250856882236677
 20
1.108328725733098
 30
0.0
 10
4.866025403779096
 20
1.306759693907729
 30
0.0
  0
SPLINE
  5
BB
330
1F
100
AcDbEntity
  8
0
  6
Continuous
 62
     1
370
    15
100
AcDbSpline
210
0.0
220
0.0
230
1.0
 70
     8
 71
     3
 72
    13
 73
     9
 74
     0
 42
0.000000001
 43
0.00000001
 40
0.0
 40
0.0
 40
0.0
 40
0.0
 40
0.1727293521976687
 40
0.3453874177749064
 40
0.5179902612004826
 40
0.6905541340115775
 40
0.8630954202434534
 40
1.0
 40
1.0
 40
1.0
 40
1.0
 10
39.86602540378444
 20
-1.972430660920537
 30
0.0
 10
39.49187529173281
 20
-1.891342187603956
 30
0.0
 10
38.74372948201651
 20
-1.729198706754956
 30
0.0
 10
37.62179864483677
 20
-1.335365583165915
 30
0.0
 10
36.5002735360247
 20
-0.8616062348335185
 30
0.0
 10
35.3790404389176
 20
-0.3291083621263997
 30
0.0
 10
34.33514183726417
 20
0.190781252136646
 30
0.0
 10
33.66497045267922
 20
0.507299094778761
 30
0.0
 10
33.36847422553331
 20
0.6473324479274787
 30
0.0
  0
SPLINE
  5
BC
330
1F
100
AcDbEntity
  8
0
  6
Continuous
 62
     1
370
    15
100
AcDbSpline
210
0.0
220
0.0
230
1.0
 70
     8
 71
     3
 72
    17
 73
    13
 74
     0
 42
0.000000001
 43
0.00000001
 40
0.0
 40
0.0
 40
0.0
 40
0.0
 40
0.0008787006339437
 40
0.1247607947184358
 40
0.2485976490559591
 40
0.3724008614640744
 40
0.4961821439564015
 40
0.6199532832101057
 40
0.7437261004961027
 40
0.8675124113597329
 40
0.9913239853427736
 40
1.0
 40
1.0
 40
1.0
 40
1.0
 10
15.19895154866591
 20
-2.079849523462654
 30
0.0
 10
15.19629827055783
 20
-2.080274888279475
 30
0.0
 10
14.81957715236831
 20
-2.140669578509365
 30
0.0
 10
14.06897411158893
 20
-2.135189502095718
 30
0.0
 10
12.94726109452186
 20
-2.046283728852572
 30
0.0
 10
11.82590243088317
 20
-1.804367744270346
 30
0.0
 10
10.70477164445474
 20
-1.446400867868471
 30
0.0
 10
9.583741851916063
 20
-0.9913168243397559
 30
0.0
 10
8.46271245284229
 20
-0.4684517547840166
 30
0.0
 10
7.341475879907875
 20
0.0783817253194754
 30
0.0
 10
6.567886693089932
 20
0.4710900451974693
 30
0.0
 10
6.167771779692213
 20
0.6462139610084146
 30
0.0
 10
6.141570058543529
 20
0.6576820364409904
 30
0.0
  0
LINE
  5
BD
330
1F
100
AcDbEntity
  8
0
  6
Continuous
 62
     1
370
    15
100
AcDbLine
 10
39.86602540378444
 20
-2.372352173079751
 30
0.0
 11
39.86602540378444
 21
-1.972430660920537
 31
0.0
  0
SPLINE
  5
BE
330
1F
100
AcDbEntity
  8
0
  6
Continuous
 62
     1
370
    15
100
AcDbSpline
210
0.0
220
0.0
230
1.0
 70
     8
 71
     3
 72
    22
 73
    18
 74
     0
 42
0.000000001
 43
0.00000001
 40
0.0
 40
0.0
 40
0.0
 40
0.0
 40
0.0137988508209579
 40
0.0809490218858992
 40
0.1481035217978128
 40
0.2152644877135129
 40
0.2898110370266864
 40
0.3643598378136982
 40
0.4389105342394097
 40
0.5134627694766943
 40
0.5880161858923876
 40
0.6625704252341416
 40
0.7371251288179822
 40
0.8116799377163498
 40
0.8862344929464189
 40
0.9607884356584773
 40
1.0
 40
1.0
 40
1.0
 40
1.0
 10
9.246409400590267
 20
1.679492285353692
 30
0.0
 10
9.325482548592479
 20
1.715994276269853
 30
0.0
 10
9.78935407465437
 20
1.930128083489759
 30
0.0
 10
10.63804994996261
 20
2.204570409320109
 30
0.0
 10
11.79257209063261
 20
2.458286947534528
 30
0.0
 10
12.98940920389456
 20
2.531162041837638
 30
0.0
 10
14.22903432069924
 20
2.406841090600527
 30
0.0
 10
15.51090754395808
 20
2.068039570921113
 30
0.0
 10
16.79285177545686
 20
1.54956055833243
 30
0.0
 10
18.07481920288687
 20
0.8961955548318141
 30
0.0
 10
19.35681328751321
 20
0.1649322582768749
 30
0.0
 10
20.63882373926853
 20
-0.5808954152057251
 30
0.0
 10
21.92084391869069
 20
-1.275410963448705
 30
0.0
 10
23.20286628016799
 20
-1.861864405814469
 30
0.0
 10
24.48488322073975
 20
-2.275530255879119
 30
0.0
 10
25.56431487419092
 20
-2.49110652822962
 30
0.0
 10
26.21640494374331
 20
-2.477446300421602
 30
0.0
 10
26.44116086828448
 20
-2.472738028859452
 30
0.0
  0
SPLINE
  5
BF
330
1F
100
AcDbEntity
  8
0
  6
Continuous
 62
     1
370
    15
100
AcDbSpline
210
0.0
220
0.0
230
1.0
 70
     8
 71
     3
 72
    10
 73
     6
 74
     0
 42
0.000000001
 43
0.00000001
 40
0.0
 40
0.0
 40
0.0
 40
0.0
 40
0.2472014688679297
 40
0.6236120926135094
 40
1.0
 40
1.0
 40
1.0
 40
1.0
 10
36.46156806864316
 20
1.674605686607803
 30
0.0
 10
36.74210112446035
 20
1.794055125989017
 30
0.0
 10
37.44979839983085
 20
2.095388751534045
 30
0.0
 10
38.58461919404128
 20
2.400466032779617
 30
0.0
 10
39.43889859341461
 20
2.465414022930229
 30
0.0
 10
39.86602540378444
 20
2.500000000000129
 30
0.0
  0
SPLINE
  5
C0
330
1F
100
AcDbEntity
  8
0
  6
Continuous
 62
     1
370
    15
100
AcDbSpline
210
0.0
220
0.0
230
1.0
 70
    24
 71
     3
 72
    10
 73
     6
 74
     0
 42
0.000000001
 43
0.00000001
 40
0.0
 40
0.0
 40
0.0
 40
0.0
 40
0.5
 40
0.5
 40
1.0
 40
1.0
 40
1.0
 40
1.0
 10
39.86602540378444
 20
1.750000000000004
 30
0.0
 10
39.86602540378444
 20
1.85608064201829
 30
0.0
 10
39.86602540378445
 20
1.979356172167799
 30
0.0
 10
39.86602540378443
 20
2.237987902402147
 30
0.0
 10
39.86602540378444
 20
2.37268358950369
 30
0.0
 10
39.86602540378444
 20
2.500000000000129
 30
0.0
  0
LINE
  5
C1
330
1F
100
AcDbEntity
  8
0
  6
Continuous
 62
     1
370
    15
100
AcDbLine
 10
39.86602540378444
 20
1.750000000000004
 30
0.0
 11
38.93038900983409
 21
1.685333664121181
 31
0.0
  0
SPLINE
  5
C2
330
1F
100
AcDbEntity
  8
0
  6
Continuous
 62
     1
370
    15
100
AcDbSpline
210
0.0
220
0.0
230
1.0
 70
     8
 71
     3
 72
    13
 73
     9
 74
     0
 42
0.000000001
 43
0.00000001
 40
0.0
 40
0.0
 40
0.0
 40
0.0
 40
0.1354024177115774
 40
0.3146715232246012
 40
0.4941598082928428
 40
0.6737585260495181
 40
0.8533160129502017
 40
1.0
 40
1.0
 40
1.0
 40
1.0
 10
20.05758735238775
 20
-0.2391775514411191
 30
0.0
 10
19.68149805088348
 20
-0.0876273517098255
 30
0.0
 10
18.80747677878987
 20
0.2645711762073106
 30
0.0
 10
17.43517368641131
 20
0.8055659775599917
 30
0.0
 10
15.93978668839007
 20
1.297856126504898
 30
0.0
 10
14.44354432204734
 20
1.631957654013475
 30
0.0
 10
13.03842401329625
 20
1.785075248578688
 30
0.0
 10
12.13234212740142
 20
1.722333410183463
 30
0.0
 10
11.72495154640856
 20
1.694123560285461
 30
0.0
  0
SPLINE
  5
C3
330
1F
100
AcDbEntity
  8
0
  6
Continuous
 62
     1
370
    15
100
AcDbSpline
210
0.0
220
0.0
230
1.0
 70
     8
 71
     3
 72
    14
 73
    10
 74
     0
 42
0.000000001
 43
0.00000001
 40
0.0
 40
0.0
 40
0.0
 40
0.0
 40
0.1448399081506235
 40
0.2896706344701598
 40
0.4344968047880768
 40
0.5793230527319834
 40
0.7241540117965807
 40
0.8689943074130987
 40
0.9999999999999999
 40
0.9999999999999999
 40
0.9999999999999999
 40
0.9999999999999999
 10
4.866025403782267
 20
0.6673140388082688
 30
0.0
 10
5.250855992894111
 20
0.4485785505924923
 30
0.0
 10
6.020492775566108
 20
0.0111214404518758
 30
0.0
 10
7.174903094249476
 20
-0.6585856278296085
 30
0.0
 10
8.329271476173133
 20
-1.278040148948363
 30
0.0
 10
9.483639993968719
 20
-1.809203224812883
 30
0.0
 10
10.63805435740659
 20
-2.207999299790449
 30
0.0
 10
11.75576086997332
 20
-2.458397643889211
 30
0.0
 10
12.4886818007776
 20
-2.481415819733461
 30
0.0
 10
12.83676304269382
 20
-2.492347688230817
 30
0.0
  0
SPLINE
  5
C4
330
1F
100
AcDbEntity
  8
0
  6
Continuous
 62
     1
370
    15
100
AcDbSpline
210
0.0
220
0.0
230
1.0
 70
     8
 71
     3
 72
    21
 73
    17
 74
     0
 42
0.000000001
 43
0.00000001
 40
0.0
 40
0.0
 40
0.0
 40
0.0
 40
0.0206850330304742
 40
0.0960285917573828
 40
0.171371531484063
 40
0.2467134898878768
 40
0.3220541051607846
 40
0.3973930161986197
 40
0.4727298627895712
 40
0.5480642858016561
 40
0.6233959273689805
 40
0.6987244310765778
 40
0.7740494421436233
 40
0.849370607604815
 40
0.9246875764897372
 40
1.0
 40
1.0
 40
1.0
 40
1.0
 10
22.85089822213595
 20
1.675022534430765
 30
0.0
 10
22.96822133925411
 20
1.729016476519799
 30
0.0
 10
23.51288441524945
 20
1.979678982816061
 30
0.0
 10
24.48488332656429
 20
2.27558213651453
 30
0.0
 10
25.7668878078805
 20
2.507919520992377
 30
0.0
 10
27.04887222803597
 20
2.511349006303035
 30
0.0
 10
28.33082923774209
 20
2.2991749601214
 30
0.0
 10
29.61275145672298
 20
1.886219197389223
 30
0.0
 10
30.89463153655458
 20
1.309381621016863
 30
0.0
 10
32.17646214575236
 20
0.618614304195589
 30
0.0
 10
33.45823599039497
 20
-0.1260201393551614
 30
0.0
 10
34.73994577020093
 20
-0.8593837606963988
 30
0.0
 10
36.02158435706168
 20
-1.519101548675751
 30
0.0
 10
37.30314414814151
 20
-2.042496344321515
 30
0.0
 10
38.5846194977973
 20
-2.4038325253448
 30
0.0
 10
39.43889869466459
 20
-2.46653616454353
 30
0.0
 10
39.86602540378443
 20
-2.499999999999869
 30
0.0
  0
SPLINE
  5
C5
330
1F
100
AcDbEntity
  8
0
  6
Continuous
 62
     1
370
    15
100
AcDbSpline
210
0.0
220
0.0
230
1.0
 70
     8
 71
     3
 72
    13
 73
     9
 74
     0
 42
0.000000001
 43
0.00000001
 40
0.0
 40
0.0
 40
0.0
 40
0.0
 40
0.153465211736777
 40
0.3326551577683954
 40
0.5120217464585625
 40
0.6914140142187558
 40
0.8706805447207606
 40
1.0
 40
1.0
 40
1.0
 40
1.0
 10
33.66948432156745
 20
-0.2433057903891662
 30
0.0
 10
33.24279304622124
 20
-0.0706027772112811
 30
0.0
 10
32.31788601411713
 20
0.3037527359737242
 30
0.0
 10
30.89418792670359
 20
0.8580957682764241
 30
0.0
 10
29.39819630540026
 20
1.338315016101007
 30
0.0
 10
27.90198595765793
 20
1.65413891483468
 30
0.0
 10
26.54503759798528
 20
1.787225096944836
 30
0.0
 10
25.68707399216112
 20
1.717837587959092
 30
0.0
 10
25.32752627688267
 20
1.688759291216281
 30
0.0
  0
SPLINE
  5
C6
330
1F
100
AcDbEntity
  8
0
  6
Continuous
 62
     1
370
    15
100
AcDbSpline
210
0.0
220
0.0
230
1.0
 70
     8
 71
     3
 72
     9
 73
     5
 74
     0
 42
0.000000001
 43
0.00000001
 40
0.0
 40
0.0
 40
0.0
 40
0.0
 40
0.2423768199737043
 40
1.0
 40
1.0
 40
1.0
 40
1.0
 10
6.448501543869217
 20
-0.2354958737398208
 30
0.0
 10
6.320649905780058
 20
-0.1849593714604133
 30
0.0
 10
5.793158712096471
 20
0.0235444874683833
 30
0.0
 10
5.265666062377376
 20
0.2362499483646157
 30
0.0
 10
4.866025403656696
 20
0.3974005360577783
 30
0.0
  0
LINE
  5
C7
330
1F
100
AcDbEntity
  8
0
  6
Continuous
 62
   131
370
    15
100
AcDbLine
 10
4.866025403784437
 20
0.6673140388070645
 30
0.0
 11
4.866025403784437
 21
0.6581212426525967
 31
0.0
  0
SPLINE
  5
C8
330
1F
100
AcDbEntity
  8
0
  6
Continuous
 62
   131
370
    15
100
AcDbSpline
210
0.0
220
0.0
230
1.0
 70
    24
 71
     3
 72
     9
 73
     5
 74
     0
 42
0.000000001
 43
0.00000001
 40
0.0
 40
0.0
 40
0.0
 40
0.0
 40
0.3957253861976316
 40
1.0
 40
1.0
 40
1.0
 40
1.0
 10
4.866025403784437
 20
0.595000307313524
 30
0.0
 10
4.866025403784441
 20
0.5755308287175334
 30
0.0
 10
4.866025403784441
 20
0.5263313604118348
 30
0.0
 10
4.866025403784432
 20
0.4459643064829217
 30
0.0
 10
4.866025403784429
 20
0.3974005360075937
 30
0.0
  0
LINE
  5
C9
330
1F
100
AcDbEntity
  8
0
  6
Continuous
 62
   131
370
    15
100
AcDbLine
 10
4.866025403784437
 20
0.6673140388070645
 30
0.0
 11
4.866025403784437
 21
1.306759693902444
 31
0.0
  0
LINE
  5
CA
330
1F
100
AcDbEntity
  8
0
  6
Continuous
 62
     1
370
    15
100
AcDbLine
 10
39.86602540378443
 20
-2.499999999999869
 30
0.0
 11
39.86602540378444
 21
-2.372352173079756
 31
0.0
  0
SPLINE
  5
CB
330
1F
100
AcDbEntity
  8
0
  6
Continuous
 62
     1
370
    15
100
AcDbSpline
210
0.0
220
0.0
230
1.0
 70
     8
 71
     3
 72
     8
 73
     4
 74
     0
 42
0.000000001
 43
0.00000001
 40
0.0
 40
0.0
 40
0.0
 40
0.0
 40
1.0
 40
1.0
 40
1.0
 40
1.0
 10
38.31844673555916
 20
0.7000164084405773
 30
0.0
 10
38.20660797946343
 20
0.8325404951408046
 30
0.0
 10
38.10957015215359
 20
0.95918470980853
 30
0.0
 10
38.03295638611385
 20
1.077008495890189
 30
0.0
  0
LINE
  5
CC
330
1F
100
AcDbEntity
  8
0
  6
Continuous
 62
     1
370
    15
100
AcDbLine
 10
38.03295638611384
 20
1.077008495890193
 30
0.0
 11
39.86602540378444
 21
0.0000000000000046
 31
0.0
  0
LINE
  5
CD
330
1F
100
AcDbEntity
  8
0
  6
Continuous
 62
     1
370
    15
100
AcDbLine
 10
39.86602540378444
 20
0.0000000000000046
 30
0.0
 11
39.86602540378444
 21
-0.6681073650741074
 31
0.0
  0
SPLINE
  5
CE
330
1F
100
AcDbEntity
  8
0
  6
Continuous
 62
     1
370
    15
100
AcDbSpline
210
0.0
220
0.0
230
1.0
 70
     8
 71
     3
 72
    10
 73
     6
 74
     0
 42
0.000000001
 43
0.00000001
 40
0.0
 40
0.0
 40
0.0
 40
0.0
 40
0.5
 40
0.5
 40
1.0
 40
1.0
 40
1.0
 40
1.0
 10
39.86602540378444
 20
-0.6681073650741074
 30
0.0
 10
39.59812522224676
 20
-0.4574906938170793
 30
0.0
 10
39.33470397730503
 20
-0.2382331035478403
 30
0.0
 10
38.81703861831593
 20
0.2179869145392806
 30
0.0
 10
38.5603876670205
 20
0.4573610698567483
 30
0.0
 10
38.31844673555917
 20
0.7000164084405749
 30
0.0
  0
SPLINE
  5
CF
330
1F
100
AcDbEntity
  8
0
  6
Continuous
 62
     1
370
    15
100
AcDbSpline
210
0.0
220
0.0
230
1.0
 70
     8
 71
     3
 72
    12
 73
     8
 74
     0
 42
0.000000001
 43
0.00000001
 40
0.0
 40
0.0
 40
0.0
 40
0.0
 40
0.2148886804714421
 40
0.4297773623804527
 40
0.6446660457241495
 40
0.8595547304996507
 40
1.0
 40
1.0
 40
1.0
 40
1.0
 10
38.31844673555916
 20
0.7000164084405804
 30
0.0
 10
37.90601338021293
 20
0.8728282553264511
 30
0.0
 10
37.08114666676136
 20
1.218451950254274
 30
0.0
 10
35.84384659106971
 20
1.624455704699156
 30
0.0
 10
34.6065465060578
 20
1.896445642754149
 30
0.0
 10
33.51212479963438
 20
2.021108840868971
 30
0.0
 10
32.83013645443
 20
1.983086389219912
 30
0.0
 10
32.56058147442952
 20
1.968058066132133
 30
0.0
  0
SPLINE
  5
D0
330
1F
100
AcDbEntity
  8
0
  6
Continuous
 62
     1
370
    15
100
AcDbSpline
210
0.0
220
0.0
230
1.0
 70
     8
 71
     3
 72
    20
 73
    16
 74
     0
 42
0.000000001
 43
0.00000001
 40
0.0
 40
0.0
 40
0.0
 40
0.0
 40
0.0215226563280219
 40
0.1036971339279961
 40
0.1858706506882465
 40
0.2680427883076516
 40
0.3502131292173215
 40
0.4323812568015749
 40
0.5145467556178316
 40
0.600892219931512
 40
0.6872133679502446
 40
0.7735092026317851
 40
0.8598237870214657
 40
0.9461640942373851
 40
1.0
 40
1.0
 40
1.0
 40
1.0
 10
20.97460366130007
 20
-1.863397593061655
 30
0.0
 10
20.86267786386782
 20
-1.885727213283866
 30
0.0
 10
20.32341429763143
 20
-1.993312335838151
 30
0.0
 10
19.35681885839701
 20
-2.020929163615757
 30
0.0
 10
18.07482586938143
 20
-1.928547930147306
 30
0.0
 10
16.79285659310817
 20
-1.655848485318562
 30
0.0
 10
15.5109217005782
 20
-1.242465416444163
 30
0.0
 10
14.22901599949539
 20
-0.7200846036922239
 30
0.0
 10
12.92544137291062
 20
-0.1254460240814962
 30
0.0
 10
11.60013059971317
 20
0.491840729188993
 30
0.0
 10
10.25343311604291
 20
1.071424977156745
 30
0.0
 10
8.906967030278192
 20
1.550369891633752
 30
0.0
 10
7.560337717001428
 20
1.872423006698836
 30
0.0
 10
6.382468111234648
 20
2.022911769055563
 30
0.0
 10
5.653452675184667
 20
1.980992517095359
 30
0.0
 10
5.373467894024339
 20
1.964893060203095
 30
0.0
  0
SPLINE
  5
D1
330
1F
100
AcDbEntity
  8
0
  6
Continuous
 62
     1
370
    15
100
AcDbSpline
210
0.0
220
0.0
230
1.0
 70
    24
 71
     3
 72
    10
 73
     6
 74
     0
 42
0.000000001
 43
0.00000001
 40
0.0
 40
0.0
 40
0.0
 40
0.0
 40
0.5
 40
0.5
 40
1.0
 40
1.0
 40
1.0
 40
1.0
 10
39.86602540378444
 20
-1.972430660920536
 30
0.0
 10
39.86602540378444
 20
-1.821228472509508
 30
0.0
 10
39.86602540378443
 20
-1.630178709766167
 30
0.0
 10
39.86602540378443
 20
-1.186006397876696
 30
0.0
 10
39.86602540378444
 20
-0.93326860762827
 30
0.0
 10
39.86602540378444
 20
-0.6681073650741874
 30
0.0
  0
SPLINE
  5
D2
330
1F
100
AcDbEntity
  8
0
  6
Continuous
 62
   131
370
    15
100
AcDbSpline
210
0.0
220
0.0
230
1.0
 70
    24
 71
     3
 72
    12
 73
     8
 74
     0
 42
0.000000001
 43
0.00000001
 40
0.0
 40
0.0
 40
0.0
 40
0.0
 40
0.1114107362939202
 40
0.3625106100394114
 40
0.6208923971342343
 40
0.8467321789133654
 40
1.0
 40
1.0
 40
1.0
 40
1.0
 10
4.866025403784437
 20
1.947327283770018
 30
0.0
 10
4.866025403784437
 20
1.949103550372267
 30
0.0
 10
4.866025403784437
 20
1.954883204209897
 30
0.0
 10
4.866025403784437
 20
1.864496886376573
 30
0.0
 10
4.866025403784437
 20
1.707321518410195
 30
0.0
 10
4.866025403784437
 20
1.516041570234371
 30
0.0
 10
4.866025403784437
 20
1.367010741821067
 30
0.0
 10
4.866025403784437
 20
1.306759693904914
 30
0.0
  0
SPLINE
  5
D3
330
1F
100
AcDbEntity
  8
0
  6
Continuous
 62
     1
370
    15
100
AcDbSpline
210
0.0
220
0.0
230
1.0
 70
     8
 71
     3
 72
    20
 73
    16
 74
     0
 42
0.000000001
 43
0.00000001
 40
0.0
 40
0.0
 40
0.0
 40
0.0
 40
0.0770271395761047
 40
0.1562647499935404
 40
0.2355023609368105
 40
0.317590770722471
 40
0.3996815634793079
 40
0.4817743234485968
 40
0.563868633828338
 40
0.645964076993607
 40
0.7280602347178311
 40
0.8101566883947504
 40
0.8922530192608105
 40
0.9743488086177314
 40
1.0
 40
1.0
 40
1.0
 40
1.0
 10
34.57202988033958
 20
-1.877964219120548
 30
0.0
 10
34.17110243751526
 20
-1.927940018040654
 30
0.0
 10
33.3577420172365
 20
-2.029325786316029
 30
0.0
 10
32.13194156104311
 20
-1.9785273409524
 30
0.0
 10
30.87982578696787
 20
-1.776140349360463
 30
0.0
 10
29.61274817642905
 20
-1.41774174348101
 30
0.0
 10
28.33083262569951
 20
-0.9326953125263018
 30
0.0
 10
27.04887447958701
 20
-0.3662518576219118
 30
0.0
 10
25.76689100853807
 20
0.2319317070217153
 30
0.0
 10
24.48488694094177
 20
0.810194893809275
 30
0.0
 10
23.20287039905879
 20
1.31708579316478
 30
0.0
 10
21.92084853747027
 20
1.712694829026667
 30
0.0
 10
20.63882902878217
 20
1.946984224645
 30
0.0
 10
19.65062753231425
 20
2.032448633928767
 30
0.0
 10
19.08976768916312
 20
1.980303747048644
 30
0.0
 10
18.95624447508697
 20
1.967889677867378
 30
0.0
  0
SPLINE
  5
D4
330
1F
100
AcDbEntity
  8
0
  6
Continuous
 62
     1
370
    15
100
AcDbSpline
210
0.0
220
0.0
230
1.0
 70
     8
 71
     3
 72
     9
 73
     5
 74
     0
 42
0.000000001
 43
0.00000001
 40
0.0
 40
0.0
 40
0.0
 40
0.0
 40
0.4617260431445993
 40
1.0
 40
1.0
 40
1.0
 40
1.0
 10
7.369163676282522
 20
-1.868112195449856
 30
0.0
 10
6.983917917081712
 20
-1.922467888343498
 30
0.0
 10
6.149557878438273
 20
-2.040190710568232
 30
0.0
 10
5.315160033413621
 20
-1.980096536845675
 30
0.0
 10
4.866025403780585
 20
-1.947749408172078
 30
0.0
  0
SPLINE
  5
D5
330
1F
100
AcDbEntity
  8
0
  6
Continuous
 62
   131
370
    15
100
AcDbSpline
210
0.0
220
0.0
230
1.0
 70
    24
 71
     3
 72
    14
 73
    10
 74
     0
 42
0.000000001
 43
0.00000001
 40
0.0
 40
0.0
 40
0.0
 40
0.0
 40
0.25
 40
0.25
 40
0.5
 40
0.5
 40
0.75
 40
0.75
 40
1.0
 40
1.0
 40
1.0
 40
1.0
 10
4.866025403784434
 20
0.3974005360075915
 30
0.0
 10
4.866025403784434
 20
0.1759625978918689
 30
0.0
 10
4.866025403784437
 20
-0.0529810333124396
 30
0.0
 10
4.866025403784437
 20
-0.5049811878645067
 30
0.0
 10
4.866025403784437
 20
-0.7278065286346442
 30
0.0
 10
4.866025403784437
 20
-1.144607286991652
 30
0.0
 10
4.866025403784434
 20
-1.338360615708771
 30
0.0
 10
4.866025403784434
 20
-1.679587010983881
 30
0.0
 10
4.866025403784434
 20
-1.82698448268623
 30
0.0
 10
4.866025403784434
 20
-1.947749408172481
 30
0.0
  0
SPLINE
  5
D6
330
1F
100
AcDbEntity
  8
0
  6
Continuous
 62
     1
370
    15
100
AcDbSpline
210
0.0
220
0.0
230
1.0
 70
     8
 71
     3
 72
    10
 73
     6
 74
     0
 42
0.000000001
 43
0.00000001
 40
0.0
 40
0.0
 40
0.0
 40
0.0
 40
0.5
 40
0.5
 40
1.0
 40
1.0
 40
1.0
 40
1.0
 10
39.86602540378444
 20
1.750000000000004
 30
0.0
 10
39.55492357788158
 20
1.665537562068975
 30
0.0
 10
39.24613566657989
 20
1.568844760243827
 30
0.0
 10
38.63392002552208
 20
1.34712752723778
 30
0.0
 10
38.33031802148767
 20
1.222815499406803
 30
0.0
 10
38.03295638611236
 20
1.077008495891349
 30
0.0
  0
LINE
  5
D7
330
1F
100
AcDbEntity
  8
0
  6
Continuous
 62
     1
370
    15
100
AcDbLine
 10
39.86602540378444
 20
0.0000000000000046
 30
0.0
 11
39.86602540378444
 21
1.750000000000004
 31
0.0
  0
LINE
  5
D8
330
1F
100
AcDbEntity
  8
0
  6
Continuous
 62
   131
370
    15
100
AcDbLine
 10
3.866025403784434
 20
2.5
 30
0.0
 11
3.866025403784434
 21
-2.5
 31
0.0
  0
LINE
  5
D9
330
1F
100
AcDbEntity
  8
0
  6
Continuous
 62
   131
370
    15
100
AcDbLine
 10
2.0
 20
3.0
 30
0.0
 11
2.0
 21
-3.0
 31
0.0
  0
LINE
  5
DA
330
1F
100
AcDbEntity
  8
0
  6
Continuous
 62
   131
370
    15
100
AcDbLine
 10
-49.58397459621555
 20
2.999999999999993
 30
0.0
 11
-49.58397459621555
 21
-3.000000000000002
 31
0.0
  0
LINE
  5
DB
330
1F
100
AcDbEntity
  8
0
  6
Continuous
 62
   131
370
    15
100
AcDbLine
 10
-50.13397459621556
 20
2.449999999999994
 30
0.0
 11
-50.13397459621556
 21
-2.450000000000001
 31
0.0
  0
SPLINE
  5
DC
330
1F
100
AcDbEntity
  8
0
  6
Continuous
 62
   131
370
    15
100
AcDbSpline
210
0.0
220
0.0
230
1.0
 70
     8
 71
     3
 72
     8
 73
     4
 74
     0
 42
0.000000001
 43
0.00000001
 40
0.0
 40
0.0
 40
0.0
 40
0.0
 40
1.0
 40
1.0
 40
1.0
 40
1.0
 10
4.866025403782263
 20
1.306759693906172
 30
0.0
 10
4.568839082931055
 20
1.452771099557298
 30
0.0
 10
4.269816894716996
 20
1.589788783402549
 30
0.0
 10
3.976073929678858
 20
1.713988926158214
 30
0.0
  0
SPLINE
  5
DD
330
1F
100
AcDbEntity
  8
0
  6
Continuous
 62
   131
370
    15
100
AcDbSpline
210
0.0
220
0.0
230
1.0
 70
     8
 71
     3
 72
     8
 73
     4
 74
     0
 42
0.000000001
 43
0.00000001
 40
0.0
 40
0.0
 40
0.0
 40
0.0
 40
1.0
 40
1.0
 40
1.0
 40
1.0
 10
4.866025403782263
 20
0.6673140388082723
 30
0.0
 10
4.568830726367697
 20
0.83237595955603
 30
0.0
 10
4.269800723631363
 20
0.9930225096998334
 30
0.0
 10
3.976049150444595
 20
1.144700313442906
 30
0.0
  0
LINE
  5
DE
330
1F
100
AcDbEntity
  8
0
  6
Continuous
 62
   131
370
    15
100
AcDbLine
 10
3.976049150444595
 20
1.714066922803397
 30
0.0
 11
3.976049150444595
 21
2.5
 31
0.0
  0
LINE
  5
DF
330
1F
100
AcDbEntity
  8
0
  6
Continuous
 62
   131
370
    15
100
AcDbLine
 10
3.976049150444595
 20
-2.5
 30
0.0
 11
3.976049150444595
 21
1.145292791019807
 31
0.0
  0
LINE
  5
E0
330
1F
100
AcDbEntity
  8
0
  6
Continuous
 62
   131
370
    15
100
AcDbLine
 10
4.866025403784437
 20
0.6673140388070646
 30
0.0
 11
4.866025403784437
 21
0.6587736907748204
 31
0.0
  0
SPLINE
  5
E1
330
1F
100
AcDbEntity
  8
0
  6
Continuous
 62
   131
370
    15
100
AcDbSpline
210
0.0
220
0.0
230
1.0
 70
    24
 71
     3
 72
     9
 73
     5
 74
     0
 42
0.000000001
 43
0.00000001
 40
0.0
 40
0.0
 40
0.0
 40
0.0
 40
0.4010437955427357
 40
1.0
 40
1.0
 40
1.0
 40
1.0
 10
4.866025403784429
 20
0.5964204194230901
 30
0.0
 10
4.866025403784432
 20
0.5765364320112225
 30
0.0
 10
4.866025403784445
 20
0.5269558434748549
 30
0.0
 10
4.866025403784434
 20
0.4459309178977118
 30
0.0
 10
4.866025403784429
 20
0.3974005360075937
 30
0.0
  0
SPLINE
  5
E2
330
1F
100
AcDbEntity
  8
0
  6
Continuous
 62
   131
370
    15
100
AcDbSpline
210
0.0
220
0.0
230
1.0
 70
     8
 71
     3
 72
     8
 73
     4
 74
     0
 42
0.000000001
 43
0.00000001
 40
0.0
 40
0.0
 40
0.0
 40
0.0
 40
1.0
 40
1.0
 40
1.0
 40
1.0
 10
4.866025403651715
 20
0.3974005360597345
 30
0.0
 10
4.568832742533019
 20
0.5141609141670606
 30
0.0
 10
4.269804625314304
 20
0.6283281484128203
 30
0.0
 10
3.976055129126086
 20
0.7366600227207182
 30
0.0
  0
SPLINE
  5
E3
330
1F
100
AcDbEntity
  8
0
  6
Continuous
 62
   131
370
    15
100
AcDbSpline
210
0.0
220
0.0
230
1.0
 70
     8
 71
     3
 72
     8
 73
     4
 74
     0
 42
0.000000001
 43
0.00000001
 40
0.0
 40
0.0
 40
0.0
 40
0.0
 40
1.0
 40
1.0
 40
1.0
 40
1.0
 10
4.866025403784434
 20
-1.947749408172481
 30
0.0
 10
4.568833781611151
 20
-1.916634162387296
 30
0.0
 10
4.269806635943285
 20
-1.87162453199503
 30
0.0
 10
3.976058209980463
 20
-1.814169601645302
 30
0.0
  0
SPLINE
  5
E4
330
1F
100
AcDbEntity
  8
0
  6
Continuous
 62
   131
370
    15
100
AcDbSpline
210
0.0
220
0.0
230
1.0
 70
    24
 71
     3
 72
    14
 73
    10
 74
     0
 42
0.000000001
 43
0.00000001
 40
0.0
 40
0.0
 40
0.0
 40
0.0
 40
0.25
 40
0.25
 40
0.5
 40
0.5
 40
0.75
 40
0.75
 40
1.0
 40
1.0
 40
1.0
 40
1.0
 10
4.866025403784434
 20
0.3974005360075915
 30
0.0
 10
4.866025403784434
 20
0.1759625978918689
 30
0.0
 10
4.866025403784437
 20
-0.0529810333124396
 30
0.0
 10
4.866025403784437
 20
-0.5049811878645067
 30
0.0
 10
4.866025403784437
 20
-0.7278065286346442
 30
0.0
 10
4.866025403784437
 20
-1.144607286991652
 30
0.0
 10
4.866025403784434
 20
-1.338360615708771
 30
0.0
 10
4.866025403784434
 20
-1.679587010983881
 30
0.0
 10
4.866025403784434
 20
-1.82698448268623
 30
0.0
 10
4.866025403784434
 20
-1.947749408172481
 30
0.0
  0
SPLINE
  5
E5
330
1F
100
AcDbEntity
  8
0
  6
Continuous
 62
   131
370
    15
100
AcDbSpline
210
0.0
220
0.0
230
1.0
 70
    24
 71
     3
 72
    12
 73
     8
 74
     0
 42
0.000000001
 43
0.00000001
 40
0.0
 40
0.0
 40
0.0
 40
0.0
 40
0.1087466586063586
 40
0.3605993543792098
 40
0.619755795391189
 40
0.84627266696667
 40
1.0
 40
1.0
 40
1.0
 40
1.0
 10
4.866025403784437
 20
1.947321875394556
 30
0.0
 10
4.866025403784437
 20
1.949018352564366
 30
0.0
 10
4.866025403784441
 20
1.954643799635497
 30
0.0
 10
4.866025403784418
 20
1.864425316277774
 30
0.0
 10
4.866025403784445
 20
1.7073383763906
 30
0.0
 10
4.866025403784437
 20
1.516039049669851
 30
0.0
 10
4.866025403784437
 20
1.367010016165046
 30
0.0
 10
4.866025403784437
 20
1.306759693904914
 30
0.0
  0
LINE
  5
E6
330
1F
100
AcDbEntity
  8
중심선
 62
     1
100
AcDbLine
 10
-53.13397459621556
 20
-0.0000000000000046
 30
0.0
 11
42.86602540378444
 21
0.0000000000000049
 31
0.0
  0
CIRCLE
  5
E7
330
1F
100
AcDbEntity
  8
외형선
100
AcDbCircle
 10
0.0000000000000104
 20
0.0
 30
0.0
 40
3.000000000000005
  0
INSERT
  5
E8
330
1F
100
AcDbEntity
  8
0
  6
Continuous
 62
     7
100
AcDbBlockReference
 66
     1
  2
블럭10
 10
-22.93944368806589
 20
-52.04609937292004
 30
0.0
  0
ATTRIB
  5
E9
330
E8
100
AcDbEntity
  8
FORMAT
 62
     2
100
AcDbText
 10
-39.05870472750145
 20
-49.97073246008785
 30
0.0
 40
4.233333333333333
  1
SEME7005035E [ 2 FLUTE ]
 41
0.75
  7
SLDTEXTSTYLE0
 11
-39.05870472750145
 21
-52.08739912675452
 31
0.0
100
AcDbAttribute
  2
AUTOATTR0
 70
     0
 74
     1
  0
SEQEND
  5
EA
330
E8
100
AcDbEntity
  8
0
  6
Continuous
 62
     7
  0
HATCH
  5
EB
330
1F
100
AcDbEntity
  8
중심선
100
AcDbHatch
 10
0.0
 20
0.0
 30
0.0
210
0.0
220
0.0
230
1.0
  2
SOLID
 70
     1
 71
     0
 91
        1
 92
        0
 93
        4
 72
     1
 10
-17.22453438368504
 20
-35.7989250712761
 11
-20.67080962752232
 21
-35.7989250712761
 72
     1
 10
-20.67080962752232
 20
-35.7989250712761
 11
-22.79903948672635
 21
-38.3352506518487
 72
     1
 10
-22.79903948672635
 20
-38.3352506518487
 11
-19.35273115777591
 21
-38.33521122254621
 72
     1
 10
-19.35273115777591
 20
-38.33521122254621
 11
-17.22453438368504
 21
-35.7989250712761
 97
        0
 75
     0
 76
     1
 98
        1
 10
0.0
 20
0.0
  0
HATCH
  5
EC
330
1F
100
AcDbEntity
  8
중심선
100
AcDbHatch
 10
0.0
 20
0.0
 30
0.0
210
0.0
220
0.0
230
1.0
  2
SOLID
 70
     1
 71
     0
 91
        1
 92
        0
 93
        4
 72
     1
 10
-12.21177039264909
 20
-35.7989250712761
 11
-15.65804563648637
 21
-35.7989250712761
 72
     1
 10
-15.65804563648637
 20
-35.7989250712761
 11
-20.18918364484376
 21
-41.19892507127612
 72
     1
 10
-20.18918364484376
 20
-41.19892507127612
 11
-16.74290840100648
 21
-41.19892507127612
 72
     1
 10
-16.74290840100648
 20
-41.19892507127612
 11
-12.21177039264909
 21
-35.7989250712761
 97
        0
 75
     0
 76
     1
 98
        1
 10
0.0
 20
0.0
  0
HATCH
  5
ED
330
1F
100
AcDbEntity
  8
중심선
100
AcDbHatch
 10
0.0
 20
0.0
 30
0.0
210
0.0
220
0.0
230
1.0
  2
SOLID
 70
     1
 71
     0
 91
        1
 92
        0
 93
        4
 72
     1
 10
-7.199006401613195
 20
-35.79892507127613
 11
-10.64528164545031
 21
-35.7989250712761
 72
     1
 10
-10.64528164545031
 20
-35.7989250712761
 11
-17.69371854733956
 21
-44.19892507127612
 72
     1
 10
-17.69371854733956
 20
-44.19892507127612
 11
-14.24744330350228
 21
-44.19892507127612
 72
     1
 10
-14.24744330350228
 20
-44.19892507127612
 11
-7.199006401613195
 21
-35.79892507127613
 97
        0
 75
     0
 76
     1
 98
        1
 10
0.0
 20
0.0
  0
HATCH
  5
EE
330
1F
100
AcDbEntity
  8
중심선
100
AcDbHatch
 10
0.0
 20
0.0
 30
0.0
210
0.0
220
0.0
230
1.0
  2
SOLID
 70
     1
 71
     0
 91
        1
 92
        0
 93
        6
 72
     3
 10
-2.399115970600996
 20
-39.99892507132738
 11
3.960054785062284
 21
1.540850780301639E-10
 40
0.3939339440162633
 50
17.09539180608433
 51
320.0019657685079
 73
     0
 72
     1
 10
-0.7161163149004002
 20
-38.58681907591441
 11
1.589185558800638
 21
-36.65249236586649
 72
     3
 10
-2.399115970653842
 20
-39.99892507127625
 11
6.600054785286829
 21
-1.249000902703301E-13
 40
0.6363583540795982
 50
39.99873849337408
 51
368.4976242363725
 73
     1
 72
     1
 10
4.026216521246767
 20
-39.03892507120613
 11
-3.71904866381792
 21
-39.0389250712061
 72
     1
 10
-3.71904866381792
 20
-39.0389250712061
 11
-3.719073708263854
 21
-40.95892507120602
 72
     1
 10
-3.719073708263854
 20
-40.95892507120602
 11
0.7223060612081831
 21
-40.95892507120599
 97
        0
 75
     0
 76
     1
 98
        1
 10
0.0
 20
0.0
  0
DIMENSION
  5
EF
330
1F
100
AcDbEntity
  8
치수문자_일반주서
100
AcDbDimension
  2
_D
 10
49.99815280333439
 20
2.500000000000165
 30
0.0
 11
49.99815280333436
 21
12.16650000000017
 31
0.0
 70
   160
  1
%%c<>
 71
     2
 42
4.999999999999998
 52
-270.0
  3
SLDDIMSTYLE0
100
AcDbAlignedDimension
 13
39.86602540378443
 23
-2.499999999999869
 33
0.0
 14
39.86602540378444
 24
2.500000000000129
 34
0.0
 50
90.0000000000002
100
AcDbRotatedDimension
  0
DIMENSION
  5
FD
330
1F
100
AcDbEntity
  8
치수문자_일반주서
100
AcDbDimension
  2
_D_1
 10
39.86602540378444
 20
24.23841044024269
 30
0.0
 11
-5.133974596215558
 21
24.23841044024269
 31
0.0
 70
   160
  1
<>
 71
     2
 42
90.0
  3
SLDDIMSTYLE1
100
AcDbAlignedDimension
 13
-50.13397459621556
 23
2.449999999999994
 33
0.0
 14
39.86602540378444
 24
2.500000000000129
 34
0.0
 50
-0.0000000000000045
100
AcDbRotatedDimension
  0
DIMENSION
  5
108
330
1F
100
AcDbEntity
  8
치수문자_일반주서
100
AcDbDimension
  2
_D_2
 10
39.86602540378445
 20
15.31236336052008
 30
0.0
 11
22.36602540378445
 21
15.31236336052008
 31
0.0
 70
   160
  1
<>
 71
     2
 42
35.0
  3
SLDDIMSTYLE1
100
AcDbAlignedDimension
 13
4.866025403784437
 23
1.965365554352574
 33
0.0
 14
39.86602540378444
 24
2.500000000000129
 34
0.0
 50
-0.0000000000000582
100
AcDbRotatedDimension
  0
DIMENSION
  5
112
330
1F
100
AcDbEntity
  8
치수문자_일반주서
100
AcDbDimension
  2
_D_3
 10
-61.1396130527258
 20
-3.000000000000044
 30
0.0
 11
-61.13961305272586
 21
12.66649999999995
 31
0.0
 70
   160
  1
%%c<>
 71
     2
 42
5.999999999999993
 52
-270.0
  3
SLDDIMSTYLE0
100
AcDbAlignedDimension
 13
-49.58397459621555
 23
2.999999999999993
 33
0.0
 14
-49.58397459621555
 24
-3.0
 34
0.0
 50
90.0000000000002
100
AcDbRotatedDimension
  0
INSERT
  5
125
330
1F
100
AcDbEntity
  8
외형선
100
AcDbBlockReference
  2
SW_DOWELSYMBOL_0
 10
0.0000000000000104
 20
0.0
 30
0.0
  0
ENDSEC
  0
SECTION
  2
OBJECTS
  0
DICTIONARY
  5
C
330
0
100
AcDbDictionary
281
     1
  3
ACAD_GROUP
350
D
  3
ACAD_IMAGE_VARS
350
149
  3
ACAD_LAYOUT
350
1A
  3
ACAD_MLINESTYLE
350
17
  3
ACAD_PLOTSETTINGS
350
19
  3
ACAD_PLOTSTYLENAME
350
E
  3
ACAD_SCALELIST
350
47
  3
APPDATA
350
147
  3
DWGPROPS
350
158
  0
DICTIONARY
  5
D
102
{ACAD_REACTORS
330
C
102
}
330
C
100
AcDbDictionary
281
     1
  0
RASTERVARIABLES
  5
149
102
{ACAD_REACTORS
330
C
102
}
330
C
100
AcDbRasterVariables
 90
        0
 70
     1
 71
     1
 72
     1
  0
DICTIONARY
  5
1A
102
{ACAD_REACTORS
330
C
102
}
330
C
100
AcDbDictionary
281
     1
  3
Layout1
350
1E
  3
Layout2
350
26
  3
Model
350
22
  0
DICTIONARY
  5
17
102
{ACAD_REACTORS
330
C
102
}
330
C
100
AcDbDictionary
281
     1
  3
Standard
350
18
  0
DICTIONARY
  5
19
102
{ACAD_REACTORS
330
C
102
}
330
C
100
AcDbDictionary
281
     1
  0
ACDBDICTIONARYWDFLT
  5
E
102
{ACAD_REACTORS
330
C
102
}
330
C
100
AcDbDictionary
281
     1
  3
Normal
350
F
100
AcDbDictionaryWithDefault
340
F
  0
DICTIONARY
  5
47
102
{ACAD_REACTORS
330
C
102
}
330
C
100
AcDbDictionary
281
     1
  3
A0
350
48
  3
A1
350
49
  3
A2
350
4A
  3
A3
350
4B
  3
A4
350
4C
  3
A5
350
4D
  3
A6
350
4E
  3
A7
350
4F
  3
A8
350
50
  3
A9
350
51
  3
B0
350
52
  3
B1
350
53
  3
B2
350
54
  3
B3
350
55
  3
B4
350
56
  3
B5
350
57
  3
B6
350
58
  3
B7
350
59
  3
B8
350
5A
  3
B9
350
5B
  3
C0
350
5C
  3
C1
350
5D
  3
C2
350
5E
  3
C3
350
5F
  3
C4
350
60
  3
C5
350
61
  3
C6
350
62
  3
C7
350
63
  3
C8
350
64
  3
C9
350
65
  3
D0
350
66
  3
D1
350
67
  3
D2
350
68
  0
DICTIONARY
  5
147
102
{ACAD_REACTORS
330
C
102
}
330
C
100
AcDbDictionary
281
     1
  0
XRECORD
  5
158
102
{ACAD_REACTORS
330
C
102
}
330
C
100
AcDbXrecord
280
     1
  1
DWGPROPS COOKIE
  2

  3

  4

  6

  7

  8
12014102
  9

300
=
301
=
302
=
303
=
304
=
305
=
306
=
307
=
308
=
309
=
 40
0.0
 41
2458262.165415613
 42
2458266.018638669
  1

 90
        0
  0
LAYOUT
  5
1E
102
{ACAD_REACTORS
330
1A
102
}
330
1A
100
AcDbPlotSettings
  1

  2
none_device
  4

  6

 40
0.0
 41
0.0
 42
0.0
 43
0.0
 44
0.0
 45
0.0
 46
0.0
 47
0.0
 48
0.0
 49
0.0
140
0.0
141
0.0
142
1.0
143
1.0
 70
   688
 72
     1
 73
     0
 74
     5
  7

 75
    16
147
1.0
148
0.0
149
0.0
100
AcDbLayout
  1
Layout1
 70
     1
 71
     1
 10
0.0
 20
0.0
 11
420.0
 21
297.0
 12
0.0
 22
0.0
 32
0.0
 14
1.000000000000000E+20
 24
1.000000000000000E+20
 34
1.000000000000000E+20
 15
-1.000000000000000E+20
 25
-1.000000000000000E+20
 35
-1.000000000000000E+20
146
0.0
 13
0.0
 23
0.0
 33
0.0
 16
1.0
 26
0.0
 36
0.0
 17
0.0
 27
1.0
 37
0.0
 76
     0
330
1B
  0
LAYOUT
  5
26
102
{ACAD_REACTORS
330
1A
102
}
330
1A
100
AcDbPlotSettings
  1

  2
none_device
  4

  6

 40
0.0
 41
0.0
 42
0.0
 43
0.0
 44
0.0
 45
0.0
 46
0.0
 47
0.0
 48
0.0
 49
0.0
140
0.0
141
0.0
142
1.0
143
1.0
 70
   688
 72
     1
 73
     0
 74
     5
  7

 75
    16
147
1.0
148
0.0
149
0.0
100
AcDbLayout
  1
Layout2
 70
     1
 71
     2
 10
0.0
 20
0.0
 11
0.0
 21
0.0
 12
0.0
 22
0.0
 32
0.0
 14
0.0
 24
0.0
 34
0.0
 15
0.0
 25
0.0
 35
0.0
146
0.0
 13
0.0
 23
0.0
 33
0.0
 16
1.0
 26
0.0
 36
0.0
 17
0.0
 27
1.0
 37
0.0
 76
     0
330
23
  0
LAYOUT
  5
22
102
{ACAD_REACTORS
330
1A
102
}
330
1A
100
AcDbPlotSettings
  1

  2
none_device
  4
ANSI_A_(11.00_x_8.50_Inches)
  6

 40
6.35
 41
19.05
 42
6.35000508
 43
19.05000254
 44
279.4
 45
215.9
 46
141.8084973264086
 47
117.4190773131288
 48
0.0
 49
0.0
140
0.0
141
0.0
142
0.1022423202765948
143
1.0
 70
  1696
 72
     0
 73
     0
 74
     0
  7

 75
     0
147
0.0235690232323232
148
0.0
149
0.0
100
AcDbLayout
  1
Model
 70
     1
 71
     0
 10
0.0
 20
0.0
 11
420.0
 21
297.0
 12
0.0
 22
0.0
 32
0.0
 14
-65.51461305272585
 24
-49.97073246008785
 34
0.0
 15
50.54848613666773
 25
28.61341044024268
 35
0.0
146
0.0
 13
0.0
 23
0.0
 33
0.0
 16
1.0
 26
0.0
 36
0.0
 17
0.0
 27
1.0
 37
0.0
 76
     0
330
1F
331
29
  0
MLINESTYLE
  5
18
102
{ACAD_REACTORS
330
17
102
}
330
17
100
AcDbMlineStyle
  2
Standard
 70
     0
  3

 62
   256
 51
90.0
 52
90.0
 71
     2
 49
0.5
 62
   256
  6
BYLAYER
 49
-0.5
 62
   256
  6
BYLAYER
  0
ACDBPLACEHOLDER
  5
F
102
{ACAD_REACTORS
330
E
102
}
330
E
  0
SCALE
  5
48
102
{ACAD_REACTORS
330
47
102
}
330
47
100
AcDbScale
 70
     0
300
1:1
140
1.0
141
1.0
290
     1
  0
SCALE
  5
49
102
{ACAD_REACTORS
330
47
102
}
330
47
100
AcDbScale
 70
     0
300
1:2
140
1.0
141
2.0
290
     0
  0
SCALE
  5
4A
102
{ACAD_REACTORS
330
47
102
}
330
47
100
AcDbScale
 70
     0
300
1:4
140
1.0
141
4.0
290
     0
  0
SCALE
  5
4B
102
{ACAD_REACTORS
330
47
102
}
330
47
100
AcDbScale
 70
     0
300
1:5
140
1.0
141
5.0
290
     0
  0
SCALE
  5
4C
102
{ACAD_REACTORS
330
47
102
}
330
47
100
AcDbScale
 70
     0
300
1:8
140
1.0
141
8.0
290
     0
  0
SCALE
  5
4D
102
{ACAD_REACTORS
330
47
102
}
330
47
100
AcDbScale
 70
     0
300
1:10
140
1.0
141
10.0
290
     0
  0
SCALE
  5
4E
102
{ACAD_REACTORS
330
47
102
}
330
47
100
AcDbScale
 70
     0
300
1:16
140
1.0
141
16.0
290
     0
  0
SCALE
  5
4F
102
{ACAD_REACTORS
330
47
102
}
330
47
100
AcDbScale
 70
     0
300
1:20
140
1.0
141
20.0
290
     0
  0
SCALE
  5
50
102
{ACAD_REACTORS
330
47
102
}
330
47
100
AcDbScale
 70
     0
300
1:30
140
1.0
141
30.0
290
     0
  0
SCALE
  5
51
102
{ACAD_REACTORS
330
47
102
}
330
47
100
AcDbScale
 70
     0
300
1:40
140
1.0
141
40.0
290
     0
  0
SCALE
  5
52
102
{ACAD_REACTORS
330
47
102
}
330
47
100
AcDbScale
 70
     0
300
1:50
140
1.0
141
50.0
290
     0
  0
SCALE
  5
53
102
{ACAD_REACTORS
330
47
102
}
330
47
100
AcDbScale
 70
     0
300
1:100
140
1.0
141
100.0
290
     0
  0
SCALE
  5
54
102
{ACAD_REACTORS
330
47
102
}
330
47
100
AcDbScale
 70
     0
300
2:1
140
2.0
141
1.0
290
     0
  0
SCALE
  5
55
102
{ACAD_REACTORS
330
47
102
}
330
47
100
AcDbScale
 70
     0
300
4:1
140
4.0
141
1.0
290
     0
  0
SCALE
  5
56
102
{ACAD_REACTORS
330
47
102
}
330
47
100
AcDbScale
 70
     0
300
8:1
140
8.0
141
1.0
290
     0
  0
SCALE
  5
57
102
{ACAD_REACTORS
330
47
102
}
330
47
100
AcDbScale
 70
     0
300
10:1
140
10.0
141
1.0
290
     0
  0
SCALE
  5
58
102
{ACAD_REACTORS
330
47
102
}
330
47
100
AcDbScale
 70
     0
300
100:1
140
100.0
141
1.0
290
     0
  0
SCALE
  5
59
102
{ACAD_REACTORS
330
47
102
}
330
47
100
AcDbScale
 70
     0
300
1/128" = 1'-0"
140
0.0078125
141
12.0
290
     0
  0
SCALE
  5
5A
102
{ACAD_REACTORS
330
47
102
}
330
47
100
AcDbScale
 70
     0
300
1/64" = 1'-0"
140
0.015625
141
12.0
290
     0
  0
SCALE
  5
5B
102
{ACAD_REACTORS
330
47
102
}
330
47
100
AcDbScale
 70
     0
300
1/32" = 1'-0"
140
0.03125
141
12.0
290
     0
  0
SCALE
  5
5C
102
{ACAD_REACTORS
330
47
102
}
330
47
100
AcDbScale
 70
     0
300
1/16" = 1'-0"
140
0.0625
141
12.0
290
     0
  0
SCALE
  5
5D
102
{ACAD_REACTORS
330
47
102
}
330
47
100
AcDbScale
 70
     0
300
3/32" = 1'-0"
140
0.09375
141
12.0
290
     0
  0
SCALE
  5
5E
102
{ACAD_REACTORS
330
47
102
}
330
47
100
AcDbScale
 70
     0
300
1/8" = 1'-0"
140
0.125
141
12.0
290
     0
  0
SCALE
  5
5F
102
{ACAD_REACTORS
330
47
102
}
330
47
100
AcDbScale
 70
     0
300
3/16" = 1'-0"
140
0.1875
141
12.0
290
     0
  0
SCALE
  5
60
102
{ACAD_REACTORS
330
47
102
}
330
47
100
AcDbScale
 70
     0
300
1/4" = 1'-0"
140
0.25
141
12.0
290
     0
  0
SCALE
  5
61
102
{ACAD_REACTORS
330
47
102
}
330
47
100
AcDbScale
 70
     0
300
3/8" = 1'-0"
140
0.375
141
12.0
290
     0
  0
SCALE
  5
62
102
{ACAD_REACTORS
330
47
102
}
330
47
100
AcDbScale
 70
     0
300
1/2" = 1'-0"
140
0.5
141
12.0
290
     0
  0
SCALE
  5
63
102
{ACAD_REACTORS
330
47
102
}
330
47
100
AcDbScale
 70
     0
300
3/4" = 1'-0"
140
0.75
141
12.0
290
     0
  0
SCALE
  5
64
102
{ACAD_REACTORS
330
47
102
}
330
47
100
AcDbScale
 70
     0
300
1" = 1'-0"
140
1.0
141
12.0
290
     0
  0
SCALE
  5
65
102
{ACAD_REACTORS
330
47
102
}
330
47
100
AcDbScale
 70
     0
300
1-1/2" = 1'-0"
140
1.5
141
12.0
290
     0
  0
SCALE
  5
66
102
{ACAD_REACTORS
330
47
102
}
330
47
100
AcDbScale
 70
     0
300
3" = 1'-0"
140
3.0
141
12.0
290
     0
  0
SCALE
  5
67
102
{ACAD_REACTORS
330
47
102
}
330
47
100
AcDbScale
 70
     0
300
6" = 1'-0"
140
6.0
141
12.0
290
     0
  0
SCALE
  5
68
102
{ACAD_REACTORS
330
47
102
}
330
47
100
AcDbScale
 70
     0
300
1'-0" = 1'-0"
140
12.0
141
12.0
290
     0
  0
ENDSEC
  0
EOF
