  0
SECTION
  2
HEADER
  9
$ACADVER
  1
AC1015
  9
$ACADMAINTVER
 70
     6
  9
$DWGCODEPAGE
  3
ANSI_949
  9
$INSBASE
 10
0.0
 20
0.0
 30
0.0
  9
$EXTMIN
 10
-69.94986272582977
 20
-49.97073246008785
 30
0.0
  9
$EXTMAX
 10
55.78324758680671
 20
28.61341044024269
 30
0.0
  9
$LIMMIN
 10
0.0
 20
0.0
  9
$LIMMAX
 10
420.0
 20
297.0
  9
$ORTHOMODE
 70
     0
  9
$REGENMODE
 70
     1
  9
$FILLMODE
 70
     1
  9
$QTEXTMODE
 70
     0
  9
$MIRRTEXT
 70
     1
  9
$LTSCALE
 40
1.0
  9
$ATTMODE
 70
     1
  9
$TEXTSIZE
 40
3.5
  9
$TRACEWID
 40
1.0
  9
$TEXTSTYLE
  7
Standard
  9
$CLAYER
  8
0
  9
$CELTYPE
  6
ByLayer
  9
$CECOLOR
 62
   256
  9
$CELTSCALE
 40
1.0
  9
$DISPSILH
 70
     0
  9
$DIMSCALE
 40
1.0
  9
$DIMASZ
 40
3.302
  9
$DIMEXO
 40
1.0
  9
$DIMDLI
 40
3.75
  9
$DIMRND
 40
0.0
  9
$DIMDLE
 40
0.0
  9
$DIMEXE
 40
1.0
  9
$DIMTP
 40
0.0
  9
$DIMTM
 40
0.0
  9
$DIMTXT
 40
3.5
  9
$DIMCEN
 40
2.5
  9
$DIMTSZ
 40
0.0
  9
$DIMTOL
 70
     0
  9
$DIMLIM
 70
     0
  9
$DIMTIH
 70
     1
  9
$DIMTOH
 70
     1
  9
$DIMSE1
 70
     0
  9
$DIMSE2
 70
     0
  9
$DIMTAD
 70
     1
  9
$DIMZIN
 70
     0
  9
$DIMBLK
  1

  9
$DIMASO
 70
     1
  9
$DIMSHO
 70
     1
  9
$DIMPOST
  1

  9
$DIMAPOST
  1

  9
$DIMALT
 70
     0
  9
$DIMALTD
 70
     3
  9
$DIMALTF
 40
0.0393700787401575
  9
$DIMLFAC
 40
1.0
  9
$DIMTOFL
 70
     1
  9
$DIMTVP
 40
0.0
  9
$DIMTIX
 70
     0
  9
$DIMSOXD
 70
     0
  9
$DIMSAH
 70
     0
  9
$DIMBLK1
  1

  9
$DIMBLK2
  1

  9
$DIMSTYLE
  2
ISO-25
  9
$DIMCLRD
 70
     0
  9
$DIMCLRE
 70
     0
  9
$DIMCLRT
 70
     0
  9
$DIMTFAC
 40
1.0
  9
$DIMGAP
 40
1.524
  9
$DIMJUST
 70
     0
  9
$DIMSD1
 70
     0
  9
$DIMSD2
 70
     0
  9
$DIMTOLJ
 70
     0
  9
$DIMTZIN
 70
     0
  9
$DIMALTZ
 70
     0
  9
$DIMALTTZ
 70
     0
  9
$DIMUPT
 70
     0
  9
$DIMDEC
 70
     2
  9
$DIMTDEC
 70
     2
  9
$DIMALTU
 70
     2
  9
$DIMALTTD
 70
     3
  9
$DIMTXSTY
  7
Standard
  9
$DIMAUNIT
 70
     0
  9
$DIMADEC
 70
     2
  9
$DIMALTRND
 40
0.0
  9
$DIMAZIN
 70
     0
  9
$DIMDSEP
 70
    44
  9
$DIMATFIT
 70
     3
  9
$DIMFRAC
 70
     0
  9
$DIMLDRBLK
  1

  9
$DIMLUNIT
 70
     2
  9
$DIMLWD
 70
    -2
  9
$DIMLWE
 70
    -2
  9
$DIMTMOVE
 70
     0
  9
$LUNITS
 70
     2
  9
$LUPREC
 70
     2
  9
$SKETCHINC
 40
1.0
  9
$FILLETRAD
 40
10.0
  9
$AUNITS
 70
     0
  9
$AUPREC
 70
     2
  9
$MENU
  1
.
  9
$ELEVATION
 40
0.0
  9
$PELEVATION
 40
0.0
  9
$THICKNESS
 40
0.0
  9
$LIMCHECK
 70
     0
  9
$CHAMFERA
 40
0.0
  9
$CHAMFERB
 40
0.0
  9
$CHAMFERC
 40
0.0
  9
$CHAMFERD
 40
0.0
  9
$SKPOLY
 70
     0
  9
$TDCREATE
 40
2458262.540602616
  9
$TDUCREATE
 40
2458262.165602616
  9
$TDUPDATE
 40
2458266.395312847
  9
$TDUUPDATE
 40
2458266.020312847
  9
$TDINDWG
 40
0.0014986921
  9
$TDUSRTIMER
 40
2458266.01881419
  9
$USRTIMER
 70
     1
  9
$ANGBASE
 50
0.0
  9
$ANGDIR
 70
     0
  9
$PDMODE
 70
     0
  9
$PDSIZE
 40
-1.0
  9
$PLINEWID
 40
0.0
  9
$SPLFRAME
 70
     0
  9
$SPLINETYPE
 70
     6
  9
$SPLINESEGS
 70
     8
  9
$HANDSEED
  5
15F
  9
$SURFTAB1
 70
     6
  9
$SURFTAB2
 70
     6
  9
$SURFTYPE
 70
     6
  9
$SURFU
 70
     6
  9
$SURFV
 70
     6
  9
$UCSBASE
  2

  9
$UCSNAME
  2

  9
$UCSORG
 10
0.0
 20
0.0
 30
0.0
  9
$UCSXDIR
 10
1.0
 20
0.0
 30
0.0
  9
$UCSYDIR
 10
0.0
 20
1.0
 30
0.0
  9
$UCSORTHOREF
  2

  9
$UCSORTHOVIEW
 70
     0
  9
$UCSORGTOP
 10
0.0
 20
0.0
 30
0.0
  9
$UCSORGBOTTOM
 10
0.0
 20
0.0
 30
0.0
  9
$UCSORGLEFT
 10
0.0
 20
0.0
 30
0.0
  9
$UCSORGRIGHT
 10
0.0
 20
0.0
 30
0.0
  9
$UCSORGFRONT
 10
0.0
 20
0.0
 30
0.0
  9
$UCSORGBACK
 10
0.0
 20
0.0
 30
0.0
  9
$PUCSBASE
  2

  9
$PUCSNAME
  2

  9
$PUCSORG
 10
0.0
 20
0.0
 30
0.0
  9
$PUCSXDIR
 10
1.0
 20
0.0
 30
0.0
  9
$PUCSYDIR
 10
0.0
 20
1.0
 30
0.0
  9
$PUCSORTHOREF
  2

  9
$PUCSORTHOVIEW
 70
     0
  9
$PUCSORGTOP
 10
0.0
 20
0.0
 30
0.0
  9
$PUCSORGBOTTOM
 10
0.0
 20
0.0
 30
0.0
  9
$PUCSORGLEFT
 10
0.0
 20
0.0
 30
0.0
  9
$PUCSORGRIGHT
 10
0.0
 20
0.0
 30
0.0
  9
$PUCSORGFRONT
 10
0.0
 20
0.0
 30
0.0
  9
$PUCSORGBACK
 10
0.0
 20
0.0
 30
0.0
  9
$USERI1
 70
     0
  9
$USERI2
 70
     0
  9
$USERI3
 70
     0
  9
$USERI4
 70
     0
  9
$USERI5
 70
     0
  9
$USERR1
 40
0.0
  9
$USERR2
 40
0.0
  9
$USERR3
 40
0.0
  9
$USERR4
 40
0.0
  9
$USERR5
 40
0.0
  9
$WORLDVIEW
 70
     1
  9
$SHADEDGE
 70
     3
  9
$SHADEDIF
 70
    70
  9
$TILEMODE
 70
     1
  9
$MAXACTVP
 70
    64
  9
$PINSBASE
 10
0.0
 20
0.0
 30
0.0
  9
$PLIMCHECK
 70
     0
  9
$PEXTMIN
 10
1.000000000000000E+20
 20
1.000000000000000E+20
 30
1.000000000000000E+20
  9
$PEXTMAX
 10
-1.000000000000000E+20
 20
-1.000000000000000E+20
 30
-1.000000000000000E+20
  9
$PLIMMIN
 10
0.0
 20
0.0
  9
$PLIMMAX
 10
0.0
 20
0.0
  9
$UNITMODE
 70
     0
  9
$VISRETAIN
 70
     1
  9
$PLINEGEN
 70
     0
  9
$PSLTSCALE
 70
     1
  9
$TREEDEPTH
 70
  3020
  9
$CMLSTYLE
  2
Standard
  9
$CMLJUST
 70
     0
  9
$CMLSCALE
 40
20.0
  9
$PROXYGRAPHICS
 70
     1
  9
$MEASUREMENT
 70
     1
  9
$CELWEIGHT
370
    -1
  9
$ENDCAPS
280
     0
  9
$JOINSTYLE
280
     0
  9
$LWDISPLAY
290
     1
  9
$INSUNITS
 70
     4
  9
$HYPERLINKBASE
  1

  9
$STYLESHEET
  1

  9
$XEDIT
290
     1
  9
$CEPSNTYPE
380
     0
  9
$PSTYLEMODE
290
     1
  9
$FINGERPRINTGUID
  2
{9FF4CBC0-A5C2-454B-AE8E-8DFD23CF1AA9}
  9
$VERSIONGUID
  2
{FAEB1C32-E019-11D5-929B-00C0DF256EC4}
  9
$EXTNAMES
290
     1
  9
$PSVPSCALE
 40
0.0
  9
$OLESTARTUP
290
     0
  0
ENDSEC
  0
SECTION
  2
CLASSES
  0
CLASS
  1
ACDBDICTIONARYWDFLT
  2
AcDbDictionaryWithDefault
  3
ObjectDBX Classes
 90
        0
280
     0
281
     0
  0
CLASS
  1
VISUALSTYLE
  2
AcDbVisualStyle
  3
ObjectDBX Classes
 90
     4095
280
     0
281
     0
  0
CLASS
  1
MATERIAL
  2
AcDbMaterial
  3
ObjectDBX Classes
 90
     1153
280
     0
281
     0
  0
CLASS
  1
SCALE
  2
AcDbScale
  3
ObjectDBX Classes
 90
     1153
280
     0
281
     0
  0
CLASS
  1
SUN
  2
AcDbSun
  3
SCENEOE
 90
     1153
280
     0
281
     0
  0
CLASS
  1
ACDBPLACEHOLDER
  2
AcDbPlaceHolder
  3
ObjectDBX Classes
 90
        0
280
     0
281
     0
  0
CLASS
  1
LAYOUT
  2
AcDbLayout
  3
ObjectDBX Classes
 90
        0
280
     0
281
     0
  0
CLASS
  1
TABLESTYLE
  2
AcDbTableStyle
  3
ObjectDBX Classes
 90
     4095
280
     0
281
     0
  0
CLASS
  1
MLEADERSTYLE
  2
AcDbMLeaderStyle
  3
ACDB_MLEADERSTYLE_CLASS
 90
     4095
280
     0
281
     0
  0
CLASS
  1
RASTERVARIABLES
  2
AcDbRasterVariables
  3
ISM
 90
        0
280
     0
281
     0
  0
ENDSEC
  0
SECTION
  2
TABLES
  0
TABLE
  2
VPORT
  5
8
330
0
100
AcDbSymbolTable
 70
     1
  0
VPORT
  5
29
330
8
100
AcDbSymbolTableRecord
100
AcDbViewportTableRecord
  2
*Active
 70
     0
 10
0.0
 20
0.0
 11
1.0
 21
1.0
 12
-7.083307569511533
 22
-10.67866100992259
 13
0.0
 23
0.0
 14
10.0
 24
10.0
 15
10.0
 25
10.0
 16
0.0
 26
0.0
 36
1.0
 17
0.0
 27
0.0
 37
0.0
 40
111.282260010785
 41
1.152454780361757
 42
50.0
 43
0.0
 44
0.0
 50
0.0
 51
0.0
 71
    16
 72
  2000
 73
     1
 74
     3
 75
     0
 76
     0
 77
     0
 78
     0
281
     0
 65
     1
110
0.0
120
0.0
130
0.0
111
1.0
121
0.0
131
0.0
112
0.0
122
1.0
132
0.0
 79
     0
146
0.0
  0
ENDTAB
  0
TABLE
  2
LTYPE
  5
5
330
0
100
AcDbSymbolTable
 70
     6
  0
LTYPE
  5
14
330
5
100
AcDbSymbolTableRecord
100
AcDbLinetypeTableRecord
  2
ByBlock
 70
     0
  3

 72
    65
 73
     0
 40
0.0
  0
LTYPE
  5
15
330
5
100
AcDbSymbolTableRecord
100
AcDbLinetypeTableRecord
  2
ByLayer
 70
     0
  3

 72
    65
 73
     0
 40
0.0
  0
LTYPE
  5
16
330
5
100
AcDbSymbolTableRecord
100
AcDbLinetypeTableRecord
  2
Continuous
 70
     0
  3
Solid line
 72
    65
 73
     0
 40
0.0
  0
LTYPE
  5
6A
330
5
100
AcDbSymbolTableRecord
100
AcDbLinetypeTableRecord
  2
HIDDEN
 70
     0
  3
Hidden __ __ __ __ __ __ __ __ __ __ __ __ __ __
 72
    65
 73
     2
 40
1.905
 49
1.27
 74
     0
 49
-0.635
 74
     0
  0
LTYPE
  5
6B
330
5
100
AcDbSymbolTableRecord
100
AcDbLinetypeTableRecord
  2
PHANTOM
 70
     0
  3
Phantom ______  __  __  ______  __  __  ______
 72
    65
 73
     6
 40
12.7
 49
6.35
 74
     0
 49
-1.27
 74
     0
 49
1.27
 74
     0
 49
-1.27
 74
     0
 49
1.27
 74
     0
 49
-1.27
 74
     0
  0
LTYPE
  5
6C
330
5
100
AcDbSymbolTableRecord
100
AcDbLinetypeTableRecord
  2
CENTER
 70
     0
  3
Center ____ _ ____ _ ____ _ ____ _ ____ _ ____
 72
    65
 73
     4
 40
10.16
 49
6.35
 74
     0
 49
-1.27
 74
     0
 49
1.27
 74
     0
 49
-1.27
 74
     0
  0
LTYPE
  5
6D
330
5
100
AcDbSymbolTableRecord
100
AcDbLinetypeTableRecord
  2
CENTERX2
 70
     0
  3
Center (2x) ________  __  ________  __  _____
 72
    65
 73
     4
 40
20.32
 49
12.7
 74
     0
 49
-2.54
 74
     0
 49
2.54
 74
     0
 49
-2.54
 74
     0
  0
LTYPE
  5
6E
330
5
100
AcDbSymbolTableRecord
100
AcDbLinetypeTableRecord
  2
DOT2
 70
     0
  3
Dot (.5x) ........................................
 72
    65
 73
     2
 40
0.635
 49
0.0
 74
     0
 49
-0.635
 74
     0
  0
ENDTAB
  0
TABLE
  2
LAYER
  5
2
330
0
100
AcDbSymbolTable
 70
    17
  0
LAYER
  5
10
330
2
100
AcDbSymbolTableRecord
100
AcDbLayerTableRecord
  2
0
 70
     0
 62
     7
  6
Continuous
370
    -3
390
F
  0
LAYER
  5
6F
330
2
100
AcDbSymbolTableRecord
100
AcDbLayerTableRecord
  2
FORMAT
 70
     0
 62
     2
  6
Continuous
370
    -3
390
F
  0
LAYER
  5
70
330
2
100
AcDbSymbolTableRecord
100
AcDbLayerTableRecord
  2
외형선
 70
     0
 62
   100
  6
Continuous
370
    30
390
F
  0
LAYER
  5
71
330
2
100
AcDbSymbolTableRecord
100
AcDbLayerTableRecord
  2
숨은선
 70
     0
 62
     2
  6
HIDDEN
370
    15
390
F
  0
LAYER
  5
72
330
2
100
AcDbSymbolTableRecord
100
AcDbLayerTableRecord
  2
중심선
 70
     0
 62
     1
  6
CENTERX2
370
    -3
390
F
  0
LAYER
  5
73
330
2
100
AcDbSymbolTableRecord
100
AcDbLayerTableRecord
  2
파단선
 70
     0
 62
     4
  6
Continuous
370
    -3
390
F
  0
LAYER
  5
74
330
2
100
AcDbSymbolTableRecord
100
AcDbLayerTableRecord
  2
해칭선
 70
     0
 62
     4
  6
Continuous
370
    -3
390
F
  0
LAYER
  5
75
330
2
100
AcDbSymbolTableRecord
100
AcDbLayerTableRecord
  2
가는실선
 70
     0
 62
     4
  6
Continuous
370
    -3
390
F
  0
LAYER
  5
76
330
2
100
AcDbSymbolTableRecord
100
AcDbLayerTableRecord
  2
치수_보조선
 70
     0
 62
     4
  6
Continuous
370
    -3
390
F
  0
LAYER
  5
77
330
2
100
AcDbSymbolTableRecord
100
AcDbLayerTableRecord
  2
치수문자_일반주서
 70
     0
 62
     7
  6
Continuous
370
    15
390
F
  0
LAYER
  5
78
330
2
100
AcDbSymbolTableRecord
100
AcDbLayerTableRecord
  2
개별주서
 70
     0
 62
   100
  6
Continuous
370
    30
390
F
  0
LAYER
  5
79
330
2
100
AcDbSymbolTableRecord
100
AcDbLayerTableRecord
  2
중간선
 70
     0
 62
     2
  6
Continuous
370
    15
390
F
  0
LAYER
  5
7A
330
2
100
AcDbSymbolTableRecord
100
AcDbLayerTableRecord
  2
윤곽선
 70
     0
 62
     3
  6
Continuous
370
    40
390
F
  0
LAYER
  5
7B
330
2
100
AcDbSymbolTableRecord
100
AcDbLayerTableRecord
  2
중심마크
 70
     0
 62
   100
  6
Continuous
370
    30
390
F
  0
LAYER
  5
7C
330
2
100
AcDbSymbolTableRecord
100
AcDbLayerTableRecord
  2
가상선
 70
     0
 62
     4
  6
PHANTOM
370
    -3
390
F
  0
LAYER
  5
7D
330
2
100
AcDbSymbolTableRecord
100
AcDbLayerTableRecord
  2
특수지정선
 70
     0
 62
     5
  6
CENTERX2
370
    60
390
F
  0
LAYER
  5
150
330
2
100
AcDbSymbolTableRecord
100
AcDbLayerTableRecord
  2
Defpoints
 70
     0
 62
     7
  6
Continuous
290
     0
370
    -3
390
F
  0
ENDTAB
  0
TABLE
  2
STYLE
  5
3
330
0
100
AcDbSymbolTable
 70
     2
  0
STYLE
  5
11
330
3
100
AcDbSymbolTableRecord
100
AcDbTextStyleTableRecord
  2
Standard
 70
     0
 40
0.0
 41
1.0
 50
0.0
 71
     0
 42
3.5
  3
txt
  4

  0
STYLE
  5
93
330
3
100
AcDbSymbolTableRecord
100
AcDbTextStyleTableRecord
  2
SLDTEXTSTYLE0
 70
     0
 40
0.0
 41
0.75
 50
0.0
 71
     0
 42
3.5
  3
TXT
  4

  0
ENDTAB
  0
TABLE
  2
VIEW
  5
6
330
0
100
AcDbSymbolTable
 70
     0
  0
ENDTAB
  0
TABLE
  2
UCS
  5
7
330
0
100
AcDbSymbolTable
 70
     0
  0
ENDTAB
  0
TABLE
  2
APPID
  5
9
330
0
100
AcDbSymbolTable
 70
     1
  0
APPID
  5
12
330
9
100
AcDbSymbolTableRecord
100
AcDbRegAppTableRecord
  2
ACAD
 70
     0
  0
ENDTAB
  0
TABLE
  2
DIMSTYLE
  5
A
330
0
100
AcDbSymbolTable
 70
     3
100
AcDbDimStyleTable
  0
DIMSTYLE
105
27
330
A
100
AcDbSymbolTableRecord
100
AcDbDimStyleTableRecord
  2
ISO-25
 70
     0
 41
2.5
 42
0.625
 43
3.75
 44
1.25
 73
     0
 74
     0
 77
     1
 78
     8
140
2.5
141
2.5
143
0.03937007874016
147
0.625
171
     3
172
     1
178
     0
271
     2
272
     2
274
     3
278
    44
283
     0
284
     8
340
11
  0
DIMSTYLE
105
F6
102
{ACAD_REACTORS
330
F5
330
118
102
}
330
A
100
AcDbSymbolTableRecord
100
AcDbDimStyleTableRecord
  2
SLDDIMSTYLE0
 70
     0
 41
3.302
 44
0.0
 45
0.000000001
 73
     0
 74
     0
 77
     1
 78
    12
 79
     3
140
3.5
147
0.875
172
     1
173
     1
178
     0
271
     2
272
     2
276
     2
284
    12
289
     0
340
93
  0
DIMSTYLE
105
104
102
{ACAD_REACTORS
330
103
330
10E
102
}
330
A
100
AcDbSymbolTableRecord
100
AcDbDimStyleTableRecord
  2
SLDDIMSTYLE1
 70
     0
 41
3.302
 44
0.0
 45
0.000000001
 73
     0
 74
     0
 77
     1
 78
    12
 79
     3
140
3.5
147
0.875
173
     1
178
     0
271
     2
272
     2
276
     2
284
    12
340
93
  0
ENDTAB
  0
TABLE
  2
BLOCK_RECORD
  5
1
330
0
100
AcDbSymbolTable
 70
     7
  0
BLOCK_RECORD
  5
1F
330
1
100
AcDbSymbolTableRecord
100
AcDbBlockTableRecord
  2
*Model_Space
340
22
  0
BLOCK_RECORD
  5
1B
330
1
100
AcDbSymbolTableRecord
100
AcDbBlockTableRecord
  2
*Paper_Space
340
1E
  0
BLOCK_RECORD
  5
23
330
1
100
AcDbSymbolTableRecord
100
AcDbBlockTableRecord
  2
*Paper_Space0
340
26
  0
BLOCK_RECORD
  5
7E
330
1
100
AcDbSymbolTableRecord
100
AcDbBlockTableRecord
  2
블럭10
340
0
102
{BLKREFS
331
EE
102
}
  0
BLOCK_RECORD
  5
F7
330
1
100
AcDbSymbolTableRecord
100
AcDbBlockTableRecord
  2
_D
340
0
  0
BLOCK_RECORD
  5
105
330
1
100
AcDbSymbolTableRecord
100
AcDbBlockTableRecord
  2
_D_1
340
0
  0
BLOCK_RECORD
  5
10F
330
1
100
AcDbSymbolTableRecord
100
AcDbBlockTableRecord
  2
_D_2
340
0
  0
BLOCK_RECORD
  5
119
330
1
100
AcDbSymbolTableRecord
100
AcDbBlockTableRecord
  2
_D_3
340
0
  0
BLOCK_RECORD
  5
125
330
1
100
AcDbSymbolTableRecord
100
AcDbBlockTableRecord
  2
SW_DOWELSYMBOL_0
340
0
102
{BLKREFS
331
12B
102
}
  0
ENDTAB
  0
ENDSEC
  0
SECTION
  2
BLOCKS
  0
BLOCK
  5
20
330
1F
100
AcDbEntity
  8
0
100
AcDbBlockBegin
  2
*Model_Space
 70
     0
 10
0.0
 20
0.0
 30
0.0
  3
*Model_Space
  1

  0
ENDBLK
  5
21
330
1F
100
AcDbEntity
  8
0
100
AcDbBlockEnd
  0
BLOCK
  5
1C
330
1B
100
AcDbEntity
 67
     1
  8
0
100
AcDbBlockBegin
  2
*Paper_Space
 70
     0
 10
0.0
 20
0.0
 30
0.0
  3
*Paper_Space
  1

  0
ENDBLK
  5
1D
330
1B
100
AcDbEntity
 67
     1
  8
0
100
AcDbBlockEnd
  0
BLOCK
  5
24
330
23
100
AcDbEntity
  8
0
100
AcDbBlockBegin
  2
*Paper_Space0
 70
     0
 10
0.0
 20
0.0
 30
0.0
  3
*Paper_Space0
  1

  0
ENDBLK
  5
25
330
23
100
AcDbEntity
  8
0
100
AcDbBlockEnd
  0
BLOCK
  5
7F
330
7E
100
AcDbEntity
  8
0
100
AcDbBlockBegin
  2
블럭10
 70
     2
 10
0.0
 20
0.0
 30
0.0
  3
블럭10
  1

  0
ELLIPSE
  5
81
330
7E
100
AcDbEntity
  8
중심선
100
AcDbEllipse
 10
20.54032771741204
 20
12.0471743016438
 30
0.0
 11
6.600054785286829
 21
-1.261213355974178E-13
 31
0.0
210
0.0
220
0.0
230
1.0
 40
0.636358354079598
 41
0.9219305317359503
 42
6.513795318482858
  0
ELLIPSE
  5
82
330
7E
100
AcDbEntity
  8
중심선
100
AcDbEllipse
 10
20.54032771746488
 20
12.04717430159265
 30
0.0
 11
3.960054785062283
 21
1.540847449632565E-10
 31
0.0
210
0.0
220
0.0
230
1.0
 40
0.3939339440162632
 41
1.131841032648279
 42
5.62031148352944
  0
LINE
  5
83
330
7E
100
AcDbEntity
  8
중심선
100
AcDbLine
 10
2.268634060543552
 20
16.24717430164393
 30
0.0
 11
5.714909304380834
 21
16.24717430164393
 31
0.0
  0
LINE
  5
84
330
7E
100
AcDbEntity
  8
중심선
100
AcDbLine
 10
5.245725140726316
 20
7.84717430164391
 30
0.0
 11
8.692000384563599
 21
7.84717430164391
 31
0.0
  0
LINE
  5
85
330
7E
100
AcDbEntity
  8
중심선
100
AcDbLine
 10
15.74043728645272
 20
16.24717430164393
 30
0.0
 11
8.692000384563599
 21
7.84717430164391
 31
0.0
  0
LINE
  5
86
330
7E
100
AcDbEntity
  8
중심선
100
AcDbLine
 10
0.1404042013395286
 20
13.71084872107135
 30
0.0
 11
3.58671253028996
 21
13.71088815037384
 31
0.0
  0
LINE
  5
87
330
7E
100
AcDbEntity
  8
중심선
100
AcDbLine
 10
2.750260043222114
 20
10.84717430164391
 30
0.0
 11
6.196535287059397
 21
10.84717430164391
 31
0.0
  0
LINE
  5
88
330
7E
100
AcDbEntity
  8
중심선
100
AcDbLine
 10
12.29416204261559
 20
16.24717430164393
 30
0.0
 11
5.245725140726316
 21
7.84717430164391
 31
0.0
  0
LINE
  5
89
330
7E
100
AcDbEntity
  8
중심선
100
AcDbLine
 10
10.72767329541681
 20
16.24717430164393
 30
0.0
 11
6.196535287059397
 21
10.84717430164391
 31
0.0
  0
LINE
  5
8A
330
7E
100
AcDbEntity
  8
중심선
100
AcDbLine
 10
7.28139805157953
 20
16.24717430164393
 30
0.0
 11
2.750260043222114
 21
10.84717430164391
 31
0.0
  0
LINE
  5
8B
330
7E
100
AcDbEntity
  8
중심선
100
AcDbLine
 10
5.714909304380834
 20
16.24717430164393
 30
0.0
 11
3.58671253028996
 21
13.71088815037384
 31
0.0
  0
LINE
  5
8C
330
7E
100
AcDbEntity
  8
중심선
100
AcDbLine
 10
2.268634060543552
 20
16.24717430164393
 30
0.0
 11
0.1404042013395286
 21
13.71084872107135
 31
0.0
  0
LINE
  5
8D
330
7E
100
AcDbEntity
  8
중심선
100
AcDbLine
 10
7.28139805157953
 20
16.24717430164393
 30
0.0
 11
10.72767329541681
 21
16.24717430164393
 31
0.0
  0
LINE
  5
8E
330
7E
100
AcDbEntity
  8
중심선
100
AcDbLine
 10
12.29416204261559
 20
16.24717430164393
 30
0.0
 11
15.74043728645272
 21
16.24717430164393
 31
0.0
  0
LINE
  5
8F
330
7E
100
AcDbEntity
  8
중심선
100
AcDbLine
 10
19.22036997980202
 20
11.08717430171403
 30
0.0
 11
23.66174974927406
 21
11.08717430171406
 31
0.0
  0
LINE
  5
90
330
7E
100
AcDbEntity
  8
중심선
100
AcDbLine
 10
19.22039502424796
 20
13.00717430171391
 30
0.0
 11
19.22036997980202
 21
11.08717430171403
 31
0.0
  0
LINE
  5
91
330
7E
100
AcDbEntity
  8
중심선
100
AcDbLine
 10
19.22039502424796
 20
13.00717430171391
 30
0.0
 11
26.96566020931264
 21
13.00717430171391
 31
0.0
  0
LINE
  5
92
330
7E
100
AcDbEntity
  8
중심선
100
AcDbLine
 10
22.22332737316547
 20
13.45928029700563
 30
0.0
 11
24.52862924686651
 21
15.39360700705356
 31
0.0
  0
ATTDEF
  5
94
330
7E
100
AcDbEntity
  8
FORMAT
 62
     2
100
AcDbText
 10
-16.11926103943555
 20
2.075366912832191
 30
0.0
 40
4.233333333333333
  1
SEME7005040E [ 2 FLUTE ]
 41
0.75
  7
SLDTEXTSTYLE0
 11
-16.11926103943555
 21
-0.0412997538344756
 31
0.0
100
AcDbAttributeDefinition
  3

  2
AUTOATTR0
 70
     0
 74
     1
  0
ENDBLK
  5
80
330
7E
100
AcDbEntity
  8
0
100
AcDbBlockEnd
  0
BLOCK
  5
F8
330
F7
100
AcDbEntity
  8
0
100
AcDbBlockBegin
  2
_D
 70
     0
 10
0.0
 20
0.0
 30
0.0
  3
_D
  1

  0
LINE
  5
FA
330
F7
100
AcDbEntity
  8
치수문자_일반주서
 62
     0
370
    -2
100
AcDbLine
 10
44.92852540378445
 20
-2.49999999999985
 30
0.0
 11
55.23291425347336
 21
-2.499999999999812
 31
0.0
  0
LINE
  5
FB
330
F7
100
AcDbEntity
  8
치수문자_일반주서
 62
     0
370
    -2
100
AcDbLine
 10
44.92852540378444
 20
2.500000000000148
 30
0.0
 11
55.23291425347335
 21
2.500000000000187
 31
0.0
  0
LINE
  5
FC
330
F7
100
AcDbEntity
  8
치수문자_일반주서
 62
     0
370
    -2
100
AcDbLine
 10
55.23291425347336
 20
-2.499999999999812
 30
0.0
 11
55.23291425347331
 21
15.22900000000019
 31
0.0
  0
LINE
  5
FD
330
F7
100
AcDbEntity
  8
치수문자_일반주서
 62
     0
370
    -2
100
AcDbLine
 10
55.23291425347336
 20
-2.499999999999812
 30
0.0
 11
55.23291425347335
 21
2.500000000000187
 31
0.0
  0
LINE
  5
FE
330
F7
100
AcDbEntity
  8
치수문자_일반주서
 62
     0
370
    -2
100
AcDbLine
 10
55.23291425347337
 20
-5.801999999999811
 30
0.0
 11
55.23291425347337
 21
-9.103999999999811
 31
0.0
  0
LINE
  5
FF
330
F7
100
AcDbEntity
  8
치수문자_일반주서
 62
     0
370
    -2
100
AcDbLine
 10
55.23291425347334
 20
5.802000000000186
 30
0.0
 11
55.23291425347333
 21
9.104000000000186
 31
0.0
  0
SOLID
  5
100
330
F7
100
AcDbEntity
  8
치수문자_일반주서
 62
     0
100
AcDbTrace
 10
55.7832475868067
 20
-5.80199999999981
 30
0.0
 11
54.68258092014003
 21
-5.801999999999813
 31
0.0
 12
55.23291425347336
 22
-2.499999999999812
 32
0.0
 13
55.23291425347336
 23
-2.499999999999812
 33
0.0
  0
SOLID
  5
101
330
F7
100
AcDbEntity
  8
치수문자_일반주서
 62
     0
100
AcDbTrace
 10
54.68258092014
 20
5.802000000000184
 30
0.0
 11
55.78324758680667
 21
5.802000000000188
 31
0.0
 12
55.23291425347335
 22
2.500000000000187
 32
0.0
 13
55.23291425347335
 23
2.500000000000187
 33
0.0
  0
MTEXT
  5
102
330
F7
100
AcDbEntity
  8
치수문자_일반주서
 62
     0
100
AcDbMText
 10
50.85791425347332
 20
12.16650000000017
 30
0.0
 40
3.5
 41
0.0
 71
     2
 72
     1
  1
\A1;%%c5
  7
SLDTEXTSTYLE0
 11
-2.842170943040402E-15
 21
1.0
 31
0.0
 73
     1
 44
1.0
  0
POINT
  5
15A
330
F7
100
AcDbEntity
  8
Defpoints
 62
     0
100
AcDbPoint
 10
44.86602540378445
 20
-2.49999999999985
 30
0.0
  0
POINT
  5
15B
330
F7
100
AcDbEntity
  8
Defpoints
 62
     0
100
AcDbPoint
 10
44.86602540378444
 20
2.500000000000148
 30
0.0
  0
POINT
  5
15C
330
F7
100
AcDbEntity
  8
Defpoints
 62
     0
100
AcDbPoint
 10
55.23291425347335
 20
2.500000000000187
 30
0.0
  0
ENDBLK
  5
F9
330
F7
100
AcDbEntity
  8
0
100
AcDbBlockEnd
  0
BLOCK
  5
106
330
105
100
AcDbEntity
  8
0
100
AcDbBlockBegin
  2
_D_1
 70
     0
 10
0.0
 20
0.0
 30
0.0
  3
_D_1
  1

  0
LINE
  5
108
330
105
100
AcDbEntity
  8
치수문자_일반주서
 62
     0
370
    -2
100
AcDbLine
 10
-55.13397459621558
 20
2.512499999999993
 30
0.0
 11
-55.13397459621559
 21
24.23841044024269
 31
0.0
  0
LINE
  5
109
330
105
100
AcDbEntity
  8
치수문자_일반주서
 62
     0
370
    -2
100
AcDbLine
 10
44.86602540378444
 20
2.562500000000148
 30
0.0
 11
44.86602540378443
 21
24.23841044024269
 31
0.0
  0
LINE
  5
10A
330
105
100
AcDbEntity
  8
치수문자_일반주서
 62
     0
370
    -2
100
AcDbLine
 10
-51.83197459621559
 20
24.23841044024269
 30
0.0
 11
41.56402540378443
 21
24.23841044024269
 31
0.0
  0
SOLID
  5
10B
330
105
100
AcDbEntity
  8
치수문자_일반주서
 62
     0
100
AcDbTrace
 10
-51.83197459621559
 20
24.78874377357602
 30
0.0
 11
-51.83197459621559
 21
23.68807710690935
 31
0.0
 12
-55.13397459621559
 22
24.23841044024269
 32
0.0
 13
-55.13397459621559
 23
24.23841044024269
 33
0.0
  0
SOLID
  5
10C
330
105
100
AcDbEntity
  8
치수문자_일반주서
 62
     0
100
AcDbTrace
 10
41.56402540378443
 20
23.68807710690935
 30
0.0
 11
41.56402540378443
 21
24.78874377357602
 31
0.0
 12
44.86602540378443
 22
24.23841044024269
 32
0.0
 13
44.86602540378443
 23
24.23841044024269
 33
0.0
  0
MTEXT
  5
10D
330
105
100
AcDbEntity
  8
치수문자_일반주서
 62
     0
100
AcDbMText
 10
-5.133974596215569
 20
28.61341044024269
 30
0.0
 40
3.5
 41
0.0
 71
     2
 72
     1
  1
\A1;100
  7
SLDTEXTSTYLE0
 73
     1
 44
1.0
  0
POINT
  5
151
330
105
100
AcDbEntity
  8
Defpoints
 62
     0
100
AcDbPoint
 10
-55.13397459621558
 20
2.449999999999993
 30
0.0
  0
POINT
  5
152
330
105
100
AcDbEntity
  8
Defpoints
 62
     0
100
AcDbPoint
 10
44.86602540378444
 20
2.500000000000148
 30
0.0
  0
POINT
  5
153
330
105
100
AcDbEntity
  8
Defpoints
 62
     0
100
AcDbPoint
 10
44.86602540378444
 20
24.23841044024269
 30
0.0
  0
ENDBLK
  5
107
330
105
100
AcDbEntity
  8
0
100
AcDbBlockEnd
  0
BLOCK
  5
110
330
10F
100
AcDbEntity
  8
0
100
AcDbBlockBegin
  2
_D_2
 70
     0
 10
0.0
 20
0.0
 30
0.0
  3
_D_2
  1

  0
LINE
  5
112
330
10F
100
AcDbEntity
  8
치수문자_일반주서
 62
     0
370
    -2
100
AcDbLine
 10
4.866025403784436
 20
2.535931231107389
 30
0.0
 11
4.866025403784437
 21
15.82042903727492
 31
0.0
  0
LINE
  5
113
330
10F
100
AcDbEntity
  8
치수문자_일반주서
 62
     0
370
    -2
100
AcDbLine
 10
44.86602540378444
 20
2.562500000000148
 30
0.0
 11
44.86602540378444
 21
15.82042903727492
 31
0.0
  0
LINE
  5
114
330
10F
100
AcDbEntity
  8
치수문자_일반주서
 62
     0
370
    -2
100
AcDbLine
 10
8.168025403784437
 20
15.82042903727492
 30
0.0
 11
41.56402540378444
 21
15.82042903727492
 31
0.0
  0
SOLID
  5
115
330
10F
100
AcDbEntity
  8
치수문자_일반주서
 62
     0
100
AcDbTrace
 10
8.168025403784437
 20
16.37076237060826
 30
0.0
 11
8.168025403784437
 21
15.27009570394159
 31
0.0
 12
4.866025403784437
 22
15.82042903727492
 32
0.0
 13
4.866025403784437
 23
15.82042903727492
 33
0.0
  0
SOLID
  5
116
330
10F
100
AcDbEntity
  8
치수문자_일반주서
 62
     0
100
AcDbTrace
 10
41.56402540378444
 20
15.27009570394159
 30
0.0
 11
41.56402540378444
 21
16.37076237060826
 31
0.0
 12
44.86602540378444
 22
15.82042903727492
 32
0.0
 13
44.86602540378444
 23
15.82042903727492
 33
0.0
  0
MTEXT
  5
117
330
10F
100
AcDbEntity
  8
치수문자_일반주서
 62
     0
100
AcDbMText
 10
24.86602540378443
 20
20.19542903727492
 30
0.0
 40
3.5
 41
0.0
 71
     2
 72
     1
  1
\A1;40
  7
SLDTEXTSTYLE0
 73
     1
 44
1.0
  0
POINT
  5
154
330
10F
100
AcDbEntity
  8
Defpoints
 62
     0
100
AcDbPoint
 10
4.866025403784436
 20
2.473431231107389
 30
0.0
  0
POINT
  5
155
330
10F
100
AcDbEntity
  8
Defpoints
 62
     0
100
AcDbPoint
 10
44.86602540378444
 20
2.500000000000148
 30
0.0
  0
POINT
  5
156
330
10F
100
AcDbEntity
  8
Defpoints
 62
     0
100
AcDbPoint
 10
44.86602540378444
 20
15.82042903727492
 30
0.0
  0
ENDBLK
  5
111
330
10F
100
AcDbEntity
  8
0
100
AcDbBlockEnd
  0
BLOCK
  5
11A
330
119
100
AcDbEntity
  8
0
100
AcDbBlockBegin
  2
_D_3
 70
     0
 10
0.0
 20
0.0
 30
0.0
  3
_D_3
  1

  0
LINE
  5
11C
330
119
100
AcDbEntity
  8
치수문자_일반주서
 62
     0
370
    -2
100
AcDbLine
 10
-54.64647459621557
 20
2.999999999999993
 30
0.0
 11
-65.57486272582976
 21
2.999999999999954
 31
0.0
  0
LINE
  5
11D
330
119
100
AcDbEntity
  8
치수문자_일반주서
 62
     0
370
    -2
100
AcDbLine
 10
-54.64647459621557
 20
-3.000000000000001
 30
0.0
 11
-65.57486272582975
 21
-3.000000000000041
 31
0.0
  0
LINE
  5
11E
330
119
100
AcDbEntity
  8
치수문자_일반주서
 62
     0
370
    -2
100
AcDbLine
 10
-65.57486272582976
 20
2.999999999999954
 30
0.0
 11
-65.5748627258298
 21
15.72899999999995
 31
0.0
  0
LINE
  5
11F
330
119
100
AcDbEntity
  8
치수문자_일반주서
 62
     0
370
    -2
100
AcDbLine
 10
-65.57486272582976
 20
2.999999999999954
 30
0.0
 11
-65.57486272582975
 21
-3.000000000000041
 31
0.0
  0
LINE
  5
120
330
119
100
AcDbEntity
  8
치수문자_일반주서
 62
     0
370
    -2
100
AcDbLine
 10
-65.57486272582977
 20
6.301999999999953
 30
0.0
 11
-65.57486272582979
 21
9.603999999999953
 31
0.0
  0
LINE
  5
121
330
119
100
AcDbEntity
  8
치수문자_일반주서
 62
     0
370
    -2
100
AcDbLine
 10
-65.57486272582973
 20
-6.30200000000004
 30
0.0
 11
-65.57486272582972
 21
-9.60400000000004
 31
0.0
  0
SOLID
  5
122
330
119
100
AcDbEntity
  8
치수문자_일반주서
 62
     0
100
AcDbTrace
 10
-66.1251960591631
 20
6.301999999999953
 30
0.0
 11
-65.02452939249645
 21
6.301999999999954
 31
0.0
 12
-65.57486272582976
 22
2.999999999999954
 32
0.0
 13
-65.57486272582976
 23
2.999999999999954
 33
0.0
  0
SOLID
  5
123
330
119
100
AcDbEntity
  8
치수문자_일반주서
 62
     0
100
AcDbTrace
 10
-65.0245293924964
 20
-6.30200000000004
 30
0.0
 11
-66.12519605916306
 21
-6.302000000000041
 31
0.0
 12
-65.57486272582975
 22
-3.000000000000041
 32
0.0
 13
-65.57486272582975
 23
-3.000000000000041
 33
0.0
  0
MTEXT
  5
124
330
119
100
AcDbEntity
  8
치수문자_일반주서
 62
     0
100
AcDbMText
 10
-69.94986272582979
 20
12.66649999999994
 30
0.0
 40
3.5
 41
0.0
 71
     2
 72
     1
  1
\A1;%%c6
  7
SLDTEXTSTYLE0
 11
-2.368475785867003E-15
 21
1.0
 31
0.0
 73
     1
 44
1.0
  0
POINT
  5
157
330
119
100
AcDbEntity
  8
Defpoints
 62
     0
100
AcDbPoint
 10
-54.58397459621557
 20
2.999999999999994
 30
0.0
  0
POINT
  5
158
330
119
100
AcDbEntity
  8
Defpoints
 62
     0
100
AcDbPoint
 10
-54.58397459621557
 20
-3.0
 30
0.0
  0
POINT
  5
159
330
119
100
AcDbEntity
  8
Defpoints
 62
     0
100
AcDbPoint
 10
-65.57486272582977
 20
-3.000000000000041
 30
0.0
  0
ENDBLK
  5
11B
330
119
100
AcDbEntity
  8
0
100
AcDbBlockEnd
  0
BLOCK
  5
126
330
125
100
AcDbEntity
  8
0
100
AcDbBlockBegin
  2
SW_DOWELSYMBOL_0
 70
     0
 10
0.0
 20
0.0
 30
0.0
  3
SW_DOWELSYMBOL_0
  1

  0
CIRCLE
  5
128
330
125
100
AcDbEntity
  8
외형선
 62
     0
100
AcDbCircle
 10
0.0
 20
0.0
 30
0.0
 40
3.000000000000004
  0
HATCH
  5
129
330
125
100
AcDbEntity
  8
0
  6
Continuous
 62
     0
370
    30
100
AcDbHatch
 10
0.0
 20
0.0
 30
0.0
210
0.0
220
0.0
230
1.0
  2
SOLID
 70
     1
 71
     0
 91
        1
 92
        0
 93
        3
 72
     2
 10
0.0000000000000104
 20
0.0
 40
3.000000000000004
 50
0.0
 51
90.0
 73
     1
 72
     1
 10
0.0000000000000104
 20
3.000000000000004
 11
0.0000000000000104
 21
0.0
 72
     1
 10
0.0000000000000104
 20
0.0
 11
3.000000000000015
 21
0.0
 97
        0
 75
     0
 76
     1
 98
        1
 10
0.0
 20
0.0
  0
HATCH
  5
12A
330
125
100
AcDbEntity
  8
0
  6
Continuous
 62
     0
370
    30
100
AcDbHatch
 10
0.0
 20
0.0
 30
0.0
210
0.0
220
0.0
230
1.0
  2
SOLID
 70
     1
 71
     0
 91
        1
 92
        0
 93
        3
 72
     2
 10
0.0000000000000104
 20
0.0
 40
3.000000000000004
 50
180.0
 51
270.0000000000008
 73
     1
 72
     1
 10
0.0000000000000104
 20
-3.000000000000004
 11
0.0000000000000104
 21
0.0
 72
     1
 10
0.0000000000000104
 20
0.0
 11
-2.999999999999994
 21
0.0
 97
        0
 75
     0
 76
     1
 98
        1
 10
0.0
 20
0.0
  0
ENDBLK
  5
127
330
125
100
AcDbEntity
  8
0
100
AcDbBlockEnd
  0
ENDSEC
  0
SECTION
  2
ENTITIES
  0
SPLINE
  5
95
330
1F
100
AcDbEntity
  8
0
  6
Continuous
 62
     1
370
    15
100
AcDbSpline
210
0.0
220
0.0
230
1.0
 70
     8
 71
     3
 72
     9
 73
     5
 74
     0
 42
0.000000001
 43
0.00000001
 40
0.0
 40
0.0
 40
0.0
 40
0.0
 40
0.4460317276173522
 40
1.0
 40
1.0
 40
1.0
 40
1.0
 10
24.78630547066541
 20
0.6406606283994913
 30
0.0
 10
24.68234931081777
 20
0.6900178191734919
 30
0.0
 10
24.44928033071864
 20
0.8006762941605985
 30
0.0
 10
24.21867633170363
 20
0.9210393690153093
 30
0.0
 10
24.09092903276475
 20
0.9877166936512372
 30
0.0
  0
LINE
  5
96
330
1F
100
AcDbEntity
  8
0
  6
Continuous
 62
     1
370
    15
100
AcDbLine
 10
37.73525635322086
 20
0.9667537839340948
 30
0.0
 11
37.69407825309334
 21
0.9879002515995505
 31
0.0
  0
SPLINE
  5
97
330
1F
100
AcDbEntity
  8
0
  6
Continuous
 62
     1
370
    15
100
AcDbSpline
210
0.0
220
0.0
230
1.0
 70
     8
 71
     3
 72
     9
 73
     5
 74
     0
 42
0.000000001
 43
0.00000001
 40
0.0
 40
0.0
 40
0.0
 40
0.0
 40
0.4836478348222352
 40
1.0
 40
1.0
 40
1.0
 40
1.0
 10
38.39014987887042
 20
0.6404973373006232
 30
0.0
 10
38.28346144755309
 20
0.6911234032631395
 30
0.0
 10
38.06287029912681
 20
0.7957988764431732
 30
0.0
 10
37.84681630228529
 20
0.9085397762267535
 30
0.0
 10
37.73525635322086
 20
0.9667537839340948
 30
0.0
  0
SPLINE
  5
98
330
1F
100
AcDbEntity
  8
0
  6
Continuous
 62
     1
370
    15
100
AcDbSpline
210
0.0
220
0.0
230
1.0
 70
     8
 71
     3
 72
     9
 73
     5
 74
     0
 42
0.000000001
 43
0.00000001
 40
0.0
 40
0.0
 40
0.0
 40
0.0
 40
0.5236654120008601
 40
1.0
 40
1.0
 40
1.0
 40
1.0
 10
11.18304587313973
 20
0.6405504354715663
 30
0.0
 10
11.06165571034763
 20
0.6983192101884609
 30
0.0
 10
10.82984707832766
 20
0.8086354033014781
 30
0.0
 10
10.5981882643306
 20
0.9297903118349303
 30
0.0
 10
10.48784115860894
 20
0.9875005852752858
 30
0.0
  0
LINE
  5
99
330
1F
100
AcDbEntity
  8
0
  6
Continuous
 62
     1
370
    15
100
AcDbLine
 10
23.6676000861694
 20
0.559052024010567
 30
0.0
 11
23.37660082222327
 21
0.7187375427804691
 31
0.0
  0
LINE
  5
9A
330
1F
100
AcDbEntity
  8
0
  6
Continuous
 62
     1
370
    15
100
AcDbLine
 10
10.1191974324421
 20
0.5293341387319612
 30
0.0
 11
9.772836671498776
 21
0.718885833405371
 31
0.0
  0
LINE
  5
9B
330
1F
100
AcDbEntity
  8
0
  6
Continuous
 62
     1
370
    15
100
AcDbLine
 10
37.1141306683248
 20
0.645498267730823
 30
0.0
 11
36.98080015245468
 21
0.718349265501082
 31
0.0
  0
LINE
  5
9C
330
1F
100
AcDbEntity
  8
0
  6
Continuous
 62
     1
370
    15
100
AcDbLine
 10
31.44111588093456
 20
-2.500000000000004
 30
0.0
 11
32.65261453975795
 21
-2.500000000000004
 31
0.0
  0
LINE
  5
9D
330
1F
100
AcDbEntity
  8
0
  6
Continuous
 62
     1
370
    15
100
AcDbLine
 10
4.866025403784437
 20
-2.500000000000004
 30
0.0
 11
5.445379899294332
 21
-2.500000000000004
 31
0.0
  0
LINE
  5
9E
330
1F
100
AcDbEntity
  8
0
  6
Continuous
 62
     1
370
    15
100
AcDbLine
 10
19.04897940589224
 20
2.500000000000004
 30
0.0
 11
17.83719535807806
 21
2.500000000000004
 31
0.0
  0
LINE
  5
9F
330
1F
100
AcDbEntity
  8
0
  6
Continuous
 62
     1
370
    15
100
AcDbLine
 10
17.83719535807807
 20
-2.500000000000004
 30
0.0
 11
19.04897940589224
 21
-2.500000000000004
 31
0.0
  0
LINE
  5
A0
330
1F
100
AcDbEntity
  8
0
  6
Continuous
 62
     1
370
    15
100
AcDbLine
 10
5.445379899294375
 20
2.500000000000004
 30
0.0
 11
4.866025403784437
 21
2.500000000000004
 31
0.0
  0
LINE
  5
A1
330
1F
100
AcDbEntity
  8
0
  6
Continuous
 62
     1
370
    15
100
AcDbLine
 10
32.65261453975798
 20
2.500000000000004
 30
0.0
 11
31.44111588093461
 21
2.500000000000004
 31
0.0
  0
SPLINE
  5
A2
330
1F
100
AcDbEntity
  8
0
  6
Continuous
 62
     1
370
    15
100
AcDbSpline
210
0.0
220
0.0
230
1.0
 70
     8
 71
     3
 72
    11
 73
     7
 74
     0
 42
0.000000001
 43
0.00000001
 40
0.0
 40
0.0
 40
0.0
 40
0.0
 40
0.3713887617195611
 40
0.5205087523699936
 40
0.6830763087399171
 40
0.9999999999999999
 40
0.9999999999999999
 40
0.9999999999999999
 40
0.9999999999999999
 10
20.19853741820975
 20
-2.080367033443132
 30
0.0
 10
20.66756077511559
 20
-2.039816478449451
 30
0.0
 10
21.32490635877057
 20
-1.982984067339472
 30
0.0
 10
22.17053966879611
 20
-1.956165904586735
 30
0.0
 10
22.95395969069119
 20
-1.946337302509778
 30
0.0
 10
23.55864247414883
 20
-1.970566427957334
 30
0.0
 10
23.95831254262668
 20
-1.986580868076515
 30
0.0
  0
SPLINE
  5
A3
330
1F
100
AcDbEntity
  8
0
  6
Continuous
 62
     1
370
    15
100
AcDbSpline
210
0.0
220
0.0
230
1.0
 70
     8
 71
     3
 72
    10
 73
     6
 74
     0
 42
0.000000001
 43
0.00000001
 40
0.0
 40
0.0
 40
0.0
 40
0.0
 40
0.6246956822743482
 40
0.8895186368126322
 40
0.9999999999999999
 40
0.9999999999999999
 40
0.9999999999999999
 40
0.9999999999999999
 10
37.56176940343751
 20
1.986578811580309
 30
0.0
 10
37.12276289569321
 20
1.970165161881846
 30
0.0
 10
36.4976513711524
 20
1.946793386281058
 30
0.0
 10
35.80970782690588
 20
1.954677215595212
 30
0.0
 10
35.54908587899841
 20
1.965274883879247
 30
0.0
 10
35.47236449125673
 20
1.968394605085023
 30
0.0
  0
SPLINE
  5
A4
330
1F
100
AcDbEntity
  8
0
  6
Continuous
 62
     1
370
    15
100
AcDbSpline
210
0.0
220
0.0
230
1.0
 70
     8
 71
     3
 72
    13
 73
     9
 74
     0
 42
0.000000001
 43
0.00000001
 40
0.0
 40
0.0
 40
0.0
 40
0.0
 40
0.2794624724788171
 40
0.4777572143785248
 40
0.6101482334025341
 40
0.7486028440791673
 40
0.9039468626786418
 40
1.0
 40
1.0
 40
1.0
 40
1.0
 10
10.35507125738072
 20
1.986594474362859
 30
0.0
 10
10.16006649799843
 20
1.977461064602539
 30
0.0
 10
9.82669461515967
 20
1.961846973858392
 30
0.0
 10
9.400134584294985
 20
1.953654492107767
 30
0.0
 10
9.068791582654598
 20
1.951721584747024
 30
0.0
 10
8.769172207853288
 20
1.953969090377128
 30
0.0
 10
8.4954706728299
 20
1.958585745024398
 30
0.0
 10
8.31929509716515
 20
1.965429976412554
 30
0.0
 10
8.251982415364864
 20
1.968045001610343
 30
0.0
  0
SPLINE
  5
A5
330
1F
100
AcDbEntity
  8
0
  6
Continuous
 62
     1
370
    15
100
AcDbSpline
210
0.0
220
0.0
230
1.0
 70
     8
 71
     3
 72
    11
 73
     7
 74
     0
 42
0.000000001
 43
0.00000001
 40
0.0
 40
0.0
 40
0.0
 40
0.0
 40
0.3375241946490169
 40
0.4789392828902226
 40
0.6429693750675151
 40
1.0
 40
1.0
 40
1.0
 40
1.0
 10
6.595267801585109
 20
-2.080344349965481
 30
0.0
 10
7.020521401237868
 20
-2.043054022112863
 30
0.0
 10
7.623946747607405
 20
-1.990139880953159
 30
0.0
 10
8.423536407760832
 20
-1.959736609020712
 30
0.0
 10
9.253813813417782
 20
-1.944275212940107
 30
0.0
 10
9.907301629547721
 20
-1.969387526031828
 30
0.0
 10
10.35507125738071
 20
-1.986594474362858
 30
0.0
  0
SPLINE
  5
A6
330
1F
100
AcDbEntity
  8
0
  6
Continuous
 62
     1
370
    15
100
AcDbSpline
210
0.0
220
0.0
230
1.0
 70
     8
 71
     3
 72
    10
 73
     6
 74
     0
 42
0.000000001
 43
0.00000001
 40
0.0
 40
0.0
 40
0.0
 40
0.0
 40
0.3877134480970492
 40
0.5950111856156738
 40
1.0
 40
1.0
 40
1.0
 40
1.0
 10
33.802034634668
 20
-2.080366833924263
 30
0.0
 10
34.28763074724658
 20
-2.039126779504211
 30
0.0
 10
35.03285926612793
 20
-1.975837012807268
 30
0.0
 10
36.28674404098329
 20
-1.941356761450982
 30
0.0
 10
37.05416740405472
 20
-1.968575402598975
 30
0.0
 10
37.56176940343751
 20
-1.986578811580306
 30
0.0
  0
SPLINE
  5
A7
330
1F
100
AcDbEntity
  8
0
  6
Continuous
 62
     1
370
    15
100
AcDbSpline
210
0.0
220
0.0
230
1.0
 70
     8
 71
     3
 72
    12
 73
     8
 74
     0
 42
0.000000001
 43
0.00000001
 40
0.0
 40
0.0
 40
0.0
 40
0.0
 40
0.2871042483707543
 40
0.5116889720886555
 40
0.711591441119986
 40
0.8795415888355784
 40
1.0
 40
1.0
 40
1.0
 40
1.0
 10
23.95831254262668
 20
1.986580868076518
 30
0.0
 10
23.76687689638589
 20
1.977477238763985
 30
0.0
 10
23.4256924325476
 20
1.96125237705734
 30
0.0
 10
22.93986308577595
 20
1.952206126287663
 30
0.0
 10
22.53237477952502
 20
1.952071955580065
 30
0.0
 10
22.19998082664403
 20
1.956239348143915
 30
0.0
 10
22.00426997099244
 20
1.962952795293099
 30
0.0
 10
21.92252822653461
 20
1.965756773025825
 30
0.0
  0
SPLINE
  5
A8
330
1F
100
AcDbEntity
  8
0
  6
Continuous
 62
     1
370
    15
100
AcDbSpline
210
0.0
220
0.0
230
1.0
 70
     8
 71
     3
 72
    13
 73
     9
 74
     0
 42
0.000000001
 43
0.00000001
 40
0.0
 40
0.0
 40
0.0
 40
0.0
 40
0.3118089443835634
 40
0.5263583442236371
 40
0.6603060016406275
 40
0.787856198161761
 40
0.9162386679647674
 40
0.9999999999999999
 40
0.9999999999999999
 40
0.9999999999999999
 40
0.9999999999999999
 10
12.36349522087635
 20
-1.880336635170361
 30
0.0
 10
12.55669358719276
 20
-1.851286945581039
 30
0.0
 10
12.88282782430408
 20
-1.802248754766227
 30
0.0
 10
13.29092166872294
 20
-1.754409963904588
 30
0.0
 10
13.58545238529141
 20
-1.724419748512304
 30
0.0
 10
13.82658523196405
 20
-1.703193887464997
 30
0.0
 10
14.03651722597028
 20
-1.686923097933164
 30
0.0
 10
14.16772867354804
 20
-1.679153707974599
 30
0.0
 10
14.21953525725283
 20
-1.676086097955397
 30
0.0
  0
SPLINE
  5
A9
330
1F
100
AcDbEntity
  8
0
  6
Continuous
 62
     1
370
    15
100
AcDbSpline
210
0.0
220
0.0
230
1.0
 70
     8
 71
     3
 72
    13
 73
     9
 74
     0
 42
0.000000001
 43
0.00000001
 40
0.0
 40
0.0
 40
0.0
 40
0.0
 40
0.3067635779429568
 40
0.5176598399713159
 40
0.649974365946485
 40
0.7786441968057953
 40
0.9109636048779449
 40
1.0
 40
1.0
 40
1.0
 40
1.0
 10
39.57082596739603
 20
-1.880283158640382
 30
0.0
 10
39.76426537482847
 20
-1.851202110048983
 30
0.0
 10
40.09069204310211
 20
-1.802128191101469
 30
0.0
 10
40.49952854534442
 20
-1.754227782587118
 30
0.0
 10
40.79672955582426
 20
-1.723994412002241
 30
0.0
 10
41.04431491370414
 20
-1.702282949920653
 30
0.0
 10
41.26443626679996
 20
-1.685375915403126
 30
0.0
 10
41.40380216883842
 20
-1.677412674366332
 30
0.0
 10
41.45985959918983
 20
-1.674209603720914
 30
0.0
  0
SPLINE
  5
AA
330
1F
100
AcDbEntity
  8
0
  6
Continuous
 62
     1
370
    15
100
AcDbSpline
210
0.0
220
0.0
230
1.0
 70
     8
 71
     3
 72
    20
 73
    16
 74
     0
 42
0.000000001
 43
0.00000001
 40
0.0
 40
0.0
 40
0.0
 40
0.0
 40
0.1370028108294671
 40
0.2336668396413944
 40
0.3007037102824808
 40
0.3673442865425013
 40
0.4342121719041038
 40
0.4997935599030786
 40
0.5552504588029786
 40
0.6103922816584719
 40
0.6649859318827636
 40
0.7192268807440249
 40
0.7761743375470106
 40
0.8673928309882649
 40
1.0
 40
1.0
 40
1.0
 40
1.0
 10
30.33243021172992
 20
1.709852434585443
 30
0.0
 10
30.13228933146356
 20
1.694462059111396
 30
0.0
 10
29.79093657605843
 20
1.668212813740866
 30
0.0
 10
29.35353370433112
 20
1.651655222351387
 30
0.0
 10
29.01979811198427
 20
1.645235569077016
 30
0.0
 10
28.72850061433956
 20
1.644729562374582
 30
0.0
 10
28.43884312090105
 20
1.649213709790186
 30
0.0
 10
28.16539393253843
 20
1.658040257485978
 30
0.0
 10
27.90899777263898
 20
1.670232423585364
 30
0.0
 10
27.66867993996301
 20
1.685019879359902
 30
0.0
 10
27.43031345946215
 20
1.703090973887587
 30
0.0
 10
27.18914965634938
 20
1.724423688707523
 30
0.0
 10
26.89459434578329
 20
1.754379755217
 30
0.0
 10
26.48643198391587
 20
1.802238052197189
 30
0.0
 10
26.16022772598383
 20
1.851283312844252
 30
0.0
 10
25.96696560094476
 20
1.880340540226369
 30
0.0
  0
SPLINE
  5
AB
330
1F
100
AcDbEntity
  8
0
  6
Continuous
 62
     1
370
    15
100
AcDbSpline
210
0.0
220
0.0
230
1.0
 70
     8
 71
     3
 72
    13
 73
     9
 74
     0
 42
0.000000001
 43
0.00000001
 40
0.0
 40
0.0
 40
0.0
 40
0.0
 40
0.3070756333993875
 40
0.5183083809194883
 40
0.6501804093971764
 40
0.7757850343347781
 40
0.9022064024036857
 40
0.9999999999999999
 40
0.9999999999999999
 40
0.9999999999999999
 40
0.9999999999999999
 10
25.96696560094476
 20
-1.880340540226366
 30
0.0
 10
26.16022767626843
 20
-1.851281897480207
 30
0.0
 10
26.48643185028658
 20
-1.802234247861295
 30
0.0
 10
26.89459463991022
 20
-1.754388128812891
 30
0.0
 10
27.18914901057098
 20
-1.724405303831209
 30
0.0
 10
27.43031578584311
 20
-1.70315720438807
 30
0.0
 10
27.64990412188478
 20
-1.686216940776466
 30
0.0
 10
27.79077069896374
 20
-1.677912017710111
 30
0.0
 10
27.8522110640739
 20
-1.674289742533206
 30
0.0
  0
SPLINE
  5
AC
330
1F
100
AcDbEntity
  8
0
  6
Continuous
 62
     1
370
    15
100
AcDbSpline
210
0.0
220
0.0
230
1.0
 70
     8
 71
     3
 72
    19
 73
    15
 74
     0
 42
0.000000001
 43
0.00000001
 40
0.0
 40
0.0
 40
0.0
 40
0.0
 40
0.1264169297738647
 40
0.2220078368642672
 40
0.3042034238817616
 40
0.3931632377948547
 40
0.4833221679944842
 40
0.5462967045609719
 40
0.6063620319585571
 40
0.6635387870419285
 40
0.7191385173675731
 40
0.7763131628400566
 40
0.86744389035524
 40
0.9999999999999999
 40
0.9999999999999999
 40
0.9999999999999999
 40
0.9999999999999999
 10
43.94326333951653
 20
1.710481009043743
 30
0.0
 10
43.7576388891865
 20
1.696010703435144
 30
0.0
 10
43.43165341587526
 20
1.670598590890753
 30
0.0
 10
42.98887965546731
 20
1.652443174086292
 30
0.0
 10
42.60253719521585
 20
1.644487512256656
 30
0.0
 10
42.22199243227804
 20
1.645177886478652
 30
0.0
 10
41.86922586296025
 20
1.653931786073563
 30
0.0
 10
41.55843909051255
 20
1.66765291325228
 30
0.0
 10
41.29587725577541
 20
1.68332707823949
 30
0.0
 10
41.04431043845076
 20
1.702190403653959
 30
0.0
 10
40.79673075859459
 20
1.724019284762544
 30
0.0
 10
40.49952800496673
 20
1.754216607814716
 30
0.0
 10
40.09069228841152
 20
1.802133263991879
 30
0.0
 10
39.76426546610678
 20
1.851203997644581
 30
0.0
 10
39.57082596739603
 20
1.880283158640387
 30
0.0
  0
SPLINE
  5
AD
330
1F
100
AcDbEntity
  8
0
  6
Continuous
 62
     1
370
    15
100
AcDbSpline
210
0.0
220
0.0
230
1.0
 70
     8
 71
     3
 72
    21
 73
    17
 74
     0
 42
0.000000001
 43
0.00000001
 40
0.0
 40
0.0
 40
0.0
 40
0.0
 40
0.1323210497489037
 40
0.2235664410006068
 40
0.2805224285156107
 40
0.3346945801613914
 40
0.3893176119751543
 40
0.4445172584337071
 40
0.4999573231077369
 40
0.5553687205196132
 40
0.6104828207114315
 40
0.6650615885109251
 40
0.7192865350272895
 40
0.7762312105944907
 40
0.8674418088433011
 40
1.0
 40
1.0
 40
1.0
 40
1.0
 10
16.7292571362214
 20
1.709880135427002
 30
0.0
 10
16.53636977889762
 20
1.694977030196378
 30
0.0
 10
16.21047197146094
 20
1.669797104533826
 30
0.0
 10
15.80270033125636
 20
1.653508987334015
 30
0.0
 10
15.50819544339455
 20
1.646700224410581
 30
0.0
 10
15.26711429078887
 20
1.644634879569534
 30
0.0
 10
15.02870234072224
 20
1.645936196651666
 30
0.0
 10
14.7882420527384
 20
1.650648229453122
 30
0.0
 10
14.54659606617632
 20
1.658764260477579
 30
0.0
 10
14.30507902544927
 20
1.670256374481025
 30
0.0
 10
14.06488179270215
 20
1.685040986464748
 30
0.0
 10
13.82658249792092
 20
1.703110546892565
 30
0.0
 10
13.58545314443689
 20
1.7244428891928
 30
0.0
 10
13.29092132294087
 20
1.754399423589739
 30
0.0
 10
12.88282798134948
 20
1.802253541908397
 30
0.0
 10
12.55669364561566
 20
1.851288726459114
 30
0.0
 10
12.36349522087635
 20
1.880336635170363
 30
0.0
  0
LINE
  5
AE
330
1F
100
AcDbEntity
  8
0
  6
Continuous
 62
   131
370
    15
100
AcDbLine
 10
2.0
 20
-3.0
 30
0.0
 11
3.866025403784437
 21
-2.5
 31
0.0
  0
LINE
  5
AF
330
1F
100
AcDbEntity
  8
0
  6
Continuous
 62
   131
370
    15
100
AcDbLine
 10
3.866025403784437
 20
2.5
 30
0.0
 11
2.0
 21
3.000000000000001
 31
0.0
  0
LINE
  5
B0
330
1F
100
AcDbEntity
  8
0
  6
Continuous
 62
   131
370
    15
100
AcDbLine
 10
2.0
 20
2.999999999999999
 30
0.0
 11
-54.58397459621557
 21
2.999999999999996
 31
0.0
  0
LINE
  5
B1
330
1F
100
AcDbEntity
  8
0
  6
Continuous
 62
   131
370
    15
100
AcDbLine
 10
-54.58397459621557
 20
-3.000000000000002
 30
0.0
 11
2.0
 21
-2.999999999999999
 31
0.0
  0
LINE
  5
B2
330
1F
100
AcDbEntity
  8
0
  6
Continuous
 62
   131
370
    15
100
AcDbLine
 10
-54.58397459621557
 20
2.999999999999994
 30
0.0
 11
-55.13397459621558
 21
2.449999999999993
 31
0.0
  0
LINE
  5
B3
330
1F
100
AcDbEntity
  8
0
  6
Continuous
 62
   131
370
    15
100
AcDbLine
 10
-55.13397459621558
 20
-2.45
 30
0.0
 11
-54.58397459621557
 21
-3.0
 31
0.0
  0
LINE
  5
B4
330
1F
100
AcDbEntity
  8
0
  6
Continuous
 62
   131
370
    15
100
AcDbLine
 10
3.976087842481856
 20
2.5
 30
0.0
 11
3.866025403784437
 21
2.5
 31
0.0
  0
LINE
  5
B5
330
1F
100
AcDbEntity
  8
0
  6
Continuous
 62
   131
370
    15
100
AcDbLine
 10
4.866025403784437
 20
2.5
 30
0.0
 11
4.233795964679427
 21
2.5
 31
0.0
  0
LINE
  5
B6
330
1F
100
AcDbEntity
  8
0
  6
Continuous
 62
   131
370
    15
100
AcDbLine
 10
4.233795964679427
 20
-2.5
 30
0.0
 11
4.866025403784437
 21
-2.5
 31
0.0
  0
LINE
  5
B7
330
1F
100
AcDbEntity
  8
0
  6
Continuous
 62
   131
370
    15
100
AcDbLine
 10
3.866025403784437
 20
-2.5
 30
0.0
 11
3.976087842481856
 21
-2.5
 31
0.0
  0
SPLINE
  5
B8
330
1F
100
AcDbEntity
  8
0
  6
Continuous
 62
     1
370
    15
100
AcDbSpline
210
0.0
220
0.0
230
1.0
 70
     8
 71
     3
 72
    21
 73
    17
 74
     0
 42
0.000000001
 43
0.00000001
 40
0.0
 40
0.0
 40
0.0
 40
0.0
 40
0.0502817897227625
 40
0.1281037083818007
 40
0.2059273418913137
 40
0.2837524068864619
 40
0.3615786193789109
 40
0.4394056948801452
 40
0.5172333485252507
 40
0.59506129519705
 40
0.6728892496504775
 40
0.750716926637069
 40
0.8285440410294619
 40
0.9063703079457743
 40
0.9841954428737606
 40
1.0
 40
1.0
 40
1.0
 40
1.0
 10
35.47022270917137
 20
-1.969097858780518
 30
0.0
 10
35.19499726497149
 20
-2.066317546537645
 30
0.0
 10
34.49380106178485
 20
-2.314005677729418
 30
0.0
 10
33.36661704766304
 20
-2.497764242889453
 30
0.0
 10
32.0886649177904
 20
-2.516234381691731
 30
0.0
 10
30.81068429912814
 20
-2.310156300830895
 30
0.0
 10
29.53268115047874
 20
-1.906206923515196
 30
0.0
 10
28.25466097875276
 20
-1.336943754568037
 30
0.0
 10
26.97662942148449
 20
-0.6521904184804785
 30
0.0
 10
25.69859209178012
 20
0.0888951792306562
 30
0.0
 10
24.42055460077192
 20
0.8226428565124966
 30
0.0
 10
23.14252260760186
 20
1.48392714081005
 30
0.0
 10
21.86450158176477
 20
2.021888746662811
 30
0.0
 10
20.58649768847271
 20
2.366423487591006
 30
0.0
 10
19.64799153153166
 20
2.520173967776481
 30
0.0
 10
19.13548908115273
 20
2.487895524597015
 30
0.0
 10
19.04897940589224
 20
2.482446969891949
 30
0.0
  0
SPLINE
  5
B9
330
1F
100
AcDbEntity
  8
0
  6
Continuous
 62
     1
370
    15
100
AcDbSpline
210
0.0
220
0.0
230
1.0
 70
     8
 71
     3
 72
    10
 73
     6
 74
     0
 42
0.000000001
 43
0.00000001
 40
0.0
 40
0.0
 40
0.0
 40
0.0
 40
0.1688000592290885
 40
0.5842961874386662
 40
0.9999999999999999
 40
0.9999999999999999
 40
0.9999999999999999
 40
0.9999999999999999
 10
8.251718323212675
 20
-1.968140340135975
 30
0.0
 10
8.061243421859832
 20
-2.040413854708968
 30
0.0
 10
7.401920438375683
 20
-2.290586391440609
 30
0.0
 10
6.273367460704968
 20
-2.502796711853854
 30
0.0
 10
5.335217558408756
 20
-2.486015465993692
 30
0.0
 10
4.866025403778821
 20
-2.47762274657515
 30
0.0
  0
SPLINE
  5
BA
330
1F
100
AcDbEntity
  8
0
  6
Continuous
 62
   131
370
    15
100
AcDbSpline
210
0.0
220
0.0
230
1.0
 70
    24
 71
     3
 72
     8
 73
     4
 74
     0
 42
0.000000001
 43
0.00000001
 40
0.0
 40
0.0
 40
0.0
 40
0.0
 40
1.0
 40
1.0
 40
1.0
 40
1.0
 10
4.866025403785292
 20
-2.085052526551506
 30
0.0
 10
4.866025403785292
 20
-2.217232802189133
 30
0.0
 10
4.866025403785292
 20
-2.348936435434063
 30
0.0
 10
4.866025403785292
 20
-2.477622746562413
 30
0.0
  0
SPLINE
  5
BB
330
1F
100
AcDbEntity
  8
0
  6
Continuous
 62
     1
370
    15
100
AcDbSpline
210
0.0
220
0.0
230
1.0
 70
     8
 71
     3
 72
    15
 73
    11
 74
     0
 42
0.000000001
 43
0.00000001
 40
0.0
 40
0.0
 40
0.0
 40
0.0
 40
0.0487717106252986
 40
0.1901328517810759
 40
0.3314967095047207
 40
0.4728627448783169
 40
0.614230418025341
 40
0.7555991883478873
 40
0.8969685147645821
 40
1.0
 40
1.0
 40
1.0
 40
1.0
 10
33.80753735131009
 20
-2.059637496475653
 30
0.0
 10
33.66056685102397
 20
-2.079917958609534
 30
0.0
 10
33.08761339114272
 20
-2.158979817451794
 30
0.0
 10
32.08866414461936
 20
-2.109385506470563
 30
0.0
 10
30.81068394342185
 20
-1.90872865589188
 30
0.0
 10
29.53268081623863
 20
-1.531052901337133
 30
0.0
 10
28.25466076827116
 20
-1.023762372727972
 30
0.0
 10
26.97662932260322
 20
-0.4288697299172116
 30
0.0
 10
25.81412223187342
 20
0.1518333315242824
 30
0.0
 10
25.07762653077412
 20
0.4983365096660688
 30
0.0
 10
24.76714374047237
 20
0.6444110535327985
 30
0.0
  0
SPLINE
  5
BC
330
1F
100
AcDbEntity
  8
0
  6
Continuous
 62
     1
370
    15
100
AcDbSpline
210
0.0
220
0.0
230
1.0
 70
     8
 71
     3
 72
    10
 73
     6
 74
     0
 42
0.000000001
 43
0.00000001
 40
0.0
 40
0.0
 40
0.0
 40
0.0
 40
0.0377885687753924
 40
0.5195928309793244
 40
0.9999999999999999
 40
0.9999999999999999
 40
0.9999999999999999
 40
0.9999999999999999
 10
6.596546012629751
 20
-2.075959498633694
 30
0.0
 10
6.574738788560317
 20
-2.079579169082184
 30
0.0
 10
6.274889451651401
 20
-2.12934963873721
 30
0.0
 10
5.697914769100024
 20
-2.134500668127869
 30
0.0
 10
5.14305331321366
 20
-2.1015192778494
 30
0.0
 10
4.866025403784436
 20
-2.085052526551425
 30
0.0
  0
SPLINE
  5
BD
330
1F
100
AcDbEntity
  8
0
  6
Continuous
 62
     1
370
    15
100
AcDbSpline
210
0.0
220
0.0
230
1.0
 70
     8
 71
     3
 72
    17
 73
    13
 74
     0
 42
0.000000001
 43
0.00000001
 40
0.0
 40
0.0
 40
0.0
 40
0.0
 40
0.1045978627211592
 40
0.2092010291002287
 40
0.3138091307080691
 40
0.418421796991867
 40
0.5230386554304527
 40
0.6276593316914285
 40
0.7322834497899905
 40
0.836910632249265
 40
0.9415405002620558
 40
0.9999999999999999
 40
0.9999999999999999
 40
0.9999999999999999
 40
0.9999999999999999
 10
44.86602540378445
 20
-2.372352173079748
 30
0.0
 10
44.44020930216735
 20
-2.27476535121915
 30
0.0
 10
43.58855550783291
 20
-2.079586759336431
 30
0.0
 10
42.31102731791387
 20
-1.552116290857965
 30
0.0
 10
41.03342783193621
 20
-0.9051748727580858
 30
0.0
 10
39.75576121487849
 20
-0.1760789389809981
 30
0.0
 10
38.4780332622188
 20
0.5673887552009851
 30
0.0
 10
37.20024934198509
 20
1.261370858661935
 30
0.0
 10
35.92241506660045
 20
1.84895226476944
 30
0.0
 10
34.64453564907738
 20
2.266565965550191
 30
0.0
 10
33.55459775389194
 20
2.487891026537162
 30
0.0
 10
32.89061840801511
 20
2.477083879159379
 30
0.0
 10
32.65261453975798
 20
2.473210049503818
 30
0.0
  0
SPLINE
  5
BE
330
1F
100
AcDbEntity
  8
0
  6
Continuous
 62
     1
370
    15
100
AcDbSpline
210
0.0
220
0.0
230
1.0
 70
     8
 71
     3
 72
    21
 73
    17
 74
     0
 42
0.000000001
 43
0.00000001
 40
0.0
 40
0.0
 40
0.0
 40
0.0
 40
0.003441788141615
 40
0.0810105787816753
 40
0.1585782411784192
 40
0.236144492252671
 40
0.3137090495399971
 40
0.3912716313130618
 40
0.4688319567032972
 40
0.5463897458217674
 40
0.6239447198791217
 40
0.7014966013045226
 40
0.7790451138634407
 40
0.8643716623020498
 40
0.9497428485234567
 40
1.0
 40
1.0
 40
1.0
 40
1.0
 10
21.92120371621809
 20
-1.966302194142082
 30
0.0
 10
21.90230163647917
 20
-1.974132737393129
 30
0.0
 10
21.45739673332347
 20
-2.158442989750671
 30
0.0
 10
20.58649759288852
 20
-2.366835358596306
 30
0.0
 10
19.3085154349988
 20
-2.535002313814833
 30
0.0
 10
18.03056145341143
 20
-2.466036744378723
 30
0.0
 10
16.75264088388113
 20
-2.188669351310027
 30
0.0
 10
15.47475934579785
 20
-1.720792348970178
 30
0.0
 10
14.19692252586844
 20
-1.104480472845817
 30
0.0
 10
12.91913535227552
 20
-0.3926483756910383
 30
0.0
 10
11.64140559930352
 20
0.3532808100867399
 30
0.0
 10
10.36373028063582
 20
1.067963688495908
 30
0.0
 10
9.043412947273364
 20
1.713828265427594
 30
0.0
 10
7.680064668444555
 20
2.205794695637769
 30
0.0
 10
6.466477152876536
 20
2.481652581504836
 30
0.0
 10
5.721450073321716
 20
2.471763287457702
 30
0.0
 10
5.445379899294368
 20
2.468098804375783
 30
0.0
  0
SPLINE
  5
BF
330
1F
100
AcDbEntity
  8
0
  6
Continuous
 62
     1
370
    15
100
AcDbSpline
210
0.0
220
0.0
230
1.0
 70
     8
 71
     3
 72
    13
 73
     9
 74
     0
 42
0.000000001
 43
0.00000001
 40
0.0
 40
0.0
 40
0.0
 40
0.0
 40
0.1965094387822846
 40
0.3930292864390287
 40
0.5895588200863768
 40
0.7860973126311414
 40
0.9826440330785988
 40
1.0
 40
1.0
 40
1.0
 40
1.0
 10
44.86602540378445
 20
-1.972430660920536
 30
0.0
 10
44.44020909825636
 20
-1.877992400541073
 30
0.0
 10
43.58855393221002
 20
-1.689110877498274
 30
0.0
 10
42.31102597606534
 20
-1.214587540964038
 30
0.0
 10
41.03342669995149
 20
-0.6453487283264452
 30
0.0
 10
39.75575961304287
 20
-0.024361066348758
 30
0.0
 10
38.86634955983476
 20
0.4278128680851906
 30
0.0
 10
38.40282729886559
 20
0.6326760891228769
 30
0.0
 10
38.36521731309276
 20
0.649298597850925
 30
0.0
  0
SPLINE
  5
C0
330
1F
100
AcDbEntity
  8
0
  6
Continuous
 62
     1
370
    15
100
AcDbSpline
210
0.0
220
0.0
230
1.0
 70
     8
 71
     3
 72
    15
 73
    11
 74
     0
 42
0.000000001
 43
0.00000001
 40
0.0
 40
0.0
 40
0.0
 40
0.0
 40
0.0990259183611822
 40
0.2404629560026786
 40
0.3818967669271717
 40
0.5233268144703893
 40
0.6647525636202248
 40
0.8061734812492541
 40
0.9475890363454834
 40
1.0
 40
1.0
 40
1.0
 40
1.0
 10
20.20326047305798
 20
-2.060755884010023
 30
0.0
 10
19.90500967498813
 20
-2.089769336137605
 30
0.0
 10
19.18077232661582
 20
-2.160222209263149
 30
0.0
 10
18.03056214042124
 20
-2.058632069664689
 30
0.0
 10
16.75264158392233
 20
-1.792160831004622
 30
0.0
 10
15.47476022694817
 20
-1.364469365549179
 30
0.0
 10
14.19692328948381
 20
-0.8195372553028865
 30
0.0
 10
12.91913702219
 20
-0.2071555435334055
 30
0.0
 10
11.90944817175127
 20
0.3022045826763359
 30
0.0
 10
11.32569170153262
 20
0.5680150062335375
 30
0.0
 10
11.16784312982576
 20
0.639890519129497
 30
0.0
  0
LINE
  5
C1
330
1F
100
AcDbEntity
  8
0
  6
Continuous
 62
     1
370
    15
100
AcDbLine
 10
44.86602540378445
 20
-2.372352173079752
 30
0.0
 11
44.86602540378445
 21
-1.972430660920536
 31
0.0
  0
SPLINE
  5
C2
330
1F
100
AcDbEntity
  8
0
  6
Continuous
 62
     1
370
    15
100
AcDbSpline
210
0.0
220
0.0
230
1.0
 70
     8
 71
     3
 72
    21
 73
    17
 74
     0
 42
0.000000001
 43
0.00000001
 40
0.0
 40
0.0
 40
0.0
 40
0.0
 40
0.072884683382823
 40
0.1470881873064408
 40
0.2212935816694605
 40
0.29550059690652
 40
0.369708962746817
 40
0.4439184083312006
 40
0.5181286623298055
 40
0.5923394530601351
 40
0.6665505086054722
 40
0.7407615569335104
 40
0.8149723260150924
 40
0.8891825439429506
 40
0.9633919390503255
 40
1.0
 40
1.0
 40
1.0
 40
1.0
 10
14.21953525725283
 20
1.676086097955399
 30
0.0
 10
14.63792331390315
 20
1.842099434025306
 30
0.0
 10
15.48226999947664
 20
2.177130054148329
 30
0.0
 10
16.75259577886526
 20
2.455676993896824
 30
0.0
 10
18.0305182245625
 20
2.534497628856392
 30
0.0
 10
19.30847432519144
 20
2.391257242755133
 30
0.0
 10
20.58645828568809
 20
2.042047196938297
 30
0.0
 10
21.86446456712849
 20
1.516068002835347
 30
0.0
 10
23.14248754894515
 20
0.8590424704687988
 30
0.0
 10
24.4205216204526
 20
0.1277821550946958
 30
0.0
 10
25.69856116772518
 20
-0.6147425052351193
 30
0.0
 10
26.97660054978868
 20
-1.30329859536833
 30
0.0
 10
28.25463422223499
 20
-1.882210810637241
 30
0.0
 10
29.53265628184846
 20
-2.287009604595283
 30
0.0
 10
30.59481625254424
 20
-2.494356258724675
 30
0.0
 10
31.23096645085736
 20
-2.478181205404674
 30
0.0
 10
31.44111588093456
 20
-2.472837847427769
 30
0.0
  0
SPLINE
  5
C3
330
1F
100
AcDbEntity
  8
0
  6
Continuous
 62
     1
370
    15
100
AcDbSpline
210
0.0
220
0.0
230
1.0
 70
     8
 71
     3
 72
    10
 73
     6
 74
     0
 42
0.000000001
 43
0.00000001
 40
0.0
 40
0.0
 40
0.0
 40
0.0
 40
0.2498917286651293
 40
0.624955373593194
 40
1.0
 40
1.0
 40
1.0
 40
1.0
 10
41.45985959918983
 20
1.674209603720918
 30
0.0
 10
41.74358731981822
 20
1.794797624698221
 30
0.0
 10
42.45316328134062
 20
2.096376761003786
 30
0.0
 10
43.5885532181545
 20
2.401029599487877
 30
0.0
 10
44.44020853963531
 20
2.465601770940906
 30
0.0
 10
44.86602540378444
 20
2.500000000000148
 30
0.0
  0
SPLINE
  5
C4
330
1F
100
AcDbEntity
  8
0
  6
Continuous
 62
     1
370
    15
100
AcDbSpline
210
0.0
220
0.0
230
1.0
 70
    24
 71
     3
 72
    10
 73
     6
 74
     0
 42
0.000000001
 43
0.00000001
 40
0.0
 40
0.0
 40
0.0
 40
0.0
 40
0.5
 40
0.5
 40
1.0
 40
1.0
 40
1.0
 40
1.0
 10
44.86602540378445
 20
1.750000000000005
 30
0.0
 10
44.86602540378443
 20
1.85608064201829
 30
0.0
 10
44.86602540378448
 20
1.9793561721678
 30
0.0
 10
44.86602540378445
 20
2.237987902402149
 30
0.0
 10
44.86602540378443
 20
2.372683589503692
 30
0.0
 10
44.86602540378444
 20
2.500000000000148
 30
0.0
  0
LINE
  5
C5
330
1F
100
AcDbEntity
  8
0
  6
Continuous
 62
     1
370
    15
100
AcDbLine
 10
44.86602540378445
 20
1.750000000000005
 30
0.0
 11
43.93960123719978
 21
1.695149644254863
 31
0.0
  0
SPLINE
  5
C6
330
1F
100
AcDbEntity
  8
0
  6
Continuous
 62
     1
370
    15
100
AcDbSpline
210
0.0
220
0.0
230
1.0
 70
     8
 71
     3
 72
    15
 73
    11
 74
     0
 42
0.000000001
 43
0.00000001
 40
0.0
 40
0.0
 40
0.0
 40
0.0
 40
0.0758749475586462
 40
0.2294262086830818
 40
0.3829762619714209
 40
0.5365244959980776
 40
0.6900703001457245
 40
0.8436130648759512
 40
0.9971521819989074
 40
1.0
 40
1.0
 40
1.0
 40
1.0
 10
25.05204940452385
 20
-0.2356322070469787
 30
0.0
 10
24.84154232982236
 20
-0.1518715540911071
 30
0.0
 10
24.20502340488472
 20
0.1013989872773941
 30
0.0
 10
23.14249641525612
 20
0.53278009831648
 30
0.0
 10
21.8644741147823
 20
1.001861833228262
 30
0.0
 10
20.58646856201044
 20
1.384171764537591
 30
0.0
 10
19.30848518920539
 20
1.651109696371132
 30
0.0
 10
18.0305301793672
 20
1.758200339708851
 30
0.0
 10
17.17066919695155
 20
1.771065921581113
 30
0.0
 10
16.73679504778381
 20
1.709647128496403
 30
0.0
 10
16.7288941664779
 20
1.708528687595868
 30
0.0
  0
SPLINE
  5
C7
330
1F
100
AcDbEntity
  8
0
  6
Continuous
 62
     1
370
    15
100
AcDbSpline
210
0.0
220
0.0
230
1.0
 70
     8
 71
     3
 72
    17
 73
    13
 74
     0
 42
0.000000001
 43
0.00000001
 40
0.0
 40
0.0
 40
0.0
 40
0.0
 40
0.1084914014112001
 40
0.2169286151105808
 40
0.3253091225352105
 40
0.4238115670857651
 40
0.5223182916757675
 40
0.6208289453813701
 40
0.719343175580812
 40
0.8178606281040777
 40
0.9163809473839973
 40
1.0
 40
1.0
 40
1.0
 40
1.0
 10
4.866025403782002
 20
2.473431231107599
 30
0.0
 10
5.335212674663435
 20
2.408697586440962
 30
0.0
 10
6.273352873572453
 20
2.27926262932975
 30
0.0
 10
7.680028775861977
 20
1.7772438129773
 30
0.0
 10
9.043362329845163
 20
1.127902742720661
 30
0.0
 10
10.36367529244043
 20
0.3913588502496309
 30
0.0
 10
11.64135239510493
 20
-0.3542887366571369
 30
0.0
 10
12.91908417515126
 20
-1.069173383117607
 30
0.0
 10
14.1968732876938
 20
-1.693129149433813
 30
0.0
 10
15.47471223034857
 20
-2.164887078513552
 30
0.0
 10
16.68815748292799
 20
-2.455844849758161
 30
0.0
 10
17.47565852734011
 20
-2.476570355953696
 30
0.0
 10
17.83719535807807
 20
-2.486085306922386
 30
0.0
  0
SPLINE
  5
C8
330
1F
100
AcDbEntity
  8
0
  6
Continuous
 62
     1
370
    15
100
AcDbSpline
210
0.0
220
0.0
230
1.0
 70
     8
 71
     3
 72
    21
 73
    17
 74
     0
 42
0.000000001
 43
0.00000001
 40
0.0
 40
0.0
 40
0.0
 40
0.0
 40
0.023652185572211
 40
0.098766863967858
 40
0.1738807095146373
 40
0.2489934475980461
 40
0.3241048040863628
 40
0.3992145054496885
 40
0.4743222788784323
 40
0.5494278524011164
 40
0.6245309550014031
 40
0.6996313167342265
 40
0.7747286688409263
 40
0.8498227438632869
 40
0.924913275756363
 40
1.0
 40
1.0
 40
1.0
 40
1.0
 10
27.8522110640739
 20
1.67428974253321
 30
0.0
 10
27.98635307228438
 20
1.735602372640089
 30
0.0
 10
28.54650365273926
 20
1.991631828302424
 30
0.0
 10
29.53265635437409
 20
2.28784065083411
 30
0.0
 10
30.81066167579457
 20
2.511415818209144
 30
0.0
 10
32.0886442827515
 20
2.50779567098018
 30
0.0
 10
33.36659871751662
 20
2.290041931525112
 30
0.0
 10
34.64451936089485
 20
1.873574121716483
 30
0.0
 10
35.92240065617533
 20
1.295313163359316
 30
0.0
 10
37.20023704970224
 20
0.6050413310621392
 30
0.0
 10
38.47802301961279
 20
-0.1375952807668626
 30
0.0
 10
39.7557530351808
 20
-0.8680308750860701
 30
0.0
 10
41.03342170544943
 20
-1.524526672828785
 30
0.0
 10
42.31102324001075
 20
-2.04506785255712
 30
0.0
 10
43.58855347161133
 20
-2.404321724323062
 30
0.0
 10
44.44020862411949
 20
-2.466699127336974
 30
0.0
 10
44.86602540378445
 20
-2.49999999999985
 30
0.0
  0
SPLINE
  5
C9
330
1F
100
AcDbEntity
  8
0
  6
Continuous
 62
     1
370
    15
100
AcDbSpline
210
0.0
220
0.0
230
1.0
 70
     8
 71
     3
 72
    15
 73
    11
 74
     0
 42
0.000000001
 43
0.00000001
 40
0.0
 40
0.0
 40
0.0
 40
0.0
 40
0.0215982676179485
 40
0.1750031816752723
 40
0.3284135849947419
 40
0.4818288756264528
 40
0.6352484494592384
 40
0.7886717004854286
 40
0.9420980210674028
 40
1.0
 40
1.0
 40
1.0
 40
1.0
 10
38.65794159963849
 20
-0.2369718107617786
 30
0.0
 10
38.59797423969826
 20
-0.2135935563100434
 30
0.0
 10
38.11207977020457
 20
-0.0241677660828747
 30
0.0
 10
37.2002378493663
 20
0.3541031293321823
 30
0.0
 10
35.92240257034786
 20
0.8428148705963352
 30
0.0
 10
34.64452185958963
 20
1.260920583646691
 30
0.0
 10
33.3666019727056
 20
1.571755018500494
 30
0.0
 10
32.08864814355017
 20
1.737475142043385
 30
0.0
 10
31.07590063005303
 20
1.777610937343053
 30
0.0
 10
30.48913780612504
 20
1.710436612379023
 30
0.0
 10
30.32837027642101
 20
1.692031475169227
 30
0.0
  0
SPLINE
  5
CA
330
1F
100
AcDbEntity
  8
0
  6
Continuous
 62
     1
370
    15
100
AcDbSpline
210
0.0
220
0.0
230
1.0
 70
     8
 71
     3
 72
    13
 73
     9
 74
     0
 42
0.000000001
 43
0.00000001
 40
0.0
 40
0.0
 40
0.0
 40
0.0
 40
0.1644975316071011
 40
0.3586411258470166
 40
0.5527747983712512
 40
0.7468978056395036
 40
0.873640258528915
 40
1.0
 40
1.0
 40
1.0
 40
1.0
 10
11.44619483759481
 20
-0.2368843642903202
 30
0.0
 10
11.08535503148501
 20
-0.0912109334432269
 30
0.0
 10
10.29864417297354
 20
0.2263894751135648
 30
0.0
 10
9.086087900387078
 20
0.7062184339479208
 30
0.0
 10
7.808566705580859
 20
1.149580198842857
 30
0.0
 10
6.678850559952011
 20
1.452296596592393
 30
0.0
 10
5.69794103061728
 20
1.63829966783557
 30
0.0
 10
5.143050932845698
 20
1.69244652001993
 30
0.0
 10
4.866025403784441
 20
1.719479008856212
 30
0.0
  0
SPLINE
  5
CB
330
1F
100
AcDbEntity
  8
0
  6
Continuous
 62
   131
370
    15
100
AcDbSpline
210
0.0
220
0.0
230
1.0
 70
    24
 71
     3
 72
    10
 73
     6
 74
     0
 42
0.000000001
 43
0.00000001
 40
0.0
 40
0.0
 40
0.0
 40
0.0
 40
0.5
 40
0.5
 40
1.0
 40
1.0
 40
1.0
 40
1.0
 10
4.866025403784436
 20
2.473431231096274
 30
0.0
 10
4.866025403784436
 20
2.356368493971117
 30
0.0
 10
4.866025403784436
 20
2.225434989561919
 30
0.0
 10
4.866025403784436
 20
1.964448249640421
 30
0.0
 10
4.866025403784436
 20
1.835098106960127
 30
0.0
 10
4.866025403784436
 20
1.719479008856212
 30
0.0
  0
LINE
  5
CC
330
1F
100
AcDbEntity
  8
0
  6
Continuous
 62
   131
370
    15
100
AcDbLine
 10
4.866025403784437
 20
-2.500000000000004
 30
0.0
 11
4.866025403784436
 21
-2.477622746549032
 31
0.0
  0
LINE
  5
CD
330
1F
100
AcDbEntity
  8
0
  6
Continuous
 62
   131
370
    15
100
AcDbLine
 10
4.866025403784436
 20
2.473431231096273
 30
0.0
 11
4.866025403784437
 21
2.500000000000004
 31
0.0
  0
LINE
  5
CE
330
1F
100
AcDbEntity
  8
0
  6
Continuous
 62
     1
370
    15
100
AcDbLine
 10
44.86602540378445
 20
-2.49999999999985
 30
0.0
 11
44.86602540378443
 21
-2.372352173079756
 31
0.0
  0
SPLINE
  5
CF
330
1F
100
AcDbEntity
  8
0
  6
Continuous
 62
     1
370
    15
100
AcDbSpline
210
0.0
220
0.0
230
1.0
 70
     8
 71
     3
 72
     8
 73
     4
 74
     0
 42
0.000000001
 43
0.00000001
 40
0.0
 40
0.0
 40
0.0
 40
0.0
 40
1.0
 40
1.0
 40
1.0
 40
1.0
 10
43.31844673555916
 20
0.7000164084405752
 30
0.0
 10
43.20660797946343
 20
0.8325404951408024
 30
0.0
 10
43.10957015215358
 20
0.9591847098085282
 30
0.0
 10
43.03295638611385
 20
1.077008495890187
 30
0.0
  0
LINE
  5
D0
330
1F
100
AcDbEntity
  8
0
  6
Continuous
 62
     1
370
    15
100
AcDbLine
 10
43.03295638611385
 20
1.077008495890187
 30
0.0
 11
44.86602540378445
 21
0.0000000000000052
 31
0.0
  0
LINE
  5
D1
330
1F
100
AcDbEntity
  8
0
  6
Continuous
 62
     1
370
    15
100
AcDbLine
 10
44.86602540378445
 20
0.0000000000000052
 30
0.0
 11
44.86602540378445
 21
-0.6681073650741068
 31
0.0
  0
SPLINE
  5
D2
330
1F
100
AcDbEntity
  8
0
  6
Continuous
 62
     1
370
    15
100
AcDbSpline
210
0.0
220
0.0
230
1.0
 70
     8
 71
     3
 72
    10
 73
     6
 74
     0
 42
0.000000001
 43
0.00000001
 40
0.0
 40
0.0
 40
0.0
 40
0.0
 40
0.5
 40
0.5
 40
1.0
 40
1.0
 40
1.0
 40
1.0
 10
44.86602540378445
 20
-0.6681073650741115
 30
0.0
 10
44.59812522224678
 20
-0.4574906938170823
 30
0.0
 10
44.33470397730507
 20
-0.2382331035478398
 30
0.0
 10
43.81703861831598
 20
0.2179869145392839
 30
0.0
 10
43.56038766702051
 20
0.4573610698567473
 30
0.0
 10
43.31844673555916
 20
0.7000164084405754
 30
0.0
  0
SPLINE
  5
D3
330
1F
100
AcDbEntity
  8
0
  6
Continuous
 62
     1
370
    15
100
AcDbSpline
210
0.0
220
0.0
230
1.0
 70
     8
 71
     3
 72
    12
 73
     8
 74
     0
 42
0.000000001
 43
0.00000001
 40
0.0
 40
0.0
 40
0.0
 40
0.0
 40
0.1749905393907076
 40
0.3968799081119916
 40
0.6187795335811971
 40
0.8406885789210227
 40
0.9999999999999999
 40
0.9999999999999999
 40
0.9999999999999999
 40
0.9999999999999999
 10
43.31844673554879
 20
0.7000164084450612
 30
0.0
 10
42.98265831737336
 20
0.8414619763709418
 30
0.0
 10
42.22108756609417
 20
1.162261627579131
 30
0.0
 10
41.03340606625636
 20
1.571175424926564
 30
0.0
 10
39.75575875701307
 20
1.87285551405224
 30
0.0
 10
38.59818522714141
 20
2.019025898729417
 30
0.0
 10
37.86650458691658
 20
1.98366975515571
 30
0.0
 10
37.56073642167296
 20
1.968894479500882
 30
0.0
  0
SPLINE
  5
D4
330
1F
100
AcDbEntity
  8
0
  6
Continuous
 62
     1
370
    15
100
AcDbSpline
210
0.0
220
0.0
230
1.0
 70
     8
 71
     3
 72
    21
 73
    17
 74
     0
 42
0.000000001
 43
0.00000001
 40
0.0
 40
0.0
 40
0.0
 40
0.0
 40
0.0175821362613458
 40
0.0994113601345138
 40
0.1812402747695216
 40
0.263068562547535
 40
0.3448959061267943
 40
0.4267219885827108
 40
0.5085464935475683
 40
0.590369105349699
 40
0.6721895091520056
 40
0.7540073910896975
 40
0.8358224384071155
 40
0.9176343395935159
 40
0.9994427845176918
 40
1.0
 40
1.0
 40
1.0
 40
1.0
 10
25.97317704843395
 20
-1.865774206783708
 30
0.0
 10
25.88164220185729
 20
-1.884382895549806
 30
0.0
 10
25.36409396638514
 20
-1.989598498082974
 30
0.0
 10
24.4205337980627
 20
-2.020665233338157
 30
0.0
 10
23.14250063418542
 20
-1.938238747560618
 30
0.0
 10
21.86447853466371
 20
-1.674772224523698
 30
0.0
 10
20.58647314192358
 20
-1.270103727136002
 30
0.0
 10
19.30849005384494
 20
-0.7546635193260324
 30
0.0
 10
18.03053486610263
 20
-0.1742086492947727
 30
0.0
 10
16.75261316720391
 20
0.4212663510474077
 30
0.0
 10
15.47473050087131
 20
0.9806903709342659
 30
0.0
 10
14.1968925064118
 20
1.453849944109873
 30
0.0
 10
12.91910437991071
 20
1.806820467925485
 30
0.0
 10
11.64137287411638
 20
1.983024218753437
 30
0.0
 10
10.78667026513623
 20
2.037541876719235
 30
0.0
 10
10.35788116164523
 20
1.986362877099404
 30
0.0
 10
10.35498034198408
 20
1.986016643841314
 30
0.0
  0
SPLINE
  5
D5
330
1F
100
AcDbEntity
  8
0
  6
Continuous
 62
     1
370
    15
100
AcDbSpline
210
0.0
220
0.0
230
1.0
 70
    24
 71
     3
 72
    10
 73
     6
 74
     0
 42
0.000000001
 43
0.00000001
 40
0.0
 40
0.0
 40
0.0
 40
0.0
 40
0.5
 40
0.5
 40
1.0
 40
1.0
 40
1.0
 40
1.0
 10
44.86602540378445
 20
-1.972430660920535
 30
0.0
 10
44.86602540378443
 20
-1.821228472509507
 30
0.0
 10
44.86602540378445
 20
-1.630178709766168
 30
0.0
 10
44.86602540378442
 20
-1.186006397876698
 30
0.0
 10
44.86602540378445
 20
-0.9332686076282732
 30
0.0
 10
44.86602540378445
 20
-0.6681073650741914
 30
0.0
  0
SPLINE
  5
D6
330
1F
100
AcDbEntity
  8
0
  6
Continuous
 62
   131
370
    15
100
AcDbSpline
210
0.0
220
0.0
230
1.0
 70
    24
 71
     3
 72
    10
 73
     6
 74
     0
 42
0.000000001
 43
0.00000001
 40
0.0
 40
0.0
 40
0.0
 40
0.0
 40
0.5
 40
0.5
 40
1.0
 40
1.0
 40
1.0
 40
1.0
 10
4.866025403784436
 20
-0.3718976169890032
 30
0.0
 10
4.866025403784436
 20
-0.739954861986309
 30
0.0
 10
4.866025403784436
 20
-1.100549853843406
 30
0.0
 10
4.866025403784436
 20
-1.699382385909762
 30
0.0
 10
4.866025403784436
 20
-1.935042316800938
 30
0.0
 10
4.866025403784436
 20
-2.085052526551424
 30
0.0
  0
SPLINE
  5
D7
330
1F
100
AcDbEntity
  8
0
  6
Continuous
 62
     1
370
    15
100
AcDbSpline
210
0.0
220
0.0
230
1.0
 70
     8
 71
     3
 72
    20
 73
    16
 74
     0
 42
0.000000001
 43
0.00000001
 40
0.0
 40
0.0
 40
0.0
 40
0.0
 40
0.0702748831034463
 40
0.1520825790990985
 40
0.2338931261960818
 40
0.315706211729518
 40
0.3975215219181906
 40
0.4793387420013051
 40
0.5611575563761634
 40
0.6429776487366388
 40
0.7247987022123061
 40
0.8066203995081082
 40
0.8884424230444175
 40
0.9702644550973726
 40
1.0
 40
1.0
 40
1.0
 40
1.0
 10
39.57568617827313
 20
-1.869397221762853
 30
0.0
 10
39.20980474480521
 20
-1.919574048413939
 30
0.0
 10
38.41799706631548
 20
-2.02816222204167
 30
0.0
 10
37.20024018364136
 20
-1.986161548189466
 30
0.0
 10
35.9224048289983
 20
-1.786564183903884
 30
0.0
 10
34.64452438814386
 20
-1.428165143146739
 30
0.0
 10
33.36660464824796
 20
-0.9474515889800211
 30
0.0
 10
32.08865111201635
 20
-0.3844898659418082
 30
0.0
 10
30.81066937886754
 20
0.2115782591807726
 30
0.0
 10
29.5326650373678
 20
0.7895950830952747
 30
0.0
 10
28.25464369924721
 20
1.298530086335779
 30
0.0
 10
26.9766109557789
 20
1.698205416720111
 30
0.0
 10
25.69857250306378
 20
1.939801212707122
 30
0.0
 10
24.69172486560895
 20
2.031061899955695
 30
0.0
 10
24.11089114473138
 20
1.980114368896247
 30
0.0
 10
23.95607057889037
 20
1.966534362599594
 30
0.0
  0
SPLINE
  5
D8
330
1F
100
AcDbEntity
  8
0
  6
Continuous
 62
     1
370
    15
100
AcDbSpline
210
0.0
220
0.0
230
1.0
 70
     8
 71
     3
 72
    14
 73
    10
 74
     0
 42
0.000000001
 43
0.00000001
 40
0.0
 40
0.0
 40
0.0
 40
0.0
 40
0.0973645265736764
 40
0.2675623782735274
 40
0.437752397351883
 40
0.6079339451676071
 40
0.7781063867727419
 40
0.8892165734187768
 40
1.0
 40
1.0
 40
1.0
 40
1.0
 10
12.37227355728712
 20
-1.858624132862303
 30
0.0
 10
12.12863395301563
 20
-1.899885820160971
 30
0.0
 10
11.4591006614305
 20
-2.013274911380515
 30
0.0
 10
10.36370214106906
 20
-2.011399320701272
 30
0.0
 10
9.086093368009735
 20
-1.863136780062096
 30
0.0
 10
7.808575501694119
 20
-1.546617162342331
 30
0.0
 10
6.678837833705117
 20
-1.149396394076942
 30
0.0
 10
5.697907510447514
 20
-0.7461910071369136
 30
0.0
 10
5.143047077239263
 20
-0.496539534961942
 30
0.0
 10
4.866025403784441
 20
-0.3718976169890062
 30
0.0
  0
SPLINE
  5
D9
330
1F
100
AcDbEntity
  8
0
  6
Continuous
 62
   131
370
    15
100
AcDbSpline
210
0.0
220
0.0
230
1.0
 70
    24
 71
     3
 72
    14
 73
    10
 74
     0
 42
0.000000001
 43
0.00000001
 40
0.0
 40
0.0
 40
0.0
 40
0.0
 40
0.25
 40
0.25
 40
0.4999999999999999
 40
0.4999999999999999
 40
0.75
 40
0.75
 40
1.0
 40
1.0
 40
1.0
 40
1.0
 10
4.866025403784436
 20
1.719479008856212
 30
0.0
 10
4.866025403784436
 20
1.632916816655047
 30
0.0
 10
4.866025403784436
 20
1.518588693662521
 30
0.0
 10
4.866025403784436
 20
1.237542077212065
 30
0.0
 10
4.866025403784436
 20
1.070858335445472
 30
0.0
 10
4.866025403784436
 20
0.6991604123230469
 30
0.0
 10
4.866025403784436
 20
0.4943442871606818
 30
0.0
 10
4.866025403784436
 20
0.0680009691528475
 30
0.0
 10
4.866025403784436
 20
-0.1532873949441009
 30
0.0
 10
4.866025403784436
 20
-0.371897616989004
 30
0.0
  0
SPLINE
  5
DA
330
1F
100
AcDbEntity
  8
0
  6
Continuous
 62
     1
370
    15
100
AcDbSpline
210
0.0
220
0.0
230
1.0
 70
     8
 71
     3
 72
    10
 73
     6
 74
     0
 42
0.000000001
 43
0.00000001
 40
0.0
 40
0.0
 40
0.0
 40
0.0
 40
0.5
 40
0.5
 40
1.0
 40
1.0
 40
1.0
 40
1.0
 10
44.86602540378445
 20
1.750000000000005
 30
0.0
 10
44.5549235778816
 20
1.665537562068976
 30
0.0
 10
44.24613566657989
 20
1.568844760243828
 30
0.0
 10
43.63392002552209
 20
1.347127527237781
 30
0.0
 10
43.33031802148767
 20
1.222815499406804
 30
0.0
 10
43.03295638611236
 20
1.07700849589135
 30
0.0
  0
LINE
  5
DB
330
1F
100
AcDbEntity
  8
0
  6
Continuous
 62
     1
370
    15
100
AcDbLine
 10
44.86602540378445
 20
0.0000000000000052
 30
0.0
 11
44.86602540378445
 21
1.750000000000005
 31
0.0
  0
LINE
  5
DC
330
1F
100
AcDbEntity
  8
0
  6
Continuous
 62
   131
370
    15
100
AcDbLine
 10
3.866025403784437
 20
2.5
 30
0.0
 11
3.866025403784437
 21
-2.5
 31
0.0
  0
LINE
  5
DD
330
1F
100
AcDbEntity
  8
0
  6
Continuous
 62
   131
370
    15
100
AcDbLine
 10
2.0
 20
3.000000000000001
 30
0.0
 11
2.0
 21
-3.0
 31
0.0
  0
LINE
  5
DE
330
1F
100
AcDbEntity
  8
0
  6
Continuous
 62
   131
370
    15
100
AcDbLine
 10
-54.58397459621557
 20
2.999999999999994
 30
0.0
 11
-54.58397459621557
 21
-3.000000000000002
 31
0.0
  0
LINE
  5
DF
330
1F
100
AcDbEntity
  8
0
  6
Continuous
 62
   131
370
    15
100
AcDbLine
 10
-55.13397459621558
 20
2.449999999999993
 30
0.0
 11
-55.13397459621558
 21
-2.45
 31
0.0
  0
SPLINE
  5
E0
330
1F
100
AcDbEntity
  8
0
  6
Continuous
 62
   131
370
    15
100
AcDbSpline
210
0.0
220
0.0
230
1.0
 70
     8
 71
     3
 72
     8
 73
     4
 74
     0
 42
0.000000001
 43
0.00000001
 40
0.0
 40
0.0
 40
0.0
 40
0.0
 40
1.0
 40
1.0
 40
1.0
 40
1.0
 10
4.866025403783533
 20
2.473431231107464
 30
0.0
 10
4.568373015332668
 20
2.498358264357975
 30
0.0
 10
4.270733939117015
 20
2.505737389840748
 30
0.0
 10
3.976087842481856
 20
2.495565886667216
 30
0.0
  0
SPLINE
  5
E1
330
1F
100
AcDbEntity
  8
0
  6
Continuous
 62
   131
370
    15
100
AcDbSpline
210
0.0
220
0.0
230
1.0
 70
     8
 71
     3
 72
     8
 73
     4
 74
     0
 42
0.000000001
 43
0.00000001
 40
0.0
 40
0.0
 40
0.0
 40
0.0
 40
1.0
 40
1.0
 40
1.0
 40
1.0
 10
4.866025403783533
 20
-2.47762274657551
 30
0.0
 10
4.56839497521384
 20
-2.45473836629196
 30
0.0
 10
4.270776580664137
 20
-2.4142832840935
 30
0.0
 10
3.976153056648014
 20
-2.357410721573477
 30
0.0
  0
LINE
  5
E2
330
1F
100
AcDbEntity
  8
0
  6
Continuous
 62
   131
370
    15
100
AcDbLine
 10
3.976087842481856
 20
-2.495565886667215
 30
0.0
 11
4.233795964679427
 21
-2.489156133030735
 31
0.0
  0
LINE
  5
E3
330
1F
100
AcDbEntity
  8
0
  6
Continuous
 62
   131
370
    15
100
AcDbLine
 10
3.976087842481856
 20
-2.5
 30
0.0
 11
3.976087842481856
 21
-2.495526120063437
 31
0.0
  0
LINE
  5
E4
330
1F
100
AcDbEntity
  8
0
  6
Continuous
 62
   131
370
    15
100
AcDbLine
 10
3.976087842481856
 20
-2.357375052168062
 30
0.0
 11
3.976087842481856
 21
2.5
 31
0.0
  0
SPLINE
  5
E5
330
1F
100
AcDbEntity
  8
0
  6
Continuous
 62
   131
370
    15
100
AcDbSpline
210
0.0
220
0.0
230
1.0
 70
     8
 71
     3
 72
     8
 73
     4
 74
     0
 42
0.000000001
 43
0.00000001
 40
0.0
 40
0.0
 40
0.0
 40
0.0
 40
1.0
 40
1.0
 40
1.0
 40
1.0
 10
4.866025403783032
 20
-2.085052526551292
 30
0.0
 10
4.568394975213506
 20
-2.056932664081939
 30
0.0
 10
4.270776580663975
 20
-2.014026918219086
 30
0.0
 10
3.976153056648014
 20
-1.957519850692152
 30
0.0
  0
SPLINE
  5
E6
330
1F
100
AcDbEntity
  8
0
  6
Continuous
 62
   131
370
    15
100
AcDbSpline
210
0.0
220
0.0
230
1.0
 70
     8
 71
     3
 72
     8
 73
     4
 74
     0
 42
0.000000001
 43
0.00000001
 40
0.0
 40
0.0
 40
0.0
 40
0.0
 40
1.0
 40
1.0
 40
1.0
 40
1.0
 10
4.866025403782835
 20
-0.3718976169882788
 30
0.0
 10
4.568381041747843
 20
-0.237146016246288
 30
0.0
 10
4.270749524774439
 20
-0.0997688205685152
 30
0.0
 10
3.976111678515833
 20
0.0368887352030566
 30
0.0
  0
SPLINE
  5
E7
330
1F
100
AcDbEntity
  8
0
  6
Continuous
 62
   131
370
    15
100
AcDbSpline
210
0.0
220
0.0
230
1.0
 70
    24
 71
     3
 72
    10
 73
     6
 74
     0
 42
0.000000001
 43
0.00000001
 40
0.0
 40
0.0
 40
0.0
 40
0.0
 40
0.5
 40
0.5
 40
1.0
 40
1.0
 40
1.0
 40
1.0
 10
4.866025403784436
 20
-0.3718976169890032
 30
0.0
 10
4.866025403784436
 20
-0.739954861986309
 30
0.0
 10
4.866025403784436
 20
-1.100549853843406
 30
0.0
 10
4.866025403784436
 20
-1.699382385909762
 30
0.0
 10
4.866025403784436
 20
-1.935042316800938
 30
0.0
 10
4.866025403784436
 20
-2.085052526551424
 30
0.0
  0
SPLINE
  5
E8
330
1F
100
AcDbEntity
  8
0
  6
Continuous
 62
   131
370
    15
100
AcDbSpline
210
0.0
220
0.0
230
1.0
 70
     8
 71
     3
 72
     8
 73
     4
 74
     0
 42
0.000000001
 43
0.00000001
 40
0.0
 40
0.0
 40
0.0
 40
0.0
 40
1.0
 40
1.0
 40
1.0
 40
1.0
 10
4.866025403782366
 20
1.719479008856367
 30
0.0
 10
4.568378311879872
 20
1.741793168677042
 30
0.0
 10
4.270744223932011
 20
1.751908356124304
 30
0.0
 10
3.9761035716349
 20
1.749702243623104
 30
0.0
  0
SPLINE
  5
E9
330
1F
100
AcDbEntity
  8
0
  6
Continuous
 62
   131
370
    15
100
AcDbSpline
210
0.0
220
0.0
230
1.0
 70
    24
 71
     3
 72
    14
 73
    10
 74
     0
 42
0.000000001
 43
0.00000001
 40
0.0
 40
0.0
 40
0.0
 40
0.0
 40
0.25
 40
0.25
 40
0.4999999999999999
 40
0.4999999999999999
 40
0.75
 40
0.75
 40
1.0
 40
1.0
 40
1.0
 40
1.0
 10
4.866025403784436
 20
1.719479008856212
 30
0.0
 10
4.866025403784436
 20
1.632916816655047
 30
0.0
 10
4.866025403784436
 20
1.518588693662521
 30
0.0
 10
4.866025403784436
 20
1.237542077212065
 30
0.0
 10
4.866025403784436
 20
1.070858335445472
 30
0.0
 10
4.866025403784436
 20
0.6991604123230469
 30
0.0
 10
4.866025403784436
 20
0.4943442871606818
 30
0.0
 10
4.866025403784436
 20
0.0680009691528475
 30
0.0
 10
4.866025403784436
 20
-0.1532873949441009
 30
0.0
 10
4.866025403784436
 20
-0.371897616989004
 30
0.0
  0
SPLINE
  5
EA
330
1F
100
AcDbEntity
  8
0
  6
Continuous
 62
   131
370
    15
100
AcDbSpline
210
0.0
220
0.0
230
1.0
 70
    24
 71
     3
 72
     8
 73
     4
 74
     0
 42
0.000000001
 43
0.00000001
 40
0.0
 40
0.0
 40
0.0
 40
0.0
 40
1.0
 40
1.0
 40
1.0
 40
1.0
 10
4.866025403785292
 20
-2.085052526551506
 30
0.0
 10
4.866025403785292
 20
-2.217232802189136
 30
0.0
 10
4.866025403785292
 20
-2.348936435434068
 30
0.0
 10
4.866025403785292
 20
-2.477622746562421
 30
0.0
  0
SPLINE
  5
EB
330
1F
100
AcDbEntity
  8
0
  6
Continuous
 62
   131
370
    15
100
AcDbSpline
210
0.0
220
0.0
230
1.0
 70
    24
 71
     3
 72
    10
 73
     6
 74
     0
 42
0.000000001
 43
0.00000001
 40
0.0
 40
0.0
 40
0.0
 40
0.0
 40
0.5
 40
0.5
 40
1.0
 40
1.0
 40
1.0
 40
1.0
 10
4.866025403784436
 20
2.473431231096274
 30
0.0
 10
4.866025403784436
 20
2.356368493971117
 30
0.0
 10
4.866025403784436
 20
2.225434989561919
 30
0.0
 10
4.866025403784436
 20
1.964448249640421
 30
0.0
 10
4.866025403784436
 20
1.835098106960127
 30
0.0
 10
4.866025403784436
 20
1.719479008856212
 30
0.0
  0
LINE
  5
EC
330
1F
100
AcDbEntity
  8
중심선
 62
     1
100
AcDbLine
 10
-58.13397459621558
 20
-0.0000000000000046
 30
0.0
 11
47.86602540378445
 21
0.0000000000000055
 31
0.0
  0
CIRCLE
  5
ED
330
1F
100
AcDbEntity
  8
외형선
100
AcDbCircle
 10
0.0000000000000104
 20
0.0
 30
0.0
 40
3.000000000000005
  0
INSERT
  5
EE
330
1F
100
AcDbEntity
  8
0
  6
Continuous
 62
     7
100
AcDbBlockReference
 66
     1
  2
블럭10
 10
-22.93944368806589
 20
-52.04609937292004
 30
0.0
  0
ATTRIB
  5
EF
330
EE
100
AcDbEntity
  8
FORMAT
 62
     2
100
AcDbText
 10
-39.05870472750145
 20
-49.97073246008785
 30
0.0
 40
4.233333333333333
  1
SEME7005040E [ 2 FLUTE ]
 41
0.75
  7
SLDTEXTSTYLE0
 11
-39.05870472750145
 21
-52.08739912675452
 31
0.0
100
AcDbAttribute
  2
AUTOATTR0
 70
     0
 74
     1
  0
SEQEND
  5
F0
330
EE
100
AcDbEntity
  8
0
  6
Continuous
 62
     7
  0
HATCH
  5
F1
330
1F
100
AcDbEntity
  8
중심선
100
AcDbHatch
 10
0.0
 20
0.0
 30
0.0
210
0.0
220
0.0
230
1.0
  2
SOLID
 70
     1
 71
     0
 91
        1
 92
        0
 93
        4
 72
     1
 10
-17.22453438368504
 20
-35.7989250712761
 11
-20.67080962752232
 21
-35.7989250712761
 72
     1
 10
-20.67080962752232
 20
-35.7989250712761
 11
-22.79903948672635
 21
-38.3352506518487
 72
     1
 10
-22.79903948672635
 20
-38.3352506518487
 11
-19.35273115777591
 21
-38.33521122254621
 72
     1
 10
-19.35273115777591
 20
-38.33521122254621
 11
-17.22453438368504
 21
-35.7989250712761
 97
        0
 75
     0
 76
     1
 98
        1
 10
0.0
 20
0.0
  0
HATCH
  5
F2
330
1F
100
AcDbEntity
  8
중심선
100
AcDbHatch
 10
0.0
 20
0.0
 30
0.0
210
0.0
220
0.0
230
1.0
  2
SOLID
 70
     1
 71
     0
 91
        1
 92
        0
 93
        4
 72
     1
 10
-12.21177039264909
 20
-35.7989250712761
 11
-15.65804563648637
 21
-35.7989250712761
 72
     1
 10
-15.65804563648637
 20
-35.7989250712761
 11
-20.18918364484376
 21
-41.19892507127612
 72
     1
 10
-20.18918364484376
 20
-41.19892507127612
 11
-16.74290840100648
 21
-41.19892507127612
 72
     1
 10
-16.74290840100648
 20
-41.19892507127612
 11
-12.21177039264909
 21
-35.7989250712761
 97
        0
 75
     0
 76
     1
 98
        1
 10
0.0
 20
0.0
  0
HATCH
  5
F3
330
1F
100
AcDbEntity
  8
중심선
100
AcDbHatch
 10
0.0
 20
0.0
 30
0.0
210
0.0
220
0.0
230
1.0
  2
SOLID
 70
     1
 71
     0
 91
        1
 92
        0
 93
        4
 72
     1
 10
-7.199006401613195
 20
-35.79892507127613
 11
-10.64528164545031
 21
-35.7989250712761
 72
     1
 10
-10.64528164545031
 20
-35.7989250712761
 11
-17.69371854733956
 21
-44.19892507127612
 72
     1
 10
-17.69371854733956
 20
-44.19892507127612
 11
-14.24744330350228
 21
-44.19892507127612
 72
     1
 10
-14.24744330350228
 20
-44.19892507127612
 11
-7.199006401613195
 21
-35.79892507127613
 97
        0
 75
     0
 76
     1
 98
        1
 10
0.0
 20
0.0
  0
HATCH
  5
F4
330
1F
100
AcDbEntity
  8
중심선
100
AcDbHatch
 10
0.0
 20
0.0
 30
0.0
210
0.0
220
0.0
230
1.0
  2
SOLID
 70
     1
 71
     0
 91
        1
 92
        0
 93
        6
 72
     3
 10
-2.399115970600996
 20
-39.99892507132738
 11
3.960054785062284
 21
1.540850780301639E-10
 40
0.3939339440162633
 50
17.09539180608433
 51
320.0019657685079
 73
     0
 72
     1
 10
-0.7161163149004002
 20
-38.58681907591441
 11
1.589185558800638
 21
-36.65249236586649
 72
     3
 10
-2.399115970653842
 20
-39.99892507127625
 11
6.600054785286829
 21
-1.249000902703301E-13
 40
0.6363583540795982
 50
39.99873849337408
 51
368.4976242363725
 73
     1
 72
     1
 10
4.026216521246767
 20
-39.03892507120613
 11
-3.71904866381792
 21
-39.0389250712061
 72
     1
 10
-3.71904866381792
 20
-39.0389250712061
 11
-3.719073708263854
 21
-40.95892507120602
 72
     1
 10
-3.719073708263854
 20
-40.95892507120602
 11
0.7223060612081831
 21
-40.95892507120599
 97
        0
 75
     0
 76
     1
 98
        1
 10
0.0
 20
0.0
  0
DIMENSION
  5
F5
330
1F
100
AcDbEntity
  8
치수문자_일반주서
100
AcDbDimension
  2
_D
 10
55.23291425347335
 20
2.500000000000187
 30
0.0
 11
55.23291425347332
 21
12.16650000000019
 31
0.0
 70
   160
  1
%%c<>
 71
     2
 42
4.999999999999998
 52
-270.0
  3
SLDDIMSTYLE0
100
AcDbAlignedDimension
 13
44.86602540378445
 23
-2.49999999999985
 33
0.0
 14
44.86602540378444
 24
2.500000000000148
 34
0.0
 50
90.0000000000002
100
AcDbRotatedDimension
  0
DIMENSION
  5
103
330
1F
100
AcDbEntity
  8
치수문자_일반주서
100
AcDbDimension
  2
_D_1
 10
44.86602540378443
 20
24.23841044024269
 30
0.0
 11
-5.133974596215569
 21
24.23841044024269
 31
0.0
 70
   160
  1
<>
 71
     2
 42
100.0
  3
SLDDIMSTYLE1
100
AcDbAlignedDimension
 13
-55.13397459621558
 23
2.449999999999993
 33
0.0
 14
44.86602540378444
 24
2.500000000000148
 34
0.0
 50
-0.0000000000000041
100
AcDbRotatedDimension
  0
DIMENSION
  5
10E
330
1F
100
AcDbEntity
  8
치수문자_일반주서
100
AcDbDimension
  2
_D_2
 10
44.86602540378444
 20
15.82042903727492
 30
0.0
 11
24.86602540378443
 21
15.82042903727492
 31
0.0
 70
   160
  1
<>
 71
     2
 42
40.00000000000001
  3
SLDDIMSTYLE1
100
AcDbAlignedDimension
 13
4.866025403784436
 23
2.473431231107389
 33
0.0
 14
44.86602540378444
 24
2.500000000000148
 34
0.0
 50
0.0000000000000356
100
AcDbRotatedDimension
  0
DIMENSION
  5
118
330
1F
100
AcDbEntity
  8
치수문자_일반주서
100
AcDbDimension
  2
_D_3
 10
-65.57486272582975
 20
-3.000000000000041
 30
0.0
 11
-65.57486272582979
 21
12.66649999999995
 31
0.0
 70
   160
  1
%%c<>
 71
     2
 42
5.999999999999995
 52
-270.0
  3
SLDDIMSTYLE0
100
AcDbAlignedDimension
 13
-54.58397459621557
 23
2.999999999999994
 33
0.0
 14
-54.58397459621557
 24
-3.0
 34
0.0
 50
90.0000000000002
100
AcDbRotatedDimension
  0
INSERT
  5
12B
330
1F
100
AcDbEntity
  8
외형선
100
AcDbBlockReference
  2
SW_DOWELSYMBOL_0
 10
0.0000000000000104
 20
0.0
 30
0.0
  0
ENDSEC
  0
SECTION
  2
OBJECTS
  0
DICTIONARY
  5
C
330
0
100
AcDbDictionary
281
     1
  3
ACAD_GROUP
350
D
  3
ACAD_IMAGE_VARS
350
14F
  3
ACAD_LAYOUT
350
1A
  3
ACAD_MLINESTYLE
350
17
  3
ACAD_PLOTSETTINGS
350
19
  3
ACAD_PLOTSTYLENAME
350
E
  3
ACAD_SCALELIST
350
47
  3
APPDATA
350
14D
  3
DWGPROPS
350
15E
  0
DICTIONARY
  5
D
102
{ACAD_REACTORS
330
C
102
}
330
C
100
AcDbDictionary
281
     1
  0
RASTERVARIABLES
  5
14F
102
{ACAD_REACTORS
330
C
102
}
330
C
100
AcDbRasterVariables
 90
        0
 70
     1
 71
     1
 72
     1
  0
DICTIONARY
  5
1A
102
{ACAD_REACTORS
330
C
102
}
330
C
100
AcDbDictionary
281
     1
  3
Layout1
350
1E
  3
Layout2
350
26
  3
Model
350
22
  0
DICTIONARY
  5
17
102
{ACAD_REACTORS
330
C
102
}
330
C
100
AcDbDictionary
281
     1
  3
Standard
350
18
  0
DICTIONARY
  5
19
102
{ACAD_REACTORS
330
C
102
}
330
C
100
AcDbDictionary
281
     1
  0
ACDBDICTIONARYWDFLT
  5
E
102
{ACAD_REACTORS
330
C
102
}
330
C
100
AcDbDictionary
281
     1
  3
Normal
350
F
100
AcDbDictionaryWithDefault
340
F
  0
DICTIONARY
  5
47
102
{ACAD_REACTORS
330
C
102
}
330
C
100
AcDbDictionary
281
     1
  3
A0
350
48
  3
A1
350
49
  3
A2
350
4A
  3
A3
350
4B
  3
A4
350
4C
  3
A5
350
4D
  3
A6
350
4E
  3
A7
350
4F
  3
A8
350
50
  3
A9
350
51
  3
B0
350
52
  3
B1
350
53
  3
B2
350
54
  3
B3
350
55
  3
B4
350
56
  3
B5
350
57
  3
B6
350
58
  3
B7
350
59
  3
B8
350
5A
  3
B9
350
5B
  3
C0
350
5C
  3
C1
350
5D
  3
C2
350
5E
  3
C3
350
5F
  3
C4
350
60
  3
C5
350
61
  3
C6
350
62
  3
C7
350
63
  3
C8
350
64
  3
C9
350
65
  3
D0
350
66
  3
D1
350
67
  3
D2
350
68
  0
DICTIONARY
  5
14D
102
{ACAD_REACTORS
330
C
102
}
330
C
100
AcDbDictionary
281
     1
  0
XRECORD
  5
15E
102
{ACAD_REACTORS
330
C
102
}
330
C
100
AcDbXrecord
280
     1
  1
DWGPROPS COOKIE
  2

  3

  4

  6

  7

  8
12014102
  9

300
=
301
=
302
=
303
=
304
=
305
=
306
=
307
=
308
=
309
=
 40
0.0
 41
2458262.165602616
 42
2458266.020312847
  1

 90
        0
  0
LAYOUT
  5
1E
102
{ACAD_REACTORS
330
1A
102
}
330
1A
100
AcDbPlotSettings
  1

  2
none_device
  4

  6

 40
0.0
 41
0.0
 42
0.0
 43
0.0
 44
0.0
 45
0.0
 46
0.0
 47
0.0
 48
0.0
 49
0.0
140
0.0
141
0.0
142
1.0
143
1.0
 70
   688
 72
     1
 73
     0
 74
     5
  7

 75
    16
147
1.0
148
0.0
149
0.0
100
AcDbLayout
  1
Layout1
 70
     1
 71
     1
 10
0.0
 20
0.0
 11
420.0
 21
297.0
 12
0.0
 22
0.0
 32
0.0
 14
1.000000000000000E+20
 24
1.000000000000000E+20
 34
1.000000000000000E+20
 15
-1.000000000000000E+20
 25
-1.000000000000000E+20
 35
-1.000000000000000E+20
146
0.0
 13
0.0
 23
0.0
 33
0.0
 16
1.0
 26
0.0
 36
0.0
 17
0.0
 27
1.0
 37
0.0
 76
     0
330
1B
  0
LAYOUT
  5
26
102
{ACAD_REACTORS
330
1A
102
}
330
1A
100
AcDbPlotSettings
  1

  2
none_device
  4

  6

 40
0.0
 41
0.0
 42
0.0
 43
0.0
 44
0.0
 45
0.0
 46
0.0
 47
0.0
 48
0.0
 49
0.0
140
0.0
141
0.0
142
1.0
143
1.0
 70
   688
 72
     1
 73
     0
 74
     5
  7

 75
    16
147
1.0
148
0.0
149
0.0
100
AcDbLayout
  1
Layout2
 70
     1
 71
     2
 10
0.0
 20
0.0
 11
0.0
 21
0.0
 12
0.0
 22
0.0
 32
0.0
 14
0.0
 24
0.0
 34
0.0
 15
0.0
 25
0.0
 35
0.0
146
0.0
 13
0.0
 23
0.0
 33
0.0
 16
1.0
 26
0.0
 36
0.0
 17
0.0
 27
1.0
 37
0.0
 76
     0
330
23
  0
LAYOUT
  5
22
102
{ACAD_REACTORS
330
1A
102
}
330
1A
100
AcDbPlotSettings
  1

  2
none_device
  4
ANSI_A_(11.00_x_8.50_Inches)
  6

 40
6.35
 41
19.05
 42
6.35000508
 43
19.05000254
 44
279.4
 45
215.9
 46
141.0825185413365
 47
114.9713328728435
 48
0.0
 49
0.0
140
0.0
141
0.0
142
0.0934670342767534
143
1.0
 70
  1696
 72
     0
 73
     0
 74
     0
  7

 75
     0
147
0.0235690232323232
148
0.0
149
0.0
100
AcDbLayout
  1
Model
 70
     1
 71
     0
 10
0.0
 20
0.0
 11
420.0
 21
297.0
 12
0.0
 22
0.0
 32
0.0
 14
-69.94986272582977
 24
-49.97073246008785
 34
0.0
 15
55.78324758680671
 25
28.61341044024269
 35
0.0
146
0.0
 13
0.0
 23
0.0
 33
0.0
 16
1.0
 26
0.0
 36
0.0
 17
0.0
 27
1.0
 37
0.0
 76
     0
330
1F
331
29
  0
MLINESTYLE
  5
18
102
{ACAD_REACTORS
330
17
102
}
330
17
100
AcDbMlineStyle
  2
Standard
 70
     0
  3

 62
   256
 51
90.0
 52
90.0
 71
     2
 49
0.5
 62
   256
  6
BYLAYER
 49
-0.5
 62
   256
  6
BYLAYER
  0
ACDBPLACEHOLDER
  5
F
102
{ACAD_REACTORS
330
E
102
}
330
E
  0
SCALE
  5
48
102
{ACAD_REACTORS
330
47
102
}
330
47
100
AcDbScale
 70
     0
300
1:1
140
1.0
141
1.0
290
     1
  0
SCALE
  5
49
102
{ACAD_REACTORS
330
47
102
}
330
47
100
AcDbScale
 70
     0
300
1:2
140
1.0
141
2.0
290
     0
  0
SCALE
  5
4A
102
{ACAD_REACTORS
330
47
102
}
330
47
100
AcDbScale
 70
     0
300
1:4
140
1.0
141
4.0
290
     0
  0
SCALE
  5
4B
102
{ACAD_REACTORS
330
47
102
}
330
47
100
AcDbScale
 70
     0
300
1:5
140
1.0
141
5.0
290
     0
  0
SCALE
  5
4C
102
{ACAD_REACTORS
330
47
102
}
330
47
100
AcDbScale
 70
     0
300
1:8
140
1.0
141
8.0
290
     0
  0
SCALE
  5
4D
102
{ACAD_REACTORS
330
47
102
}
330
47
100
AcDbScale
 70
     0
300
1:10
140
1.0
141
10.0
290
     0
  0
SCALE
  5
4E
102
{ACAD_REACTORS
330
47
102
}
330
47
100
AcDbScale
 70
     0
300
1:16
140
1.0
141
16.0
290
     0
  0
SCALE
  5
4F
102
{ACAD_REACTORS
330
47
102
}
330
47
100
AcDbScale
 70
     0
300
1:20
140
1.0
141
20.0
290
     0
  0
SCALE
  5
50
102
{ACAD_REACTORS
330
47
102
}
330
47
100
AcDbScale
 70
     0
300
1:30
140
1.0
141
30.0
290
     0
  0
SCALE
  5
51
102
{ACAD_REACTORS
330
47
102
}
330
47
100
AcDbScale
 70
     0
300
1:40
140
1.0
141
40.0
290
     0
  0
SCALE
  5
52
102
{ACAD_REACTORS
330
47
102
}
330
47
100
AcDbScale
 70
     0
300
1:50
140
1.0
141
50.0
290
     0
  0
SCALE
  5
53
102
{ACAD_REACTORS
330
47
102
}
330
47
100
AcDbScale
 70
     0
300
1:100
140
1.0
141
100.0
290
     0
  0
SCALE
  5
54
102
{ACAD_REACTORS
330
47
102
}
330
47
100
AcDbScale
 70
     0
300
2:1
140
2.0
141
1.0
290
     0
  0
SCALE
  5
55
102
{ACAD_REACTORS
330
47
102
}
330
47
100
AcDbScale
 70
     0
300
4:1
140
4.0
141
1.0
290
     0
  0
SCALE
  5
56
102
{ACAD_REACTORS
330
47
102
}
330
47
100
AcDbScale
 70
     0
300
8:1
140
8.0
141
1.0
290
     0
  0
SCALE
  5
57
102
{ACAD_REACTORS
330
47
102
}
330
47
100
AcDbScale
 70
     0
300
10:1
140
10.0
141
1.0
290
     0
  0
SCALE
  5
58
102
{ACAD_REACTORS
330
47
102
}
330
47
100
AcDbScale
 70
     0
300
100:1
140
100.0
141
1.0
290
     0
  0
SCALE
  5
59
102
{ACAD_REACTORS
330
47
102
}
330
47
100
AcDbScale
 70
     0
300
1/128" = 1'-0"
140
0.0078125
141
12.0
290
     0
  0
SCALE
  5
5A
102
{ACAD_REACTORS
330
47
102
}
330
47
100
AcDbScale
 70
     0
300
1/64" = 1'-0"
140
0.015625
141
12.0
290
     0
  0
SCALE
  5
5B
102
{ACAD_REACTORS
330
47
102
}
330
47
100
AcDbScale
 70
     0
300
1/32" = 1'-0"
140
0.03125
141
12.0
290
     0
  0
SCALE
  5
5C
102
{ACAD_REACTORS
330
47
102
}
330
47
100
AcDbScale
 70
     0
300
1/16" = 1'-0"
140
0.0625
141
12.0
290
     0
  0
SCALE
  5
5D
102
{ACAD_REACTORS
330
47
102
}
330
47
100
AcDbScale
 70
     0
300
3/32" = 1'-0"
140
0.09375
141
12.0
290
     0
  0
SCALE
  5
5E
102
{ACAD_REACTORS
330
47
102
}
330
47
100
AcDbScale
 70
     0
300
1/8" = 1'-0"
140
0.125
141
12.0
290
     0
  0
SCALE
  5
5F
102
{ACAD_REACTORS
330
47
102
}
330
47
100
AcDbScale
 70
     0
300
3/16" = 1'-0"
140
0.1875
141
12.0
290
     0
  0
SCALE
  5
60
102
{ACAD_REACTORS
330
47
102
}
330
47
100
AcDbScale
 70
     0
300
1/4" = 1'-0"
140
0.25
141
12.0
290
     0
  0
SCALE
  5
61
102
{ACAD_REACTORS
330
47
102
}
330
47
100
AcDbScale
 70
     0
300
3/8" = 1'-0"
140
0.375
141
12.0
290
     0
  0
SCALE
  5
62
102
{ACAD_REACTORS
330
47
102
}
330
47
100
AcDbScale
 70
     0
300
1/2" = 1'-0"
140
0.5
141
12.0
290
     0
  0
SCALE
  5
63
102
{ACAD_REACTORS
330
47
102
}
330
47
100
AcDbScale
 70
     0
300
3/4" = 1'-0"
140
0.75
141
12.0
290
     0
  0
SCALE
  5
64
102
{ACAD_REACTORS
330
47
102
}
330
47
100
AcDbScale
 70
     0
300
1" = 1'-0"
140
1.0
141
12.0
290
     0
  0
SCALE
  5
65
102
{ACAD_REACTORS
330
47
102
}
330
47
100
AcDbScale
 70
     0
300
1-1/2" = 1'-0"
140
1.5
141
12.0
290
     0
  0
SCALE
  5
66
102
{ACAD_REACTORS
330
47
102
}
330
47
100
AcDbScale
 70
     0
300
3" = 1'-0"
140
3.0
141
12.0
290
     0
  0
SCALE
  5
67
102
{ACAD_REACTORS
330
47
102
}
330
47
100
AcDbScale
 70
     0
300
6" = 1'-0"
140
6.0
141
12.0
290
     0
  0
SCALE
  5
68
102
{ACAD_REACTORS
330
47
102
}
330
47
100
AcDbScale
 70
     0
300
1'-0" = 1'-0"
140
12.0
141
12.0
290
     0
  0
ENDSEC
  0
EOF
