  0
SECTION
  2
HEADER
  9
$ACADVER
  1
AC1015
  9
$ACADMAINTVER
 70
     6
  9
$DWGCODEPAGE
  3
ANSI_949
  9
$INSBASE
 10
0.0
 20
0.0
 30
0.0
  9
$EXTMIN
 10
-53.03471571473627
 20
-49.97073246008785
 30
0.0
  9
$EXTMAX
 10
51.21446850531647
 20
28.6134104402427
 30
0.0
  9
$LIMMIN
 10
0.0
 20
0.0
  9
$LIMMAX
 10
420.0
 20
297.0
  9
$ORTHOMODE
 70
     0
  9
$REGENMODE
 70
     1
  9
$FILLMODE
 70
     1
  9
$QTEXTMODE
 70
     0
  9
$MIRRTEXT
 70
     1
  9
$LTSCALE
 40
1.0
  9
$ATTMODE
 70
     1
  9
$TEXTSIZE
 40
3.5
  9
$TRACEWID
 40
1.0
  9
$TEXTSTYLE
  7
Standard
  9
$CLAYER
  8
0
  9
$CELTYPE
  6
ByLayer
  9
$CECOLOR
 62
   256
  9
$CELTSCALE
 40
1.0
  9
$DISPSILH
 70
     0
  9
$DIMSCALE
 40
1.0
  9
$DIMASZ
 40
3.302
  9
$DIMEXO
 40
1.0
  9
$DIMDLI
 40
3.75
  9
$DIMRND
 40
0.0
  9
$DIMDLE
 40
0.0
  9
$DIMEXE
 40
1.0
  9
$DIMTP
 40
0.0
  9
$DIMTM
 40
0.0
  9
$DIMTXT
 40
3.5
  9
$DIMCEN
 40
2.5
  9
$DIMTSZ
 40
0.0
  9
$DIMTOL
 70
     0
  9
$DIMLIM
 70
     0
  9
$DIMTIH
 70
     1
  9
$DIMTOH
 70
     1
  9
$DIMSE1
 70
     0
  9
$DIMSE2
 70
     0
  9
$DIMTAD
 70
     1
  9
$DIMZIN
 70
     0
  9
$DIMBLK
  1

  9
$DIMASO
 70
     1
  9
$DIMSHO
 70
     1
  9
$DIMPOST
  1

  9
$DIMAPOST
  1

  9
$DIMALT
 70
     0
  9
$DIMALTD
 70
     3
  9
$DIMALTF
 40
0.0393700787401575
  9
$DIMLFAC
 40
1.0
  9
$DIMTOFL
 70
     1
  9
$DIMTVP
 40
0.0
  9
$DIMTIX
 70
     0
  9
$DIMSOXD
 70
     0
  9
$DIMSAH
 70
     0
  9
$DIMBLK1
  1

  9
$DIMBLK2
  1

  9
$DIMSTYLE
  2
ISO-25
  9
$DIMCLRD
 70
     0
  9
$DIMCLRE
 70
     0
  9
$DIMCLRT
 70
     0
  9
$DIMTFAC
 40
1.0
  9
$DIMGAP
 40
1.524
  9
$DIMJUST
 70
     0
  9
$DIMSD1
 70
     0
  9
$DIMSD2
 70
     0
  9
$DIMTOLJ
 70
     0
  9
$DIMTZIN
 70
     0
  9
$DIMALTZ
 70
     0
  9
$DIMALTTZ
 70
     0
  9
$DIMUPT
 70
     0
  9
$DIMDEC
 70
     2
  9
$DIMTDEC
 70
     2
  9
$DIMALTU
 70
     2
  9
$DIMALTTD
 70
     3
  9
$DIMTXSTY
  7
Standard
  9
$DIMAUNIT
 70
     0
  9
$DIMADEC
 70
     2
  9
$DIMALTRND
 40
0.0
  9
$DIMAZIN
 70
     0
  9
$DIMDSEP
 70
    44
  9
$DIMATFIT
 70
     3
  9
$DIMFRAC
 70
     0
  9
$DIMLDRBLK
  1

  9
$DIMLUNIT
 70
     2
  9
$DIMLWD
 70
    -2
  9
$DIMLWE
 70
    -2
  9
$DIMTMOVE
 70
     0
  9
$LUNITS
 70
     2
  9
$LUPREC
 70
     2
  9
$SKETCHINC
 40
1.0
  9
$FILLETRAD
 40
10.0
  9
$AUNITS
 70
     0
  9
$AUPREC
 70
     2
  9
$MENU
  1
.
  9
$ELEVATION
 40
0.0
  9
$PELEVATION
 40
0.0
  9
$THICKNESS
 40
0.0
  9
$LIMCHECK
 70
     0
  9
$CHAMFERA
 40
0.0
  9
$CHAMFERB
 40
0.0
  9
$CHAMFERC
 40
0.0
  9
$CHAMFERD
 40
0.0
  9
$SKPOLY
 70
     0
  9
$TDCREATE
 40
2458262.542105382
  9
$TDUCREATE
 40
2458262.167105382
  9
$TDUPDATE
 40
2458266.403927002
  9
$TDUUPDATE
 40
2458266.028927002
  9
$TDINDWG
 40
0.0017472222
  9
$TDUSRTIMER
 40
2458266.027179827
  9
$USRTIMER
 70
     1
  9
$ANGBASE
 50
0.0
  9
$ANGDIR
 70
     0
  9
$PDMODE
 70
     0
  9
$PDSIZE
 40
-1.0
  9
$PLINEWID
 40
0.0
  9
$SPLFRAME
 70
     0
  9
$SPLINETYPE
 70
     6
  9
$SPLINESEGS
 70
     8
  9
$HANDSEED
  5
146
  9
$SURFTAB1
 70
     6
  9
$SURFTAB2
 70
     6
  9
$SURFTYPE
 70
     6
  9
$SURFU
 70
     6
  9
$SURFV
 70
     6
  9
$UCSBASE
  2

  9
$UCSNAME
  2

  9
$UCSORG
 10
0.0
 20
0.0
 30
0.0
  9
$UCSXDIR
 10
1.0
 20
0.0
 30
0.0
  9
$UCSYDIR
 10
0.0
 20
1.0
 30
0.0
  9
$UCSORTHOREF
  2

  9
$UCSORTHOVIEW
 70
     0
  9
$UCSORGTOP
 10
0.0
 20
0.0
 30
0.0
  9
$UCSORGBOTTOM
 10
0.0
 20
0.0
 30
0.0
  9
$UCSORGLEFT
 10
0.0
 20
0.0
 30
0.0
  9
$UCSORGRIGHT
 10
0.0
 20
0.0
 30
0.0
  9
$UCSORGFRONT
 10
0.0
 20
0.0
 30
0.0
  9
$UCSORGBACK
 10
0.0
 20
0.0
 30
0.0
  9
$PUCSBASE
  2

  9
$PUCSNAME
  2

  9
$PUCSORG
 10
0.0
 20
0.0
 30
0.0
  9
$PUCSXDIR
 10
1.0
 20
0.0
 30
0.0
  9
$PUCSYDIR
 10
0.0
 20
1.0
 30
0.0
  9
$PUCSORTHOREF
  2

  9
$PUCSORTHOVIEW
 70
     0
  9
$PUCSORGTOP
 10
0.0
 20
0.0
 30
0.0
  9
$PUCSORGBOTTOM
 10
0.0
 20
0.0
 30
0.0
  9
$PUCSORGLEFT
 10
0.0
 20
0.0
 30
0.0
  9
$PUCSORGRIGHT
 10
0.0
 20
0.0
 30
0.0
  9
$PUCSORGFRONT
 10
0.0
 20
0.0
 30
0.0
  9
$PUCSORGBACK
 10
0.0
 20
0.0
 30
0.0
  9
$USERI1
 70
     0
  9
$USERI2
 70
     0
  9
$USERI3
 70
     0
  9
$USERI4
 70
     0
  9
$USERI5
 70
     0
  9
$USERR1
 40
0.0
  9
$USERR2
 40
0.0
  9
$USERR3
 40
0.0
  9
$USERR4
 40
0.0
  9
$USERR5
 40
0.0
  9
$WORLDVIEW
 70
     1
  9
$SHADEDGE
 70
     3
  9
$SHADEDIF
 70
    70
  9
$TILEMODE
 70
     1
  9
$MAXACTVP
 70
    64
  9
$PINSBASE
 10
0.0
 20
0.0
 30
0.0
  9
$PLIMCHECK
 70
     0
  9
$PEXTMIN
 10
1.000000000000000E+20
 20
1.000000000000000E+20
 30
1.000000000000000E+20
  9
$PEXTMAX
 10
-1.000000000000000E+20
 20
-1.000000000000000E+20
 30
-1.000000000000000E+20
  9
$PLIMMIN
 10
0.0
 20
0.0
  9
$PLIMMAX
 10
0.0
 20
0.0
  9
$UNITMODE
 70
     0
  9
$VISRETAIN
 70
     1
  9
$PLINEGEN
 70
     0
  9
$PSLTSCALE
 70
     1
  9
$TREEDEPTH
 70
  3020
  9
$CMLSTYLE
  2
Standard
  9
$CMLJUST
 70
     0
  9
$CMLSCALE
 40
20.0
  9
$PROXYGRAPHICS
 70
     1
  9
$MEASUREMENT
 70
     1
  9
$CELWEIGHT
370
    -1
  9
$ENDCAPS
280
     0
  9
$JOINSTYLE
280
     0
  9
$LWDISPLAY
290
     1
  9
$INSUNITS
 70
     4
  9
$HYPERLINKBASE
  1

  9
$STYLESHEET
  1

  9
$XEDIT
290
     1
  9
$CEPSNTYPE
380
     0
  9
$PSTYLEMODE
290
     1
  9
$FINGERPRINTGUID
  2
{D2462FD2-E2B0-4AED-BD8A-6428CCC84468}
  9
$VERSIONGUID
  2
{FAEB1C32-E019-11D5-929B-00C0DF256EC4}
  9
$EXTNAMES
290
     1
  9
$PSVPSCALE
 40
0.0
  9
$OLESTARTUP
290
     0
  0
ENDSEC
  0
SECTION
  2
CLASSES
  0
CLASS
  1
ACDBDICTIONARYWDFLT
  2
AcDbDictionaryWithDefault
  3
ObjectDBX Classes
 90
        0
280
     0
281
     0
  0
CLASS
  1
VISUALSTYLE
  2
AcDbVisualStyle
  3
ObjectDBX Classes
 90
     4095
280
     0
281
     0
  0
CLASS
  1
MATERIAL
  2
AcDbMaterial
  3
ObjectDBX Classes
 90
     1153
280
     0
281
     0
  0
CLASS
  1
SCALE
  2
AcDbScale
  3
ObjectDBX Classes
 90
     1153
280
     0
281
     0
  0
CLASS
  1
SUN
  2
AcDbSun
  3
SCENEOE
 90
     1153
280
     0
281
     0
  0
CLASS
  1
ACDBPLACEHOLDER
  2
AcDbPlaceHolder
  3
ObjectDBX Classes
 90
        0
280
     0
281
     0
  0
CLASS
  1
LAYOUT
  2
AcDbLayout
  3
ObjectDBX Classes
 90
        0
280
     0
281
     0
  0
CLASS
  1
TABLESTYLE
  2
AcDbTableStyle
  3
ObjectDBX Classes
 90
     4095
280
     0
281
     0
  0
CLASS
  1
MLEADERSTYLE
  2
AcDbMLeaderStyle
  3
ACDB_MLEADERSTYLE_CLASS
 90
     4095
280
     0
281
     0
  0
CLASS
  1
RASTERVARIABLES
  2
AcDbRasterVariables
  3
ISM
 90
        0
280
     0
281
     0
  0
ENDSEC
  0
SECTION
  2
TABLES
  0
TABLE
  2
VPORT
  5
8
330
0
100
AcDbSymbolTable
 70
     1
  0
VPORT
  5
29
330
8
100
AcDbSymbolTableRecord
100
AcDbViewportTableRecord
  2
*Active
 70
     0
 10
0.0
 20
0.0
 11
1.0
 21
1.0
 12
-0.9101236047098951
 22
-10.67866100992258
 13
0.0
 23
0.0
 14
10.0
 24
10.0
 15
10.0
 25
10.0
 16
0.0
 26
0.0
 36
1.0
 17
0.0
 27
0.0
 37
0.0
 40
92.26754031171215
 41
1.152454780361757
 42
50.0
 43
0.0
 44
0.0
 50
0.0
 51
0.0
 71
    16
 72
  2000
 73
     1
 74
     3
 75
     0
 76
     0
 77
     0
 78
     0
281
     0
 65
     1
110
0.0
120
0.0
130
0.0
111
1.0
121
0.0
131
0.0
112
0.0
122
1.0
132
0.0
 79
     0
146
0.0
  0
ENDTAB
  0
TABLE
  2
LTYPE
  5
5
330
0
100
AcDbSymbolTable
 70
     6
  0
LTYPE
  5
14
330
5
100
AcDbSymbolTableRecord
100
AcDbLinetypeTableRecord
  2
ByBlock
 70
     0
  3

 72
    65
 73
     0
 40
0.0
  0
LTYPE
  5
15
330
5
100
AcDbSymbolTableRecord
100
AcDbLinetypeTableRecord
  2
ByLayer
 70
     0
  3

 72
    65
 73
     0
 40
0.0
  0
LTYPE
  5
16
330
5
100
AcDbSymbolTableRecord
100
AcDbLinetypeTableRecord
  2
Continuous
 70
     0
  3
Solid line
 72
    65
 73
     0
 40
0.0
  0
LTYPE
  5
6A
330
5
100
AcDbSymbolTableRecord
100
AcDbLinetypeTableRecord
  2
HIDDEN
 70
     0
  3
Hidden __ __ __ __ __ __ __ __ __ __ __ __ __ __
 72
    65
 73
     2
 40
1.905
 49
1.27
 74
     0
 49
-0.635
 74
     0
  0
LTYPE
  5
6B
330
5
100
AcDbSymbolTableRecord
100
AcDbLinetypeTableRecord
  2
PHANTOM
 70
     0
  3
Phantom ______  __  __  ______  __  __  ______
 72
    65
 73
     6
 40
12.7
 49
6.35
 74
     0
 49
-1.27
 74
     0
 49
1.27
 74
     0
 49
-1.27
 74
     0
 49
1.27
 74
     0
 49
-1.27
 74
     0
  0
LTYPE
  5
6C
330
5
100
AcDbSymbolTableRecord
100
AcDbLinetypeTableRecord
  2
CENTER
 70
     0
  3
Center ____ _ ____ _ ____ _ ____ _ ____ _ ____
 72
    65
 73
     4
 40
10.16
 49
6.35
 74
     0
 49
-1.27
 74
     0
 49
1.27
 74
     0
 49
-1.27
 74
     0
  0
LTYPE
  5
6D
330
5
100
AcDbSymbolTableRecord
100
AcDbLinetypeTableRecord
  2
CENTERX2
 70
     0
  3
Center (2x) ________  __  ________  __  _____
 72
    65
 73
     4
 40
20.32
 49
12.7
 74
     0
 49
-2.54
 74
     0
 49
2.54
 74
     0
 49
-2.54
 74
     0
  0
LTYPE
  5
6E
330
5
100
AcDbSymbolTableRecord
100
AcDbLinetypeTableRecord
  2
DOT2
 70
     0
  3
Dot (.5x) ........................................
 72
    65
 73
     2
 40
0.635
 49
0.0
 74
     0
 49
-0.635
 74
     0
  0
ENDTAB
  0
TABLE
  2
LAYER
  5
2
330
0
100
AcDbSymbolTable
 70
    17
  0
LAYER
  5
10
330
2
100
AcDbSymbolTableRecord
100
AcDbLayerTableRecord
  2
0
 70
     0
 62
     7
  6
Continuous
370
    -3
390
F
  0
LAYER
  5
6F
330
2
100
AcDbSymbolTableRecord
100
AcDbLayerTableRecord
  2
FORMAT
 70
     0
 62
     2
  6
Continuous
370
    -3
390
F
  0
LAYER
  5
70
330
2
100
AcDbSymbolTableRecord
100
AcDbLayerTableRecord
  2
외형선
 70
     0
 62
   100
  6
Continuous
370
    30
390
F
  0
LAYER
  5
71
330
2
100
AcDbSymbolTableRecord
100
AcDbLayerTableRecord
  2
숨은선
 70
     0
 62
     2
  6
HIDDEN
370
    15
390
F
  0
LAYER
  5
72
330
2
100
AcDbSymbolTableRecord
100
AcDbLayerTableRecord
  2
중심선
 70
     0
 62
     1
  6
CENTERX2
370
    -3
390
F
  0
LAYER
  5
73
330
2
100
AcDbSymbolTableRecord
100
AcDbLayerTableRecord
  2
파단선
 70
     0
 62
     4
  6
Continuous
370
    -3
390
F
  0
LAYER
  5
74
330
2
100
AcDbSymbolTableRecord
100
AcDbLayerTableRecord
  2
해칭선
 70
     0
 62
     4
  6
Continuous
370
    -3
390
F
  0
LAYER
  5
75
330
2
100
AcDbSymbolTableRecord
100
AcDbLayerTableRecord
  2
가는실선
 70
     0
 62
     4
  6
Continuous
370
    -3
390
F
  0
LAYER
  5
76
330
2
100
AcDbSymbolTableRecord
100
AcDbLayerTableRecord
  2
치수_보조선
 70
     0
 62
     4
  6
Continuous
370
    -3
390
F
  0
LAYER
  5
77
330
2
100
AcDbSymbolTableRecord
100
AcDbLayerTableRecord
  2
치수문자_일반주서
 70
     0
 62
     7
  6
Continuous
370
    15
390
F
  0
LAYER
  5
78
330
2
100
AcDbSymbolTableRecord
100
AcDbLayerTableRecord
  2
개별주서
 70
     0
 62
   100
  6
Continuous
370
    30
390
F
  0
LAYER
  5
79
330
2
100
AcDbSymbolTableRecord
100
AcDbLayerTableRecord
  2
중간선
 70
     0
 62
     2
  6
Continuous
370
    15
390
F
  0
LAYER
  5
7A
330
2
100
AcDbSymbolTableRecord
100
AcDbLayerTableRecord
  2
윤곽선
 70
     0
 62
     3
  6
Continuous
370
    40
390
F
  0
LAYER
  5
7B
330
2
100
AcDbSymbolTableRecord
100
AcDbLayerTableRecord
  2
중심마크
 70
     0
 62
   100
  6
Continuous
370
    30
390
F
  0
LAYER
  5
7C
330
2
100
AcDbSymbolTableRecord
100
AcDbLayerTableRecord
  2
가상선
 70
     0
 62
     4
  6
PHANTOM
370
    -3
390
F
  0
LAYER
  5
7D
330
2
100
AcDbSymbolTableRecord
100
AcDbLayerTableRecord
  2
특수지정선
 70
     0
 62
     5
  6
CENTERX2
370
    60
390
F
  0
LAYER
  5
137
330
2
100
AcDbSymbolTableRecord
100
AcDbLayerTableRecord
  2
Defpoints
 70
     0
 62
     7
  6
Continuous
290
     0
370
    -3
390
F
  0
ENDTAB
  0
TABLE
  2
STYLE
  5
3
330
0
100
AcDbSymbolTable
 70
     2
  0
STYLE
  5
11
330
3
100
AcDbSymbolTableRecord
100
AcDbTextStyleTableRecord
  2
Standard
 70
     0
 40
0.0
 41
1.0
 50
0.0
 71
     0
 42
3.5
  3
txt
  4

  0
STYLE
  5
93
330
3
100
AcDbSymbolTableRecord
100
AcDbTextStyleTableRecord
  2
SLDTEXTSTYLE0
 70
     0
 40
0.0
 41
0.75
 50
0.0
 71
     0
 42
3.5
  3
TXT
  4

  0
ENDTAB
  0
TABLE
  2
VIEW
  5
6
330
0
100
AcDbSymbolTable
 70
     0
  0
ENDTAB
  0
TABLE
  2
UCS
  5
7
330
0
100
AcDbSymbolTable
 70
     0
  0
ENDTAB
  0
TABLE
  2
APPID
  5
9
330
0
100
AcDbSymbolTable
 70
     1
  0
APPID
  5
12
330
9
100
AcDbSymbolTableRecord
100
AcDbRegAppTableRecord
  2
ACAD
 70
     0
  0
ENDTAB
  0
TABLE
  2
DIMSTYLE
  5
A
330
0
100
AcDbSymbolTable
 70
     3
100
AcDbDimStyleTable
  0
DIMSTYLE
105
27
330
A
100
AcDbSymbolTableRecord
100
AcDbDimStyleTableRecord
  2
ISO-25
 70
     0
 41
2.5
 42
0.625
 43
3.75
 44
1.25
 73
     0
 74
     0
 77
     1
 78
     8
140
2.5
141
2.5
143
0.03937007874016
147
0.625
171
     3
172
     1
178
     0
271
     2
272
     2
274
     3
278
    44
283
     0
284
     8
340
11
  0
DIMSTYLE
105
DD
102
{ACAD_REACTORS
330
DC
330
FF
102
}
330
A
100
AcDbSymbolTableRecord
100
AcDbDimStyleTableRecord
  2
SLDDIMSTYLE0
 70
     0
 41
3.302
 44
0.0
 45
0.000000001
 73
     0
 74
     0
 77
     1
 78
    12
 79
     3
140
3.5
147
0.875
172
     1
173
     1
178
     0
271
     2
272
     2
276
     2
284
    12
289
     0
340
93
  0
DIMSTYLE
105
EB
102
{ACAD_REACTORS
330
EA
330
F5
102
}
330
A
100
AcDbSymbolTableRecord
100
AcDbDimStyleTableRecord
  2
SLDDIMSTYLE1
 70
     0
 41
3.302
 44
0.0
 45
0.000000001
 73
     0
 74
     0
 77
     1
 78
    12
 79
     3
140
3.5
147
0.875
173
     1
178
     0
271
     2
272
     2
276
     2
284
    12
340
93
  0
ENDTAB
  0
TABLE
  2
BLOCK_RECORD
  5
1
330
0
100
AcDbSymbolTable
 70
     7
  0
BLOCK_RECORD
  5
1F
330
1
100
AcDbSymbolTableRecord
100
AcDbBlockTableRecord
  2
*Model_Space
340
22
  0
BLOCK_RECORD
  5
1B
330
1
100
AcDbSymbolTableRecord
100
AcDbBlockTableRecord
  2
*Paper_Space
340
1E
  0
BLOCK_RECORD
  5
23
330
1
100
AcDbSymbolTableRecord
100
AcDbBlockTableRecord
  2
*Paper_Space0
340
26
  0
BLOCK_RECORD
  5
7E
330
1
100
AcDbSymbolTableRecord
100
AcDbBlockTableRecord
  2
블럭10
340
0
102
{BLKREFS
331
D5
102
}
  0
BLOCK_RECORD
  5
DE
330
1
100
AcDbSymbolTableRecord
100
AcDbBlockTableRecord
  2
_D
340
0
  0
BLOCK_RECORD
  5
EC
330
1
100
AcDbSymbolTableRecord
100
AcDbBlockTableRecord
  2
_D_1
340
0
  0
BLOCK_RECORD
  5
F6
330
1
100
AcDbSymbolTableRecord
100
AcDbBlockTableRecord
  2
_D_2
340
0
  0
BLOCK_RECORD
  5
100
330
1
100
AcDbSymbolTableRecord
100
AcDbBlockTableRecord
  2
_D_3
340
0
  0
BLOCK_RECORD
  5
10C
330
1
100
AcDbSymbolTableRecord
100
AcDbBlockTableRecord
  2
SW_DOWELSYMBOL_0
340
0
102
{BLKREFS
331
112
102
}
  0
ENDTAB
  0
ENDSEC
  0
SECTION
  2
BLOCKS
  0
BLOCK
  5
20
330
1F
100
AcDbEntity
  8
0
100
AcDbBlockBegin
  2
*Model_Space
 70
     0
 10
0.0
 20
0.0
 30
0.0
  3
*Model_Space
  1

  0
ENDBLK
  5
21
330
1F
100
AcDbEntity
  8
0
100
AcDbBlockEnd
  0
BLOCK
  5
1C
330
1B
100
AcDbEntity
 67
     1
  8
0
100
AcDbBlockBegin
  2
*Paper_Space
 70
     0
 10
0.0
 20
0.0
 30
0.0
  3
*Paper_Space
  1

  0
ENDBLK
  5
1D
330
1B
100
AcDbEntity
 67
     1
  8
0
100
AcDbBlockEnd
  0
BLOCK
  5
24
330
23
100
AcDbEntity
  8
0
100
AcDbBlockBegin
  2
*Paper_Space0
 70
     0
 10
0.0
 20
0.0
 30
0.0
  3
*Paper_Space0
  1

  0
ENDBLK
  5
25
330
23
100
AcDbEntity
  8
0
100
AcDbBlockEnd
  0
BLOCK
  5
7F
330
7E
100
AcDbEntity
  8
0
100
AcDbBlockBegin
  2
블럭10
 70
     2
 10
0.0
 20
0.0
 30
0.0
  3
블럭10
  1

  0
ELLIPSE
  5
81
330
7E
100
AcDbEntity
  8
중심선
100
AcDbEllipse
 10
20.54032771741204
 20
12.0471743016438
 30
0.0
 11
6.600054785286829
 21
-1.261213355974178E-13
 31
0.0
210
0.0
220
0.0
230
1.0
 40
0.636358354079598
 41
0.9219305317359503
 42
6.513795318482858
  0
ELLIPSE
  5
82
330
7E
100
AcDbEntity
  8
중심선
100
AcDbEllipse
 10
20.54032771746488
 20
12.04717430159265
 30
0.0
 11
3.960054785062283
 21
1.540847449632565E-10
 31
0.0
210
0.0
220
0.0
230
1.0
 40
0.3939339440162632
 41
1.131841032648279
 42
5.62031148352944
  0
LINE
  5
83
330
7E
100
AcDbEntity
  8
중심선
100
AcDbLine
 10
2.268634060543552
 20
16.24717430164393
 30
0.0
 11
5.714909304380834
 21
16.24717430164393
 31
0.0
  0
LINE
  5
84
330
7E
100
AcDbEntity
  8
중심선
100
AcDbLine
 10
5.245725140726316
 20
7.84717430164391
 30
0.0
 11
8.692000384563599
 21
7.84717430164391
 31
0.0
  0
LINE
  5
85
330
7E
100
AcDbEntity
  8
중심선
100
AcDbLine
 10
15.74043728645272
 20
16.24717430164393
 30
0.0
 11
8.692000384563599
 21
7.84717430164391
 31
0.0
  0
LINE
  5
86
330
7E
100
AcDbEntity
  8
중심선
100
AcDbLine
 10
0.1404042013395286
 20
13.71084872107135
 30
0.0
 11
3.58671253028996
 21
13.71088815037384
 31
0.0
  0
LINE
  5
87
330
7E
100
AcDbEntity
  8
중심선
100
AcDbLine
 10
2.750260043222114
 20
10.84717430164391
 30
0.0
 11
6.196535287059397
 21
10.84717430164391
 31
0.0
  0
LINE
  5
88
330
7E
100
AcDbEntity
  8
중심선
100
AcDbLine
 10
12.29416204261559
 20
16.24717430164393
 30
0.0
 11
5.245725140726316
 21
7.84717430164391
 31
0.0
  0
LINE
  5
89
330
7E
100
AcDbEntity
  8
중심선
100
AcDbLine
 10
10.72767329541681
 20
16.24717430164393
 30
0.0
 11
6.196535287059397
 21
10.84717430164391
 31
0.0
  0
LINE
  5
8A
330
7E
100
AcDbEntity
  8
중심선
100
AcDbLine
 10
7.28139805157953
 20
16.24717430164393
 30
0.0
 11
2.750260043222114
 21
10.84717430164391
 31
0.0
  0
LINE
  5
8B
330
7E
100
AcDbEntity
  8
중심선
100
AcDbLine
 10
5.714909304380834
 20
16.24717430164393
 30
0.0
 11
3.58671253028996
 21
13.71088815037384
 31
0.0
  0
LINE
  5
8C
330
7E
100
AcDbEntity
  8
중심선
100
AcDbLine
 10
2.268634060543552
 20
16.24717430164393
 30
0.0
 11
0.1404042013395286
 21
13.71084872107135
 31
0.0
  0
LINE
  5
8D
330
7E
100
AcDbEntity
  8
중심선
100
AcDbLine
 10
7.28139805157953
 20
16.24717430164393
 30
0.0
 11
10.72767329541681
 21
16.24717430164393
 31
0.0
  0
LINE
  5
8E
330
7E
100
AcDbEntity
  8
중심선
100
AcDbLine
 10
12.29416204261559
 20
16.24717430164393
 30
0.0
 11
15.74043728645272
 21
16.24717430164393
 31
0.0
  0
LINE
  5
8F
330
7E
100
AcDbEntity
  8
중심선
100
AcDbLine
 10
19.22036997980202
 20
11.08717430171403
 30
0.0
 11
23.66174974927406
 21
11.08717430171406
 31
0.0
  0
LINE
  5
90
330
7E
100
AcDbEntity
  8
중심선
100
AcDbLine
 10
19.22039502424796
 20
13.00717430171391
 30
0.0
 11
19.22036997980202
 21
11.08717430171403
 31
0.0
  0
LINE
  5
91
330
7E
100
AcDbEntity
  8
중심선
100
AcDbLine
 10
19.22039502424796
 20
13.00717430171391
 30
0.0
 11
26.96566020931264
 21
13.00717430171391
 31
0.0
  0
LINE
  5
92
330
7E
100
AcDbEntity
  8
중심선
100
AcDbLine
 10
22.22332737316547
 20
13.45928029700563
 30
0.0
 11
24.52862924686651
 21
15.39360700705356
 31
0.0
  0
ATTDEF
  5
94
330
7E
100
AcDbEntity
  8
FORMAT
 62
     2
100
AcDbText
 10
-16.11926103943555
 20
2.075366912832191
 30
0.0
 40
4.233333333333333
  1
SEME7006030E [ 2 FLUTE ]
 41
0.75
  7
SLDTEXTSTYLE0
 11
-16.11926103943555
 21
-0.0412997538344756
 31
0.0
100
AcDbAttributeDefinition
  3

  2
AUTOATTR0
 70
     0
 74
     1
  0
ENDBLK
  5
80
330
7E
100
AcDbEntity
  8
0
100
AcDbBlockEnd
  0
BLOCK
  5
DF
330
DE
100
AcDbEntity
  8
0
100
AcDbBlockBegin
  2
_D
 70
     0
 10
0.0
 20
0.0
 30
0.0
  3
_D
  1

  0
LINE
  5
E1
330
DE
100
AcDbEntity
  8
치수문자_일반주서
 62
     0
370
    -2
100
AcDbLine
 10
40.06249999999982
 20
-2.999999999999881
 30
0.0
 11
50.66413517198312
 21
-2.999999999999844
 31
0.0
  0
LINE
  5
E2
330
DE
100
AcDbEntity
  8
치수문자_일반주서
 62
     0
370
    -2
100
AcDbLine
 10
40.06249999999986
 20
3.000000000000113
 30
0.0
 11
50.6641351719831
 21
3.000000000000153
 31
0.0
  0
LINE
  5
E3
330
DE
100
AcDbEntity
  8
치수문자_일반주서
 62
     0
370
    -2
100
AcDbLine
 10
50.66413517198312
 20
-2.999999999999844
 30
0.0
 11
50.66413517198305
 21
15.72900000000015
 31
0.0
  0
LINE
  5
E4
330
DE
100
AcDbEntity
  8
치수문자_일반주서
 62
     0
370
    -2
100
AcDbLine
 10
50.66413517198312
 20
-2.999999999999844
 30
0.0
 11
50.6641351719831
 21
3.000000000000153
 31
0.0
  0
LINE
  5
E5
330
DE
100
AcDbEntity
  8
치수문자_일반주서
 62
     0
370
    -2
100
AcDbLine
 10
50.66413517198313
 20
-6.301999999999843
 30
0.0
 11
50.66413517198315
 21
-9.603999999999843
 31
0.0
  0
LINE
  5
E6
330
DE
100
AcDbEntity
  8
치수문자_일반주서
 62
     0
370
    -2
100
AcDbLine
 10
50.66413517198308
 20
6.302000000000152
 30
0.0
 11
50.66413517198307
 21
9.604000000000152
 31
0.0
  0
SOLID
  5
E7
330
DE
100
AcDbEntity
  8
치수문자_일반주서
 62
     0
100
AcDbTrace
 10
51.21446850531647
 20
-6.301999999999842
 30
0.0
 11
50.1138018386498
 21
-6.301999999999845
 31
0.0
 12
50.66413517198312
 22
-2.999999999999844
 32
0.0
 13
50.66413517198312
 23
-2.999999999999844
 33
0.0
  0
SOLID
  5
E8
330
DE
100
AcDbEntity
  8
치수문자_일반주서
 62
     0
100
AcDbTrace
 10
50.11380183864975
 20
6.302000000000151
 30
0.0
 11
51.21446850531642
 21
6.302000000000154
 31
0.0
 12
50.6641351719831
 22
3.000000000000153
 32
0.0
 13
50.6641351719831
 23
3.000000000000153
 33
0.0
  0
MTEXT
  5
E9
330
DE
100
AcDbEntity
  8
치수문자_일반주서
 62
     0
100
AcDbMText
 10
46.28913517198306
 20
12.66650000000014
 30
0.0
 40
3.5
 41
0.0
 71
     2
 72
     1
  1
\A1;%%c6
  7
SLDTEXTSTYLE0
 11
-3.552713678800504E-15
 21
1.0
 31
0.0
 73
     1
 44
1.0
  0
POINT
  5
141
330
DE
100
AcDbEntity
  8
Defpoints
 62
     0
100
AcDbPoint
 10
39.99999999999982
 20
-2.999999999999882
 30
0.0
  0
POINT
  5
142
330
DE
100
AcDbEntity
  8
Defpoints
 62
     0
100
AcDbPoint
 10
39.99999999999986
 20
3.000000000000113
 30
0.0
  0
POINT
  5
143
330
DE
100
AcDbEntity
  8
Defpoints
 62
     0
100
AcDbPoint
 10
50.6641351719831
 20
3.000000000000153
 30
0.0
  0
ENDBLK
  5
E0
330
DE
100
AcDbEntity
  8
0
100
AcDbBlockEnd
  0
BLOCK
  5
ED
330
EC
100
AcDbEntity
  8
0
100
AcDbBlockBegin
  2
_D_1
 70
     0
 10
0.0
 20
0.0
 30
0.0
  3
_D_1
  1

  0
LINE
  5
EF
330
EC
100
AcDbEntity
  8
치수문자_일반주서
 62
     0
370
    -2
100
AcDbLine
 10
-39.99999999999999
 20
2.512499999999998
 30
0.0
 11
-40.0
 21
24.2384104402427
 31
0.0
  0
LINE
  5
F0
330
EC
100
AcDbEntity
  8
치수문자_일반주서
 62
     0
370
    -2
100
AcDbLine
 10
39.99999999999986
 20
3.062500000000113
 30
0.0
 11
39.99999999999985
 21
24.2384104402427
 31
0.0
  0
LINE
  5
F1
330
EC
100
AcDbEntity
  8
치수문자_일반주서
 62
     0
370
    -2
100
AcDbLine
 10
-36.698
 20
24.2384104402427
 30
0.0
 11
36.69799999999985
 21
24.2384104402427
 31
0.0
  0
SOLID
  5
F2
330
EC
100
AcDbEntity
  8
치수문자_일반주서
 62
     0
100
AcDbTrace
 10
-36.698
 20
24.78874377357603
 30
0.0
 11
-36.698
 21
23.68807710690936
 31
0.0
 12
-40.0
 22
24.2384104402427
 32
0.0
 13
-40.0
 23
24.2384104402427
 33
0.0
  0
SOLID
  5
F3
330
EC
100
AcDbEntity
  8
치수문자_일반주서
 62
     0
100
AcDbTrace
 10
36.69799999999985
 20
23.68807710690936
 30
0.0
 11
36.69799999999985
 21
24.78874377357603
 31
0.0
 12
39.99999999999985
 22
24.2384104402427
 32
0.0
 13
39.99999999999985
 23
24.2384104402427
 33
0.0
  0
MTEXT
  5
F4
330
EC
100
AcDbEntity
  8
치수문자_일반주서
 62
     0
100
AcDbMText
 10
-0.0000000000000595
 20
28.6134104402427
 30
0.0
 40
3.5
 41
0.0
 71
     2
 72
     1
  1
\A1;80
  7
SLDTEXTSTYLE0
 73
     1
 44
1.0
  0
POINT
  5
138
330
EC
100
AcDbEntity
  8
Defpoints
 62
     0
100
AcDbPoint
 10
-39.99999999999999
 20
2.449999999999998
 30
0.0
  0
POINT
  5
139
330
EC
100
AcDbEntity
  8
Defpoints
 62
     0
100
AcDbPoint
 10
39.99999999999986
 20
3.000000000000113
 30
0.0
  0
POINT
  5
13A
330
EC
100
AcDbEntity
  8
Defpoints
 62
     0
100
AcDbPoint
 10
39.99999999999986
 20
24.2384104402427
 30
0.0
  0
ENDBLK
  5
EE
330
EC
100
AcDbEntity
  8
0
100
AcDbBlockEnd
  0
BLOCK
  5
F7
330
F6
100
AcDbEntity
  8
0
100
AcDbBlockBegin
  2
_D_2
 70
     0
 10
0.0
 20
0.0
 30
0.0
  3
_D_2
  1

  0
LINE
  5
F9
330
F6
100
AcDbEntity
  8
치수문자_일반주서
 62
     0
370
    -2
100
AcDbLine
 10
10.00000000000001
 20
3.009258045411174
 30
0.0
 11
10.00000000000001
 21
16.29375585157864
 31
0.0
  0
LINE
  5
FA
330
F6
100
AcDbEntity
  8
치수문자_일반주서
 62
     0
370
    -2
100
AcDbLine
 10
39.99999999999986
 20
3.062500000000113
 30
0.0
 11
39.99999999999986
 21
16.29375585157864
 31
0.0
  0
LINE
  5
FB
330
F6
100
AcDbEntity
  8
치수문자_일반주서
 62
     0
370
    -2
100
AcDbLine
 10
13.30200000000001
 20
16.29375585157864
 30
0.0
 11
36.69799999999986
 21
16.29375585157864
 31
0.0
  0
SOLID
  5
FC
330
F6
100
AcDbEntity
  8
치수문자_일반주서
 62
     0
100
AcDbTrace
 10
13.30200000000001
 20
16.84408918491197
 30
0.0
 11
13.30200000000001
 21
15.74342251824531
 31
0.0
 12
10.00000000000001
 22
16.29375585157864
 32
0.0
 13
10.00000000000001
 23
16.29375585157864
 33
0.0
  0
SOLID
  5
FD
330
F6
100
AcDbEntity
  8
치수문자_일반주서
 62
     0
100
AcDbTrace
 10
36.69799999999986
 20
15.74342251824531
 30
0.0
 11
36.69799999999986
 21
16.84408918491197
 31
0.0
 12
39.99999999999986
 22
16.29375585157864
 32
0.0
 13
39.99999999999986
 23
16.29375585157864
 33
0.0
  0
MTEXT
  5
FE
330
F6
100
AcDbEntity
  8
치수문자_일반주서
 62
     0
100
AcDbMText
 10
25.00000000000007
 20
20.66875585157864
 30
0.0
 40
3.5
 41
0.0
 71
     2
 72
     1
  1
\A1;30
  7
SLDTEXTSTYLE0
 73
     1
 44
1.0
  0
POINT
  5
13B
330
F6
100
AcDbEntity
  8
Defpoints
 62
     0
100
AcDbPoint
 10
10.00000000000001
 20
2.946758045411174
 30
0.0
  0
POINT
  5
13C
330
F6
100
AcDbEntity
  8
Defpoints
 62
     0
100
AcDbPoint
 10
39.99999999999986
 20
3.000000000000113
 30
0.0
  0
POINT
  5
13D
330
F6
100
AcDbEntity
  8
Defpoints
 62
     0
100
AcDbPoint
 10
39.99999999999986
 20
16.29375585157864
 30
0.0
  0
ENDBLK
  5
F8
330
F6
100
AcDbEntity
  8
0
100
AcDbBlockEnd
  0
BLOCK
  5
101
330
100
100
AcDbEntity
  8
0
100
AcDbBlockBegin
  2
_D_3
 70
     0
 10
0.0
 20
0.0
 30
0.0
  3
_D_3
  1

  0
LINE
  5
103
330
100
100
AcDbEntity
  8
치수문자_일반주서
 62
     0
370
    -2
100
AcDbLine
 10
-39.5125
 20
2.999999999999999
 30
0.0
 11
-48.65971571473622
 21
2.999999999999964
 31
0.0
  0
LINE
  5
104
330
100
100
AcDbEntity
  8
치수문자_일반주서
 62
     0
370
    -2
100
AcDbLine
 10
-39.5125
 20
-2.999999999999996
 30
0.0
 11
-48.65971571473619
 21
-3.000000000000032
 31
0.0
  0
LINE
  5
105
330
100
100
AcDbEntity
  8
치수문자_일반주서
 62
     0
370
    -2
100
AcDbLine
 10
-48.65971571473622
 20
2.999999999999964
 30
0.0
 11
-48.65971571473627
 21
15.72899999999996
 31
0.0
  0
LINE
  5
106
330
100
100
AcDbEntity
  8
치수문자_일반주서
 62
     0
370
    -2
100
AcDbLine
 10
-48.65971571473622
 20
2.999999999999964
 30
0.0
 11
-48.65971571473619
 21
-3.000000000000032
 31
0.0
  0
LINE
  5
107
330
100
100
AcDbEntity
  8
치수문자_일반주서
 62
     0
370
    -2
100
AcDbLine
 10
-48.65971571473623
 20
6.301999999999964
 30
0.0
 11
-48.65971571473624
 21
9.603999999999964
 31
0.0
  0
LINE
  5
108
330
100
100
AcDbEntity
  8
치수문자_일반주서
 62
     0
370
    -2
100
AcDbLine
 10
-48.65971571473618
 20
-6.302000000000032
 30
0.0
 11
-48.65971571473617
 21
-9.604000000000031
 31
0.0
  0
SOLID
  5
109
330
100
100
AcDbEntity
  8
치수문자_일반주서
 62
     0
100
AcDbTrace
 10
-49.21004904806956
 20
6.301999999999962
 30
0.0
 11
-48.1093823814029
 21
6.301999999999966
 31
0.0
 12
-48.65971571473622
 22
2.999999999999964
 32
0.0
 13
-48.65971571473622
 23
2.999999999999964
 33
0.0
  0
SOLID
  5
10A
330
100
100
AcDbEntity
  8
치수문자_일반주서
 62
     0
100
AcDbTrace
 10
-48.10938238140285
 20
-6.30200000000003
 30
0.0
 11
-49.21004904806951
 21
-6.302000000000033
 31
0.0
 12
-48.65971571473619
 22
-3.000000000000032
 32
0.0
 13
-48.65971571473619
 23
-3.000000000000032
 33
0.0
  0
MTEXT
  5
10B
330
100
100
AcDbEntity
  8
치수문자_일반주서
 62
     0
100
AcDbMText
 10
-53.03471571473625
 20
12.66649999999995
 30
0.0
 40
3.5
 41
0.0
 71
     2
 72
     1
  1
\A1;%%c6
  7
SLDTEXTSTYLE0
 11
-3.552713678800504E-15
 21
1.0
 31
0.0
 73
     1
 44
1.0
  0
POINT
  5
13E
330
100
100
AcDbEntity
  8
Defpoints
 62
     0
100
AcDbPoint
 10
-39.45
 20
2.999999999999999
 30
0.0
  0
POINT
  5
13F
330
100
100
AcDbEntity
  8
Defpoints
 62
     0
100
AcDbPoint
 10
-39.45
 20
-2.999999999999996
 30
0.0
  0
POINT
  5
140
330
100
100
AcDbEntity
  8
Defpoints
 62
     0
100
AcDbPoint
 10
-48.65971571473618
 20
-3.00000000000003
 30
0.0
  0
ENDBLK
  5
102
330
100
100
AcDbEntity
  8
0
100
AcDbBlockEnd
  0
BLOCK
  5
10D
330
10C
100
AcDbEntity
  8
0
100
AcDbBlockBegin
  2
SW_DOWELSYMBOL_0
 70
     0
 10
0.0
 20
0.0
 30
0.0
  3
SW_DOWELSYMBOL_0
  1

  0
CIRCLE
  5
10F
330
10C
100
AcDbEntity
  8
외형선
 62
     0
100
AcDbCircle
 10
0.0
 20
0.0
 30
0.0
 40
3.000000000000004
  0
HATCH
  5
110
330
10C
100
AcDbEntity
  8
0
  6
Continuous
 62
     0
370
    30
100
AcDbHatch
 10
0.0
 20
0.0
 30
0.0
210
0.0
220
0.0
230
1.0
  2
SOLID
 70
     1
 71
     0
 91
        1
 92
        0
 93
        3
 72
     2
 10
0.0000000000000104
 20
0.0
 40
3.000000000000004
 50
0.0
 51
90.0
 73
     1
 72
     1
 10
0.0000000000000104
 20
3.000000000000004
 11
0.0000000000000104
 21
0.0
 72
     1
 10
0.0000000000000104
 20
0.0
 11
3.000000000000015
 21
0.0
 97
        0
 75
     0
 76
     1
 98
        1
 10
0.0
 20
0.0
  0
HATCH
  5
111
330
10C
100
AcDbEntity
  8
0
  6
Continuous
 62
     0
370
    30
100
AcDbHatch
 10
0.0
 20
0.0
 30
0.0
210
0.0
220
0.0
230
1.0
  2
SOLID
 70
     1
 71
     0
 91
        1
 92
        0
 93
        3
 72
     2
 10
0.0000000000000104
 20
0.0
 40
3.000000000000004
 50
180.0
 51
270.0000000000008
 73
     1
 72
     1
 10
0.0000000000000104
 20
-3.000000000000004
 11
0.0000000000000104
 21
0.0
 72
     1
 10
0.0000000000000104
 20
0.0
 11
-2.999999999999994
 21
0.0
 97
        0
 75
     0
 76
     1
 98
        1
 10
0.0
 20
0.0
  0
ENDBLK
  5
10E
330
10C
100
AcDbEntity
  8
0
100
AcDbBlockEnd
  0
ENDSEC
  0
SECTION
  2
ENTITIES
  0
LINE
  5
95
330
1F
100
AcDbEntity
  8
0
  6
Continuous
 62
     1
370
    15
100
AcDbLine
 10
15.10381228393872
 20
1.168595951549252
 30
0.0
 11
15.07186327888953
 21
1.18504210051785
 31
0.0
  0
SPLINE
  5
96
330
1F
100
AcDbEntity
  8
0
  6
Continuous
 62
     1
370
    15
100
AcDbSpline
210
0.0
220
0.0
230
1.0
 70
     8
 71
     3
 72
     9
 73
     5
 74
     0
 42
0.000000001
 43
0.00000001
 40
0.0
 40
0.0
 40
0.0
 40
0.0
 40
0.4543509978540977
 40
1.0
 40
1.0
 40
1.0
 40
1.0
 10
15.90249321799122
 20
0.7688872453286868
 30
0.0
 10
15.78153971447186
 20
0.8264771939388308
 30
0.0
 10
15.51532812015244
 20
0.9532293060330961
 30
0.0
 10
15.24908666711725
 20
1.092566662196851
 30
0.0
 10
15.10381228393872
 20
1.168595951549252
 30
0.0
  0
LINE
  5
97
330
1F
100
AcDbEntity
  8
0
  6
Continuous
 62
     1
370
    15
100
AcDbLine
 10
31.42874438513645
 20
1.168152905991222
 30
0.0
 11
31.39617117942628
 21
1.184981944183294
 31
0.0
  0
SPLINE
  5
98
330
1F
100
AcDbEntity
  8
0
  6
Continuous
 62
     1
370
    15
100
AcDbSpline
210
0.0
220
0.0
230
1.0
 70
     8
 71
     3
 72
     9
 73
     5
 74
     0
 42
0.000000001
 43
0.00000001
 40
0.0
 40
0.0
 40
0.0
 40
0.0
 40
0.5293390452310035
 40
1.0
 40
1.0
 40
1.0
 40
1.0
 10
32.22682562304156
 20
0.7688226978837386
 30
0.0
 10
32.08602960482598
 20
0.8360848245007106
 30
0.0
 10
31.82004503504213
 20
0.9631529620638841
 30
0.0
 10
31.55397375012986
 20
1.102546031052744
 30
0.0
 10
31.42874438513645
 20
1.168152905991222
 30
0.0
  0
LINE
  5
99
330
1F
100
AcDbEntity
  8
0
  6
Continuous
 62
     1
370
    15
100
AcDbLine
 10
23.88903971220085
 20
-2.999999999999998
 30
0.0
 11
25.34420005855137
 21
-2.999999999999998
 31
0.0
  0
LINE
  5
9A
330
1F
100
AcDbEntity
  8
0
  6
Continuous
 62
     1
370
    15
100
AcDbLine
 10
25.34420005855137
 20
3.000000000000007
 30
0.0
 11
23.88903971220084
 21
3.000000000000007
 31
0.0
  0
SPLINE
  5
9B
330
1F
100
AcDbEntity
  8
0
  6
Continuous
 62
     1
370
    15
100
AcDbSpline
210
0.0
220
0.0
230
1.0
 70
     8
 71
     3
 72
    12
 73
     8
 74
     0
 42
0.000000001
 43
0.00000001
 40
0.0
 40
0.0
 40
0.0
 40
0.0
 40
0.2089047335310265
 40
0.5010344451484445
 40
0.698516306596713
 40
0.7920678330760862
 40
1.0
 40
1.0
 40
1.0
 40
1.0
 10
26.72299542655973
 20
-2.496433868891007
 30
0.0
 10
27.03740740901099
 20
-2.467619895953419
 30
0.0
 10
27.79148909262251
 20
-2.398512831219712
 30
0.0
 10
28.84197809028218
 20
-2.349099533818797
 30
0.0
 10
29.71932818384818
 20
-2.34038257285214
 30
0.0
 10
30.46965552421189
 20
-2.349712948855234
 30
0.0
 10
30.92339397313697
 20
-2.369958898245663
 30
0.0
 10
31.23633567103332
 20
-2.383922453224911
 30
0.0
  0
SPLINE
  5
9C
330
1F
100
AcDbEntity
  8
0
  6
Continuous
 62
     1
370
    15
100
AcDbSpline
210
0.0
220
0.0
230
1.0
 70
     8
 71
     3
 72
    13
 73
     9
 74
     0
 42
0.000000001
 43
0.00000001
 40
0.0
 40
0.0
 40
0.0
 40
0.0
 40
0.2425399440506416
 40
0.407836699771476
 40
0.5110180026803396
 40
0.6063147665694562
 40
0.9127796083751236
 40
1.0
 40
1.0
 40
1.0
 40
1.0
 10
14.91208931916814
 20
2.38391968139827
 30
0.0
 10
14.71165719386115
 20
2.374386765570986
 30
0.0
 10
14.37462579545233
 20
2.358356940275952
 30
0.0
 10
13.95336181373088
 20
2.34795179783839
 30
0.0
 10
13.65227938633381
 20
2.343715579158906
 30
0.0
 10
13.23584663870295
 20
2.34180586853933
 30
0.0
 10
12.83381805838231
 20
2.345212753610611
 30
0.0
 10
12.50888228167054
 20
2.357163927774726
 30
0.0
 10
12.4368932323207
 20
2.359811693051283
 30
0.0
  0
SPLINE
  5
9D
330
1F
100
AcDbEntity
  8
0
  6
Continuous
 62
     1
370
    15
100
AcDbSpline
210
0.0
220
0.0
230
1.0
 70
     8
 71
     3
 72
    18
 73
    14
 74
     0
 42
0.000000001
 43
0.00000001
 40
0.0
 40
0.0
 40
0.0
 40
0.0
 40
0.1268506286653231
 40
0.2102836941678982
 40
0.2635892935350351
 40
0.3186325612578176
 40
0.4968744972162992
 40
0.6067599119365812
 40
0.7107555151794006
 40
0.7526942877575556
 40
0.8091934788556853
 40
0.8913439837674701
 40
1.0
 40
1.0
 40
1.0
 40
1.0
 10
10.42425269279564
 20
-2.493859132760574
 30
0.0
 10
10.61439700651959
 20
-2.475920471707991
 30
0.0
 10
10.92960434238849
 20
-2.44618307147393
 30
0.0
 10
11.32328440699025
 20
-2.416683052282488
 30
0.0
 10
11.60793171043315
 20
-2.397825818301764
 30
0.0
 10
12.03645051725658
 20
-2.37314455090388
 30
0.0
 10
12.55068816353764
 20
-2.352660686955605
 30
0.0
 10
13.13713861051646
 20
-2.342554672472145
 30
0.0
 10
13.51860004575115
 20
-2.342485293004031
 30
0.0
 10
13.82247661306234
 20
-2.345933742693648
 30
0.0
 10
14.09306208000706
 20
-2.351186257036946
 30
0.0
 10
14.46308628612779
 20
-2.362116714260197
 30
0.0
 10
14.74917451428524
 20
-2.376008763485047
 30
0.0
 10
14.91208931916814
 20
-2.383919681398261
 30
0.0
  0
SPLINE
  5
9E
330
1F
100
AcDbEntity
  8
0
  6
Continuous
 62
     1
370
    15
100
AcDbSpline
210
0.0
220
0.0
230
1.0
 70
     8
 71
     3
 72
    10
 73
     6
 74
     0
 42
0.000000001
 43
0.00000001
 40
0.0
 40
0.0
 40
0.0
 40
0.0
 40
0.3786798142466318
 40
0.9086708775948227
 40
1.0
 40
1.0
 40
1.0
 40
1.0
 10
31.23633567103332
 20
2.383922453224923
 30
0.0
 10
30.9234250195802
 20
2.370551995361043
 30
0.0
 10
30.17257222635607
 20
2.338468569670168
 30
0.0
 10
29.34680028581241
 20
2.335918835627409
 30
0.0
 10
28.83353016480237
 20
2.358149806534011
 30
0.0
 10
28.75808354197648
 20
2.361417582327668
 30
0.0
  0
SPLINE
  5
9F
330
1F
100
AcDbEntity
  8
0
  6
Continuous
 62
     1
370
    15
100
AcDbSpline
210
0.0
220
0.0
230
1.0
 70
     8
 71
     3
 72
    14
 73
    10
 74
     0
 42
0.000000001
 43
0.00000001
 40
0.0
 40
0.0
 40
0.0
 40
0.0
 40
0.1987248531514474
 40
0.3336996388151515
 40
0.4514253599826716
 40
0.5925522031927453
 40
0.7443588906047288
 40
0.8969087549080047
 40
1.0
 40
1.0
 40
1.0
 40
1.0
 10
33.64379263721334
 20
-2.256416287090194
 30
0.0
 10
33.79006199011701
 20
-2.234119321094514
 30
0.0
 10
34.03567812448388
 20
-2.19667815869616
 30
0.0
 10
34.37374067372377
 20
-2.151826054411665
 30
0.0
 10
34.67096039310055
 20
-2.11549696910299
 30
0.0
 10
34.97729425129814
 20
-2.082183057390194
 30
0.0
 10
35.30943367763651
 20
-2.051217150929871
 30
0.0
 10
35.61331670329467
 20
-2.026995820267756
 30
0.0
 10
35.80375900990915
 20
-2.015544165603627
 30
0.0
 10
35.8805578258489
 20
-2.010926108122648
 30
0.0
  0
SPLINE
  5
A0
330
1F
100
AcDbEntity
  8
0
  6
Continuous
 62
     1
370
    15
100
AcDbSpline
210
0.0
220
0.0
230
1.0
 70
     8
 71
     3
 72
    22
 73
    18
 74
     0
 42
0.000000001
 43
0.00000001
 40
0.0
 40
0.0
 40
0.0
 40
0.0
 40
0.0863182302329714
 40
0.146767986064877
 40
0.1874406117964163
 40
0.2292969512003492
 40
0.2739028843649288
 40
0.3730831667856599
 40
0.4811467138933974
 40
0.5930412793419071
 40
0.6896555798767786
 40
0.739657647624679
 40
0.7877615341611943
 40
0.8202783290489365
 40
0.8663313006590776
 40
0.9262870522587796
 40
1.0
 40
1.0
 40
1.0
 40
1.0
 10
22.56021382466973
 20
2.051849956540019
 30
0.0
 10
22.40959585882847
 20
2.03973143291224
 30
0.0
 10
22.15349821349853
 20
2.01912615286736
 30
0.0
 10
21.82656293855535
 20
2.000761673419355
 30
0.0
 10
21.57576688173118
 20
1.989581061782733
 30
0.0
 10
21.35325348515872
 20
1.98204595051721
 30
0.0
 10
21.02887218100151
 20
1.974584362039377
 30
0.0
 10
20.58927905252542
 20
1.972644477771583
 30
0.0
 10
20.0314616180437
 20
1.984960086412778
 30
0.0
 10
19.47886644344287
 20
2.012846348706128
 30
0.0
 10
19.02702165978882
 20
2.047272636399193
 30
0.0
 10
18.686756793587
 20
2.07915898821164
 30
0.0
 10
18.46121143509005
 20
2.102911053686831
 30
0.0
 10
18.24114291520235
 20
2.128213468284257
 30
0.0
 10
17.99913055736636
 20
2.158349705028538
 30
0.0
 10
17.68411224026291
 20
2.200740281942219
 30
0.0
 10
17.44911338650161
 20
2.23663432279397
 30
0.0
 10
17.31952090664682
 20
2.256428452388798
 30
0.0
  0
SPLINE
  5
A1
330
1F
100
AcDbEntity
  8
0
  6
Continuous
 62
     1
370
    15
100
AcDbSpline
210
0.0
220
0.0
230
1.0
 70
     8
 71
     3
 72
    16
 73
    12
 74
     0
 42
0.000000001
 43
0.00000001
 40
0.0
 40
0.0
 40
0.0
 40
0.0
 40
0.1730306302492086
 40
0.3137682049122285
 40
0.4820651626333755
 40
0.5825136102075855
 40
0.6839684659806048
 40
0.7869635133981945
 40
0.8858515958459702
 40
0.9845160191824508
 40
1.0
 40
1.0
 40
1.0
 40
1.0
 10
17.31952090664683
 20
-2.256428452388787
 30
0.0
 10
17.44911810487658
 20
-2.236635694956745
 30
0.0
 10
17.68412551478799
 20
-2.20074414234106
 30
0.0
 10
18.0440334906019
 20
-2.15228814087614
 30
0.0
 10
18.34877246560167
 20
-2.115173918633155
 30
0.0
 10
18.62087520942312
 20
-2.085933530829542
 30
0.0
 10
18.84718413994621
 20
-2.06388802956644
 30
0.0
 10
19.07318081906566
 20
-2.044179276169887
 30
0.0
 10
19.29688412656564
 20
-2.027230841790098
 30
0.0
 10
19.45545411448551
 20
-2.016159141756509
 30
0.0
 10
19.54035055893723
 20
-2.011511797582345
 30
0.0
 10
19.55186657553958
 20
-2.010881395531798
 30
0.0
  0
SPLINE
  5
A2
330
1F
100
AcDbEntity
  8
0
  6
Continuous
 62
     1
370
    15
100
AcDbSpline
210
0.0
220
0.0
230
1.0
 70
     8
 71
     3
 72
    20
 73
    16
 74
     0
 42
0.000000001
 43
0.00000001
 40
0.0
 40
0.0
 40
0.0
 40
0.0
 40
0.082284730137832
 40
0.1399621148436793
 40
0.1832945882956333
 40
0.2327539045014662
 40
0.2876061455030011
 40
0.3997610173424655
 40
0.5043908714146204
 40
0.6212677143980225
 40
0.7294395422174594
 40
0.7657566555137816
 40
0.8148454895230507
 40
0.8927371215645603
 40
1.0
 40
1.0
 40
1.0
 40
1.0
 10
38.90087539780676
 20
2.053257335341249
 30
0.0
 10
38.75751479215789
 20
2.04155586797376
 30
0.0
 10
38.5136657387761
 20
2.021652270832654
 30
0.0
 10
38.19220020871253
 20
2.002879079394023
 30
0.0
 10
37.92505697433216
 20
1.990474114623328
 30
0.0
 10
37.66551752412947
 20
1.981516049291439
 30
0.0
 10
37.286295145081
 20
1.973438233157186
 30
0.0
 10
36.81299490946775
 20
1.973558795780729
 30
0.0
 10
36.21808307988832
 20
1.990170182046082
 30
0.0
 10
35.64857074871371
 20
2.02290043460116
 30
0.0
 10
35.19167950723848
 20
2.0612284467493
 30
0.0
 10
34.85252253907815
 20
2.095598873168263
 30
0.0
 10
34.5670392905126
 20
2.127586650682392
 30
0.0
 10
34.15726979594569
 20
2.179041502757336
 30
0.0
 10
33.83214339932546
 20
2.22803411010431
 30
0.0
 10
33.64379263721336
 20
2.256416287090206
 30
0.0
  0
LINE
  5
A3
330
1F
100
AcDbEntity
  8
0
  6
Continuous
 62
   131
370
    15
100
AcDbLine
 10
9.109906389700614
 20
3.000000000000005
 30
0.0
 11
-39.45
 21
3.000000000000002
 31
0.0
  0
LINE
  5
A4
330
1F
100
AcDbEntity
  8
0
  6
Continuous
 62
   131
370
    15
100
AcDbLine
 10
-39.45
 20
-2.999999999999999
 30
0.0
 11
9.109906389700614
 21
-2.999999999999996
 31
0.0
  0
LINE
  5
A5
330
1F
100
AcDbEntity
  8
0
  6
Continuous
 62
   131
370
    15
100
AcDbLine
 10
-39.45
 20
2.999999999999999
 30
0.0
 11
-39.99999999999999
 21
2.449999999999998
 31
0.0
  0
LINE
  5
A6
330
1F
100
AcDbEntity
  8
0
  6
Continuous
 62
   131
370
    15
100
AcDbLine
 10
-39.99999999999999
 20
-2.449999999999995
 30
0.0
 11
-39.45
 21
-2.999999999999996
 31
0.0
  0
SPLINE
  5
A7
330
1F
100
AcDbEntity
  8
0
  6
Continuous
 62
     1
370
    15
100
AcDbSpline
210
0.0
220
0.0
230
1.0
 70
     8
 71
     3
 72
    22
 73
    18
 74
     0
 42
0.000000001
 43
0.00000001
 40
0.0
 40
0.0
 40
0.0
 40
0.0
 40
0.017950582355171
 40
0.0865696601086563
 40
0.1551894434255509
 40
0.2238109107033268
 40
0.292435038735524
 40
0.361062801783408
 40
0.4296951706527687
 40
0.4983331117777329
 40
0.5669775863134208
 40
0.6356295492392622
 40
0.7085035141650619
 40
0.7813775423265923
 40
0.8542516331015202
 40
0.9271257858670646
 40
1.0
 40
1.0
 40
1.0
 40
1.0
 10
28.75307292556894
 20
-2.363310214525783
 30
0.0
 10
28.64087048003024
 20
-2.406866192529387
 30
0.0
 10
28.09975558016474
 20
-2.616922119232289
 30
0.0
 10
27.12972561454185
 20
-2.846586930210505
 30
0.0
 10
25.84296790477389
 20
-3.01871271907795
 30
0.0
 10
24.55617250641373
 20
-2.995565287141899
 30
0.0
 10
23.26931719253006
 20
-2.792548676107638
 30
0.0
 10
21.98238012099257
 20
-2.418291939738179
 30
0.0
 10
20.69533941950354
 20
-1.896628872541676
 30
0.0
 10
19.40817343957899
 20
-1.259120324345124
 30
0.0
 10
18.12086028488105
 20
-0.5447285972688359
 30
0.0
 10
16.80703966210513
 20
0.218217458743989
 30
0.0
 10
15.46674194506567
 20
0.9833014127762623
 30
0.0
 10
14.1000602395469
 20
1.696760670074798
 30
0.0
 10
12.7333743317123
 20
2.289638345849222
 30
0.0
 10
11.36668778962891
 20
2.739571525983933
 30
0.0
 10
10.45556272441655
 20
2.877695852883317
 30
0.0
 10
9.999999999995632
 20
2.946758045411652
 30
0.0
  0
SPLINE
  5
A8
330
1F
100
AcDbEntity
  8
0
  6
Continuous
 62
     1
370
    15
100
AcDbSpline
210
0.0
220
0.0
230
1.0
 70
     8
 71
     3
 72
    16
 73
    12
 74
     0
 42
0.000000001
 43
0.00000001
 40
0.0
 40
0.0
 40
0.0
 40
0.0
 40
0.0816416351538608
 40
0.2003153139597
 40
0.3189938003047042
 40
0.4376788544375573
 40
0.5563722302903827
 40
0.6750756738041176
 40
0.7937909212701854
 40
0.9125196976917792
 40
0.9999999999999999
 40
0.9999999999999999
 40
0.9999999999999999
 40
0.9999999999999999
 10
26.72822202362548
 20
-2.479494563780613
 30
0.0
 10
26.43314065813693
 20
-2.508691060723032
 30
0.0
 10
25.70913119580683
 20
-2.580327370315827
 30
0.0
 10
24.55617130692224
 20
-2.514993537756526
 30
0.0
 10
23.26931568894269
 20
-2.309836422121831
 30
0.0
 10
21.98237818260377
 20
-1.957970397885995
 30
0.0
 10
20.69533708495799
 20
-1.488218328546718
 30
0.0
 10
19.40817069943856
 20
-0.9267934875699697
 30
0.0
 10
18.12085715565821
 20
-0.3103895221216502
 30
0.0
 10
16.9463821798365
 20
0.2743921205482078
 30
0.0
 10
16.20100279367939
 20
0.6247608099006973
 30
0.0
 10
15.8847896839706
 20
0.7733981010068299
 30
0.0
  0
SPLINE
  5
A9
330
1F
100
AcDbEntity
  8
0
  6
Continuous
 62
     1
370
    15
100
AcDbSpline
210
0.0
220
0.0
230
1.0
 70
     8
 71
     3
 72
    19
 73
    15
 74
     0
 42
0.000000001
 43
0.00000001
 40
0.0
 40
0.0
 40
0.0
 40
0.0
 40
0.087847960515711
 40
0.1756856606295062
 40
0.2635143173554954
 40
0.3513351562439624
 40
0.4391494102426432
 40
0.5269583185430916
 40
0.6147631254144265
 40
0.7025650790267909
 40
0.7903654302668933
 40
0.8781654315480288
 40
0.9659663356169934
 40
1.0
 40
1.0
 40
1.0
 40
1.0
 10
40.00000000000001
 20
-2.846822607695695
 30
0.0
 10
39.57080469019023
 20
-2.751783140068182
 30
0.0
 10
38.71246419941093
 20
-2.561715305163466
 30
0.0
 10
37.42506166969592
 20
-2.073640186739853
 30
0.0
 10
36.13781569237042
 20
-1.471472812604604
 30
0.0
 10
34.85070778694046
 20
-0.7761671836079214
 30
0.0
 10
33.5637154739976
 20
-0.0343864791682664
 30
0.0
 10
32.27681719025468
 20
0.7096548981240893
 30
0.0
 10
30.98999101735185
 20
1.410528383562019
 30
0.0
 10
29.70321498087846
 20
2.024492941893168
 30
0.0
 10
28.4164672551307
 20
2.517994999019525
 30
0.0
 10
27.12972517581709
 20
2.846251427748169
 30
0.0
 10
26.10563826080129
 20
3.003631372138599
 30
0.0
 10
25.51045928759653
 20
2.983745485636662
 30
0.0
 10
25.34420005855137
 20
2.978190497460771
 30
0.0
  0
SPLINE
  5
AA
330
1F
100
AcDbEntity
  8
0
  6
Continuous
 62
     1
370
    15
100
AcDbSpline
210
0.0
220
0.0
230
1.0
 70
     8
 71
     3
 72
     9
 73
     5
 74
     0
 42
0.000000001
 43
0.00000001
 40
0.0
 40
0.0
 40
0.0
 40
0.0
 40
0.4382708702187976
 40
1.0
 40
1.0
 40
1.0
 40
1.0
 10
12.4330018167146
 20
-2.361045442327533
 30
0.0
 10
12.07756392217799
 20
-2.484315546660747
 30
0.0
 10
11.26656342296807
 20
-2.765580199891462
 30
0.0
 10
10.45556271944026
 20
-2.881591255883972
 30
0.0
 10
9.999999999995635
 20
-2.946758045411643
 30
0.0
  0
SPLINE
  5
AB
330
1F
100
AcDbEntity
  8
0
  6
Continuous
 62
   131
370
    15
100
AcDbSpline
210
0.0
220
0.0
230
1.0
 70
    24
 71
     3
 72
     8
 73
     4
 74
     0
 42
0.000000001
 43
0.00000001
 40
0.0
 40
0.0
 40
0.0
 40
0.0
 40
1.0
 40
1.0
 40
1.0
 40
1.0
 10
10.00000000000002
 20
-2.529017816947221
 30
0.0
 10
10.00000000000002
 20
-2.673796096582023
 30
0.0
 10
10.00000000000002
 20
-2.813962327698337
 30
0.0
 10
10.00000000000002
 20
-2.946758045406372
 30
0.0
  0
SPLINE
  5
AC
330
1F
100
AcDbEntity
  8
0
  6
Continuous
 62
     1
370
    15
100
AcDbSpline
210
0.0
220
0.0
230
1.0
 70
     8
 71
     3
 72
    14
 73
    10
 74
     0
 42
0.000000001
 43
0.00000001
 40
0.0
 40
0.0
 40
0.0
 40
0.0
 40
0.1651551011395614
 40
0.330290051635242
 40
0.495407241094986
 40
0.6605090760877299
 40
0.825597977881297
 40
0.990676380150451
 40
1.0
 40
1.0
 40
1.0
 40
1.0
 10
40.00000000000001
 20
-2.36691679310464
 30
0.0
 10
39.5708051757678
 20
-2.27453164160685
 30
0.0
 10
38.71246789354576
 20
-2.089772610562754
 30
0.0
 10
37.42506452958741
 20
-1.646206795519989
 30
0.0
 10
36.13781831944646
 20
-1.113001068478095
 30
0.0
 10
34.85070978288543
 20
-0.5073598076338657
 30
0.0
 10
33.5637178115508
 20
0.122007324785916
 30
0.0
 10
32.68153253760168
 20
0.5650422438077025
 30
0.0
 10
32.22834374382815
 20
0.7671198160708207
 30
0.0
 10
32.20411604289963
 20
0.7779229847555202
 30
0.0
  0
LINE
  5
AD
330
1F
100
AcDbEntity
  8
0
  6
Continuous
 62
     1
370
    15
100
AcDbLine
 10
10.43069919591228
 20
-2.472533458375686
 30
0.0
 11
9.999999999999986
 21
-2.529017816947223
 31
0.0
  0
LINE
  5
AE
330
1F
100
AcDbEntity
  8
0
  6
Continuous
 62
     1
370
    15
100
AcDbLine
 10
39.99999999999986
 20
-2.846822607695696
 30
0.0
 11
40.00000000000001
 21
-2.36691679310464
 31
0.0
  0
SPLINE
  5
AF
330
1F
100
AcDbEntity
  8
0
  6
Continuous
 62
     1
370
    15
100
AcDbSpline
210
0.0
220
0.0
230
1.0
 70
     8
 71
     3
 72
    23
 73
    19
 74
     0
 42
0.000000001
 43
0.00000001
 40
0.0
 40
0.0
 40
0.0
 40
0.0
 40
0.0678285592346285
 40
0.1362212525855801
 40
0.1984693997170583
 40
0.2611499989576134
 40
0.3232866152687539
 40
0.3858531810779798
 40
0.4478849137388632
 40
0.5103472014112964
 40
0.572378660480569
 40
0.6348395559525477
 40
0.6968710052609519
 40
0.7593299230836917
 40
0.821361575548238
 40
0.8838217368596222
 40
0.9458464784557676
 40
1.0
 40
1.0
 40
1.0
 40
1.0
 10
10.00000000000001
 20
2.676742553181643
 30
0.0
 10
10.31409295998811
 20
2.586440850072376
 30
0.0
 10
10.94489120958513
 20
2.405086399278213
 30
0.0
 10
11.86329916027657
 20
2.039755328129696
 30
0.0
 10
12.75867257892496
 20
1.630179276363837
 30
0.0
 10
13.6249023896234
 20
1.186951367648243
 30
0.0
 10
14.49177852316405
 20
0.7090278430235586
 30
0.0
 10
15.35704648940259
 20
0.2153315394426551
 30
0.0
 10
16.22280389477886
 20
-0.2868342305123172
 30
0.0
 10
17.08594800960797
 20
-0.7799077338816182
 30
0.0
 10
17.95228263267158
 20
-1.25054044889978
 30
0.0
 10
18.81527478814507
 20
-1.687807083926297
 30
0.0
 10
19.68075019325816
 20
-2.078461313967266
 30
0.0
 10
20.54488504525043
 20
-2.410195482307651
 30
0.0
 10
21.40968740266764
 20
-2.677881303848158
 30
0.0
 10
22.2736753590504
 20
-2.867835854789671
 30
0.0
 10
23.10075681392363
 20
-2.982223604180391
 30
0.0
 10
23.63842122080274
 20
-2.991060455201416
 30
0.0
 10
23.88903971220085
 20
-2.995179526955588
 30
0.0
  0
SPLINE
  5
B0
330
1F
100
AcDbEntity
  8
0
  6
Continuous
 62
     1
370
    15
100
AcDbSpline
210
0.0
220
0.0
230
1.0
 70
     8
 71
     3
 72
    12
 73
     8
 74
     0
 42
0.000000001
 43
0.00000001
 40
0.0
 40
0.0
 40
0.0
 40
0.0
 40
0.0541281261246763
 40
0.2855403123047854
 40
0.5189127896177582
 40
0.7583730944866837
 40
1.0
 40
1.0
 40
1.0
 40
1.0
 10
35.88381534166321
 20
2.012367642993921
 30
0.0
 10
35.95805477935729
 20
2.045648746013279
 30
0.0
 10
36.34968762797415
 20
2.221215447289908
 30
0.0
 10
37.0622834356409
 20
2.47569197336944
 30
0.0
 10
38.02816289222341
 20
2.754180468015579
 30
0.0
 10
39.00812894688988
 20
2.942136912536609
 30
0.0
 10
39.66838514986753
 20
2.978966646446816
 30
0.0
 10
39.99999999999986
 20
3.000000000000113
 30
0.0
  0
LINE
  5
B1
330
1F
100
AcDbEntity
  8
0
  6
Continuous
 62
   131
370
    15
100
AcDbLine
 10
10.00000000000001
 20
2.67674255318164
 30
0.0
 11
10.00000000000001
 21
2.94675804539883
 31
0.0
  0
SPLINE
  5
B2
330
1F
100
AcDbEntity
  8
0
  6
Continuous
 62
     1
370
    15
100
AcDbSpline
210
0.0
220
0.0
230
1.0
 70
     8
 71
     3
 72
    31
 73
    27
 74
     0
 42
0.000000001
 43
0.00000001
 40
0.0
 40
0.0
 40
0.0
 40
0.0
 40
0.006114252423499
 40
0.0485437427299913
 40
0.090682983829393
 40
0.1331133188605657
 40
0.1752478652801039
 40
0.2176752502393278
 40
0.2598094095362683
 40
0.3022346634922543
 40
0.3443689678774441
 40
0.3867934976397489
 40
0.4289278819099318
 40
0.4713539296910426
 40
0.513488384929383
 40
0.555915278481929
 40
0.5980494329294184
 40
0.6404742516310122
 40
0.682608601714765
 40
0.7250333650743054
 40
0.7671677798530641
 40
0.8095944543325556
 40
0.8561781035568353
 40
0.9031563625724921
 40
0.9513601111705499
 40
1.0
 40
1.0
 40
1.0
 40
1.0
 10
19.55387281186425
 20
2.011782877192088
 30
0.0
 10
19.59553967612032
 20
2.030657277513706
 30
0.0
 10
19.92635126169354
 20
2.180509454024132
 30
0.0
 10
20.54491925615647
 20
2.407075359936589
 30
0.0
 10
21.40968196498994
 20
2.678385455565595
 30
0.0
 10
22.27366262940105
 20
2.868963757290312
 30
0.0
 10
23.13925177417347
 20
2.98255620996134
 30
0.0
 10
24.002086908325
 20
3.013114459200683
 30
0.0
 10
24.86827877024886
 20
2.960659815824296
 30
0.0
 10
25.73142265887854
 20
2.826568799772214
 30
0.0
 10
26.5964514876846
 20
2.613595790505141
 30
0.0
 10
27.46068368164433
 20
2.33023319578303
 30
0.0
 10
28.32551975675063
 20
1.980400419601938
 30
0.0
 10
29.18897644215959
 20
1.577235569478418
 30
0.0
 10
30.05497013363077
 20
1.130572933145345
 30
0.0
 10
30.91771880716794
 20
0.6516465357130189
 30
0.0
 10
31.7836470884773
 20
0.1556572486743823
 30
0.0
 10
32.64715803008633
 20
-0.3442483940049253
 30
0.0
 10
33.51195895945939
 20
-0.8368789709922732
 30
0.0
 10
34.37617925984684
 20
-1.303043185898968
 30
0.0
 10
35.24125642857615
 20
-1.736138908036159
 30
0.0
 10
36.13470971824433
 20
-2.133437267855628
 30
0.0
 10
37.06225008534532
 20
-2.478769995593149
 30
0.0
 10
38.02817207485606
 20
-2.753332968859611
 30
0.0
 10
39.00812660216837
 20
-2.942353315562494
 30
0.0
 10
39.66838436595065
 20
-2.979038997037918
 30
0.0
 10
39.99999999999982
 20
-2.999999999999882
 30
0.0
  0
LINE
  5
B3
330
1F
100
AcDbEntity
  8
0
  6
Continuous
 62
     1
370
    15
100
AcDbLine
 10
39.99999999999982
 20
-2.999999999999882
 30
0.0
 11
39.99999999999984
 21
-2.84682260769569
 31
0.0
  0
SPLINE
  5
B4
330
1F
100
AcDbEntity
  8
0
  6
Continuous
 62
     1
370
    15
100
AcDbSpline
210
0.0
220
0.0
230
1.0
 70
     8
 71
     3
 72
    16
 73
    12
 74
     0
 42
0.000000001
 43
0.00000001
 40
0.0
 40
0.0
 40
0.0
 40
0.0
 40
0.0264011875117812
 40
0.1552927624476099
 40
0.284179781615478
 40
0.4130642426047611
 40
0.5419481454964103
 40
0.6708334909150973
 40
0.7997222780802392
 40
0.9286165028599237
 40
1.0
 40
1.0
 40
1.0
 40
1.0
 10
32.54040126625853
 20
-0.2813798498206386
 30
0.0
 10
32.45254006886508
 20
-0.2468161087240191
 30
0.0
 10
31.93573725273816
 20
-0.0435109038720463
 30
0.0
 10
30.99001500381237
 20
0.3457234591959946
 30
0.0
 10
29.70324079273796
 20
0.846816179589325
 30
0.0
 10
28.41649541354405
 20
1.298319315681048
 30
0.0
 10
27.1297559744855
 20
1.669628173055374
 30
0.0
 10
25.84300080994863
 20
1.940778792390672
 30
0.0
 10
24.55620731659684
 20
2.087494745442346
 30
0.0
 10
23.46077076328363
 20
2.12285507392752
 30
0.0
 10
22.79425908623292
 20
2.058722572485511
 30
0.0
 10
22.5566992920805
 20
2.035864302532223
 30
0.0
  0
SPLINE
  5
B5
330
1F
100
AcDbEntity
  8
0
  6
Continuous
 62
     1
370
    15
100
AcDbSpline
210
0.0
220
0.0
230
1.0
 70
    24
 71
     3
 72
    10
 73
     6
 74
     0
 42
0.000000001
 43
0.00000001
 40
0.0
 40
0.0
 40
0.0
 40
0.0
 40
0.5
 40
0.5
 40
1.0
 40
1.0
 40
1.0
 40
1.0
 10
40.00000000000001
 20
2.100000000000008
 30
0.0
 10
40.00000000000001
 20
2.227296770421949
 30
0.0
 10
40.00000000000001
 20
2.375227406601359
 30
0.0
 10
40.00000000000001
 20
2.685585482882576
 30
0.0
 10
40.00000000000001
 20
2.847220307404428
 30
0.0
 10
39.99999999999986
 20
3.000000000000113
 30
0.0
  0
LINE
  5
B6
330
1F
100
AcDbEntity
  8
0
  6
Continuous
 62
     1
370
    15
100
AcDbLine
 10
40.00000000000001
 20
2.100000000000008
 30
0.0
 11
38.89899913992788
 21
2.045181674440899
 31
0.0
  0
SPLINE
  5
B7
330
1F
100
AcDbEntity
  8
0
  6
Continuous
 62
     1
370
    15
100
AcDbSpline
210
0.0
220
0.0
230
1.0
 70
     8
 71
     3
 72
    12
 73
     8
 74
     0
 42
0.000000001
 43
0.00000001
 40
0.0
 40
0.0
 40
0.0
 40
0.0
 40
0.1071588981664019
 40
0.3144394288015874
 40
0.5216950056851459
 40
0.7608730831361363
 40
1.0
 40
1.0
 40
1.0
 40
1.0
 10
16.21146712376524
 20
-0.2790313142269364
 30
0.0
 10
15.98959748260184
 20
-0.1905783879133613
 30
0.0
 10
15.33855903008343
 20
0.0689715710893885
 30
0.0
 10
14.25840618398827
 20
0.5083117131668126
 30
0.0
 10
12.90497422659013
 20
1.020376911168099
 30
0.0
 10
11.48543508264517
 20
1.496680709217898
 30
0.0
 10
10.49510971839928
 20
1.721006915837643
 30
0.0
 10
10.0
 20
1.833158021927567
 30
0.0
  0
SPLINE
  5
B8
330
1F
100
AcDbEntity
  8
0
  6
Continuous
 62
   131
370
    15
100
AcDbSpline
210
0.0
220
0.0
230
1.0
 70
    24
 71
     3
 72
    10
 73
     6
 74
     0
 42
0.000000001
 43
0.00000001
 40
0.0
 40
0.0
 40
0.0
 40
0.0
 40
0.5
 40
0.5
 40
1.0
 40
1.0
 40
1.0
 40
1.0
 10
10.00000000000001
 20
2.67674255318164
 30
0.0
 10
10.00000000000001
 20
2.564343869692112
 30
0.0
 10
10.00000000000001
 20
2.427696086345251
 30
0.0
 10
10.00000000000001
 20
2.135159692615786
 30
0.0
 10
10.00000000000001
 20
1.980133299883579
 30
0.0
 10
10.00000000000001
 20
1.833158021927566
 30
0.0
  0
SPLINE
  5
B9
330
1F
100
AcDbEntity
  8
0
  6
Continuous
 62
     1
370
    15
100
AcDbSpline
210
0.0
220
0.0
230
1.0
 70
     8
 71
     3
 72
     8
 73
     4
 74
     0
 42
0.000000001
 43
0.00000001
 40
0.0
 40
0.0
 40
0.0
 40
0.0
 40
1.0
 40
1.0
 40
1.0
 40
1.0
 10
38.14323596820901
 20
0.8396782644515249
 30
0.0
 10
38.00894915072985
 20
0.9988018849865332
 30
0.0
 10
37.89240403524033
 20
1.150883649473458
 30
0.0
 10
37.80039515848589
 20
1.292364378577724
 30
0.0
  0
LINE
  5
BA
330
1F
100
AcDbEntity
  8
0
  6
Continuous
 62
     1
370
    15
100
AcDbLine
 10
37.80039515848586
 20
1.292364378577721
 30
0.0
 11
40.00000000000001
 21
0.0000000000000086
 31
0.0
  0
LINE
  5
BB
330
1F
100
AcDbEntity
  8
0
  6
Continuous
 62
     1
370
    15
100
AcDbLine
 10
40.00000000000001
 20
0.0000000000000086
 30
0.0
 11
40.00000000000001
 21
-0.8017288380889256
 31
0.0
  0
SPLINE
  5
BC
330
1F
100
AcDbEntity
  8
0
  6
Continuous
 62
     1
370
    15
100
AcDbSpline
210
0.0
220
0.0
230
1.0
 70
     8
 71
     3
 72
    10
 73
     6
 74
     0
 42
0.000000001
 43
0.00000001
 40
0.0
 40
0.0
 40
0.0
 40
0.0
 40
0.5
 40
0.5
 40
1.0
 40
1.0
 40
1.0
 40
1.0
 10
40.00000000000001
 20
-0.8017288380889258
 30
0.0
 10
39.67858102588706
 20
-0.5490379441565696
 30
0.0
 10
39.36253412375818
 20
-0.2859827532114703
 30
0.0
 10
38.74145243235319
 20
0.2613732130050004
 30
0.0
 10
38.43352622596558
 20
0.5485583873858763
 30
0.0
 10
38.14323596820964
 20
0.8396782644508938
 30
0.0
  0
SPLINE
  5
BD
330
1F
100
AcDbEntity
  8
0
  6
Continuous
 62
     1
370
    15
100
AcDbSpline
210
0.0
220
0.0
230
1.0
 70
     8
 71
     3
 72
    23
 73
    19
 74
     0
 42
0.000000001
 43
0.00000001
 40
0.0
 40
0.0
 40
0.0
 40
0.0
 40
0.0043711985934315
 40
0.0730552333421714
 40
0.1417358694059316
 40
0.2104141411634726
 40
0.279091085279364
 40
0.3477677397025691
 40
0.4164451426623845
 40
0.4851243316638095
 40
0.5538063424843988
 40
0.622492208174665
 40
0.6911829580640707
 40
0.7598796167746376
 40
0.8285832032441763
 40
0.8972947297610963
 40
0.9660133447942579
 40
1.0
 40
1.0
 40
1.0
 40
1.0
 10
33.64560608586832
 20
-2.252112958252974
 30
0.0
 10
33.6183056989905
 20
-2.257731091662359
 30
0.0
 10
33.16203813505786
 20
-2.351626172930645
 30
0.0
 10
32.27683537503114
 20
-2.406730099115379
 30
0.0
 10
30.99001022417625
 20
-2.394971063153033
 30
0.0
 10
29.7032365593157
 20
-2.222303162146869
 30
0.0
 10
28.41649071132922
 20
-1.917959953820987
 30
0.0
 10
27.12975110505805
 20
-1.495507237295232
 30
0.0
 10
25.84299559022784
 20
-0.982065266884933
 30
0.0
 10
24.55620218637518
 20
-0.4086088937756169
 30
0.0
 10
23.26934890390335
 20
0.1897851196140935
 30
0.0
 10
21.98241384652088
 20
0.7765745164046158
 30
0.0
 10
20.69537511152731
 20
1.31612535204703
 30
0.0
 10
19.40821121662828
 20
1.774806028171114
 30
0.0
 10
18.12089962153836
 20
2.127212062617352
 30
0.0
 10
16.83343393715983
 20
2.342100978706876
 30
0.0
 10
15.76277557153584
 20
2.425664537810281
 30
0.0
 10
15.12130035383777
 20
2.380479294758776
 30
0.0
 10
14.90902695251941
 20
2.365526846141417
 30
0.0
  0
SPLINE
  5
BE
330
1F
100
AcDbEntity
  8
0
  6
Continuous
 62
   131
370
    15
100
AcDbSpline
210
0.0
220
0.0
230
1.0
 70
    24
 71
     3
 72
    10
 73
     6
 74
     0
 42
0.000000001
 43
0.00000001
 40
0.0
 40
0.0
 40
0.0
 40
0.0
 40
0.5
 40
0.5
 40
1.0
 40
1.0
 40
1.0
 40
1.0
 10
10.00000000000001
 20
-1.170818888947771
 30
0.0
 10
10.00000000000001
 20
-1.545954368228692
 30
0.0
 10
10.00000000000001
 20
-1.879586320990335
 30
0.0
 10
10.00000000000001
 20
-2.354344148530559
 30
0.0
 10
10.00000000000001
 20
-2.493426480023542
 30
0.0
 10
10.00000000000001
 20
-2.529017816947221
 30
0.0
  0
SPLINE
  5
BF
330
1F
100
AcDbEntity
  8
0
  6
Continuous
 62
     1
370
    15
100
AcDbSpline
210
0.0
220
0.0
230
1.0
 70
     8
 71
     3
 72
    13
 73
     9
 74
     0
 42
0.000000001
 43
0.00000001
 40
0.0
 40
0.0
 40
0.0
 40
0.0
 40
0.1450095122810131
 40
0.2902796851188675
 40
0.4765675529962409
 40
0.6628406233592187
 40
0.8491016808034303
 40
1.0
 40
1.0
 40
1.0
 40
1.0
 10
38.143235968209
 20
0.8396782644515315
 30
0.0
 10
37.8093566455354
 20
0.9812009951628763
 30
0.0
 10
37.14099783838647
 20
1.264500849509262
 30
0.0
 10
36.04328498014407
 20
1.668135174269613
 30
0.0
 10
34.85073131361188
 20
2.029129036858047
 30
0.0
 10
33.56372811396696
 20
2.2892939819771
 30
0.0
 10
32.35825461004572
 20
2.417400789963152
 30
0.0
 10
31.58177461915064
 20
2.386429554111088
 30
0.0
 10
31.2342549188735
 20
2.37256813498023
 30
0.0
  0
SPLINE
  5
C0
330
1F
100
AcDbEntity
  8
0
  6
Continuous
 62
     1
370
    15
100
AcDbSpline
210
0.0
220
0.0
230
1.0
 70
     8
 71
     3
 72
    13
 73
     9
 74
     0
 42
0.000000001
 43
0.00000001
 40
0.0
 40
0.0
 40
0.0
 40
0.0
 40
0.0675965202225103
 40
0.2432898858564858
 40
0.4189676507327546
 40
0.5946248161061612
 40
0.7973335216460264
 40
1.0
 40
1.0
 40
1.0
 40
1.0
 10
17.32886836080625
 20
-2.238856344608177
 30
0.0
 10
17.16373686962221
 20
-2.269099543232955
 30
0.0
 10
16.56940418046555
 20
-2.377949293444021
 30
0.0
 10
15.54588432674301
 20
-2.419097054623617
 30
0.0
 10
14.25839271732755
 20
-2.356004146454678
 30
0.0
 10
12.90497985104648
 20
-2.127896985744278
 30
0.0
 10
11.48542295915526
 20
-1.742283117930697
 30
0.0
 10
10.49510659990835
 20
-1.361293736288142
 30
0.0
 10
10.00000000000001
 20
-1.170818888947769
 30
0.0
  0
SPLINE
  5
C1
330
1F
100
AcDbEntity
  8
0
  6
Continuous
 62
     1
370
    15
100
AcDbSpline
210
0.0
220
0.0
230
1.0
 70
    24
 71
     3
 72
    10
 73
     6
 74
     0
 42
0.000000001
 43
0.00000001
 40
0.0
 40
0.0
 40
0.0
 40
0.0
 40
0.5
 40
0.5
 40
1.0
 40
1.0
 40
1.0
 40
1.0
 10
40.00000000000001
 20
-2.366916793104639
 30
0.0
 10
40.00000000000001
 20
-2.185474167011406
 30
0.0
 10
40.00000000000001
 20
-1.956214451719396
 30
0.0
 10
40.00000000000001
 20
-1.423207677452031
 30
0.0
 10
40.00000000000002
 20
-1.119922329153921
 30
0.0
 10
40.00000000000001
 20
-0.8017288380890215
 30
0.0
  0
SPLINE
  5
C2
330
1F
100
AcDbEntity
  8
0
  6
Continuous
 62
   131
370
    15
100
AcDbSpline
210
0.0
220
0.0
230
1.0
 70
    24
 71
     3
 72
    14
 73
    10
 74
     0
 42
0.000000001
 43
0.00000001
 40
0.0
 40
0.0
 40
0.0
 40
0.0
 40
0.2500000000000001
 40
0.2500000000000001
 40
0.5000000000000001
 40
0.5000000000000001
 40
0.75
 40
0.75
 40
1.0
 40
1.0
 40
1.0
 40
1.0
 10
10.0
 20
1.833158021927567
 30
0.0
 10
10.0
 20
1.657096076910042
 30
0.0
 10
10.0
 20
1.450979804203276
 30
0.0
 10
10.0
 20
0.9903776413836334
 30
0.0
 10
10.0
 20
0.736021610439214
 30
0.0
 10
10.0
 20
0.202128305387654
 30
0.0
 10
10.0
 20
-0.077124488045426
 30
0.0
 10
10.0
 20
-0.632591360251706
 30
0.0
 10
10.0
 20
-0.9085423372534531
 30
0.0
 10
10.0
 20
-1.170818888947768
 30
0.0
  0
SPLINE
  5
C3
330
1F
100
AcDbEntity
  8
0
  6
Continuous
 62
     1
370
    15
100
AcDbSpline
210
0.0
220
0.0
230
1.0
 70
     8
 71
     3
 72
    10
 73
     6
 74
     0
 42
0.000000001
 43
0.00000001
 40
0.0
 40
0.0
 40
0.0
 40
0.0
 40
0.5
 40
0.5
 40
1.0
 40
1.0
 40
1.0
 40
1.0
 10
40.00000000000001
 20
2.100000000000008
 30
0.0
 10
39.62668070767046
 20
1.998682094032819
 30
0.0
 10
39.25615379955179
 20
1.882604047883011
 30
0.0
 10
38.52150500180386
 20
1.616591951667598
 30
0.0
 10
38.15722935061072
 20
1.467297855402131
 30
0.0
 10
37.80039515848424
 20
1.292364378579015
 30
0.0
  0
LINE
  5
C4
330
1F
100
AcDbEntity
  8
0
  6
Continuous
 62
     1
370
    15
100
AcDbLine
 10
40.00000000000001
 20
0.0000000000000086
 30
0.0
 11
40.00000000000001
 21
2.100000000000008
 31
0.0
  0
SPLINE
  5
C5
330
1F
100
AcDbEntity
  8
0
  6
Continuous
 62
   131
370
    15
100
AcDbSpline
210
0.0
220
0.0
230
1.0
 70
     8
 71
     3
 72
     8
 73
     4
 74
     0
 42
0.000000001
 43
0.00000001
 40
0.0
 40
0.0
 40
0.0
 40
0.0
 40
1.0
 40
1.0
 40
1.0
 40
1.0
 10
9.999999999998185
 20
-2.946758045411364
 30
0.0
 10
9.705545764058217
 20
-2.978771838711043
 30
0.0
 10
9.40664693366276
 20
-2.996532694120756
 30
0.0
 10
9.109808294908897
 20
-2.999537555799491
 30
0.0
  0
LINE
  5
C6
330
1F
100
AcDbEntity
  8
0
  6
Continuous
 62
   131
370
    15
100
AcDbLine
 10
9.109906389700614
 20
2.999539810464028
 30
0.0
 11
9.109906389700614
 21
3.000000000000005
 31
0.0
  0
SPLINE
  5
C7
330
1F
100
AcDbEntity
  8
0
  6
Continuous
 62
   131
370
    15
100
AcDbSpline
210
0.0
220
0.0
230
1.0
 70
     8
 71
     3
 72
     8
 73
     4
 74
     0
 42
0.000000001
 43
0.00000001
 40
0.0
 40
0.0
 40
0.0
 40
0.0
 40
1.0
 40
1.0
 40
1.0
 40
1.0
 10
9.999999999998185
 20
2.946758045411373
 30
0.0
 10
9.705545764058217
 20
2.978771838711052
 30
0.0
 10
9.40664693366276
 20
2.996532694120766
 30
0.0
 10
9.109808294908897
 20
2.9995375557995
 30
0.0
  0
SPLINE
  5
C8
330
1F
100
AcDbEntity
  8
0
  6
Continuous
 62
   131
370
    15
100
AcDbSpline
210
0.0
220
0.0
230
1.0
 70
     8
 71
     3
 72
     8
 73
     4
 74
     0
 42
0.000000001
 43
0.00000001
 40
0.0
 40
0.0
 40
0.0
 40
0.0
 40
1.0
 40
1.0
 40
1.0
 40
1.0
 10
9.109906389700614
 20
2.868308803299707
 30
0.0
 10
9.406712785426416
 20
2.81816432010545
 30
0.0
 10
9.705578199644561
 20
2.753805574729021
 30
0.0
 10
10.00000000000001
 20
2.676742553181641
 30
0.0
  0
LINE
  5
C9
330
1F
100
AcDbEntity
  8
0
  6
Continuous
 62
   131
370
    15
100
AcDbLine
 10
9.109906389700614
 20
-2.999999999999996
 30
0.0
 11
9.109906389700614
 21
2.86854063861664
 31
0.0
  0
LINE
  5
CA
330
1F
100
AcDbEntity
  8
0
  6
Continuous
 62
   131
370
    15
100
AcDbLine
 10
-39.45
 20
2.999999999999999
 30
0.0
 11
-39.45
 21
-2.999999999999999
 31
0.0
  0
LINE
  5
CB
330
1F
100
AcDbEntity
  8
0
  6
Continuous
 62
   131
370
    15
100
AcDbLine
 10
-39.99999999999999
 20
2.449999999999998
 30
0.0
 11
-39.99999999999999
 21
-2.449999999999995
 31
0.0
  0
SPLINE
  5
CC
330
1F
100
AcDbEntity
  8
0
  6
Continuous
 62
   131
370
    15
100
AcDbSpline
210
0.0
220
0.0
230
1.0
 70
    24
 71
     3
 72
    14
 73
    10
 74
     0
 42
0.000000001
 43
0.00000001
 40
0.0
 40
0.0
 40
0.0
 40
0.0
 40
0.2500000000000001
 40
0.2500000000000001
 40
0.5000000000000001
 40
0.5000000000000001
 40
0.75
 40
0.75
 40
1.0
 40
1.0
 40
1.0
 40
1.0
 10
10.0
 20
1.833158021927567
 30
0.0
 10
10.0
 20
1.657096076910042
 30
0.0
 10
10.0
 20
1.450979804203276
 30
0.0
 10
10.0
 20
0.9903776413836334
 30
0.0
 10
10.0
 20
0.736021610439214
 30
0.0
 10
10.0
 20
0.202128305387654
 30
0.0
 10
10.0
 20
-0.077124488045426
 30
0.0
 10
10.0
 20
-0.632591360251706
 30
0.0
 10
10.0
 20
-0.9085423372534531
 30
0.0
 10
10.0
 20
-1.170818888947768
 30
0.0
  0
SPLINE
  5
CD
330
1F
100
AcDbEntity
  8
0
  6
Continuous
 62
   131
370
    15
100
AcDbSpline
210
0.0
220
0.0
230
1.0
 70
     8
 71
     3
 72
     8
 73
     4
 74
     0
 42
0.000000001
 43
0.00000001
 40
0.0
 40
0.0
 40
0.0
 40
0.0
 40
1.0
 40
1.0
 40
1.0
 40
1.0
 10
10.00000000000001
 20
-1.17081888894777
 30
0.0
 10
9.705566357023262
 20
-1.051631176768119
 30
0.0
 10
9.406688742170072
 20
-0.9261220962018492
 30
0.0
 10
9.10987057409774
 20
-0.7969868900755717
 30
0.0
  0
SPLINE
  5
CE
330
1F
100
AcDbEntity
  8
0
  6
Continuous
 62
   131
370
    15
100
AcDbSpline
210
0.0
220
0.0
230
1.0
 70
     8
 71
     3
 72
     8
 73
     4
 74
     0
 42
0.000000001
 43
0.00000001
 40
0.0
 40
0.0
 40
0.0
 40
0.0
 40
1.0
 40
1.0
 40
1.0
 40
1.0
 10
10.0
 20
1.833158021927566
 30
0.0
 10
9.70557038649055
 20
1.891439621496592
 30
0.0
 10
9.406696922920906
 20
1.94104777731159
 30
0.0
 10
9.10988276040093
 20
1.980827513533996
 30
0.0
  0
SPLINE
  5
CF
330
1F
100
AcDbEntity
  8
0
  6
Continuous
 62
   131
370
    15
100
AcDbSpline
210
0.0
220
0.0
230
1.0
 70
     8
 71
     3
 72
     8
 73
     4
 74
     0
 42
0.000000001
 43
0.00000001
 40
0.0
 40
0.0
 40
0.0
 40
0.0
 40
1.0
 40
1.0
 40
1.0
 40
1.0
 10
9.999999999997929
 20
-2.529017816947353
 30
0.0
 10
9.705545764058042
 20
-2.547590951747058
 30
0.0
 10
9.406646933662673
 20
-2.553887195834531
 30
0.0
 10
9.109808294908897
 20
-2.547670223162711
 30
0.0
  0
SPLINE
  5
D0
330
1F
100
AcDbEntity
  8
0
  6
Continuous
 62
   131
370
    15
100
AcDbSpline
210
0.0
220
0.0
230
1.0
 70
    24
 71
     3
 72
    10
 73
     6
 74
     0
 42
0.000000001
 43
0.00000001
 40
0.0
 40
0.0
 40
0.0
 40
0.0
 40
0.5
 40
0.5
 40
1.0
 40
1.0
 40
1.0
 40
1.0
 10
10.00000000000001
 20
-1.170818888947769
 30
0.0
 10
10.00000000000001
 20
-1.545954368228691
 30
0.0
 10
10.00000000000001
 20
-1.879586320990335
 30
0.0
 10
10.00000000000001
 20
-2.354344148530558
 30
0.0
 10
10.00000000000001
 20
-2.493426480023542
 30
0.0
 10
10.00000000000001
 20
-2.529017816947221
 30
0.0
  0
SPLINE
  5
D1
330
1F
100
AcDbEntity
  8
0
  6
Continuous
 62
   131
370
    15
100
AcDbSpline
210
0.0
220
0.0
230
1.0
 70
    24
 71
     3
 72
    10
 73
     6
 74
     0
 42
0.000000001
 43
0.00000001
 40
0.0
 40
0.0
 40
0.0
 40
0.0
 40
0.5
 40
0.5
 40
1.0
 40
1.0
 40
1.0
 40
1.0
 10
10.00000000000001
 20
2.67674255318164
 30
0.0
 10
10.00000000000001
 20
2.564343869692113
 30
0.0
 10
10.00000000000001
 20
2.42769608634525
 30
0.0
 10
10.00000000000001
 20
2.135159692615784
 30
0.0
 10
10.00000000000001
 20
1.98013329988358
 30
0.0
 10
10.00000000000001
 20
1.833158021927566
 30
0.0
  0
SPLINE
  5
D2
330
1F
100
AcDbEntity
  8
0
  6
Continuous
 62
   131
370
    15
100
AcDbSpline
210
0.0
220
0.0
230
1.0
 70
    24
 71
     3
 72
     8
 73
     4
 74
     0
 42
0.000000001
 43
0.00000001
 40
0.0
 40
0.0
 40
0.0
 40
0.0
 40
1.0
 40
1.0
 40
1.0
 40
1.0
 10
10.00000000000001
 20
-2.529017816947221
 30
0.0
 10
10.00000000000001
 20
-2.673796096582023
 30
0.0
 10
10.00000000000001
 20
-2.813962327698338
 30
0.0
 10
10.00000000000001
 20
-2.946758045406373
 30
0.0
  0
LINE
  5
D3
330
1F
100
AcDbEntity
  8
중심선
 62
     1
100
AcDbLine
 10
-43.0
 20
0.0
 30
0.0
 11
43.0
 21
0.0000000000000089
 31
0.0
  0
CIRCLE
  5
D4
330
1F
100
AcDbEntity
  8
외형선
100
AcDbCircle
 10
0.0000000000000104
 20
0.0
 30
0.0
 40
3.000000000000005
  0
INSERT
  5
D5
330
1F
100
AcDbEntity
  8
0
  6
Continuous
 62
     7
100
AcDbBlockReference
 66
     1
  2
블럭10
 10
-22.93944368806589
 20
-52.04609937292004
 30
0.0
  0
ATTRIB
  5
D6
330
D5
100
AcDbEntity
  8
FORMAT
 62
     2
100
AcDbText
 10
-39.05870472750145
 20
-49.97073246008785
 30
0.0
 40
4.233333333333333
  1
SEME7006030E [ 2 FLUTE ]
 41
0.75
  7
SLDTEXTSTYLE0
 11
-39.05870472750145
 21
-52.08739912675452
 31
0.0
100
AcDbAttribute
  2
AUTOATTR0
 70
     0
 74
     1
  0
SEQEND
  5
D7
330
D5
100
AcDbEntity
  8
0
  6
Continuous
 62
     7
  0
HATCH
  5
D8
330
1F
100
AcDbEntity
  8
중심선
100
AcDbHatch
 10
0.0
 20
0.0
 30
0.0
210
0.0
220
0.0
230
1.0
  2
SOLID
 70
     1
 71
     0
 91
        1
 92
        0
 93
        4
 72
     1
 10
-17.22453438368504
 20
-35.7989250712761
 11
-20.67080962752232
 21
-35.7989250712761
 72
     1
 10
-20.67080962752232
 20
-35.7989250712761
 11
-22.79903948672635
 21
-38.3352506518487
 72
     1
 10
-22.79903948672635
 20
-38.3352506518487
 11
-19.35273115777591
 21
-38.33521122254621
 72
     1
 10
-19.35273115777591
 20
-38.33521122254621
 11
-17.22453438368504
 21
-35.7989250712761
 97
        0
 75
     0
 76
     1
 98
        1
 10
0.0
 20
0.0
  0
HATCH
  5
D9
330
1F
100
AcDbEntity
  8
중심선
100
AcDbHatch
 10
0.0
 20
0.0
 30
0.0
210
0.0
220
0.0
230
1.0
  2
SOLID
 70
     1
 71
     0
 91
        1
 92
        0
 93
        4
 72
     1
 10
-12.21177039264909
 20
-35.7989250712761
 11
-15.65804563648637
 21
-35.7989250712761
 72
     1
 10
-15.65804563648637
 20
-35.7989250712761
 11
-20.18918364484376
 21
-41.19892507127612
 72
     1
 10
-20.18918364484376
 20
-41.19892507127612
 11
-16.74290840100648
 21
-41.19892507127612
 72
     1
 10
-16.74290840100648
 20
-41.19892507127612
 11
-12.21177039264909
 21
-35.7989250712761
 97
        0
 75
     0
 76
     1
 98
        1
 10
0.0
 20
0.0
  0
HATCH
  5
DA
330
1F
100
AcDbEntity
  8
중심선
100
AcDbHatch
 10
0.0
 20
0.0
 30
0.0
210
0.0
220
0.0
230
1.0
  2
SOLID
 70
     1
 71
     0
 91
        1
 92
        0
 93
        4
 72
     1
 10
-7.199006401613195
 20
-35.79892507127613
 11
-10.64528164545031
 21
-35.7989250712761
 72
     1
 10
-10.64528164545031
 20
-35.7989250712761
 11
-17.69371854733956
 21
-44.19892507127612
 72
     1
 10
-17.69371854733956
 20
-44.19892507127612
 11
-14.24744330350228
 21
-44.19892507127612
 72
     1
 10
-14.24744330350228
 20
-44.19892507127612
 11
-7.199006401613195
 21
-35.79892507127613
 97
        0
 75
     0
 76
     1
 98
        1
 10
0.0
 20
0.0
  0
HATCH
  5
DB
330
1F
100
AcDbEntity
  8
중심선
100
AcDbHatch
 10
0.0
 20
0.0
 30
0.0
210
0.0
220
0.0
230
1.0
  2
SOLID
 70
     1
 71
     0
 91
        1
 92
        0
 93
        6
 72
     3
 10
-2.399115970600996
 20
-39.99892507132738
 11
3.960054785062284
 21
1.540850780301639E-10
 40
0.3939339440162633
 50
17.09539180608433
 51
320.0019657685079
 73
     0
 72
     1
 10
-0.7161163149004002
 20
-38.58681907591441
 11
1.589185558800638
 21
-36.65249236586649
 72
     3
 10
-2.399115970653842
 20
-39.99892507127625
 11
6.600054785286829
 21
-1.249000902703301E-13
 40
0.6363583540795982
 50
39.99873849337408
 51
368.4976242363725
 73
     1
 72
     1
 10
4.026216521246767
 20
-39.03892507120613
 11
-3.71904866381792
 21
-39.0389250712061
 72
     1
 10
-3.71904866381792
 20
-39.0389250712061
 11
-3.719073708263854
 21
-40.95892507120602
 72
     1
 10
-3.719073708263854
 20
-40.95892507120602
 11
0.7223060612081831
 21
-40.95892507120599
 97
        0
 75
     0
 76
     1
 98
        1
 10
0.0
 20
0.0
  0
DIMENSION
  5
DC
330
1F
100
AcDbEntity
  8
치수문자_일반주서
100
AcDbDimension
  2
_D
 10
50.6641351719831
 20
3.000000000000153
 30
0.0
 11
50.66413517198306
 21
12.66650000000015
 31
0.0
 70
   160
  1
%%c<>
 71
     2
 42
5.999999999999995
 52
-270.0
  3
SLDDIMSTYLE0
100
AcDbAlignedDimension
 13
39.99999999999982
 23
-2.999999999999882
 33
0.0
 14
39.99999999999986
 24
3.000000000000113
 34
0.0
 50
90.0000000000002
100
AcDbRotatedDimension
  0
DIMENSION
  5
EA
330
1F
100
AcDbEntity
  8
치수문자_일반주서
100
AcDbDimension
  2
_D_1
 10
39.99999999999985
 20
24.2384104402427
 30
0.0
 11
-0.0000000000000595
 21
24.2384104402427
 31
0.0
 70
   160
  1
<>
 71
     2
 42
79.99999999999986
  3
SLDDIMSTYLE1
100
AcDbAlignedDimension
 13
-39.99999999999999
 23
2.449999999999998
 33
0.0
 14
39.99999999999986
 24
3.000000000000113
 34
0.0
 50
-0.0000000000000051
100
AcDbRotatedDimension
  0
DIMENSION
  5
F5
330
1F
100
AcDbEntity
  8
치수문자_일반주서
100
AcDbDimension
  2
_D_2
 10
39.99999999999986
 20
16.29375585157864
 30
0.0
 11
25.00000000000007
 21
16.29375585157864
 31
0.0
 70
   160
  1
<>
 71
     2
 42
29.99999999999985
  3
SLDDIMSTYLE1
100
AcDbAlignedDimension
 13
10.00000000000001
 23
2.946758045411174
 33
0.0
 14
39.99999999999986
 24
3.000000000000113
 34
0.0
 50
-0.0000000000002171
100
AcDbRotatedDimension
  0
DIMENSION
  5
FF
330
1F
100
AcDbEntity
  8
치수문자_일반주서
100
AcDbDimension
  2
_D_3
 10
-48.65971571473619
 20
-3.000000000000032
 30
0.0
 11
-48.65971571473625
 21
12.66649999999996
 31
0.0
 70
   160
  1
%%c<>
 71
     2
 42
5.999999999999995
 52
-270.0
  3
SLDDIMSTYLE0
100
AcDbAlignedDimension
 13
-39.45
 23
2.999999999999999
 33
0.0
 14
-39.45
 24
-2.999999999999996
 34
0.0
 50
90.0000000000002
100
AcDbRotatedDimension
  0
INSERT
  5
112
330
1F
100
AcDbEntity
  8
외형선
100
AcDbBlockReference
  2
SW_DOWELSYMBOL_0
 10
0.0000000000000104
 20
0.0
 30
0.0
  0
ENDSEC
  0
SECTION
  2
OBJECTS
  0
DICTIONARY
  5
C
330
0
100
AcDbDictionary
281
     1
  3
ACAD_GROUP
350
D
  3
ACAD_IMAGE_VARS
350
136
  3
ACAD_LAYOUT
350
1A
  3
ACAD_MLINESTYLE
350
17
  3
ACAD_PLOTSETTINGS
350
19
  3
ACAD_PLOTSTYLENAME
350
E
  3
ACAD_SCALELIST
350
47
  3
APPDATA
350
134
  3
DWGPROPS
350
145
  0
DICTIONARY
  5
D
102
{ACAD_REACTORS
330
C
102
}
330
C
100
AcDbDictionary
281
     1
  0
RASTERVARIABLES
  5
136
102
{ACAD_REACTORS
330
C
102
}
330
C
100
AcDbRasterVariables
 90
        0
 70
     1
 71
     1
 72
     1
  0
DICTIONARY
  5
1A
102
{ACAD_REACTORS
330
C
102
}
330
C
100
AcDbDictionary
281
     1
  3
Layout1
350
1E
  3
Layout2
350
26
  3
Model
350
22
  0
DICTIONARY
  5
17
102
{ACAD_REACTORS
330
C
102
}
330
C
100
AcDbDictionary
281
     1
  3
Standard
350
18
  0
DICTIONARY
  5
19
102
{ACAD_REACTORS
330
C
102
}
330
C
100
AcDbDictionary
281
     1
  0
ACDBDICTIONARYWDFLT
  5
E
102
{ACAD_REACTORS
330
C
102
}
330
C
100
AcDbDictionary
281
     1
  3
Normal
350
F
100
AcDbDictionaryWithDefault
340
F
  0
DICTIONARY
  5
47
102
{ACAD_REACTORS
330
C
102
}
330
C
100
AcDbDictionary
281
     1
  3
A0
350
48
  3
A1
350
49
  3
A2
350
4A
  3
A3
350
4B
  3
A4
350
4C
  3
A5
350
4D
  3
A6
350
4E
  3
A7
350
4F
  3
A8
350
50
  3
A9
350
51
  3
B0
350
52
  3
B1
350
53
  3
B2
350
54
  3
B3
350
55
  3
B4
350
56
  3
B5
350
57
  3
B6
350
58
  3
B7
350
59
  3
B8
350
5A
  3
B9
350
5B
  3
C0
350
5C
  3
C1
350
5D
  3
C2
350
5E
  3
C3
350
5F
  3
C4
350
60
  3
C5
350
61
  3
C6
350
62
  3
C7
350
63
  3
C8
350
64
  3
C9
350
65
  3
D0
350
66
  3
D1
350
67
  3
D2
350
68
  0
DICTIONARY
  5
134
102
{ACAD_REACTORS
330
C
102
}
330
C
100
AcDbDictionary
281
     1
  0
XRECORD
  5
145
102
{ACAD_REACTORS
330
C
102
}
330
C
100
AcDbXrecord
280
     1
  1
DWGPROPS COOKIE
  2

  3

  4

  6

  7

  8
12014102
  9

300
=
301
=
302
=
303
=
304
=
305
=
306
=
307
=
308
=
309
=
 40
0.0
 41
2458262.167105382
 42
2458266.028927002
  1

 90
        0
  0
LAYOUT
  5
1E
102
{ACAD_REACTORS
330
1A
102
}
330
1A
100
AcDbPlotSettings
  1

  2
none_device
  4

  6

 40
0.0
 41
0.0
 42
0.0
 43
0.0
 44
0.0
 45
0.0
 46
0.0
 47
0.0
 48
0.0
 49
0.0
140
0.0
141
0.0
142
1.0
143
1.0
 70
   688
 72
     1
 73
     0
 74
     5
  7

 75
    16
147
1.0
148
0.0
149
0.0
100
AcDbLayout
  1
Layout1
 70
     1
 71
     1
 10
0.0
 20
0.0
 11
420.0
 21
297.0
 12
0.0
 22
0.0
 32
0.0
 14
1.000000000000000E+20
 24
1.000000000000000E+20
 34
1.000000000000000E+20
 15
-1.000000000000000E+20
 25
-1.000000000000000E+20
 35
-1.000000000000000E+20
146
0.0
 13
0.0
 23
0.0
 33
0.0
 16
1.0
 26
0.0
 36
0.0
 17
0.0
 27
1.0
 37
0.0
 76
     0
330
1B
  0
LAYOUT
  5
26
102
{ACAD_REACTORS
330
1A
102
}
330
1A
100
AcDbPlotSettings
  1

  2
none_device
  4

  6

 40
0.0
 41
0.0
 42
0.0
 43
0.0
 44
0.0
 45
0.0
 46
0.0
 47
0.0
 48
0.0
 49
0.0
140
0.0
141
0.0
142
1.0
143
1.0
 70
   688
 72
     1
 73
     0
 74
     5
  7

 75
    16
147
1.0
148
0.0
149
0.0
100
AcDbLayout
  1
Layout2
 70
     1
 71
     2
 10
0.0
 20
0.0
 11
0.0
 21
0.0
 12
0.0
 22
0.0
 32
0.0
 14
0.0
 24
0.0
 34
0.0
 15
0.0
 25
0.0
 35
0.0
146
0.0
 13
0.0
 23
0.0
 33
0.0
 16
1.0
 26
0.0
 36
0.0
 17
0.0
 27
1.0
 37
0.0
 76
     0
330
23
  0
LAYOUT
  5
22
102
{ACAD_REACTORS
330
1A
102
}
330
1A
100
AcDbPlotSettings
  1

  2
none_device
  4
ANSI_A_(11.00_x_8.50_Inches)
  6

 40
6.35
 41
19.05
 42
6.35000508
 43
19.05000254
 44
279.4
 45
215.9
 46
142.1106378172249
 47
118.4377884955873
 48
0.0
 49
0.0
140
0.0
141
0.0
142
0.1058944507156154
143
1.0
 70
  1696
 72
     0
 73
     0
 74
     0
  7

 75
     0
147
0.0235690232323232
148
0.0
149
0.0
100
AcDbLayout
  1
Model
 70
     1
 71
     0
 10
0.0
 20
0.0
 11
420.0
 21
297.0
 12
0.0
 22
0.0
 32
0.0
 14
-53.03471571473627
 24
-49.97073246008785
 34
0.0
 15
51.21446850531647
 25
28.6134104402427
 35
0.0
146
0.0
 13
0.0
 23
0.0
 33
0.0
 16
1.0
 26
0.0
 36
0.0
 17
0.0
 27
1.0
 37
0.0
 76
     0
330
1F
331
29
  0
MLINESTYLE
  5
18
102
{ACAD_REACTORS
330
17
102
}
330
17
100
AcDbMlineStyle
  2
Standard
 70
     0
  3

 62
   256
 51
90.0
 52
90.0
 71
     2
 49
0.5
 62
   256
  6
BYLAYER
 49
-0.5
 62
   256
  6
BYLAYER
  0
ACDBPLACEHOLDER
  5
F
102
{ACAD_REACTORS
330
E
102
}
330
E
  0
SCALE
  5
48
102
{ACAD_REACTORS
330
47
102
}
330
47
100
AcDbScale
 70
     0
300
1:1
140
1.0
141
1.0
290
     1
  0
SCALE
  5
49
102
{ACAD_REACTORS
330
47
102
}
330
47
100
AcDbScale
 70
     0
300
1:2
140
1.0
141
2.0
290
     0
  0
SCALE
  5
4A
102
{ACAD_REACTORS
330
47
102
}
330
47
100
AcDbScale
 70
     0
300
1:4
140
1.0
141
4.0
290
     0
  0
SCALE
  5
4B
102
{ACAD_REACTORS
330
47
102
}
330
47
100
AcDbScale
 70
     0
300
1:5
140
1.0
141
5.0
290
     0
  0
SCALE
  5
4C
102
{ACAD_REACTORS
330
47
102
}
330
47
100
AcDbScale
 70
     0
300
1:8
140
1.0
141
8.0
290
     0
  0
SCALE
  5
4D
102
{ACAD_REACTORS
330
47
102
}
330
47
100
AcDbScale
 70
     0
300
1:10
140
1.0
141
10.0
290
     0
  0
SCALE
  5
4E
102
{ACAD_REACTORS
330
47
102
}
330
47
100
AcDbScale
 70
     0
300
1:16
140
1.0
141
16.0
290
     0
  0
SCALE
  5
4F
102
{ACAD_REACTORS
330
47
102
}
330
47
100
AcDbScale
 70
     0
300
1:20
140
1.0
141
20.0
290
     0
  0
SCALE
  5
50
102
{ACAD_REACTORS
330
47
102
}
330
47
100
AcDbScale
 70
     0
300
1:30
140
1.0
141
30.0
290
     0
  0
SCALE
  5
51
102
{ACAD_REACTORS
330
47
102
}
330
47
100
AcDbScale
 70
     0
300
1:40
140
1.0
141
40.0
290
     0
  0
SCALE
  5
52
102
{ACAD_REACTORS
330
47
102
}
330
47
100
AcDbScale
 70
     0
300
1:50
140
1.0
141
50.0
290
     0
  0
SCALE
  5
53
102
{ACAD_REACTORS
330
47
102
}
330
47
100
AcDbScale
 70
     0
300
1:100
140
1.0
141
100.0
290
     0
  0
SCALE
  5
54
102
{ACAD_REACTORS
330
47
102
}
330
47
100
AcDbScale
 70
     0
300
2:1
140
2.0
141
1.0
290
     0
  0
SCALE
  5
55
102
{ACAD_REACTORS
330
47
102
}
330
47
100
AcDbScale
 70
     0
300
4:1
140
4.0
141
1.0
290
     0
  0
SCALE
  5
56
102
{ACAD_REACTORS
330
47
102
}
330
47
100
AcDbScale
 70
     0
300
8:1
140
8.0
141
1.0
290
     0
  0
SCALE
  5
57
102
{ACAD_REACTORS
330
47
102
}
330
47
100
AcDbScale
 70
     0
300
10:1
140
10.0
141
1.0
290
     0
  0
SCALE
  5
58
102
{ACAD_REACTORS
330
47
102
}
330
47
100
AcDbScale
 70
     0
300
100:1
140
100.0
141
1.0
290
     0
  0
SCALE
  5
59
102
{ACAD_REACTORS
330
47
102
}
330
47
100
AcDbScale
 70
     0
300
1/128" = 1'-0"
140
0.0078125
141
12.0
290
     0
  0
SCALE
  5
5A
102
{ACAD_REACTORS
330
47
102
}
330
47
100
AcDbScale
 70
     0
300
1/64" = 1'-0"
140
0.015625
141
12.0
290
     0
  0
SCALE
  5
5B
102
{ACAD_REACTORS
330
47
102
}
330
47
100
AcDbScale
 70
     0
300
1/32" = 1'-0"
140
0.03125
141
12.0
290
     0
  0
SCALE
  5
5C
102
{ACAD_REACTORS
330
47
102
}
330
47
100
AcDbScale
 70
     0
300
1/16" = 1'-0"
140
0.0625
141
12.0
290
     0
  0
SCALE
  5
5D
102
{ACAD_REACTORS
330
47
102
}
330
47
100
AcDbScale
 70
     0
300
3/32" = 1'-0"
140
0.09375
141
12.0
290
     0
  0
SCALE
  5
5E
102
{ACAD_REACTORS
330
47
102
}
330
47
100
AcDbScale
 70
     0
300
1/8" = 1'-0"
140
0.125
141
12.0
290
     0
  0
SCALE
  5
5F
102
{ACAD_REACTORS
330
47
102
}
330
47
100
AcDbScale
 70
     0
300
3/16" = 1'-0"
140
0.1875
141
12.0
290
     0
  0
SCALE
  5
60
102
{ACAD_REACTORS
330
47
102
}
330
47
100
AcDbScale
 70
     0
300
1/4" = 1'-0"
140
0.25
141
12.0
290
     0
  0
SCALE
  5
61
102
{ACAD_REACTORS
330
47
102
}
330
47
100
AcDbScale
 70
     0
300
3/8" = 1'-0"
140
0.375
141
12.0
290
     0
  0
SCALE
  5
62
102
{ACAD_REACTORS
330
47
102
}
330
47
100
AcDbScale
 70
     0
300
1/2" = 1'-0"
140
0.5
141
12.0
290
     0
  0
SCALE
  5
63
102
{ACAD_REACTORS
330
47
102
}
330
47
100
AcDbScale
 70
     0
300
3/4" = 1'-0"
140
0.75
141
12.0
290
     0
  0
SCALE
  5
64
102
{ACAD_REACTORS
330
47
102
}
330
47
100
AcDbScale
 70
     0
300
1" = 1'-0"
140
1.0
141
12.0
290
     0
  0
SCALE
  5
65
102
{ACAD_REACTORS
330
47
102
}
330
47
100
AcDbScale
 70
     0
300
1-1/2" = 1'-0"
140
1.5
141
12.0
290
     0
  0
SCALE
  5
66
102
{ACAD_REACTORS
330
47
102
}
330
47
100
AcDbScale
 70
     0
300
3" = 1'-0"
140
3.0
141
12.0
290
     0
  0
SCALE
  5
67
102
{ACAD_REACTORS
330
47
102
}
330
47
100
AcDbScale
 70
     0
300
6" = 1'-0"
140
6.0
141
12.0
290
     0
  0
SCALE
  5
68
102
{ACAD_REACTORS
330
47
102
}
330
47
100
AcDbScale
 70
     0
300
1'-0" = 1'-0"
140
12.0
141
12.0
290
     0
  0
ENDSEC
  0
EOF
