  0
SECTION
  2
HEADER
  9
$ACADVER
  1
AC1015
  9
$ACADMAINTVER
 70
     6
  9
$DWGCODEPAGE
  3
ANSI_949
  9
$INSBASE
 10
0.0
 20
0.0
 30
0.0
  9
$EXTMIN
 10
-53.3977743600296
 20
-49.97073246008785
 30
0.0
  9
$EXTMAX
 10
61.35272406263209
 20
28.6134104402427
 30
0.0
  9
$LIMMIN
 10
0.0
 20
0.0
  9
$LIMMAX
 10
420.0
 20
297.0
  9
$ORTHOMODE
 70
     0
  9
$REGENMODE
 70
     1
  9
$FILLMODE
 70
     1
  9
$QTEXTMODE
 70
     0
  9
$MIRRTEXT
 70
     1
  9
$LTSCALE
 40
1.0
  9
$ATTMODE
 70
     1
  9
$TEXTSIZE
 40
3.5
  9
$TRACEWID
 40
1.0
  9
$TEXTSTYLE
  7
Standard
  9
$CLAYER
  8
0
  9
$CELTYPE
  6
ByLayer
  9
$CECOLOR
 62
   256
  9
$CELTSCALE
 40
1.0
  9
$DISPSILH
 70
     0
  9
$DIMSCALE
 40
1.0
  9
$DIMASZ
 40
3.302
  9
$DIMEXO
 40
1.0
  9
$DIMDLI
 40
3.75
  9
$DIMRND
 40
0.0
  9
$DIMDLE
 40
0.0
  9
$DIMEXE
 40
1.0
  9
$DIMTP
 40
0.0
  9
$DIMTM
 40
0.0
  9
$DIMTXT
 40
3.5
  9
$DIMCEN
 40
2.5
  9
$DIMTSZ
 40
0.0
  9
$DIMTOL
 70
     0
  9
$DIMLIM
 70
     0
  9
$DIMTIH
 70
     1
  9
$DIMTOH
 70
     1
  9
$DIMSE1
 70
     0
  9
$DIMSE2
 70
     0
  9
$DIMTAD
 70
     1
  9
$DIMZIN
 70
     0
  9
$DIMBLK
  1

  9
$DIMASO
 70
     1
  9
$DIMSHO
 70
     1
  9
$DIMPOST
  1

  9
$DIMAPOST
  1

  9
$DIMALT
 70
     0
  9
$DIMALTD
 70
     3
  9
$DIMALTF
 40
0.0393700787401575
  9
$DIMLFAC
 40
1.0
  9
$DIMTOFL
 70
     1
  9
$DIMTVP
 40
0.0
  9
$DIMTIX
 70
     0
  9
$DIMSOXD
 70
     0
  9
$DIMSAH
 70
     0
  9
$DIMBLK1
  1

  9
$DIMBLK2
  1

  9
$DIMSTYLE
  2
ISO-25
  9
$DIMCLRD
 70
     0
  9
$DIMCLRE
 70
     0
  9
$DIMCLRT
 70
     0
  9
$DIMTFAC
 40
1.0
  9
$DIMGAP
 40
1.524
  9
$DIMJUST
 70
     0
  9
$DIMSD1
 70
     0
  9
$DIMSD2
 70
     0
  9
$DIMTOLJ
 70
     0
  9
$DIMTZIN
 70
     0
  9
$DIMALTZ
 70
     0
  9
$DIMALTTZ
 70
     0
  9
$DIMUPT
 70
     0
  9
$DIMDEC
 70
     2
  9
$DIMTDEC
 70
     2
  9
$DIMALTU
 70
     2
  9
$DIMALTTD
 70
     3
  9
$DIMTXSTY
  7
Standard
  9
$DIMAUNIT
 70
     0
  9
$DIMADEC
 70
     2
  9
$DIMALTRND
 40
0.0
  9
$DIMAZIN
 70
     0
  9
$DIMDSEP
 70
    44
  9
$DIMATFIT
 70
     3
  9
$DIMFRAC
 70
     0
  9
$DIMLDRBLK
  1

  9
$DIMLUNIT
 70
     2
  9
$DIMLWD
 70
    -2
  9
$DIMLWE
 70
    -2
  9
$DIMTMOVE
 70
     0
  9
$LUNITS
 70
     2
  9
$LUPREC
 70
     2
  9
$SKETCHINC
 40
1.0
  9
$FILLETRAD
 40
10.0
  9
$AUNITS
 70
     0
  9
$AUPREC
 70
     2
  9
$MENU
  1
.
  9
$ELEVATION
 40
0.0
  9
$PELEVATION
 40
0.0
  9
$THICKNESS
 40
0.0
  9
$LIMCHECK
 70
     0
  9
$CHAMFERA
 40
0.0
  9
$CHAMFERB
 40
0.0
  9
$CHAMFERC
 40
0.0
  9
$CHAMFERD
 40
0.0
  9
$SKPOLY
 70
     0
  9
$TDCREATE
 40
2458262.542668218
  9
$TDUCREATE
 40
2458262.167668218
  9
$TDUPDATE
 40
2458266.40721581
  9
$TDUUPDATE
 40
2458266.03221581
  9
$TDINDWG
 40
0.0016400347
  9
$TDUSRTIMER
 40
2458266.03057581
  9
$USRTIMER
 70
     1
  9
$ANGBASE
 50
0.0
  9
$ANGDIR
 70
     0
  9
$PDMODE
 70
     0
  9
$PDSIZE
 40
-1.0
  9
$PLINEWID
 40
0.0
  9
$SPLFRAME
 70
     0
  9
$SPLINETYPE
 70
     6
  9
$SPLINESEGS
 70
     8
  9
$HANDSEED
  5
14D
  9
$SURFTAB1
 70
     6
  9
$SURFTAB2
 70
     6
  9
$SURFTYPE
 70
     6
  9
$SURFU
 70
     6
  9
$SURFV
 70
     6
  9
$UCSBASE
  2

  9
$UCSNAME
  2

  9
$UCSORG
 10
0.0
 20
0.0
 30
0.0
  9
$UCSXDIR
 10
1.0
 20
0.0
 30
0.0
  9
$UCSYDIR
 10
0.0
 20
1.0
 30
0.0
  9
$UCSORTHOREF
  2

  9
$UCSORTHOVIEW
 70
     0
  9
$UCSORGTOP
 10
0.0
 20
0.0
 30
0.0
  9
$UCSORGBOTTOM
 10
0.0
 20
0.0
 30
0.0
  9
$UCSORGLEFT
 10
0.0
 20
0.0
 30
0.0
  9
$UCSORGRIGHT
 10
0.0
 20
0.0
 30
0.0
  9
$UCSORGFRONT
 10
0.0
 20
0.0
 30
0.0
  9
$UCSORGBACK
 10
0.0
 20
0.0
 30
0.0
  9
$PUCSBASE
  2

  9
$PUCSNAME
  2

  9
$PUCSORG
 10
0.0
 20
0.0
 30
0.0
  9
$PUCSXDIR
 10
1.0
 20
0.0
 30
0.0
  9
$PUCSYDIR
 10
0.0
 20
1.0
 30
0.0
  9
$PUCSORTHOREF
  2

  9
$PUCSORTHOVIEW
 70
     0
  9
$PUCSORGTOP
 10
0.0
 20
0.0
 30
0.0
  9
$PUCSORGBOTTOM
 10
0.0
 20
0.0
 30
0.0
  9
$PUCSORGLEFT
 10
0.0
 20
0.0
 30
0.0
  9
$PUCSORGRIGHT
 10
0.0
 20
0.0
 30
0.0
  9
$PUCSORGFRONT
 10
0.0
 20
0.0
 30
0.0
  9
$PUCSORGBACK
 10
0.0
 20
0.0
 30
0.0
  9
$USERI1
 70
     0
  9
$USERI2
 70
     0
  9
$USERI3
 70
     0
  9
$USERI4
 70
     0
  9
$USERI5
 70
     0
  9
$USERR1
 40
0.0
  9
$USERR2
 40
0.0
  9
$USERR3
 40
0.0
  9
$USERR4
 40
0.0
  9
$USERR5
 40
0.0
  9
$WORLDVIEW
 70
     1
  9
$SHADEDGE
 70
     3
  9
$SHADEDIF
 70
    70
  9
$TILEMODE
 70
     1
  9
$MAXACTVP
 70
    64
  9
$PINSBASE
 10
0.0
 20
0.0
 30
0.0
  9
$PLIMCHECK
 70
     0
  9
$PEXTMIN
 10
1.000000000000000E+20
 20
1.000000000000000E+20
 30
1.000000000000000E+20
  9
$PEXTMAX
 10
-1.000000000000000E+20
 20
-1.000000000000000E+20
 30
-1.000000000000000E+20
  9
$PLIMMIN
 10
0.0
 20
0.0
  9
$PLIMMAX
 10
0.0
 20
0.0
  9
$UNITMODE
 70
     0
  9
$VISRETAIN
 70
     1
  9
$PLINEGEN
 70
     0
  9
$PSLTSCALE
 70
     1
  9
$TREEDEPTH
 70
  3020
  9
$CMLSTYLE
  2
Standard
  9
$CMLJUST
 70
     0
  9
$CMLSCALE
 40
20.0
  9
$PROXYGRAPHICS
 70
     1
  9
$MEASUREMENT
 70
     1
  9
$CELWEIGHT
370
    -1
  9
$ENDCAPS
280
     0
  9
$JOINSTYLE
280
     0
  9
$LWDISPLAY
290
     1
  9
$INSUNITS
 70
     4
  9
$HYPERLINKBASE
  1

  9
$STYLESHEET
  1

  9
$XEDIT
290
     1
  9
$CEPSNTYPE
380
     0
  9
$PSTYLEMODE
290
     1
  9
$FINGERPRINTGUID
  2
{0E67A628-05A3-4645-A580-25F29B555823}
  9
$VERSIONGUID
  2
{FAEB1C32-E019-11D5-929B-00C0DF256EC4}
  9
$EXTNAMES
290
     1
  9
$PSVPSCALE
 40
0.0
  9
$OLESTARTUP
290
     0
  0
ENDSEC
  0
SECTION
  2
CLASSES
  0
CLASS
  1
ACDBDICTIONARYWDFLT
  2
AcDbDictionaryWithDefault
  3
ObjectDBX Classes
 90
        0
280
     0
281
     0
  0
CLASS
  1
VISUALSTYLE
  2
AcDbVisualStyle
  3
ObjectDBX Classes
 90
     4095
280
     0
281
     0
  0
CLASS
  1
MATERIAL
  2
AcDbMaterial
  3
ObjectDBX Classes
 90
     1153
280
     0
281
     0
  0
CLASS
  1
SCALE
  2
AcDbScale
  3
ObjectDBX Classes
 90
     1153
280
     0
281
     0
  0
CLASS
  1
SUN
  2
AcDbSun
  3
SCENEOE
 90
     1153
280
     0
281
     0
  0
CLASS
  1
ACDBPLACEHOLDER
  2
AcDbPlaceHolder
  3
ObjectDBX Classes
 90
        0
280
     0
281
     0
  0
CLASS
  1
LAYOUT
  2
AcDbLayout
  3
ObjectDBX Classes
 90
        0
280
     0
281
     0
  0
CLASS
  1
TABLESTYLE
  2
AcDbTableStyle
  3
ObjectDBX Classes
 90
     4095
280
     0
281
     0
  0
CLASS
  1
MLEADERSTYLE
  2
AcDbMLeaderStyle
  3
ACDB_MLEADERSTYLE_CLASS
 90
     4095
280
     0
281
     0
  0
CLASS
  1
RASTERVARIABLES
  2
AcDbRasterVariables
  3
ISM
 90
        0
280
     0
281
     0
  0
ENDSEC
  0
SECTION
  2
TABLES
  0
TABLE
  2
VPORT
  5
8
330
0
100
AcDbSymbolTable
 70
     1
  0
VPORT
  5
29
330
8
100
AcDbSymbolTableRecord
100
AcDbViewportTableRecord
  2
*Active
 70
     0
 10
0.0
 20
0.0
 11
1.0
 21
1.0
 12
3.977474851301245
 22
-10.67866100992258
 13
0.0
 23
0.0
 14
10.0
 24
10.0
 15
10.0
 25
10.0
 16
0.0
 26
0.0
 36
1.0
 17
0.0
 27
0.0
 37
0.0
 40
101.5619097474473
 41
1.152454780361757
 42
50.0
 43
0.0
 44
0.0
 50
0.0
 51
0.0
 71
    16
 72
  2000
 73
     1
 74
     3
 75
     0
 76
     0
 77
     0
 78
     0
281
     0
 65
     1
110
0.0
120
0.0
130
0.0
111
1.0
121
0.0
131
0.0
112
0.0
122
1.0
132
0.0
 79
     0
146
0.0
  0
ENDTAB
  0
TABLE
  2
LTYPE
  5
5
330
0
100
AcDbSymbolTable
 70
     6
  0
LTYPE
  5
14
330
5
100
AcDbSymbolTableRecord
100
AcDbLinetypeTableRecord
  2
ByBlock
 70
     0
  3

 72
    65
 73
     0
 40
0.0
  0
LTYPE
  5
15
330
5
100
AcDbSymbolTableRecord
100
AcDbLinetypeTableRecord
  2
ByLayer
 70
     0
  3

 72
    65
 73
     0
 40
0.0
  0
LTYPE
  5
16
330
5
100
AcDbSymbolTableRecord
100
AcDbLinetypeTableRecord
  2
Continuous
 70
     0
  3
Solid line
 72
    65
 73
     0
 40
0.0
  0
LTYPE
  5
6A
330
5
100
AcDbSymbolTableRecord
100
AcDbLinetypeTableRecord
  2
HIDDEN
 70
     0
  3
Hidden __ __ __ __ __ __ __ __ __ __ __ __ __ __
 72
    65
 73
     2
 40
1.905
 49
1.27
 74
     0
 49
-0.635
 74
     0
  0
LTYPE
  5
6B
330
5
100
AcDbSymbolTableRecord
100
AcDbLinetypeTableRecord
  2
PHANTOM
 70
     0
  3
Phantom ______  __  __  ______  __  __  ______
 72
    65
 73
     6
 40
12.7
 49
6.35
 74
     0
 49
-1.27
 74
     0
 49
1.27
 74
     0
 49
-1.27
 74
     0
 49
1.27
 74
     0
 49
-1.27
 74
     0
  0
LTYPE
  5
6C
330
5
100
AcDbSymbolTableRecord
100
AcDbLinetypeTableRecord
  2
CENTER
 70
     0
  3
Center ____ _ ____ _ ____ _ ____ _ ____ _ ____
 72
    65
 73
     4
 40
10.16
 49
6.35
 74
     0
 49
-1.27
 74
     0
 49
1.27
 74
     0
 49
-1.27
 74
     0
  0
LTYPE
  5
6D
330
5
100
AcDbSymbolTableRecord
100
AcDbLinetypeTableRecord
  2
CENTERX2
 70
     0
  3
Center (2x) ________  __  ________  __  _____
 72
    65
 73
     4
 40
20.32
 49
12.7
 74
     0
 49
-2.54
 74
     0
 49
2.54
 74
     0
 49
-2.54
 74
     0
  0
LTYPE
  5
6E
330
5
100
AcDbSymbolTableRecord
100
AcDbLinetypeTableRecord
  2
DOT2
 70
     0
  3
Dot (.5x) ........................................
 72
    65
 73
     2
 40
0.635
 49
0.0
 74
     0
 49
-0.635
 74
     0
  0
ENDTAB
  0
TABLE
  2
LAYER
  5
2
330
0
100
AcDbSymbolTable
 70
    17
  0
LAYER
  5
10
330
2
100
AcDbSymbolTableRecord
100
AcDbLayerTableRecord
  2
0
 70
     0
 62
     7
  6
Continuous
370
    -3
390
F
  0
LAYER
  5
6F
330
2
100
AcDbSymbolTableRecord
100
AcDbLayerTableRecord
  2
FORMAT
 70
     0
 62
     2
  6
Continuous
370
    -3
390
F
  0
LAYER
  5
70
330
2
100
AcDbSymbolTableRecord
100
AcDbLayerTableRecord
  2
외형선
 70
     0
 62
   100
  6
Continuous
370
    30
390
F
  0
LAYER
  5
71
330
2
100
AcDbSymbolTableRecord
100
AcDbLayerTableRecord
  2
숨은선
 70
     0
 62
     2
  6
HIDDEN
370
    15
390
F
  0
LAYER
  5
72
330
2
100
AcDbSymbolTableRecord
100
AcDbLayerTableRecord
  2
중심선
 70
     0
 62
     1
  6
CENTERX2
370
    -3
390
F
  0
LAYER
  5
73
330
2
100
AcDbSymbolTableRecord
100
AcDbLayerTableRecord
  2
파단선
 70
     0
 62
     4
  6
Continuous
370
    -3
390
F
  0
LAYER
  5
74
330
2
100
AcDbSymbolTableRecord
100
AcDbLayerTableRecord
  2
해칭선
 70
     0
 62
     4
  6
Continuous
370
    -3
390
F
  0
LAYER
  5
75
330
2
100
AcDbSymbolTableRecord
100
AcDbLayerTableRecord
  2
가는실선
 70
     0
 62
     4
  6
Continuous
370
    -3
390
F
  0
LAYER
  5
76
330
2
100
AcDbSymbolTableRecord
100
AcDbLayerTableRecord
  2
치수_보조선
 70
     0
 62
     4
  6
Continuous
370
    -3
390
F
  0
LAYER
  5
77
330
2
100
AcDbSymbolTableRecord
100
AcDbLayerTableRecord
  2
치수문자_일반주서
 70
     0
 62
     7
  6
Continuous
370
    15
390
F
  0
LAYER
  5
78
330
2
100
AcDbSymbolTableRecord
100
AcDbLayerTableRecord
  2
개별주서
 70
     0
 62
   100
  6
Continuous
370
    30
390
F
  0
LAYER
  5
79
330
2
100
AcDbSymbolTableRecord
100
AcDbLayerTableRecord
  2
중간선
 70
     0
 62
     2
  6
Continuous
370
    15
390
F
  0
LAYER
  5
7A
330
2
100
AcDbSymbolTableRecord
100
AcDbLayerTableRecord
  2
윤곽선
 70
     0
 62
     3
  6
Continuous
370
    40
390
F
  0
LAYER
  5
7B
330
2
100
AcDbSymbolTableRecord
100
AcDbLayerTableRecord
  2
중심마크
 70
     0
 62
   100
  6
Continuous
370
    30
390
F
  0
LAYER
  5
7C
330
2
100
AcDbSymbolTableRecord
100
AcDbLayerTableRecord
  2
가상선
 70
     0
 62
     4
  6
PHANTOM
370
    -3
390
F
  0
LAYER
  5
7D
330
2
100
AcDbSymbolTableRecord
100
AcDbLayerTableRecord
  2
특수지정선
 70
     0
 62
     5
  6
CENTERX2
370
    60
390
F
  0
LAYER
  5
13E
330
2
100
AcDbSymbolTableRecord
100
AcDbLayerTableRecord
  2
Defpoints
 70
     0
 62
     7
  6
Continuous
290
     0
370
    -3
390
F
  0
ENDTAB
  0
TABLE
  2
STYLE
  5
3
330
0
100
AcDbSymbolTable
 70
     2
  0
STYLE
  5
11
330
3
100
AcDbSymbolTableRecord
100
AcDbTextStyleTableRecord
  2
Standard
 70
     0
 40
0.0
 41
1.0
 50
0.0
 71
     0
 42
3.5
  3
txt
  4

  0
STYLE
  5
93
330
3
100
AcDbSymbolTableRecord
100
AcDbTextStyleTableRecord
  2
SLDTEXTSTYLE0
 70
     0
 40
0.0
 41
0.75
 50
0.0
 71
     0
 42
3.5
  3
TXT
  4

  0
ENDTAB
  0
TABLE
  2
VIEW
  5
6
330
0
100
AcDbSymbolTable
 70
     0
  0
ENDTAB
  0
TABLE
  2
UCS
  5
7
330
0
100
AcDbSymbolTable
 70
     0
  0
ENDTAB
  0
TABLE
  2
APPID
  5
9
330
0
100
AcDbSymbolTable
 70
     1
  0
APPID
  5
12
330
9
100
AcDbSymbolTableRecord
100
AcDbRegAppTableRecord
  2
ACAD
 70
     0
  0
ENDTAB
  0
TABLE
  2
DIMSTYLE
  5
A
330
0
100
AcDbSymbolTable
 70
     3
100
AcDbDimStyleTable
  0
DIMSTYLE
105
27
330
A
100
AcDbSymbolTableRecord
100
AcDbDimStyleTableRecord
  2
ISO-25
 70
     0
 41
2.5
 42
0.625
 43
3.75
 44
1.25
 73
     0
 74
     0
 77
     1
 78
     8
140
2.5
141
2.5
143
0.03937007874016
147
0.625
171
     3
172
     1
178
     0
271
     2
272
     2
274
     3
278
    44
283
     0
284
     8
340
11
  0
DIMSTYLE
105
E4
102
{ACAD_REACTORS
330
E3
330
106
102
}
330
A
100
AcDbSymbolTableRecord
100
AcDbDimStyleTableRecord
  2
SLDDIMSTYLE0
 70
     0
 41
3.302
 44
0.0
 45
0.000000001
 73
     0
 74
     0
 77
     1
 78
    12
 79
     3
140
3.5
147
0.875
172
     1
173
     1
178
     0
271
     2
272
     2
276
     2
284
    12
289
     0
340
93
  0
DIMSTYLE
105
F2
102
{ACAD_REACTORS
330
F1
330
FC
102
}
330
A
100
AcDbSymbolTableRecord
100
AcDbDimStyleTableRecord
  2
SLDDIMSTYLE1
 70
     0
 41
3.302
 44
0.0
 45
0.000000001
 73
     0
 74
     0
 77
     1
 78
    12
 79
     3
140
3.5
147
0.875
173
     1
178
     0
271
     2
272
     2
276
     2
284
    12
340
93
  0
ENDTAB
  0
TABLE
  2
BLOCK_RECORD
  5
1
330
0
100
AcDbSymbolTable
 70
     7
  0
BLOCK_RECORD
  5
1F
330
1
100
AcDbSymbolTableRecord
100
AcDbBlockTableRecord
  2
*Model_Space
340
22
  0
BLOCK_RECORD
  5
1B
330
1
100
AcDbSymbolTableRecord
100
AcDbBlockTableRecord
  2
*Paper_Space
340
1E
  0
BLOCK_RECORD
  5
23
330
1
100
AcDbSymbolTableRecord
100
AcDbBlockTableRecord
  2
*Paper_Space0
340
26
  0
BLOCK_RECORD
  5
7E
330
1
100
AcDbSymbolTableRecord
100
AcDbBlockTableRecord
  2
블럭10
340
0
102
{BLKREFS
331
DC
102
}
  0
BLOCK_RECORD
  5
E5
330
1
100
AcDbSymbolTableRecord
100
AcDbBlockTableRecord
  2
_D
340
0
  0
BLOCK_RECORD
  5
F3
330
1
100
AcDbSymbolTableRecord
100
AcDbBlockTableRecord
  2
_D_1
340
0
  0
BLOCK_RECORD
  5
FD
330
1
100
AcDbSymbolTableRecord
100
AcDbBlockTableRecord
  2
_D_2
340
0
  0
BLOCK_RECORD
  5
107
330
1
100
AcDbSymbolTableRecord
100
AcDbBlockTableRecord
  2
_D_3
340
0
  0
BLOCK_RECORD
  5
113
330
1
100
AcDbSymbolTableRecord
100
AcDbBlockTableRecord
  2
SW_DOWELSYMBOL_0
340
0
102
{BLKREFS
331
119
102
}
  0
ENDTAB
  0
ENDSEC
  0
SECTION
  2
BLOCKS
  0
BLOCK
  5
20
330
1F
100
AcDbEntity
  8
0
100
AcDbBlockBegin
  2
*Model_Space
 70
     0
 10
0.0
 20
0.0
 30
0.0
  3
*Model_Space
  1

  0
ENDBLK
  5
21
330
1F
100
AcDbEntity
  8
0
100
AcDbBlockEnd
  0
BLOCK
  5
1C
330
1B
100
AcDbEntity
 67
     1
  8
0
100
AcDbBlockBegin
  2
*Paper_Space
 70
     0
 10
0.0
 20
0.0
 30
0.0
  3
*Paper_Space
  1

  0
ENDBLK
  5
1D
330
1B
100
AcDbEntity
 67
     1
  8
0
100
AcDbBlockEnd
  0
BLOCK
  5
24
330
23
100
AcDbEntity
  8
0
100
AcDbBlockBegin
  2
*Paper_Space0
 70
     0
 10
0.0
 20
0.0
 30
0.0
  3
*Paper_Space0
  1

  0
ENDBLK
  5
25
330
23
100
AcDbEntity
  8
0
100
AcDbBlockEnd
  0
BLOCK
  5
7F
330
7E
100
AcDbEntity
  8
0
100
AcDbBlockBegin
  2
블럭10
 70
     2
 10
0.0
 20
0.0
 30
0.0
  3
블럭10
  1

  0
ELLIPSE
  5
81
330
7E
100
AcDbEntity
  8
중심선
100
AcDbEllipse
 10
20.54032771741204
 20
12.0471743016438
 30
0.0
 11
6.600054785286829
 21
-1.261213355974178E-13
 31
0.0
210
0.0
220
0.0
230
1.0
 40
0.636358354079598
 41
0.9219305317359503
 42
6.513795318482858
  0
ELLIPSE
  5
82
330
7E
100
AcDbEntity
  8
중심선
100
AcDbEllipse
 10
20.54032771746488
 20
12.04717430159265
 30
0.0
 11
3.960054785062283
 21
1.540847449632565E-10
 31
0.0
210
0.0
220
0.0
230
1.0
 40
0.3939339440162632
 41
1.131841032648279
 42
5.62031148352944
  0
LINE
  5
83
330
7E
100
AcDbEntity
  8
중심선
100
AcDbLine
 10
2.268634060543552
 20
16.24717430164393
 30
0.0
 11
5.714909304380834
 21
16.24717430164393
 31
0.0
  0
LINE
  5
84
330
7E
100
AcDbEntity
  8
중심선
100
AcDbLine
 10
5.245725140726316
 20
7.84717430164391
 30
0.0
 11
8.692000384563599
 21
7.84717430164391
 31
0.0
  0
LINE
  5
85
330
7E
100
AcDbEntity
  8
중심선
100
AcDbLine
 10
15.74043728645272
 20
16.24717430164393
 30
0.0
 11
8.692000384563599
 21
7.84717430164391
 31
0.0
  0
LINE
  5
86
330
7E
100
AcDbEntity
  8
중심선
100
AcDbLine
 10
0.1404042013395286
 20
13.71084872107135
 30
0.0
 11
3.58671253028996
 21
13.71088815037384
 31
0.0
  0
LINE
  5
87
330
7E
100
AcDbEntity
  8
중심선
100
AcDbLine
 10
2.750260043222114
 20
10.84717430164391
 30
0.0
 11
6.196535287059397
 21
10.84717430164391
 31
0.0
  0
LINE
  5
88
330
7E
100
AcDbEntity
  8
중심선
100
AcDbLine
 10
12.29416204261559
 20
16.24717430164393
 30
0.0
 11
5.245725140726316
 21
7.84717430164391
 31
0.0
  0
LINE
  5
89
330
7E
100
AcDbEntity
  8
중심선
100
AcDbLine
 10
10.72767329541681
 20
16.24717430164393
 30
0.0
 11
6.196535287059397
 21
10.84717430164391
 31
0.0
  0
LINE
  5
8A
330
7E
100
AcDbEntity
  8
중심선
100
AcDbLine
 10
7.28139805157953
 20
16.24717430164393
 30
0.0
 11
2.750260043222114
 21
10.84717430164391
 31
0.0
  0
LINE
  5
8B
330
7E
100
AcDbEntity
  8
중심선
100
AcDbLine
 10
5.714909304380834
 20
16.24717430164393
 30
0.0
 11
3.58671253028996
 21
13.71088815037384
 31
0.0
  0
LINE
  5
8C
330
7E
100
AcDbEntity
  8
중심선
100
AcDbLine
 10
2.268634060543552
 20
16.24717430164393
 30
0.0
 11
0.1404042013395286
 21
13.71084872107135
 31
0.0
  0
LINE
  5
8D
330
7E
100
AcDbEntity
  8
중심선
100
AcDbLine
 10
7.28139805157953
 20
16.24717430164393
 30
0.0
 11
10.72767329541681
 21
16.24717430164393
 31
0.0
  0
LINE
  5
8E
330
7E
100
AcDbEntity
  8
중심선
100
AcDbLine
 10
12.29416204261559
 20
16.24717430164393
 30
0.0
 11
15.74043728645272
 21
16.24717430164393
 31
0.0
  0
LINE
  5
8F
330
7E
100
AcDbEntity
  8
중심선
100
AcDbLine
 10
19.22036997980202
 20
11.08717430171403
 30
0.0
 11
23.66174974927406
 21
11.08717430171406
 31
0.0
  0
LINE
  5
90
330
7E
100
AcDbEntity
  8
중심선
100
AcDbLine
 10
19.22039502424796
 20
13.00717430171391
 30
0.0
 11
19.22036997980202
 21
11.08717430171403
 31
0.0
  0
LINE
  5
91
330
7E
100
AcDbEntity
  8
중심선
100
AcDbLine
 10
19.22039502424796
 20
13.00717430171391
 30
0.0
 11
26.96566020931264
 21
13.00717430171391
 31
0.0
  0
LINE
  5
92
330
7E
100
AcDbEntity
  8
중심선
100
AcDbLine
 10
22.22332737316547
 20
13.45928029700563
 30
0.0
 11
24.52862924686651
 21
15.39360700705356
 31
0.0
  0
ATTDEF
  5
94
330
7E
100
AcDbEntity
  8
FORMAT
 62
     2
100
AcDbText
 10
-16.11926103943555
 20
2.075366912832191
 30
0.0
 40
4.233333333333333
  1
SEME7006040E [ 2 FLUTE ]
 41
0.75
  7
SLDTEXTSTYLE0
 11
-16.11926103943555
 21
-0.0412997538344756
 31
0.0
100
AcDbAttributeDefinition
  3

  2
AUTOATTR0
 70
     0
 74
     1
  0
ENDBLK
  5
80
330
7E
100
AcDbEntity
  8
0
100
AcDbBlockEnd
  0
BLOCK
  5
E6
330
E5
100
AcDbEntity
  8
0
100
AcDbBlockBegin
  2
_D
 70
     0
 10
0.0
 20
0.0
 30
0.0
  3
_D
  1

  0
LINE
  5
E8
330
E5
100
AcDbEntity
  8
치수문자_일반주서
 62
     0
370
    -2
100
AcDbLine
 10
50.06250000000001
 20
-2.999999999999845
 30
0.0
 11
60.80239072929874
 21
-2.999999999999806
 31
0.0
  0
LINE
  5
E9
330
E5
100
AcDbEntity
  8
치수문자_일반주서
 62
     0
370
    -2
100
AcDbLine
 10
50.0625
 20
3.00000000000015
 30
0.0
 11
60.80239072929872
 21
3.000000000000188
 31
0.0
  0
LINE
  5
EA
330
E5
100
AcDbEntity
  8
치수문자_일반주서
 62
     0
370
    -2
100
AcDbLine
 10
60.80239072929874
 20
-2.999999999999806
 30
0.0
 11
60.80239072929867
 21
15.72900000000019
 31
0.0
  0
LINE
  5
EB
330
E5
100
AcDbEntity
  8
치수문자_일반주서
 62
     0
370
    -2
100
AcDbLine
 10
60.80239072929874
 20
-2.999999999999806
 30
0.0
 11
60.80239072929872
 21
3.000000000000188
 31
0.0
  0
LINE
  5
EC
330
E5
100
AcDbEntity
  8
치수문자_일반주서
 62
     0
370
    -2
100
AcDbLine
 10
60.80239072929876
 20
-6.301999999999806
 30
0.0
 11
60.80239072929877
 21
-9.603999999999806
 31
0.0
  0
LINE
  5
ED
330
E5
100
AcDbEntity
  8
치수문자_일반주서
 62
     0
370
    -2
100
AcDbLine
 10
60.80239072929871
 20
6.302000000000188
 30
0.0
 11
60.80239072929869
 21
9.604000000000187
 31
0.0
  0
SOLID
  5
EE
330
E5
100
AcDbEntity
  8
치수문자_일반주서
 62
     0
100
AcDbTrace
 10
61.35272406263209
 20
-6.301999999999804
 30
0.0
 11
60.25205739596542
 21
-6.301999999999808
 31
0.0
 12
60.80239072929874
 22
-2.999999999999806
 32
0.0
 13
60.80239072929874
 23
-2.999999999999806
 33
0.0
  0
SOLID
  5
EF
330
E5
100
AcDbEntity
  8
치수문자_일반주서
 62
     0
100
AcDbTrace
 10
60.25205739596537
 20
6.302000000000186
 30
0.0
 11
61.35272406263204
 21
6.30200000000019
 31
0.0
 12
60.80239072929872
 22
3.000000000000188
 32
0.0
 13
60.80239072929872
 23
3.000000000000188
 33
0.0
  0
MTEXT
  5
F0
330
E5
100
AcDbEntity
  8
치수문자_일반주서
 62
     0
100
AcDbMText
 10
56.42739072929869
 20
12.66650000000018
 30
0.0
 40
3.5
 41
0.0
 71
     2
 72
     1
  1
\A1;%%c6
  7
SLDTEXTSTYLE0
 11
-3.552713678800503E-15
 21
1.0
 31
0.0
 73
     1
 44
1.0
  0
POINT
  5
145
330
E5
100
AcDbEntity
  8
Defpoints
 62
     0
100
AcDbPoint
 10
50.00000000000001
 20
-2.999999999999845
 30
0.0
  0
POINT
  5
146
330
E5
100
AcDbEntity
  8
Defpoints
 62
     0
100
AcDbPoint
 10
50.0
 20
3.00000000000015
 30
0.0
  0
POINT
  5
147
330
E5
100
AcDbEntity
  8
Defpoints
 62
     0
100
AcDbPoint
 10
60.80239072929872
 20
3.00000000000019
 30
0.0
  0
ENDBLK
  5
E7
330
E5
100
AcDbEntity
  8
0
100
AcDbBlockEnd
  0
BLOCK
  5
F4
330
F3
100
AcDbEntity
  8
0
100
AcDbBlockBegin
  2
_D_1
 70
     0
 10
0.0
 20
0.0
 30
0.0
  3
_D_1
  1

  0
LINE
  5
F6
330
F3
100
AcDbEntity
  8
치수문자_일반주서
 62
     0
370
    -2
100
AcDbLine
 10
-40.0
 20
2.512499999999998
 30
0.0
 11
-40.0
 21
24.2384104402427
 31
0.0
  0
LINE
  5
F7
330
F3
100
AcDbEntity
  8
치수문자_일반주서
 62
     0
370
    -2
100
AcDbLine
 10
50.0
 20
3.06250000000015
 30
0.0
 11
50.0
 21
24.2384104402427
 31
0.0
  0
LINE
  5
F8
330
F3
100
AcDbEntity
  8
치수문자_일반주서
 62
     0
370
    -2
100
AcDbLine
 10
-36.698
 20
24.2384104402427
 30
0.0
 11
46.698
 21
24.2384104402427
 31
0.0
  0
SOLID
  5
F9
330
F3
100
AcDbEntity
  8
치수문자_일반주서
 62
     0
100
AcDbTrace
 10
-36.698
 20
24.78874377357603
 30
0.0
 11
-36.698
 21
23.68807710690936
 31
0.0
 12
-40.0
 22
24.2384104402427
 32
0.0
 13
-40.0
 23
24.2384104402427
 33
0.0
  0
SOLID
  5
FA
330
F3
100
AcDbEntity
  8
치수문자_일반주서
 62
     0
100
AcDbTrace
 10
46.698
 20
23.68807710690936
 30
0.0
 11
46.698
 21
24.78874377357603
 31
0.0
 12
50.0
 22
24.2384104402427
 32
0.0
 13
50.0
 23
24.2384104402427
 33
0.0
  0
MTEXT
  5
FB
330
F3
100
AcDbEntity
  8
치수문자_일반주서
 62
     0
100
AcDbMText
 10
4.999999999999998
 20
28.6134104402427
 30
0.0
 40
3.5
 41
0.0
 71
     2
 72
     1
  1
\A1;90
  7
SLDTEXTSTYLE0
 73
     1
 44
1.0
  0
POINT
  5
13F
330
F3
100
AcDbEntity
  8
Defpoints
 62
     0
100
AcDbPoint
 10
-40.0
 20
2.449999999999998
 30
0.0
  0
POINT
  5
140
330
F3
100
AcDbEntity
  8
Defpoints
 62
     0
100
AcDbPoint
 10
50.0
 20
3.00000000000015
 30
0.0
  0
POINT
  5
141
330
F3
100
AcDbEntity
  8
Defpoints
 62
     0
100
AcDbPoint
 10
50.0
 20
24.2384104402427
 30
0.0
  0
ENDBLK
  5
F5
330
F3
100
AcDbEntity
  8
0
100
AcDbBlockEnd
  0
BLOCK
  5
FE
330
FD
100
AcDbEntity
  8
0
100
AcDbBlockBegin
  2
_D_2
 70
     0
 10
0.0
 20
0.0
 30
0.0
  3
_D_2
  1

  0
LINE
  5
100
330
FD
100
AcDbEntity
  8
치수문자_일반주서
 62
     0
370
    -2
100
AcDbLine
 10
10.0
 20
2.433389863347412
 30
0.0
 11
10.0
 21
15.71788766951493
 31
0.0
  0
LINE
  5
101
330
FD
100
AcDbEntity
  8
치수문자_일반주서
 62
     0
370
    -2
100
AcDbLine
 10
50.0
 20
3.06250000000015
 30
0.0
 11
50.0
 21
15.71788766951493
 31
0.0
  0
LINE
  5
102
330
FD
100
AcDbEntity
  8
치수문자_일반주서
 62
     0
370
    -2
100
AcDbLine
 10
13.302
 20
15.71788766951493
 30
0.0
 11
46.698
 21
15.71788766951493
 31
0.0
  0
SOLID
  5
103
330
FD
100
AcDbEntity
  8
치수문자_일반주서
 62
     0
100
AcDbTrace
 10
13.302
 20
16.26822100284827
 30
0.0
 11
13.302
 21
15.1675543361816
 31
0.0
 12
10.0
 22
15.71788766951493
 32
0.0
 13
10.0
 23
15.71788766951493
 33
0.0
  0
SOLID
  5
104
330
FD
100
AcDbEntity
  8
치수문자_일반주서
 62
     0
100
AcDbTrace
 10
46.698
 20
15.1675543361816
 30
0.0
 11
46.698
 21
16.26822100284827
 31
0.0
 12
50.0
 22
15.71788766951493
 32
0.0
 13
50.0
 23
15.71788766951493
 33
0.0
  0
MTEXT
  5
105
330
FD
100
AcDbEntity
  8
치수문자_일반주서
 62
     0
100
AcDbMText
 10
30.00000000000001
 20
20.09288766951493
 30
0.0
 40
3.5
 41
0.0
 71
     2
 72
     1
  1
\A1;40
  7
SLDTEXTSTYLE0
 73
     1
 44
1.0
  0
POINT
  5
142
330
FD
100
AcDbEntity
  8
Defpoints
 62
     0
100
AcDbPoint
 10
10.0
 20
2.370889863347412
 30
0.0
  0
POINT
  5
143
330
FD
100
AcDbEntity
  8
Defpoints
 62
     0
100
AcDbPoint
 10
50.0
 20
3.00000000000015
 30
0.0
  0
POINT
  5
144
330
FD
100
AcDbEntity
  8
Defpoints
 62
     0
100
AcDbPoint
 10
50.0
 20
15.71788766951493
 30
0.0
  0
ENDBLK
  5
FF
330
FD
100
AcDbEntity
  8
0
100
AcDbBlockEnd
  0
BLOCK
  5
108
330
107
100
AcDbEntity
  8
0
100
AcDbBlockBegin
  2
_D_3
 70
     0
 10
0.0
 20
0.0
 30
0.0
  3
_D_3
  1

  0
LINE
  5
10A
330
107
100
AcDbEntity
  8
치수문자_일반주서
 62
     0
370
    -2
100
AcDbLine
 10
-39.5125
 20
2.999999999999999
 30
0.0
 11
-49.02277436002956
 21
2.999999999999963
 31
0.0
  0
LINE
  5
10B
330
107
100
AcDbEntity
  8
치수문자_일반주서
 62
     0
370
    -2
100
AcDbLine
 10
-39.5125
 20
-2.999999999999996
 30
0.0
 11
-49.02277436002954
 21
-3.000000000000032
 31
0.0
  0
LINE
  5
10C
330
107
100
AcDbEntity
  8
치수문자_일반주서
 62
     0
370
    -2
100
AcDbLine
 10
-49.02277436002956
 20
2.999999999999963
 30
0.0
 11
-49.02277436002961
 21
15.72899999999996
 31
0.0
  0
LINE
  5
10D
330
107
100
AcDbEntity
  8
치수문자_일반주서
 62
     0
370
    -2
100
AcDbLine
 10
-49.02277436002956
 20
2.999999999999963
 30
0.0
 11
-49.02277436002954
 21
-3.000000000000032
 31
0.0
  0
LINE
  5
10E
330
107
100
AcDbEntity
  8
치수문자_일반주서
 62
     0
370
    -2
100
AcDbLine
 10
-49.02277436002957
 20
6.301999999999962
 30
0.0
 11
-49.02277436002959
 21
9.603999999999962
 31
0.0
  0
LINE
  5
10F
330
107
100
AcDbEntity
  8
치수문자_일반주서
 62
     0
370
    -2
100
AcDbLine
 10
-49.02277436002952
 20
-6.302000000000032
 30
0.0
 11
-49.02277436002951
 21
-9.604000000000031
 31
0.0
  0
SOLID
  5
110
330
107
100
AcDbEntity
  8
치수문자_일반주서
 62
     0
100
AcDbTrace
 10
-49.57310769336291
 20
6.301999999999961
 30
0.0
 11
-48.47244102669624
 21
6.301999999999964
 31
0.0
 12
-49.02277436002956
 22
2.999999999999963
 32
0.0
 13
-49.02277436002956
 23
2.999999999999963
 33
0.0
  0
SOLID
  5
111
330
107
100
AcDbEntity
  8
치수문자_일반주서
 62
     0
100
AcDbTrace
 10
-48.47244102669619
 20
-6.30200000000003
 30
0.0
 11
-49.57310769336286
 21
-6.302000000000033
 31
0.0
 12
-49.02277436002954
 22
-3.000000000000032
 32
0.0
 13
-49.02277436002954
 23
-3.000000000000032
 33
0.0
  0
MTEXT
  5
112
330
107
100
AcDbEntity
  8
치수문자_일반주서
 62
     0
100
AcDbMText
 10
-53.39777436002959
 20
12.66649999999995
 30
0.0
 40
3.5
 41
0.0
 71
     2
 72
     1
  1
\A1;%%c6
  7
SLDTEXTSTYLE0
 11
-3.552713678800503E-15
 21
1.0
 31
0.0
 73
     1
 44
1.0
  0
POINT
  5
148
330
107
100
AcDbEntity
  8
Defpoints
 62
     0
100
AcDbPoint
 10
-39.45
 20
2.999999999999999
 30
0.0
  0
POINT
  5
149
330
107
100
AcDbEntity
  8
Defpoints
 62
     0
100
AcDbPoint
 10
-39.45
 20
-2.999999999999996
 30
0.0
  0
POINT
  5
14A
330
107
100
AcDbEntity
  8
Defpoints
 62
     0
100
AcDbPoint
 10
-49.02277436002953
 20
-3.000000000000032
 30
0.0
  0
ENDBLK
  5
109
330
107
100
AcDbEntity
  8
0
100
AcDbBlockEnd
  0
BLOCK
  5
114
330
113
100
AcDbEntity
  8
0
100
AcDbBlockBegin
  2
SW_DOWELSYMBOL_0
 70
     0
 10
0.0
 20
0.0
 30
0.0
  3
SW_DOWELSYMBOL_0
  1

  0
CIRCLE
  5
116
330
113
100
AcDbEntity
  8
외형선
 62
     0
100
AcDbCircle
 10
0.0
 20
0.0
 30
0.0
 40
3.000000000000004
  0
HATCH
  5
117
330
113
100
AcDbEntity
  8
0
  6
Continuous
 62
     0
370
    30
100
AcDbHatch
 10
0.0
 20
0.0
 30
0.0
210
0.0
220
0.0
230
1.0
  2
SOLID
 70
     1
 71
     0
 91
        1
 92
        0
 93
        3
 72
     2
 10
0.0000000000000104
 20
0.0
 40
3.000000000000004
 50
0.0
 51
90.0
 73
     1
 72
     1
 10
0.0000000000000104
 20
3.000000000000004
 11
0.0000000000000104
 21
0.0
 72
     1
 10
0.0000000000000104
 20
0.0
 11
3.000000000000015
 21
0.0
 97
        0
 75
     0
 76
     1
 98
        1
 10
0.0
 20
0.0
  0
HATCH
  5
118
330
113
100
AcDbEntity
  8
0
  6
Continuous
 62
     0
370
    30
100
AcDbHatch
 10
0.0
 20
0.0
 30
0.0
210
0.0
220
0.0
230
1.0
  2
SOLID
 70
     1
 71
     0
 91
        1
 92
        0
 93
        3
 72
     2
 10
0.0000000000000104
 20
0.0
 40
3.000000000000004
 50
180.0
 51
270.0000000000008
 73
     1
 72
     1
 10
0.0000000000000104
 20
-3.000000000000004
 11
0.0000000000000104
 21
0.0
 72
     1
 10
0.0000000000000104
 20
0.0
 11
-2.999999999999994
 21
0.0
 97
        0
 75
     0
 76
     1
 98
        1
 10
0.0
 20
0.0
  0
ENDBLK
  5
115
330
113
100
AcDbEntity
  8
0
100
AcDbBlockEnd
  0
ENDSEC
  0
SECTION
  2
ENTITIES
  0
SPLINE
  5
95
330
1F
100
AcDbEntity
  8
0
  6
Continuous
 62
     1
370
    15
100
AcDbSpline
210
0.0
220
0.0
230
1.0
 70
     8
 71
     3
 72
     9
 73
     5
 74
     0
 42
0.000000001
 43
0.00000001
 40
0.0
 40
0.0
 40
0.0
 40
0.0
 40
0.4369681987311052
 40
1.0
 40
1.0
 40
1.0
 40
1.0
 10
42.22632996662913
 20
0.7690543186550214
 30
0.0
 10
42.10549184215781
 20
0.8266253419126035
 30
0.0
 10
41.82895427072306
 20
0.9583764016573635
 30
0.0
 10
41.55240650380983
 20
1.10317502825984
 30
0.0
 10
41.39670131646778
 20
1.184701259817094
 30
0.0
  0
LINE
  5
96
330
1F
100
AcDbEntity
  8
0
  6
Continuous
 62
     1
370
    15
100
AcDbLine
 10
25.10972594906299
 20
1.165440877162957
 30
0.0
 11
25.07236992383446
 21
1.184773857262349
 31
0.0
  0
SPLINE
  5
97
330
1F
100
AcDbEntity
  8
0
  6
Continuous
 62
     1
370
    15
100
AcDbSpline
210
0.0
220
0.0
230
1.0
 70
     8
 71
     3
 72
     9
 73
     5
 74
     0
 42
0.000000001
 43
0.00000001
 40
0.0
 40
0.0
 40
0.0
 40
0.0
 40
0.5699556992080208
 40
1.0
 40
1.0
 40
1.0
 40
1.0
 10
25.90244004145836
 20
0.7689120948826278
 30
0.0
 10
25.75329059523693
 20
0.8402222372545831
 30
0.0
 10
25.49160456169316
 20
0.9653374742300953
 30
0.0
 10
25.22456485360951
 20
1.105265588919998
 30
0.0
 10
25.10972594906299
 20
1.165440877162957
 30
0.0
  0
LINE
  5
98
330
1F
100
AcDbEntity
  8
0
  6
Continuous
 62
     1
370
    15
100
AcDbLine
 10
33.88985473203211
 20
-2.999999999999999
 30
0.0
 11
35.34416627267489
 21
-2.999999999999999
 31
0.0
  0
LINE
  5
99
330
1F
100
AcDbEntity
  8
0
  6
Continuous
 62
     1
370
    15
100
AcDbLine
 10
19.0197844908711
 20
3.000000000000008
 30
0.0
 11
17.5657548191977
 21
3.000000000000008
 31
0.0
  0
LINE
  5
9A
330
1F
100
AcDbEntity
  8
0
  6
Continuous
 62
     1
370
    15
100
AcDbLine
 10
17.56575481919773
 20
-2.999999999999999
 30
0.0
 11
19.0197844908711
 21
-2.999999999999999
 31
0.0
  0
LINE
  5
9B
330
1F
100
AcDbEntity
  8
0
  6
Continuous
 62
     1
370
    15
100
AcDbLine
 10
35.34416627267488
 20
3.000000000000008
 30
0.0
 11
33.88985473203213
 21
3.000000000000008
 31
0.0
  0
LINE
  5
9C
330
1F
100
AcDbEntity
  8
0
  6
Continuous
 62
     1
370
    15
100
AcDbLine
 10
40.61450897962089
 20
0.8194618859531937
 30
0.0
 11
40.53610871528577
 21
0.8624286929282023
 31
0.0
  0
LINE
  5
9D
330
1F
100
AcDbEntity
  8
0
  6
Continuous
 62
     1
370
    15
100
AcDbLine
 10
24.34909904518245
 20
0.7872489140714101
 30
0.0
 11
24.21186701095294
 21
0.862455031855724
 31
0.0
  0
SPLINE
  5
9E
330
1F
100
AcDbEntity
  8
0
  6
Continuous
 62
     1
370
    15
100
AcDbSpline
210
0.0
220
0.0
230
1.0
 70
     8
 71
     3
 72
    19
 73
    15
 74
     0
 42
0.000000001
 43
0.00000001
 40
0.0
 40
0.0
 40
0.0
 40
0.0
 40
0.1140764400775578
 40
0.2048124979965544
 40
0.2827952984018821
 40
0.332418038250628
 40
0.3858093979712856
 40
0.4491682577299793
 40
0.5211964184949207
 40
0.6103425441891145
 40
0.6861089978688605
 40
0.7582258023786531
 40
0.8614902650138716
 40
1.0
 40
1.0
 40
1.0
 40
1.0
 10
36.72292478742312
 20
-2.496440932857622
 30
0.0
 10
36.89470162724886
 20
-2.48003733925548
 30
0.0
 10
37.20310924970575
 20
-2.450586376554583
 30
0.0
 10
37.62825777500781
 20
-2.417845317323255
 30
0.0
 10
37.95608106980475
 20
-2.396199991793779
 30
0.0
 10
38.22865019553247
 20
-2.381051154498394
 30
0.0
 10
38.47918748537946
 20
-2.369099736506896
 30
0.0
 10
38.76338186001264
 20
-2.358115152141504
 30
0.0
 10
39.10109001645701
 20
-2.348587023309479
 30
0.0
 10
39.45811333612046
 20
-2.343122626792431
 30
0.0
 10
39.81688002985927
 20
-2.342357427745657
 30
0.0
 10
40.19797671075563
 20
-2.346025983820039
 30
0.0
 10
40.66772681834475
 20
-2.356968812216815
 30
0.0
 10
41.02914504340838
 20
-2.374100529135821
 30
0.0
 10
41.23619750419711
 20
-2.383915098240608
 30
0.0
  0
SPLINE
  5
9F
330
1F
100
AcDbEntity
  8
0
  6
Continuous
 62
     1
370
    15
100
AcDbSpline
210
0.0
220
0.0
230
1.0
 70
     8
 71
     3
 72
    12
 73
     8
 74
     0
 42
0.000000001
 43
0.00000001
 40
0.0
 40
0.0
 40
0.0
 40
0.0
 40
0.2876622910887008
 40
0.4949558615259148
 40
0.6644747320042212
 40
0.8573257125431513
 40
1.0
 40
1.0
 40
1.0
 40
1.0
 10
24.91182300627904
 20
2.383905502151009
 30
0.0
 10
24.67684290830801
 20
2.372876347200075
 30
0.0
 10
24.27253278343024
 20
2.353899425094708
 30
0.0
 10
23.72278001122899
 20
2.343348157938266
 30
0.0
 10
23.24546750836206
 20
2.342153575333986
 30
0.0
 10
22.82473503133671
 20
2.346716966702767
 30
0.0
 10
22.5462835327643
 20
2.355864327653491
 30
0.0
 10
22.42787853338103
 20
2.359754029354799
 30
0.0
  0
SPLINE
  5
A0
330
1F
100
AcDbEntity
  8
0
  6
Continuous
 62
     1
370
    15
100
AcDbSpline
210
0.0
220
0.0
230
1.0
 70
     8
 71
     3
 72
    18
 73
    14
 74
     0
 42
0.000000001
 43
0.00000001
 40
0.0
 40
0.0
 40
0.0
 40
0.0
 40
0.1213025126991217
 40
0.2171356285681098
 40
0.2987982422048706
 40
0.3493752406658245
 40
0.4015581152034196
 40
0.4617091013612943
 40
0.528856854461274
 40
0.6348380658748589
 40
0.7279971216418968
 40
0.8419152549684151
 40
1.0
 40
1.0
 40
1.0
 40
1.0
 10
20.39861994994843
 20
-2.496451987965157
 30
0.0
 10
20.58169758027661
 20
-2.479024053064856
 30
0.0
 10
20.90941277309107
 20
-2.447827456102289
 30
0.0
 10
21.35859174764699
 20
-2.413858310000301
 30
0.0
 10
21.70085218474764
 20
-2.392070754498248
 30
0.0
 10
21.9742886939131
 20
-2.377474140546268
 30
0.0
 10
22.21839510574395
 20
-2.366338790525826
 30
0.0
 10
22.48893383360116
 20
-2.356447794237991
 30
0.0
 10
22.84203555387057
 20
-2.347083249182492
 30
0.0
 10
23.24540386778535
 20
-2.342003122629549
 30
0.0
 10
23.7227999250677
 20
-2.343395236249666
 30
0.0
 10
24.27252492345255
 20
-2.353880843319344
 30
0.0
 10
24.67684001926284
 20
-2.372869517207618
 30
0.0
 10
24.91182300627903
 20
-2.383905502150997
 30
0.0
  0
SPLINE
  5
A1
330
1F
100
AcDbEntity
  8
0
  6
Continuous
 62
     1
370
    15
100
AcDbSpline
210
0.0
220
0.0
230
1.0
 70
     8
 71
     3
 72
    13
 73
     9
 74
     0
 42
0.000000001
 43
0.00000001
 40
0.0
 40
0.0
 40
0.0
 40
0.0
 40
0.2534683555524634
 40
0.442438997462788
 40
0.5744104278364471
 40
0.7130605986866783
 40
0.8761951385502023
 40
1.0
 40
1.0
 40
1.0
 40
1.0
 10
41.23619750419711
 20
2.38391509824062
 30
0.0
 10
41.02914514071453
 20
2.374098526462702
 30
0.0
 10
40.6677270855026
 20
2.356963313798869
 30
0.0
 10
40.19797604367411
 20
2.346039713129765
 30
0.0
 10
39.81688175363995
 20
2.342321950343398
 30
0.0
 10
39.45810593255667
 20
2.343275000708149
 30
0.0
 10
39.10771050236112
 20
2.347875656646309
 30
0.0
 10
38.87178662276198
 20
2.356039572422246
 30
0.0
 10
38.76999327164747
 20
2.359562032066692
 30
0.0
  0
SPLINE
  5
A2
330
1F
100
AcDbEntity
  8
0
  6
Continuous
 62
     1
370
    15
100
AcDbSpline
210
0.0
220
0.0
230
1.0
 70
     8
 71
     3
 72
    13
 73
     9
 74
     0
 42
0.000000001
 43
0.00000001
 40
0.0
 40
0.0
 40
0.0
 40
0.0
 40
0.2615116827621259
 40
0.4556117746033068
 40
0.5845376052508228
 40
0.6887890167551675
 40
0.7945099461884316
 40
1.0
 40
1.0
 40
1.0
 40
1.0
 10
10.99515879258561
 20
-2.256454812351349
 30
0.0
 10
11.19362296493881
 20
-2.226613671058112
 30
0.0
 10
11.53939189122909
 20
-2.174623736240681
 30
0.0
 10
11.98121358670182
 20
-2.120010810283677
 30
0.0
 10
12.30437953743623
 20
-2.08491371583142
 30
0.0
 10
12.56100858804897
 20
-2.060544730277021
 30
0.0
 10
12.87554122577488
 20
-2.032717481050406
 30
0.0
 10
13.11102917786686
 20
-2.021361191064554
 30
0.0
 10
13.26651993671738
 20
-2.013862726145478
 30
0.0
  0
SPLINE
  5
A3
330
1F
100
AcDbEntity
  8
0
  6
Continuous
 62
     1
370
    15
100
AcDbSpline
210
0.0
220
0.0
230
1.0
 70
     8
 71
     3
 72
    13
 73
     9
 74
     0
 42
0.000000001
 43
0.00000001
 40
0.0
 40
0.0
 40
0.0
 40
0.0
 40
0.3019109030432438
 40
0.5114109240964129
 40
0.642886816417823
 40
0.7612672826242021
 40
0.9850987248495346
 40
1.0
 40
1.0
 40
1.0
 40
1.0
 10
43.64367362641055
 20
-2.25643497967002
 30
0.0
 10
43.87018850645727
 20
-2.222570646116194
 30
0.0
 10
44.25388509693679
 20
-2.165207397746887
 30
0.0
 10
44.73402119530026
 20
-2.107932216179564
 30
0.0
 10
45.07782114091994
 20
-2.072404413292764
 30
0.0
 10
45.43240482001809
 20
-2.041004881963281
 30
0.0
 10
45.69965025582953
 20
-2.019545106455179
 30
0.0
 10
45.87822446031689
 20
-2.01080319538594
 30
0.0
 10
45.88937074719826
 20
-2.010257540715664
 30
0.0
  0
SPLINE
  5
A4
330
1F
100
AcDbEntity
  8
0
  6
Continuous
 62
     1
370
    15
100
AcDbSpline
210
0.0
220
0.0
230
1.0
 70
     8
 71
     3
 72
    20
 73
    16
 74
     0
 42
0.000000001
 43
0.00000001
 40
0.0
 40
0.0
 40
0.0
 40
0.0
 40
0.1270875479270789
 40
0.214315786856902
 40
0.2747664926162205
 40
0.3277429539263902
 40
0.378462341627979
 40
0.4298936951343271
 40
0.4833450985872528
 40
0.5775626121464325
 40
0.6759461247699938
 40
0.7216261217889391
 40
0.7831614751198008
 40
0.8756334498051954
 40
0.9999999999999999
 40
0.9999999999999999
 40
0.9999999999999999
 40
0.9999999999999999
 10
32.56029629866615
 20
2.051857057525659
 30
0.0
 10
32.33788607729655
 20
2.034604974193669
 30
0.0
 10
31.96282162467845
 20
2.005511692636786
 30
0.0
 10
31.4833253708574
 20
1.985438974779816
 30
0.0
 10
31.13280804133079
 20
1.976637549517347
 30
0.0
 10
30.84643986495622
 20
1.973725154852515
 30
0.0
 10
30.57553193790859
 20
1.97458961201453
 30
0.0
 10
30.30370198677851
 20
1.97901628984102
 30
0.0
 10
29.95581517612718
 20
1.989307964147207
 30
0.0
 10
29.52630911724425
 20
2.010224936695738
 30
0.0
 10
29.11010540495309
 20
2.040494708194946
 30
0.0
 10
28.75074675369223
 20
2.072760771094702
 30
0.0
 10
28.4023205884163
 20
2.108626811292873
 30
0.0
 10
27.91693709104704
 20
2.166982958254622
 30
0.0
 10
27.53717296048448
 20
2.223842206098691
 30
0.0
 10
27.31936132008574
 20
2.256453516773051
 30
0.0
  0
SPLINE
  5
A5
330
1F
100
AcDbEntity
  8
0
  6
Continuous
 62
     1
370
    15
100
AcDbSpline
210
0.0
220
0.0
230
1.0
 70
     8
 71
     3
 72
    12
 73
     8
 74
     0
 42
0.000000001
 43
0.00000001
 40
0.0
 40
0.0
 40
0.0
 40
0.0
 40
0.3042884918662036
 40
0.5154661024087671
 40
0.6487703926650245
 40
0.7738007323822027
 40
1.0
 40
1.0
 40
1.0
 40
1.0
 10
27.31936132008574
 20
-2.256453516773039
 30
0.0
 10
27.54584381268405
 20
-2.222604990251526
 30
0.0
 10
27.92950619507482
 20
-2.165265430903367
 30
0.0
 10
28.41018594309757
 20
-2.107814563946352
 30
0.0
 10
28.75879180933202
 20
-2.072034481286984
 30
0.0
 10
29.11863597166207
 20
-2.039388408972851
 30
0.0
 10
29.37928396975654
 20
-2.022484623538204
 30
0.0
 10
29.54714677244671
 20
-2.011598229551381
 30
0.0
  0
SPLINE
  5
A6
330
1F
100
AcDbEntity
  8
0
  6
Continuous
 62
     1
370
    15
100
AcDbSpline
210
0.0
220
0.0
230
1.0
 70
     8
 71
     3
 72
    20
 73
    16
 74
     0
 42
0.000000001
 43
0.00000001
 40
0.0
 40
0.0
 40
0.0
 40
0.0
 40
0.12814145188941
 40
0.2185156959087006
 40
0.2748225070396387
 40
0.3250236856023888
 40
0.5117431111704189
 40
0.5558443466963191
 40
0.600479785508217
 40
0.6459097358954603
 40
0.6911236421393177
 40
0.7357967578331114
 40
0.7955913918178659
 40
0.8833698899732004
 40
1.0
 40
1.0
 40
1.0
 40
1.0
 10
48.88441285212857
 20
2.051850365471972
 30
0.0
 10
48.66017002332875
 20
2.034476390873624
 30
0.0
 10
48.27777559072921
 20
2.004849083752627
 30
0.0
 10
47.79817448938416
 20
1.985119704333561
 30
0.0
 10
47.45434782567167
 20
1.976677920455301
 30
0.0
 10
46.94279151059066
 20
1.971299583772639
 30
0.0
 10
46.45117069622292
 20
1.981083753046348
 30
0.0
 10
45.97006810489522
 20
2.004855243949
 30
0.0
 10
45.73601676684935
 20
2.019103466434077
 30
0.0
 10
45.49988944772061
 20
2.036028058003104
 30
0.0
 10
45.26361928355065
 20
2.055547700284446
 30
0.0
 10
45.002065981869
 20
2.079951522143306
 30
0.0
 10
44.66663632620117
 20
2.115564617467138
 30
0.0
 10
44.20588263874895
 20
2.172024185814949
 30
0.0
 10
43.8479184581022
 20
2.225769394441897
 30
0.0
 10
43.64367362641055
 20
2.256434979670034
 30
0.0
  0
SPLINE
  5
A7
330
1F
100
AcDbEntity
  8
0
  6
Continuous
 62
     1
370
    15
100
AcDbSpline
210
0.0
220
0.0
230
1.0
 70
     8
 71
     3
 72
    19
 73
    15
 74
     0
 42
0.000000001
 43
0.00000001
 40
0.0
 40
0.0
 40
0.0
 40
0.0
 40
0.1176882401411545
 40
0.2042335335595868
 40
0.2610430653551116
 40
0.3133058990241862
 40
0.3680135793984579
 40
0.4236911544885597
 40
0.479380898273198
 40
0.6698689105253524
 40
0.713713335298405
 40
0.7777932101540314
 40
0.8728918607873408
 40
1.0
 40
1.0
 40
1.0
 40
1.0
 10
16.23608712356642
 20
2.051855774938266
 30
0.0
 10
16.02952104018456
 20
2.035700211372613
 30
0.0
 10
15.67105088996357
 20
2.007664208542573
 30
0.0
 10
15.21446403370051
 20
1.987467566952153
 30
0.0
 10
14.87461785040356
 20
1.97797610794521
 30
0.0
 10
14.58985061625304
 20
1.974041448015488
 30
0.0
 10
14.30588712960434
 20
1.974029798630703
 30
0.0
 10
14.01572201185316
 20
1.978138649669681
 30
0.0
 10
13.48823173966509
 20
1.993049550999871
 30
0.0
 10
12.98196850059729
 20
2.023545114491876
 30
0.0
 10
12.46036191942887
 20
2.069512155378228
 30
0.0
 10
12.10619594450913
 20
2.105399693168982
 30
0.0
 10
11.60699419745638
 20
2.16494077429504
 30
0.0
 10
11.2177924487741
 20
2.223154835392106
 30
0.0
 10
10.99515879258561
 20
2.256454812351358
 30
0.0
  0
LINE
  5
A8
330
1F
100
AcDbEntity
  8
0
  6
Continuous
 62
   131
370
    15
100
AcDbLine
 10
9.110053439525942
 20
3.000000000000005
 30
0.0
 11
-39.45
 21
3.000000000000002
 31
0.0
  0
LINE
  5
A9
330
1F
100
AcDbEntity
  8
0
  6
Continuous
 62
   131
370
    15
100
AcDbLine
 10
-39.45
 20
-2.999999999999999
 30
0.0
 11
9.110053439525942
 21
-2.999999999999996
 31
0.0
  0
LINE
  5
AA
330
1F
100
AcDbEntity
  8
0
  6
Continuous
 62
   131
370
    15
100
AcDbLine
 10
-39.45
 20
2.999999999999999
 30
0.0
 11
-40.0
 21
2.449999999999998
 31
0.0
  0
LINE
  5
AB
330
1F
100
AcDbEntity
  8
0
  6
Continuous
 62
   131
370
    15
100
AcDbLine
 10
-40.0
 20
-2.449999999999995
 30
0.0
 11
-39.45
 21
-2.999999999999996
 31
0.0
  0
SPLINE
  5
AC
330
1F
100
AcDbEntity
  8
0
  6
Continuous
 62
   131
370
    15
100
AcDbSpline
210
0.0
220
0.0
230
1.0
 70
     8
 71
     3
 72
     9
 73
     5
 74
     0
 42
0.000000001
 43
0.00000001
 40
0.0
 40
0.0
 40
0.0
 40
0.0
 40
0.5010119618383237
 40
1.0
 40
1.0
 40
1.0
 40
1.0
 10
9.578600108134657
 20
0.7687465072506661
 30
0.0
 10
9.50025515575998
 20
0.8057663033280198
 30
0.0
 10
9.343881738871461
 20
0.8796563476725099
 30
0.0
 10
9.187928214294205
 20
0.9581122151935029
 30
0.0
 10
9.110109271021
 20
0.9972607546100754
 30
0.0
  0
SPLINE
  5
AD
330
1F
100
AcDbEntity
  8
0
  6
Continuous
 62
     1
370
    15
100
AcDbSpline
210
0.0
220
0.0
230
1.0
 70
     8
 71
     3
 72
    19
 73
    15
 74
     0
 42
0.000000001
 43
0.00000001
 40
0.0
 40
0.0
 40
0.0
 40
0.0
 40
0.0872211849317021
 40
0.1744295588356633
 40
0.2616268607130305
 40
0.3488148428096931
 40
0.4359952685494546
 40
0.5231699104386672
 40
0.6103405479476113
 40
0.6975089653739932
 40
0.7846769496940411
 40
0.8718462884067008
 40
0.9590187673764866
 40
1.0
 40
1.0
 40
1.0
 40
1.0
 10
50.00000000000001
 20
-2.846822607695693
 30
0.0
 10
49.57386057576662
 20
-2.752584542603197
 30
0.0
 10
48.72164431856125
 20
-2.564122254083705
 30
0.0
 10
47.44345413991471
 20
-2.081189339745217
 30
0.0
 10
46.16545552348735
 20
-1.485336197835899
 30
0.0
 10
44.88762155039972
 20
-0.7968396555126032
 30
0.0
 10
43.60992020127589
 20
-0.0612912773729402
 30
0.0
 10
42.33232059362764
 20
0.6781103029736861
 30
0.0
 10
41.05479139430889
 20
1.376828025635906
 30
0.0
 10
39.77730116714316
 20
1.992011231849633
 30
0.0
 10
38.49981880560457
 20
2.490002413949073
 30
0.0
 10
37.22231169179331
 20
2.828282099367727
 30
0.0
 10
36.17042776390433
 20
2.997169580269004
 30
0.0
 10
35.54436862906385
 20
2.982215722983305
 30
0.0
 10
35.34416627267488
 20
2.977433750643802
 30
0.0
  0
SPLINE
  5
AE
330
1F
100
AcDbEntity
  8
0
  6
Continuous
 62
     1
370
    15
100
AcDbSpline
210
0.0
220
0.0
230
1.0
 70
     8
 71
     3
 72
    17
 73
    13
 74
     0
 42
0.000000001
 43
0.00000001
 40
0.0
 40
0.0
 40
0.0
 40
0.0
 40
0.0436801619144494
 40
0.1464669462198245
 40
0.2492500927666569
 40
0.3564999777701093
 40
0.4637497721661133
 40
0.5709995506717568
 40
0.6782493880062068
 40
0.7854993588809351
 40
0.8927495379899444
 40
1.0
 40
1.0
 40
1.0
 40
1.0
 10
22.42986161110151
 20
-2.359040336785682
 30
0.0
 10
22.24889050656282
 20
-2.426915643345958
 30
0.0
 10
21.64206388610009
 20
-2.654512988225061
 30
0.0
 10
20.60940254189958
 20
-2.884234860028942
 30
0.0
 10
19.31342531389259
 20
-3.028345898512473
 30
0.0
 10
17.99876402432129
 20
-2.974402622419231
 30
0.0
 10
16.66564950447924
 20
-2.727345177485109
 30
0.0
 10
15.33252074257433
 20
-2.301130708125374
 30
0.0
 10
13.99939498698979
 20
-1.724265510952443
 30
0.0
 10
12.66626618332965
 20
-1.035086214136647
 30
0.0
 10
11.33313461455746
 20
-0.2758342125812157
 30
0.0
 10
10.44437859557145
 20
0.2366108950704294
 30
0.0
 10
9.999999999996257
 20
0.4928337868235803
 30
0.0
  0
SPLINE
  5
AF
330
1F
100
AcDbEntity
  8
0
  6
Continuous
 62
   131
370
    15
100
AcDbSpline
210
0.0
220
0.0
230
1.0
 70
    24
 71
     3
 72
     8
 73
     4
 74
     0
 42
0.000000001
 43
0.00000001
 40
0.0
 40
0.0
 40
0.0
 40
0.0
 40
1.0
 40
1.0
 40
1.0
 40
1.0
 10
10.00000000000026
 20
0.5697525257059046
 30
0.0
 10
10.00000000000026
 20
0.5568535698355126
 30
0.0
 10
10.00000000000026
 20
0.5311057380710453
 30
0.0
 10
10.00000000000026
 20
0.4928337868237385
 30
0.0
  0
SPLINE
  5
B0
330
1F
100
AcDbEntity
  8
0
  6
Continuous
 62
     1
370
    15
100
AcDbSpline
210
0.0
220
0.0
230
1.0
 70
     8
 71
     3
 72
    14
 73
    10
 74
     0
 42
0.000000001
 43
0.00000001
 40
0.0
 40
0.0
 40
0.0
 40
0.0
 40
0.1639194642394078
 40
0.327813777356382
 40
0.4916863527271939
 40
0.6555406300397274
 40
0.8193800711884057
 40
0.9832081561119912
 40
1.0
 40
1.0
 40
1.0
 40
1.0
 10
50.00000000000001
 20
-2.366916793104638
 30
0.0
 10
49.57386118384693
 20
-2.275292948471084
 30
0.0
 10
48.72164893651253
 20
-2.092059317586517
 30
0.0
 10
47.44345764236534
 20
-1.653014774653458
 30
0.0
 10
46.16545864332738
 20
-1.125154502805873
 30
0.0
 10
44.88762388793592
 20
-0.5253283881571769
 30
0.0
 10
43.60992259340028
 20
0.0995855439637825
 30
0.0
 10
42.71451439276191
 20
0.5485630067331981
 30
0.0
 10
42.2450042748354
 20
0.7586915404457324
 30
0.0
 10
42.20135493527505
 20
0.7782267354695198
 30
0.0
  0
SPLINE
  5
B1
330
1F
100
AcDbEntity
  8
0
  6
Continuous
 62
     1
370
    15
100
AcDbSpline
210
0.0
220
0.0
230
1.0
 70
     8
 71
     3
 72
    16
 73
    12
 74
     0
 42
0.000000001
 43
0.00000001
 40
0.0
 40
0.0
 40
0.0
 40
0.0
 40
0.102874260399997
 40
0.2256816274621344
 40
0.348489713314293
 40
0.4713011482427421
 40
0.5941185584451664
 40
0.7169445628304968
 40
0.839781769837626
 40
0.9200535105198973
 40
1.0
 40
1.0
 40
1.0
 40
1.0
 10
20.40202723916867
 20
-2.485799829777997
 30
0.0
 10
20.04531786182176
 20
-2.51553618860904
 30
0.0
 10
19.26278243947565
 20
-2.580770678069225
 30
0.0
 10
18.05442290983034
 20
-2.495651327924794
 30
0.0
 10
16.77693187066273
 20
-2.271135973664918
 30
0.0
 10
15.49939820185845
 20
-1.90580131963271
 30
0.0
 10
14.22180354310379
 20
-1.42689966175676
 30
0.0
 10
12.94406733070741
 20
-0.8619047457448885
 30
0.0
 10
11.81397481675234
 20
-0.3161326258610197
 30
0.0
 10
10.83219780006575
 20
0.1665309083325435
 30
0.0
 10
10.27702358934053
 20
0.4355273454235633
 30
0.0
 10
10.0
 20
0.5697525257060294
 30
0.0
  0
LINE
  5
B2
330
1F
100
AcDbEntity
  8
0
  6
Continuous
 62
     1
370
    15
100
AcDbLine
 10
50.00000000000001
 20
-2.846822607695696
 30
0.0
 11
50.00000000000001
 21
-2.366916793104638
 31
0.0
  0
SPLINE
  5
B3
330
1F
100
AcDbEntity
  8
0
  6
Continuous
 62
     1
370
    15
100
AcDbSpline
210
0.0
220
0.0
230
1.0
 70
     8
 71
     3
 72
    24
 73
    20
 74
     0
 42
0.000000001
 43
0.00000001
 40
0.0
 40
0.0
 40
0.0
 40
0.0
 40
0.0138243672444904
 40
0.0785007379946567
 40
0.1431794386975007
 40
0.2078617915872378
 40
0.2725491144978244
 40
0.3372427192840905
 40
0.401943910258202
 40
0.4666539826454071
 40
0.5313713556850452
 40
0.5960811344714181
 40
0.6607820716987746
 40
0.7254754628959208
 40
0.7901626126312093
 40
0.8548448329676355
 40
0.9195234418987628
 40
0.9841997617694455
 40
1.0
 40
1.0
 40
1.0
 40
1.0
 10
38.77288497484991
 20
-2.358450826371668
 30
0.0
 10
38.68186486697849
 20
-2.394225035807116
 30
0.0
 10
38.16501331682118
 20
-2.597366473834039
 30
0.0
 10
37.22231217294055
 20
-2.827162982478645
 30
0.0
 10
35.94475071379345
 20
-3.012126757948753
 30
0.0
 10
34.66710255520417
 20
-3.004173264345939
 30
0.0
 10
33.38933664120045
 20
-2.81859441242072
 30
0.0
 10
32.1114220120291
 20
-2.462562819061628
 30
0.0
 10
30.83332716806834
 20
-1.958545922540976
 30
0.0
 10
29.55504266358118
 20
-1.336568651084314
 30
0.0
 10
28.27665466286224
 20
-0.634217942989314
 30
0.0
 10
26.99837529236353
 20
0.1063728859668356
 30
0.0
 10
25.72028627779438
 20
0.8404475168294492
 30
0.0
 10
24.44237706270835
 20
1.524207802149143
 30
0.0
 10
23.16461401880218
 20
2.115129578175293
 30
0.0
 10
21.88697357948401
 20
2.582868732559455
 30
0.0
 10
20.60939721614688
 20
2.879910579394492
 30
0.0
 10
19.65373560099727
 20
3.015194010474561
 30
0.0
 10
19.12382387469104
 20
2.987730575482757
 30
0.0
 10
19.0197844908711
 20
2.982338585246869
 30
0.0
  0
SPLINE
  5
B4
330
1F
100
AcDbEntity
  8
0
  6
Continuous
 62
     1
370
    15
100
AcDbSpline
210
0.0
220
0.0
230
1.0
 70
     8
 71
     3
 72
    16
 73
    12
 74
     0
 42
0.000000001
 43
0.00000001
 40
0.0
 40
0.0
 40
0.0
 40
0.0
 40
0.0722514016322388
 40
0.1899582637303851
 40
0.3076745748877059
 40
0.4254028289741517
 40
0.5431455053496248
 40
0.6609050658938519
 40
0.7786785050860567
 40
0.8964375074839046
 40
1.0
 40
1.0
 40
1.0
 40
1.0
 10
36.72901288307226
 20
-2.478020499755049
 30
0.0
 10
36.4675997110751
 20
-2.505845148680738
 30
0.0
 10
35.78031072917284
 20
-2.578999743324241
 30
0.0
 10
34.66710012541435
 20
-2.52514306753475
 30
0.0
 10
33.38933393473848
 20
-2.335375372949794
 30
0.0
 10
32.11141862026278
 20
-1.998624577311272
 30
0.0
 10
30.83332335126141
 20
-1.543386023140422
 30
0.0
 10
29.55503866256051
 20
-0.9944740743986749
 30
0.0
 10
28.27665908715079
 20
-0.3870052364328473
 30
0.0
 10
27.04968520158553
 20
0.222551335694523
 30
0.0
 10
26.24888010132138
 20
0.6023845312861653
 30
0.0
 10
25.87416108799102
 20
0.7801190639899109
 30
0.0
  0
SPLINE
  5
B5
330
1F
100
AcDbEntity
  8
0
  6
Continuous
 62
     1
370
    15
100
AcDbSpline
210
0.0
220
0.0
230
1.0
 70
     8
 71
     3
 72
    24
 73
    20
 74
     0
 42
0.000000001
 43
0.00000001
 40
0.0
 40
0.0
 40
0.0
 40
0.0
 40
0.0354895044725632
 40
0.100132709925555
 40
0.1647758799444768
 40
0.2294190595953666
 40
0.2940622939430022
 40
0.3560136358563951
 40
0.4179671709102296
 40
0.4799241656514239
 40
0.5418858824585849
 40
0.6038535780294387
 40
0.6658285018828237
 40
0.7278118948790442
 40
0.7898025587763037
 40
0.8517862266084217
 40
0.9137613879917347
 40
0.9757292835024013
 40
1.0
 40
1.0
 40
1.0
 40
1.0
 10
13.26748604674992
 20
2.014267385562521
 30
0.0
 10
13.51144979073743
 20
2.120535089531506
 30
0.0
 10
14.19978712235439
 20
2.420366640693556
 30
0.0
 10
15.33249654932042
 20
2.753322814086369
 30
0.0
 10
16.665619307777
 20
2.988829700041383
 30
0.0
 10
17.99872774072019
 20
3.022254634189456
 30
0.0
 10
19.3133857340917
 20
2.861786106947288
 30
0.0
 10
20.60936162268195
 20
2.52491508092968
 30
0.0
 10
21.88693354910653
 20
2.041072024463841
 30
0.0
 10
23.16457746266037
 20
1.434379259793607
 30
0.0
 10
24.44234187215182
 20
0.741375534696938
 30
0.0
 10
25.72025302933332
 20
0.0037150082343078
 30
0.0
 10
26.99834383018899
 20
-0.7341445468440124
 30
0.0
 10
28.27662503923489
 20
-1.428071517818886
 30
0.0
 10
29.55501470449441
 20
-2.035198238172871
 30
0.0
 10
30.83330120135891
 20
-2.522915571179125
 30
0.0
 10
32.11139661706534
 20
-2.847437235969076
 30
0.0
 10
33.13022604903373
 20
-3.00327039462442
 30
0.0
 10
33.72302055922724
 20
-2.983875657334171
 30
0.0
 10
33.88985473203212
 20
-2.978417265097154
 30
0.0
  0
SPLINE
  5
B6
330
1F
100
AcDbEntity
  8
0
  6
Continuous
 62
     1
370
    15
100
AcDbSpline
210
0.0
220
0.0
230
1.0
 70
     8
 71
     3
 72
    11
 73
     7
 74
     0
 42
0.000000001
 43
0.00000001
 40
0.0
 40
0.0
 40
0.0
 40
0.0
 40
0.0671782272570881
 40
0.3780772760529113
 40
0.6890158003190571
 40
1.0
 40
1.0
 40
1.0
 40
1.0
 10
45.88927024619885
 20
2.010212134839106
 30
0.0
 10
45.98131648472353
 20
2.052506770831029
 30
0.0
 10
46.49935026669797
 20
2.290539857150502
 30
0.0
 10
47.44345199400727
 20
2.601642901293744
 30
0.0
 10
48.7216422328136
 20
2.916089270768149
 30
0.0
 10
49.57385988133915
 20
2.970338059330671
 30
0.0
 10
50.0
 20
3.00000000000015
 30
0.0
  0
SPLINE
  5
B7
330
1F
100
AcDbEntity
  8
0
  6
Continuous
 62
     1
370
    15
100
AcDbSpline
210
0.0
220
0.0
230
1.0
 70
     8
 71
     3
 72
    13
 73
     9
 74
     0
 42
0.000000001
 43
0.00000001
 40
0.0
 40
0.0
 40
0.0
 40
0.0
 40
0.1762056132746703
 40
0.3524107615799038
 40
0.5286155676706666
 40
0.7048201543467048
 40
0.8810246444364795
 40
1.0
 40
1.0
 40
1.0
 40
1.0
 10
9.999999999998748
 20
-0.3436204609032408
 30
0.0
 10
10.44437657823596
 20
-0.5963394951016356
 30
0.0
 10
11.33312856209435
 20
-1.101776896626214
 30
0.0
 10
12.66625414698886
 20
-1.781273450194948
 30
0.0
 10
13.99937668726819
 20
-2.347760256580453
 30
0.0
 10
15.3324972242477
 20
-2.7526228270642
 30
0.0
 10
16.5212896697368
 20
-2.977967751534781
 30
0.0
 10
17.26570881671914
 20
-2.978265561778792
 30
0.0
 10
17.56575481919773
 20
-2.978385597344206
 30
0.0
  0
SPLINE
  5
B8
330
1F
100
AcDbEntity
  8
0
  6
Continuous
 62
     1
370
    15
100
AcDbSpline
210
0.0
220
0.0
230
1.0
 70
     8
 71
     3
 72
    24
 73
    20
 74
     0
 42
0.000000001
 43
0.00000001
 40
0.0
 40
0.0
 40
0.0
 40
0.0
 40
0.0004291348613433
 40
0.062922275185705
 40
0.1254068391428166
 40
0.187884077505707
 40
0.2503552498218121
 40
0.3128216229217825
 40
0.3752844694096675
 40
0.4377450661383004
 40
0.5002046926737672
 40
0.5626646297528972
 40
0.6251261577377384
 40
0.6875905550710008
 40
0.7500590967364337
 40
0.8125330527281045
 40
0.8750136865324701
 40
0.9375022536271274
 40
1.0
 40
1.0
 40
1.0
 40
1.0
 10
29.54627687255063
 20
2.011188788044311
 30
0.0
 10
29.54920292697493
 20
2.012566828082484
 30
0.0
 10
29.97823822165515
 20
2.214623156546177
 30
0.0
 10
30.83329981835756
 20
2.512585428085386
 30
0.0
 10
32.11139780628259
 20
2.856815992179151
 30
0.0
 10
33.38931374858068
 20
3.01571689283756
 30
0.0
 10
34.66708149662178
 20
2.996741417037017
 30
0.0
 10
35.94473132547629
 20
2.796498024472226
 30
0.0
 10
37.22229466682885
 20
2.428266703800854
 30
0.0
 10
38.49980279128811
 20
1.913880333507875
 30
0.0
 10
39.77728711204332
 20
1.284374679985185
 30
0.0
 10
41.05477905116788
 20
0.5775878344197951
 30
0.0
 10
42.332310033059
 20
-0.1639363576861449
 30
0.0
 10
43.60991140617078
 20
-0.8956782920574144
 30
0.0
 10
44.88761452460628
 20
-1.573300086454102
 30
0.0
 10
46.16545026271006
 20
-2.157207429331991
 30
0.0
 10
47.44345063947321
 20
-2.607858189822473
 30
0.0
 10
48.72164257152307
 20
-2.914535100130675
 30
0.0
 10
49.57385999424783
 20
-2.969819977087277
 30
0.0
 10
50.00000000000001
 20
-2.999999999999845
 30
0.0
  0
LINE
  5
B9
330
1F
100
AcDbEntity
  8
0
  6
Continuous
 62
   131
370
    15
100
AcDbLine
 10
10.0
 20
-0.3436204609000893
 30
0.0
 11
10.0
 21
0.4928337868266415
 31
0.0
  0
LINE
  5
BA
330
1F
100
AcDbEntity
  8
0
  6
Continuous
 62
     1
370
    15
100
AcDbLine
 10
50.00000000000001
 20
-2.999999999999845
 30
0.0
 11
50.00000000000001
 21
-2.846822607695702
 31
0.0
  0
SPLINE
  5
BB
330
1F
100
AcDbEntity
  8
0
  6
Continuous
 62
     1
370
    15
100
AcDbSpline
210
0.0
220
0.0
230
1.0
 70
     8
 71
     3
 72
    14
 73
    10
 74
     0
 42
0.000000001
 43
0.00000001
 40
0.0
 40
0.0
 40
0.0
 40
0.0
 40
0.1058558198831473
 40
0.2766123723215337
 40
0.4473569590293643
 40
0.617887455516783
 40
0.7884624409225064
 40
0.9592223632929854
 40
0.9999999999999999
 40
0.9999999999999999
 40
0.9999999999999999
 40
0.9999999999999999
 10
42.53902166774071
 20
-0.2794965192456241
 30
0.0
 10
42.18676232758948
 20
-0.138345355168945
 30
0.0
 10
41.26627168419159
 20
0.2304974575766981
 30
0.0
 10
39.77732401218446
 20
0.8266551711205998
 30
0.0
 10
38.07314474700387
 20
1.415674059809478
 30
0.0
 10
36.36991240312216
 20
1.860056339252927
 30
0.0
 10
34.66655210621992
 20
2.088230040104076
 30
0.0
 10
33.39474595870915
 20
2.141143999699817
 30
0.0
 10
32.69071857203454
 20
2.049334126461185
 30
0.0
 10
32.5550047388467
 20
2.031636136216008
 30
0.0
  0
SPLINE
  5
BC
330
1F
100
AcDbEntity
  8
0
  6
Continuous
 62
     1
370
    15
100
AcDbSpline
210
0.0
220
0.0
230
1.0
 70
    24
 71
     3
 72
    10
 73
     6
 74
     0
 42
0.000000001
 43
0.00000001
 40
0.0
 40
0.0
 40
0.0
 40
0.0
 40
0.5
 40
0.5
 40
1.0
 40
1.0
 40
1.0
 40
1.0
 10
50.00000000000001
 20
2.100000000000009
 30
0.0
 10
49.99999999999999
 20
2.22729677042195
 30
0.0
 10
50.00000000000001
 20
2.375227406601361
 30
0.0
 10
50.00000000000001
 20
2.685585482882578
 30
0.0
 10
50.00000000000001
 20
2.847220307404431
 30
0.0
 10
50.0
 20
3.00000000000015
 30
0.0
  0
LINE
  5
BD
330
1F
100
AcDbEntity
  8
0
  6
Continuous
 62
     1
370
    15
100
AcDbLine
 10
50.00000000000001
 20
2.100000000000009
 30
0.0
 11
48.87833783058539
 21
2.026328608856284
 31
0.0
  0
SPLINE
  5
BE
330
1F
100
AcDbEntity
  8
0
  6
Continuous
 62
     1
370
    15
100
AcDbSpline
210
0.0
220
0.0
230
1.0
 70
     8
 71
     3
 72
    14
 73
    10
 74
     0
 42
0.000000001
 43
0.00000001
 40
0.0
 40
0.0
 40
0.0
 40
0.0
 40
0.0081581754090173
 40
0.178676571849861
 40
0.3489726850881453
 40
0.5193528154064343
 40
0.6899018422494554
 40
0.8604150209667474
 40
1.0
 40
1.0
 40
1.0
 40
1.0
 10
26.22856722497539
 20
-0.2868323197836959
 30
0.0
 10
26.20138067240122
 20
-0.2763572813564187
 30
0.0
 10
25.60595341436502
 20
-0.0469378508655376
 30
0.0
 10
24.44298430512102
 20
0.4407340107662159
 30
0.0
 10
22.73981949030461
 20
1.086776585163967
 30
0.0
 10
21.03637354372296
 20
1.624144608252872
 30
0.0
 10
19.33198440728995
 20
1.980447995216981
 30
0.0
 10
17.73023560404925
 20
2.139676470447185
 30
0.0
 10
16.69704659981761
 20
2.067472508133813
 30
0.0
 10
16.23197558314593
 20
2.034971223254405
 30
0.0
  0
SPLINE
  5
BF
330
1F
100
AcDbEntity
  8
0
  6
Continuous
 62
     1
370
    15
100
AcDbSpline
210
0.0
220
0.0
230
1.0
 70
     8
 71
     3
 72
     8
 73
     4
 74
     0
 42
0.000000001
 43
0.00000001
 40
0.0
 40
0.0
 40
0.0
 40
0.0
 40
1.0
 40
1.0
 40
1.0
 40
1.0
 10
48.143235968209
 20
0.839678264451527
 30
0.0
 10
48.00894915072985
 20
0.9988018849865359
 30
0.0
 10
47.8924040352403
 20
1.150883649473456
 30
0.0
 10
47.80039515848586
 20
1.292364378577722
 30
0.0
  0
LINE
  5
C0
330
1F
100
AcDbEntity
  8
0
  6
Continuous
 62
     1
370
    15
100
AcDbLine
 10
47.80039515848586
 20
1.29236437857772
 30
0.0
 11
50.00000000000001
 21
0.0000000000000098
 31
0.0
  0
LINE
  5
C1
330
1F
100
AcDbEntity
  8
0
  6
Continuous
 62
     1
370
    15
100
AcDbLine
 10
50.00000000000001
 20
0.0000000000000098
 30
0.0
 11
50.00000000000001
 21
-0.8017288380889245
 31
0.0
  0
SPLINE
  5
C2
330
1F
100
AcDbEntity
  8
0
  6
Continuous
 62
     1
370
    15
100
AcDbSpline
210
0.0
220
0.0
230
1.0
 70
     8
 71
     3
 72
    10
 73
     6
 74
     0
 42
0.000000001
 43
0.00000001
 40
0.0
 40
0.0
 40
0.0
 40
0.0
 40
0.5
 40
0.5
 40
1.0
 40
1.0
 40
1.0
 40
1.0
 10
50.00000000000001
 20
-0.8017288380889247
 30
0.0
 10
49.67858102588963
 20
-0.5490379441585875
 30
0.0
 10
49.36253412376323
 20
-0.2859827532156685
 30
0.0
 10
48.741452432363
 20
0.2613732129960809
 30
0.0
 10
48.43352622597774
 20
0.5485583873743762
 30
0.0
 10
48.14323596822351
 20
0.8396782644369782
 30
0.0
  0
SPLINE
  5
C3
330
1F
100
AcDbEntity
  8
0
  6
Continuous
 62
     1
370
    15
100
AcDbSpline
210
0.0
220
0.0
230
1.0
 70
     8
 71
     3
 72
    23
 73
    19
 74
     0
 42
0.000000001
 43
0.00000001
 40
0.0
 40
0.0
 40
0.0
 40
0.0
 40
0.0018475808946647
 40
0.0700401534944781
 40
0.1382294075545124
 40
0.2064168216776154
 40
0.2746038767210495
 40
0.3427920539821955
 40
0.4109828333831121
 40
0.4791776916586684
 40
0.5473781005529573
 40
0.6155855250286549
 40
0.6838014214939353
 40
0.752027236051473
 40
0.8202612058206395
 40
0.8884866972257129
 40
0.9567023143915309
 40
1.0
 40
1.0
 40
1.0
 40
1.0
 10
43.64450408894767
 20
-2.254555508173494
 30
0.0
 10
43.63296579150702
 20
-2.256949638829426
 30
0.0
 10
43.1955591663672
 20
-2.347709009156059
 30
0.0
 10
42.33231660332977
 20
-2.403599733644959
 30
0.0
 10
41.05478426594311
 20
-2.39945301358668
 30
0.0
 10
39.77729252203217
 20
-2.235478324013564
 30
0.0
 10
38.49980797882827
 20
-1.941159544653156
 30
0.0
 10
37.22229973909995
 20
-1.528944021680968
 30
0.0
 10
35.94473626165934
 20
-1.025032781956984
 30
0.0
 10
34.66708626610811
 20
-0.4593602404627226
 30
0.0
 10
33.38931849099394
 20
0.1339562147516967
 30
0.0
 10
32.11140199305047
 20
0.7192107544139144
 30
0.0
 10
30.8333054268436
 20
1.261323725418533
 30
0.0
 10
29.55501982628117
 20
1.727122724559631
 30
0.0
 10
28.27664108485688
 20
2.090533751865111
 30
0.0
 10
26.9983608663693
 20
2.322250126977717
 30
0.0
 10
25.87583554857872
 20
2.422355112297137
 30
0.0
 10
25.1794142736795
 20
2.382537512374305
 30
0.0
 10
24.9090121901481
 20
2.36707738447699
 30
0.0
  0
SPLINE
  5
C4
330
1F
100
AcDbEntity
  8
0
  6
Continuous
 62
     1
370
    15
100
AcDbSpline
210
0.0
220
0.0
230
1.0
 70
     8
 71
     3
 72
     9
 73
     5
 74
     0
 42
0.000000001
 43
0.00000001
 40
0.0
 40
0.0
 40
0.0
 40
0.0
 40
0.1666869459580165
 40
1.0
 40
1.0
 40
1.0
 40
1.0
 10
10.99754200294329
 20
-2.251529250024199
 30
0.0
 10
10.94208850872649
 20
-2.261710008668481
 30
0.0
 10
10.60940802257268
 20
-2.322787128929877
 30
0.0
 10
10.27699996971499
 20
-2.349025274298161
 30
0.0
 10
10.0
 20
-2.370889863347403
 30
0.0
  0
SPLINE
  5
C5
330
1F
100
AcDbEntity
  8
0
  6
Continuous
 62
     1
370
    15
100
AcDbSpline
210
0.0
220
0.0
230
1.0
 70
     8
 71
     3
 72
    13
 73
     9
 74
     0
 42
0.000000001
 43
0.00000001
 40
0.0
 40
0.0
 40
0.0
 40
0.0
 40
0.1013002694387929
 40
0.2862800121085797
 40
0.4712388116274984
 40
0.6561806301224635
 40
0.8411094504483615
 40
1.0
 40
1.0
 40
1.0
 40
1.0
 10
48.1432359673214
 20
0.839678264834727
 30
0.0
 10
47.90996042502594
 20
0.938910607988273
 30
0.0
 10
47.25071119061664
 20
1.219346549145611
 30
0.0
 10
46.16544944669416
 20
1.630233501399278
 30
0.0
 10
44.88762217608438
 20
2.019150709038625
 30
0.0
 10
43.60991673863433
 20
2.282176128553501
 30
0.0
 10
42.39225704053881
 20
2.415695371990725
 30
0.0
 10
41.60049675373859
 20
2.387937577238844
 30
0.0
 10
41.23459756915321
 20
2.37510976226135
 30
0.0
  0
SPLINE
  5
C6
330
1F
100
AcDbEntity
  8
0
  6
Continuous
 62
     1
370
    15
100
AcDbSpline
210
0.0
220
0.0
230
1.0
 70
     8
 71
     3
 72
    22
 73
    18
 74
     0
 42
0.000000001
 43
0.00000001
 40
0.0
 40
0.0
 40
0.0
 40
0.0
 40
0.0189008719862244
 40
0.0926643029145968
 40
0.1664186206330095
 40
0.2401654003055134
 40
0.3139062262883426
 40
0.3876426902119754
 40
0.4613763890443661
 40
0.5351089231403287
 40
0.6088418942821238
 40
0.6825769037163332
 40
0.7563155501921272
 40
0.8300594280060257
 40
0.9038101250582126
 40
0.9520040653740436
 40
1.0
 40
1.0
 40
1.0
 40
1.0
 10
27.32579984017488
 20
-2.242678152592136
 30
0.0
 10
27.21663387422785
 20
-2.26371831472269
 30
0.0
 10
26.6814316812363
 20
-2.366870801997293
 30
0.0
 10
25.72027103735115
 20
-2.41574313557522
 30
0.0
 10
24.44235782338232
 20
-2.374817969283466
 30
0.0
 10
23.16459454821527
 20
-2.18042663060329
 30
0.0
 10
21.88694752704121
 20
-1.857682869574394
 30
0.0
 10
20.60938622172655
 20
-1.422420700121096
 30
0.0
 10
19.33187917636188
 20
-0.9017922178781339
 30
0.0
 10
18.05439481233652
 20
-0.3268563509150956
 30
0.0
 10
16.77690254860245
 20
0.2677203796657823
 30
0.0
 10
15.49936776328424
 20
0.8462381992735748
 30
0.0
 10
14.22177106607766
 20
1.373711643890106
 30
0.0
 10
12.9440364794218
 20
1.819071407861236
 30
0.0
 10
11.81393811398523
 20
2.11444381666208
 30
0.0
 10
10.832209632952
 20
2.293321213570897
 30
0.0
 10
10.27702226216297
 20
2.345069154257811
 30
0.0
 10
9.999999999999998
 20
2.370889863347413
 30
0.0
  0
SPLINE
  5
C7
330
1F
100
AcDbEntity
  8
0
  6
Continuous
 62
     1
370
    15
100
AcDbSpline
210
0.0
220
0.0
230
1.0
 70
    24
 71
     3
 72
    10
 73
     6
 74
     0
 42
0.000000001
 43
0.00000001
 40
0.0
 40
0.0
 40
0.0
 40
0.0
 40
0.5
 40
0.5
 40
1.0
 40
1.0
 40
1.0
 40
1.0
 10
50.00000000000001
 20
-2.366916793104637
 30
0.0
 10
49.99999999999999
 20
-2.185474167011404
 30
0.0
 10
50.00000000000001
 20
-1.956214451719396
 30
0.0
 10
49.99999999999999
 20
-1.423207677452031
 30
0.0
 10
50.00000000000001
 20
-1.11992232915392
 30
0.0
 10
50.00000000000001
 20
-0.8017288380890204
 30
0.0
  0
SPLINE
  5
C8
330
1F
100
AcDbEntity
  8
0
  6
Continuous
 62
   131
370
    15
100
AcDbSpline
210
0.0
220
0.0
230
1.0
 70
    24
 71
     3
 72
    10
 73
     6
 74
     0
 42
0.000000001
 43
0.00000001
 40
0.0
 40
0.0
 40
0.0
 40
0.0
 40
0.5
 40
0.5
 40
1.0
 40
1.0
 40
1.0
 40
1.0
 10
9.999999999999998
 20
2.370889863347413
 30
0.0
 10
9.999999999999998
 20
2.246687476796946
 30
0.0
 10
9.999999999999998
 20
2.018126176846186
 30
0.0
 10
10.0
 20
1.388539426413594
 30
0.0
 10
9.999999999999998
 20
0.9902239634283605
 30
0.0
 10
10.0
 20
0.5697525257060294
 30
0.0
  0
SPLINE
  5
C9
330
1F
100
AcDbEntity
  8
0
  6
Continuous
 62
   131
370
    15
100
AcDbSpline
210
0.0
220
0.0
230
1.0
 70
    24
 71
     3
 72
    14
 73
    10
 74
     0
 42
0.000000001
 43
0.00000001
 40
0.0
 40
0.0
 40
0.0
 40
0.0
 40
0.2499999999999999
 40
0.2499999999999999
 40
0.4999999999999999
 40
0.4999999999999999
 40
0.7499999999999999
 40
0.7499999999999999
 40
1.0
 40
1.0
 40
1.0
 40
1.0
 10
10.0
 20
-0.3260842859299586
 30
0.0
 10
10.0
 20
-0.5738107683205274
 30
0.0
 10
9.999999999999998
 20
-0.8176990823595882
 30
0.0
 10
10.0
 20
-1.271942553277738
 30
0.0
 10
10.0
 20
-1.482011677756948
 30
0.0
 10
10.0
 20
-1.845432582878735
 30
0.0
 10
9.999999999999998
 20
-1.99859071766908
 30
0.0
 10
10.0
 20
-2.235984929564131
 30
0.0
 10
10.0
 20
-2.320239550753896
 30
0.0
 10
10.0
 20
-2.370889863347403
 30
0.0
  0
SPLINE
  5
CA
330
1F
100
AcDbEntity
  8
0
  6
Continuous
 62
     1
370
    15
100
AcDbSpline
210
0.0
220
0.0
230
1.0
 70
     8
 71
     3
 72
    10
 73
     6
 74
     0
 42
0.000000001
 43
0.00000001
 40
0.0
 40
0.0
 40
0.0
 40
0.0
 40
0.5
 40
0.5
 40
1.0
 40
1.0
 40
1.0
 40
1.0
 10
50.00000000000001
 20
2.100000000000009
 30
0.0
 10
49.62668070767047
 20
1.99868209403282
 30
0.0
 10
49.25615379955178
 20
1.882604047883012
 30
0.0
 10
48.52150500180385
 20
1.616591951667599
 30
0.0
 10
48.1572293506107
 20
1.467297855402135
 30
0.0
 10
47.80039515848423
 20
1.29236437857902
 30
0.0
  0
LINE
  5
CB
330
1F
100
AcDbEntity
  8
0
  6
Continuous
 62
     1
370
    15
100
AcDbLine
 10
50.00000000000001
 20
0.0000000000000098
 30
0.0
 11
50.00000000000001
 21
2.100000000000009
 31
0.0
  0
LINE
  5
CC
330
1F
100
AcDbEntity
  8
0
  6
Continuous
 62
   131
370
    15
100
AcDbLine
 10
9.899071671268997
 20
-0.2854440155088848
 30
0.0
 11
9.110066904010504
 21
0.0322603149607362
 31
0.0
  0
SPLINE
  5
CD
330
1F
100
AcDbEntity
  8
0
  6
Continuous
 62
   131
370
    15
100
AcDbSpline
210
0.0
220
0.0
230
1.0
 70
     8
 71
     3
 72
     8
 73
     4
 74
     0
 42
0.000000001
 43
0.00000001
 40
0.0
 40
0.0
 40
0.0
 40
0.0
 40
1.0
 40
1.0
 40
1.0
 40
1.0
 10
9.999999999999963
 20
-0.3436204609039337
 30
0.0
 10
9.70220579133327
 20
-0.1732545158104361
 30
0.0
 10
9.40501466235723
 20
-0.001320383183225
 30
0.0
 10
9.110053439525942
 20
0.1693566995317216
 30
0.0
  0
SPLINE
  5
CE
330
1F
100
AcDbEntity
  8
0
  6
Continuous
 62
   131
370
    15
100
AcDbSpline
210
0.0
220
0.0
230
1.0
 70
     8
 71
     3
 72
     8
 73
     4
 74
     0
 42
0.000000001
 43
0.00000001
 40
0.0
 40
0.0
 40
0.0
 40
0.0
 40
1.0
 40
1.0
 40
1.0
 40
1.0
 10
9.99999999999997
 20
0.4928337868214723
 30
0.0
 10
9.702224580595718
 20
0.6619878198795122
 30
0.0
 10
9.405051330144524
 20
0.8285964308217837
 30
0.0
 10
9.110109271021
 20
0.9899601945783072
 30
0.0
  0
LINE
  5
CF
330
1F
100
AcDbEntity
  8
0
  6
Continuous
 62
   131
370
    15
100
AcDbLine
 10
9.110053439525942
 20
-2.999999999999996
 30
0.0
 11
9.110053439525942
 21
0.1701469351609732
 31
0.0
  0
LINE
  5
D0
330
1F
100
AcDbEntity
  8
0
  6
Continuous
 62
   131
370
    15
100
AcDbLine
 10
9.110053439525942
 20
0.9900815633670073
 30
0.0
 11
9.110053439525942
 21
3.000000000000005
 31
0.0
  0
LINE
  5
D1
330
1F
100
AcDbEntity
  8
0
  6
Continuous
 62
   131
370
    15
100
AcDbLine
 10
-39.45
 20
2.999999999999999
 30
0.0
 11
-39.45
 21
-2.999999999999999
 31
0.0
  0
LINE
  5
D2
330
1F
100
AcDbEntity
  8
0
  6
Continuous
 62
   131
370
    15
100
AcDbLine
 10
-40.0
 20
2.449999999999998
 30
0.0
 11
-40.0
 21
-2.449999999999995
 31
0.0
  0
LINE
  5
D3
330
1F
100
AcDbEntity
  8
0
  6
Continuous
 62
   131
370
    15
100
AcDbLine
 10
9.110053439525942
 20
0.9878607030052422
 30
0.0
 11
9.110053439525942
 21
0.9900797863417992
 31
0.0
  0
LINE
  5
D4
330
1F
100
AcDbEntity
  8
0
  6
Continuous
 62
   131
370
    15
100
AcDbLine
 10
10.0
 20
0.5697525257060294
 30
0.0
 11
9.559387895094272
 21
0.7753645308303285
 31
0.0
  0
SPLINE
  5
D5
330
1F
100
AcDbEntity
  8
0
  6
Continuous
 62
   131
370
    15
100
AcDbSpline
210
0.0
220
0.0
230
1.0
 70
    24
 71
     3
 72
     8
 73
     4
 74
     0
 42
0.000000001
 43
0.00000001
 40
0.0
 40
0.0
 40
0.0
 40
0.0
 40
1.0
 40
1.0
 40
1.0
 40
1.0
 10
10.00000000000026
 20
0.5697525257059046
 30
0.0
 10
10.00000000000026
 20
0.5568535698355126
 30
0.0
 10
10.00000000000026
 20
0.5311057380710458
 30
0.0
 10
10.00000000000026
 20
0.4928337868237389
 30
0.0
  0
SPLINE
  5
D6
330
1F
100
AcDbEntity
  8
0
  6
Continuous
 62
   131
370
    15
100
AcDbSpline
210
0.0
220
0.0
230
1.0
 70
     8
 71
     3
 72
     8
 73
     4
 74
     0
 42
0.000000001
 43
0.00000001
 40
0.0
 40
0.0
 40
0.0
 40
0.0
 40
1.0
 40
1.0
 40
1.0
 40
1.0
 10
9.999999999999941
 20
2.370889863347417
 30
0.0
 10
9.702212658194178
 20
2.392192876697027
 30
0.0
 10
9.405028063244176
 20
2.401817520060532
 30
0.0
 10
9.110073844123562
 20
2.399716841449127
 30
0.0
  0
SPLINE
  5
D7
330
1F
100
AcDbEntity
  8
0
  6
Continuous
 62
   131
370
    15
100
AcDbSpline
210
0.0
220
0.0
230
1.0
 70
    24
 71
     3
 72
    10
 73
     6
 74
     0
 42
0.000000001
 43
0.00000001
 40
0.0
 40
0.0
 40
0.0
 40
0.0
 40
0.5
 40
0.5
 40
1.0
 40
1.0
 40
1.0
 40
1.0
 10
9.999999999999998
 20
2.370889863347413
 30
0.0
 10
9.999999999999998
 20
2.246687476796946
 30
0.0
 10
9.999999999999998
 20
2.018126176846186
 30
0.0
 10
10.0
 20
1.388539426413594
 30
0.0
 10
9.999999999999998
 20
0.9902239634283605
 30
0.0
 10
10.0
 20
0.5697525257060294
 30
0.0
  0
SPLINE
  5
D8
330
1F
100
AcDbEntity
  8
0
  6
Continuous
 62
   131
370
    15
100
AcDbSpline
210
0.0
220
0.0
230
1.0
 70
     8
 71
     3
 72
     8
 73
     4
 74
     0
 42
0.000000001
 43
0.00000001
 40
0.0
 40
0.0
 40
0.0
 40
0.0
 40
1.0
 40
1.0
 40
1.0
 40
1.0
 10
9.999999999999941
 20
-2.370889863347408
 30
0.0
 10
9.702212658194178
 20
-2.392192876697017
 30
0.0
 10
9.405028063244176
 20
-2.401817520060523
 30
0.0
 10
9.110073844123562
 20
-2.399716841449118
 30
0.0
  0
SPLINE
  5
D9
330
1F
100
AcDbEntity
  8
0
  6
Continuous
 62
   131
370
    15
100
AcDbSpline
210
0.0
220
0.0
230
1.0
 70
    24
 71
     3
 72
    14
 73
    10
 74
     0
 42
0.000000001
 43
0.00000001
 40
0.0
 40
0.0
 40
0.0
 40
0.0
 40
0.2499999999999999
 40
0.2499999999999999
 40
0.4999999999999999
 40
0.4999999999999999
 40
0.7499999999999999
 40
0.7499999999999999
 40
1.0
 40
1.0
 40
1.0
 40
1.0
 10
10.0
 20
-0.3260842859299586
 30
0.0
 10
10.0
 20
-0.5738107683205274
 30
0.0
 10
9.999999999999998
 20
-0.8176990823595882
 30
0.0
 10
10.0
 20
-1.271942553277738
 30
0.0
 10
10.0
 20
-1.482011677756948
 30
0.0
 10
10.0
 20
-1.845432582878735
 30
0.0
 10
9.999999999999998
 20
-1.99859071766908
 30
0.0
 10
10.0
 20
-2.235984929564131
 30
0.0
 10
10.0
 20
-2.320239550753896
 30
0.0
 10
10.0
 20
-2.370889863347403
 30
0.0
  0
LINE
  5
DA
330
1F
100
AcDbEntity
  8
중심선
 62
     1
100
AcDbLine
 10
-43.00000000000001
 20
0.0
 30
0.0
 11
53.00000000000002
 21
0.0000000000000101
 31
0.0
  0
CIRCLE
  5
DB
330
1F
100
AcDbEntity
  8
외형선
100
AcDbCircle
 10
0.0000000000000104
 20
0.0
 30
0.0
 40
3.000000000000005
  0
INSERT
  5
DC
330
1F
100
AcDbEntity
  8
0
  6
Continuous
 62
     7
100
AcDbBlockReference
 66
     1
  2
블럭10
 10
-22.93944368806589
 20
-52.04609937292004
 30
0.0
  0
ATTRIB
  5
DD
330
DC
100
AcDbEntity
  8
FORMAT
 62
     2
100
AcDbText
 10
-39.05870472750145
 20
-49.97073246008785
 30
0.0
 40
4.233333333333333
  1
SEME7006040E [ 2 FLUTE ]
 41
0.75
  7
SLDTEXTSTYLE0
 11
-39.05870472750145
 21
-52.08739912675452
 31
0.0
100
AcDbAttribute
  2
AUTOATTR0
 70
     0
 74
     1
  0
SEQEND
  5
DE
330
DC
100
AcDbEntity
  8
0
  6
Continuous
 62
     7
  0
HATCH
  5
DF
330
1F
100
AcDbEntity
  8
중심선
100
AcDbHatch
 10
0.0
 20
0.0
 30
0.0
210
0.0
220
0.0
230
1.0
  2
SOLID
 70
     1
 71
     0
 91
        1
 92
        0
 93
        4
 72
     1
 10
-17.22453438368504
 20
-35.7989250712761
 11
-20.67080962752232
 21
-35.7989250712761
 72
     1
 10
-20.67080962752232
 20
-35.7989250712761
 11
-22.79903948672635
 21
-38.3352506518487
 72
     1
 10
-22.79903948672635
 20
-38.3352506518487
 11
-19.35273115777591
 21
-38.33521122254621
 72
     1
 10
-19.35273115777591
 20
-38.33521122254621
 11
-17.22453438368504
 21
-35.7989250712761
 97
        0
 75
     0
 76
     1
 98
        1
 10
0.0
 20
0.0
  0
HATCH
  5
E0
330
1F
100
AcDbEntity
  8
중심선
100
AcDbHatch
 10
0.0
 20
0.0
 30
0.0
210
0.0
220
0.0
230
1.0
  2
SOLID
 70
     1
 71
     0
 91
        1
 92
        0
 93
        4
 72
     1
 10
-12.21177039264909
 20
-35.7989250712761
 11
-15.65804563648637
 21
-35.7989250712761
 72
     1
 10
-15.65804563648637
 20
-35.7989250712761
 11
-20.18918364484376
 21
-41.19892507127612
 72
     1
 10
-20.18918364484376
 20
-41.19892507127612
 11
-16.74290840100648
 21
-41.19892507127612
 72
     1
 10
-16.74290840100648
 20
-41.19892507127612
 11
-12.21177039264909
 21
-35.7989250712761
 97
        0
 75
     0
 76
     1
 98
        1
 10
0.0
 20
0.0
  0
HATCH
  5
E1
330
1F
100
AcDbEntity
  8
중심선
100
AcDbHatch
 10
0.0
 20
0.0
 30
0.0
210
0.0
220
0.0
230
1.0
  2
SOLID
 70
     1
 71
     0
 91
        1
 92
        0
 93
        4
 72
     1
 10
-7.199006401613195
 20
-35.79892507127613
 11
-10.64528164545031
 21
-35.7989250712761
 72
     1
 10
-10.64528164545031
 20
-35.7989250712761
 11
-17.69371854733956
 21
-44.19892507127612
 72
     1
 10
-17.69371854733956
 20
-44.19892507127612
 11
-14.24744330350228
 21
-44.19892507127612
 72
     1
 10
-14.24744330350228
 20
-44.19892507127612
 11
-7.199006401613195
 21
-35.79892507127613
 97
        0
 75
     0
 76
     1
 98
        1
 10
0.0
 20
0.0
  0
HATCH
  5
E2
330
1F
100
AcDbEntity
  8
중심선
100
AcDbHatch
 10
0.0
 20
0.0
 30
0.0
210
0.0
220
0.0
230
1.0
  2
SOLID
 70
     1
 71
     0
 91
        1
 92
        0
 93
        6
 72
     3
 10
-2.399115970600996
 20
-39.99892507132738
 11
3.960054785062284
 21
1.540850780301639E-10
 40
0.3939339440162633
 50
17.09539180608433
 51
320.0019657685079
 73
     0
 72
     1
 10
-0.7161163149004002
 20
-38.58681907591441
 11
1.589185558800638
 21
-36.65249236586649
 72
     3
 10
-2.399115970653842
 20
-39.99892507127625
 11
6.600054785286829
 21
-1.249000902703301E-13
 40
0.6363583540795982
 50
39.99873849337408
 51
368.4976242363725
 73
     1
 72
     1
 10
4.026216521246767
 20
-39.03892507120613
 11
-3.71904866381792
 21
-39.0389250712061
 72
     1
 10
-3.71904866381792
 20
-39.0389250712061
 11
-3.719073708263854
 21
-40.95892507120602
 72
     1
 10
-3.719073708263854
 20
-40.95892507120602
 11
0.7223060612081831
 21
-40.95892507120599
 97
        0
 75
     0
 76
     1
 98
        1
 10
0.0
 20
0.0
  0
DIMENSION
  5
E3
330
1F
100
AcDbEntity
  8
치수문자_일반주서
100
AcDbDimension
  2
_D
 10
60.80239072929872
 20
3.000000000000188
 30
0.0
 11
60.80239072929869
 21
12.66650000000019
 31
0.0
 70
   160
  1
%%c<>
 71
     2
 42
5.999999999999995
 52
-270.0
  3
SLDDIMSTYLE0
100
AcDbAlignedDimension
 13
50.00000000000001
 23
-2.999999999999845
 33
0.0
 14
50.0
 24
3.00000000000015
 34
0.0
 50
90.0000000000002
100
AcDbRotatedDimension
  0
DIMENSION
  5
F1
330
1F
100
AcDbEntity
  8
치수문자_일반주서
100
AcDbDimension
  2
_D_1
 10
50.0
 20
24.2384104402427
 30
0.0
 11
4.999999999999998
 21
24.2384104402427
 31
0.0
 70
   160
  1
<>
 71
     2
 42
90.0
  3
SLDDIMSTYLE1
100
AcDbAlignedDimension
 13
-40.0
 23
2.449999999999998
 33
0.0
 14
50.0
 24
3.00000000000015
 34
0.0
 50
-0.0000000000000068
100
AcDbRotatedDimension
  0
DIMENSION
  5
FC
330
1F
100
AcDbEntity
  8
치수문자_일반주서
100
AcDbDimension
  2
_D_2
 10
50.0
 20
15.71788766951493
 30
0.0
 11
30.00000000000001
 21
15.71788766951493
 31
0.0
 70
   160
  1
<>
 71
     2
 42
40.0
  3
SLDDIMSTYLE1
100
AcDbAlignedDimension
 13
10.0
 23
2.370889863347412
 33
0.0
 14
50.0
 24
3.00000000000015
 34
0.0
100
AcDbRotatedDimension
  0
DIMENSION
  5
106
330
1F
100
AcDbEntity
  8
치수문자_일반주서
100
AcDbDimension
  2
_D_3
 10
-49.02277436002954
 20
-3.000000000000032
 30
0.0
 11
-49.02277436002959
 21
12.66649999999996
 31
0.0
 70
   160
  1
%%c<>
 71
     2
 42
5.999999999999995
 52
-270.0
  3
SLDDIMSTYLE0
100
AcDbAlignedDimension
 13
-39.45
 23
2.999999999999999
 33
0.0
 14
-39.45
 24
-2.999999999999996
 34
0.0
 50
90.0000000000002
100
AcDbRotatedDimension
  0
INSERT
  5
119
330
1F
100
AcDbEntity
  8
외형선
100
AcDbBlockReference
  2
SW_DOWELSYMBOL_0
 10
0.0000000000000104
 20
0.0
 30
0.0
  0
ENDSEC
  0
SECTION
  2
OBJECTS
  0
DICTIONARY
  5
C
330
0
100
AcDbDictionary
281
     1
  3
ACAD_GROUP
350
D
  3
ACAD_IMAGE_VARS
350
13D
  3
ACAD_LAYOUT
350
1A
  3
ACAD_MLINESTYLE
350
17
  3
ACAD_PLOTSETTINGS
350
19
  3
ACAD_PLOTSTYLENAME
350
E
  3
ACAD_SCALELIST
350
47
  3
APPDATA
350
13B
  3
DWGPROPS
350
14C
  0
DICTIONARY
  5
D
102
{ACAD_REACTORS
330
C
102
}
330
C
100
AcDbDictionary
281
     1
  0
RASTERVARIABLES
  5
13D
102
{ACAD_REACTORS
330
C
102
}
330
C
100
AcDbRasterVariables
 90
        0
 70
     1
 71
     1
 72
     1
  0
DICTIONARY
  5
1A
102
{ACAD_REACTORS
330
C
102
}
330
C
100
AcDbDictionary
281
     1
  3
Layout1
350
1E
  3
Layout2
350
26
  3
Model
350
22
  0
DICTIONARY
  5
17
102
{ACAD_REACTORS
330
C
102
}
330
C
100
AcDbDictionary
281
     1
  3
Standard
350
18
  0
DICTIONARY
  5
19
102
{ACAD_REACTORS
330
C
102
}
330
C
100
AcDbDictionary
281
     1
  0
ACDBDICTIONARYWDFLT
  5
E
102
{ACAD_REACTORS
330
C
102
}
330
C
100
AcDbDictionary
281
     1
  3
Normal
350
F
100
AcDbDictionaryWithDefault
340
F
  0
DICTIONARY
  5
47
102
{ACAD_REACTORS
330
C
102
}
330
C
100
AcDbDictionary
281
     1
  3
A0
350
48
  3
A1
350
49
  3
A2
350
4A
  3
A3
350
4B
  3
A4
350
4C
  3
A5
350
4D
  3
A6
350
4E
  3
A7
350
4F
  3
A8
350
50
  3
A9
350
51
  3
B0
350
52
  3
B1
350
53
  3
B2
350
54
  3
B3
350
55
  3
B4
350
56
  3
B5
350
57
  3
B6
350
58
  3
B7
350
59
  3
B8
350
5A
  3
B9
350
5B
  3
C0
350
5C
  3
C1
350
5D
  3
C2
350
5E
  3
C3
350
5F
  3
C4
350
60
  3
C5
350
61
  3
C6
350
62
  3
C7
350
63
  3
C8
350
64
  3
C9
350
65
  3
D0
350
66
  3
D1
350
67
  3
D2
350
68
  0
DICTIONARY
  5
13B
102
{ACAD_REACTORS
330
C
102
}
330
C
100
AcDbDictionary
281
     1
  0
XRECORD
  5
14C
102
{ACAD_REACTORS
330
C
102
}
330
C
100
AcDbXrecord
280
     1
  1
DWGPROPS COOKIE
  2

  3

  4

  6

  7

  8
12014102
  9

300
=
301
=
302
=
303
=
304
=
305
=
306
=
307
=
308
=
309
=
 40
0.0
 41
2458262.167668218
 42
2458266.03221581
  1

 90
        0
  0
LAYOUT
  5
1E
102
{ACAD_REACTORS
330
1A
102
}
330
1A
100
AcDbPlotSettings
  1

  2
none_device
  4

  6

 40
0.0
 41
0.0
 42
0.0
 43
0.0
 44
0.0
 45
0.0
 46
0.0
 47
0.0
 48
0.0
 49
0.0
140
0.0
141
0.0
142
1.0
143
1.0
 70
   688
 72
     1
 73
     0
 74
     5
  7

 75
    16
147
1.0
148
0.0
149
0.0
100
AcDbLayout
  1
Layout1
 70
     1
 71
     1
 10
0.0
 20
0.0
 11
420.0
 21
297.0
 12
0.0
 22
0.0
 32
0.0
 14
1.000000000000000E+20
 24
1.000000000000000E+20
 34
1.000000000000000E+20
 15
-1.000000000000000E+20
 25
-1.000000000000000E+20
 35
-1.000000000000000E+20
146
0.0
 13
0.0
 23
0.0
 33
0.0
 16
1.0
 26
0.0
 36
0.0
 17
0.0
 27
1.0
 37
0.0
 76
     0
330
1B
  0
LAYOUT
  5
26
102
{ACAD_REACTORS
330
1A
102
}
330
1A
100
AcDbPlotSettings
  1

  2
none_device
  4

  6

 40
0.0
 41
0.0
 42
0.0
 43
0.0
 44
0.0
 45
0.0
 46
0.0
 47
0.0
 48
0.0
 49
0.0
140
0.0
141
0.0
142
1.0
143
1.0
 70
   688
 72
     1
 73
     0
 74
     5
  7

 75
    16
147
1.0
148
0.0
149
0.0
100
AcDbLayout
  1
Layout2
 70
     1
 71
     2
 10
0.0
 20
0.0
 11
0.0
 21
0.0
 12
0.0
 22
0.0
 32
0.0
 14
0.0
 24
0.0
 34
0.0
 15
0.0
 25
0.0
 35
0.0
146
0.0
 13
0.0
 23
0.0
 33
0.0
 16
1.0
 26
0.0
 36
0.0
 17
0.0
 27
1.0
 37
0.0
 76
     0
330
23
  0
LAYOUT
  5
22
102
{ACAD_REACTORS
330
1A
102
}
330
1A
100
AcDbPlotSettings
  1

  2
none_device
  4
ANSI_A_(11.00_x_8.50_Inches)
  6

 40
6.35
 41
19.05
 42
6.35000508
 43
19.05000254
 44
279.4
 45
215.9
 46
128.8237226512811
 47
117.4190773131288
 48
0.0
 49
0.0
140
0.0
141
0.0
142
0.1022423202765948
143
1.0
 70
  1696
 72
     0
 73
     0
 74
     0
  7

 75
     0
147
0.0235690232323232
148
0.0
149
0.0
100
AcDbLayout
  1
Model
 70
     1
 71
     0
 10
0.0
 20
0.0
 11
420.0
 21
297.0
 12
0.0
 22
0.0
 32
0.0
 14
-53.3977743600296
 24
-49.97073246008785
 34
0.0
 15
61.35272406263209
 25
28.6134104402427
 35
0.0
146
0.0
 13
0.0
 23
0.0
 33
0.0
 16
1.0
 26
0.0
 36
0.0
 17
0.0
 27
1.0
 37
0.0
 76
     0
330
1F
331
29
  0
MLINESTYLE
  5
18
102
{ACAD_REACTORS
330
17
102
}
330
17
100
AcDbMlineStyle
  2
Standard
 70
     0
  3

 62
   256
 51
90.0
 52
90.0
 71
     2
 49
0.5
 62
   256
  6
BYLAYER
 49
-0.5
 62
   256
  6
BYLAYER
  0
ACDBPLACEHOLDER
  5
F
102
{ACAD_REACTORS
330
E
102
}
330
E
  0
SCALE
  5
48
102
{ACAD_REACTORS
330
47
102
}
330
47
100
AcDbScale
 70
     0
300
1:1
140
1.0
141
1.0
290
     1
  0
SCALE
  5
49
102
{ACAD_REACTORS
330
47
102
}
330
47
100
AcDbScale
 70
     0
300
1:2
140
1.0
141
2.0
290
     0
  0
SCALE
  5
4A
102
{ACAD_REACTORS
330
47
102
}
330
47
100
AcDbScale
 70
     0
300
1:4
140
1.0
141
4.0
290
     0
  0
SCALE
  5
4B
102
{ACAD_REACTORS
330
47
102
}
330
47
100
AcDbScale
 70
     0
300
1:5
140
1.0
141
5.0
290
     0
  0
SCALE
  5
4C
102
{ACAD_REACTORS
330
47
102
}
330
47
100
AcDbScale
 70
     0
300
1:8
140
1.0
141
8.0
290
     0
  0
SCALE
  5
4D
102
{ACAD_REACTORS
330
47
102
}
330
47
100
AcDbScale
 70
     0
300
1:10
140
1.0
141
10.0
290
     0
  0
SCALE
  5
4E
102
{ACAD_REACTORS
330
47
102
}
330
47
100
AcDbScale
 70
     0
300
1:16
140
1.0
141
16.0
290
     0
  0
SCALE
  5
4F
102
{ACAD_REACTORS
330
47
102
}
330
47
100
AcDbScale
 70
     0
300
1:20
140
1.0
141
20.0
290
     0
  0
SCALE
  5
50
102
{ACAD_REACTORS
330
47
102
}
330
47
100
AcDbScale
 70
     0
300
1:30
140
1.0
141
30.0
290
     0
  0
SCALE
  5
51
102
{ACAD_REACTORS
330
47
102
}
330
47
100
AcDbScale
 70
     0
300
1:40
140
1.0
141
40.0
290
     0
  0
SCALE
  5
52
102
{ACAD_REACTORS
330
47
102
}
330
47
100
AcDbScale
 70
     0
300
1:50
140
1.0
141
50.0
290
     0
  0
SCALE
  5
53
102
{ACAD_REACTORS
330
47
102
}
330
47
100
AcDbScale
 70
     0
300
1:100
140
1.0
141
100.0
290
     0
  0
SCALE
  5
54
102
{ACAD_REACTORS
330
47
102
}
330
47
100
AcDbScale
 70
     0
300
2:1
140
2.0
141
1.0
290
     0
  0
SCALE
  5
55
102
{ACAD_REACTORS
330
47
102
}
330
47
100
AcDbScale
 70
     0
300
4:1
140
4.0
141
1.0
290
     0
  0
SCALE
  5
56
102
{ACAD_REACTORS
330
47
102
}
330
47
100
AcDbScale
 70
     0
300
8:1
140
8.0
141
1.0
290
     0
  0
SCALE
  5
57
102
{ACAD_REACTORS
330
47
102
}
330
47
100
AcDbScale
 70
     0
300
10:1
140
10.0
141
1.0
290
     0
  0
SCALE
  5
58
102
{ACAD_REACTORS
330
47
102
}
330
47
100
AcDbScale
 70
     0
300
100:1
140
100.0
141
1.0
290
     0
  0
SCALE
  5
59
102
{ACAD_REACTORS
330
47
102
}
330
47
100
AcDbScale
 70
     0
300
1/128" = 1'-0"
140
0.0078125
141
12.0
290
     0
  0
SCALE
  5
5A
102
{ACAD_REACTORS
330
47
102
}
330
47
100
AcDbScale
 70
     0
300
1/64" = 1'-0"
140
0.015625
141
12.0
290
     0
  0
SCALE
  5
5B
102
{ACAD_REACTORS
330
47
102
}
330
47
100
AcDbScale
 70
     0
300
1/32" = 1'-0"
140
0.03125
141
12.0
290
     0
  0
SCALE
  5
5C
102
{ACAD_REACTORS
330
47
102
}
330
47
100
AcDbScale
 70
     0
300
1/16" = 1'-0"
140
0.0625
141
12.0
290
     0
  0
SCALE
  5
5D
102
{ACAD_REACTORS
330
47
102
}
330
47
100
AcDbScale
 70
     0
300
3/32" = 1'-0"
140
0.09375
141
12.0
290
     0
  0
SCALE
  5
5E
102
{ACAD_REACTORS
330
47
102
}
330
47
100
AcDbScale
 70
     0
300
1/8" = 1'-0"
140
0.125
141
12.0
290
     0
  0
SCALE
  5
5F
102
{ACAD_REACTORS
330
47
102
}
330
47
100
AcDbScale
 70
     0
300
3/16" = 1'-0"
140
0.1875
141
12.0
290
     0
  0
SCALE
  5
60
102
{ACAD_REACTORS
330
47
102
}
330
47
100
AcDbScale
 70
     0
300
1/4" = 1'-0"
140
0.25
141
12.0
290
     0
  0
SCALE
  5
61
102
{ACAD_REACTORS
330
47
102
}
330
47
100
AcDbScale
 70
     0
300
3/8" = 1'-0"
140
0.375
141
12.0
290
     0
  0
SCALE
  5
62
102
{ACAD_REACTORS
330
47
102
}
330
47
100
AcDbScale
 70
     0
300
1/2" = 1'-0"
140
0.5
141
12.0
290
     0
  0
SCALE
  5
63
102
{ACAD_REACTORS
330
47
102
}
330
47
100
AcDbScale
 70
     0
300
3/4" = 1'-0"
140
0.75
141
12.0
290
     0
  0
SCALE
  5
64
102
{ACAD_REACTORS
330
47
102
}
330
47
100
AcDbScale
 70
     0
300
1" = 1'-0"
140
1.0
141
12.0
290
     0
  0
SCALE
  5
65
102
{ACAD_REACTORS
330
47
102
}
330
47
100
AcDbScale
 70
     0
300
1-1/2" = 1'-0"
140
1.5
141
12.0
290
     0
  0
SCALE
  5
66
102
{ACAD_REACTORS
330
47
102
}
330
47
100
AcDbScale
 70
     0
300
3" = 1'-0"
140
3.0
141
12.0
290
     0
  0
SCALE
  5
67
102
{ACAD_REACTORS
330
47
102
}
330
47
100
AcDbScale
 70
     0
300
6" = 1'-0"
140
6.0
141
12.0
290
     0
  0
SCALE
  5
68
102
{ACAD_REACTORS
330
47
102
}
330
47
100
AcDbScale
 70
     0
300
1'-0" = 1'-0"
140
12.0
141
12.0
290
     0
  0
ENDSEC
  0
EOF
