  0
SECTION
  2
HEADER
  9
$ACADVER
  1
AC1015
  9
$ACADMAINTVER
 70
     6
  9
$DWGCODEPAGE
  3
ANSI_949
  9
$INSBASE
 10
0.0
 20
0.0
 30
0.0
  9
$EXTMIN
 10
-54.87972050209761
 20
-49.97073246008785
 30
0.0
  9
$EXTMAX
 10
50.75282311614181
 20
29.35712527881317
 30
0.0
  9
$LIMMIN
 10
0.0
 20
0.0
  9
$LIMMAX
 10
420.0
 20
297.0
  9
$ORTHOMODE
 70
     0
  9
$REGENMODE
 70
     1
  9
$FILLMODE
 70
     1
  9
$QTEXTMODE
 70
     0
  9
$MIRRTEXT
 70
     1
  9
$LTSCALE
 40
1.0
  9
$ATTMODE
 70
     1
  9
$TEXTSIZE
 40
3.5
  9
$TRACEWID
 40
1.0
  9
$TEXTSTYLE
  7
Standard
  9
$CLAYER
  8
0
  9
$CELTYPE
  6
ByLayer
  9
$CECOLOR
 62
   256
  9
$CELTSCALE
 40
1.0
  9
$DISPSILH
 70
     0
  9
$DIMSCALE
 40
1.0
  9
$DIMASZ
 40
3.302
  9
$DIMEXO
 40
1.0
  9
$DIMDLI
 40
3.75
  9
$DIMRND
 40
0.0
  9
$DIMDLE
 40
0.0
  9
$DIMEXE
 40
1.0
  9
$DIMTP
 40
0.0
  9
$DIMTM
 40
0.0
  9
$DIMTXT
 40
3.5
  9
$DIMCEN
 40
2.5
  9
$DIMTSZ
 40
0.0
  9
$DIMTOL
 70
     0
  9
$DIMLIM
 70
     0
  9
$DIMTIH
 70
     1
  9
$DIMTOH
 70
     1
  9
$DIMSE1
 70
     0
  9
$DIMSE2
 70
     0
  9
$DIMTAD
 70
     1
  9
$DIMZIN
 70
     0
  9
$DIMBLK
  1

  9
$DIMASO
 70
     1
  9
$DIMSHO
 70
     1
  9
$DIMPOST
  1

  9
$DIMAPOST
  1

  9
$DIMALT
 70
     0
  9
$DIMALTD
 70
     3
  9
$DIMALTF
 40
0.0393700787401575
  9
$DIMLFAC
 40
1.0
  9
$DIMTOFL
 70
     1
  9
$DIMTVP
 40
0.0
  9
$DIMTIX
 70
     0
  9
$DIMSOXD
 70
     0
  9
$DIMSAH
 70
     0
  9
$DIMBLK1
  1

  9
$DIMBLK2
  1

  9
$DIMSTYLE
  2
ISO-25
  9
$DIMCLRD
 70
     0
  9
$DIMCLRE
 70
     0
  9
$DIMCLRT
 70
     0
  9
$DIMTFAC
 40
1.0
  9
$DIMGAP
 40
1.524
  9
$DIMJUST
 70
     0
  9
$DIMSD1
 70
     0
  9
$DIMSD2
 70
     0
  9
$DIMTOLJ
 70
     0
  9
$DIMTZIN
 70
     0
  9
$DIMALTZ
 70
     0
  9
$DIMALTTZ
 70
     0
  9
$DIMUPT
 70
     0
  9
$DIMDEC
 70
     2
  9
$DIMTDEC
 70
     2
  9
$DIMALTU
 70
     2
  9
$DIMALTTD
 70
     3
  9
$DIMTXSTY
  7
Standard
  9
$DIMAUNIT
 70
     0
  9
$DIMADEC
 70
     2
  9
$DIMALTRND
 40
0.0
  9
$DIMAZIN
 70
     0
  9
$DIMDSEP
 70
    44
  9
$DIMATFIT
 70
     3
  9
$DIMFRAC
 70
     0
  9
$DIMLDRBLK
  1

  9
$DIMLUNIT
 70
     2
  9
$DIMLWD
 70
    -2
  9
$DIMLWE
 70
    -2
  9
$DIMTMOVE
 70
     0
  9
$LUNITS
 70
     2
  9
$LUPREC
 70
     2
  9
$SKETCHINC
 40
1.0
  9
$FILLETRAD
 40
10.0
  9
$AUNITS
 70
     0
  9
$AUPREC
 70
     2
  9
$MENU
  1
.
  9
$ELEVATION
 40
0.0
  9
$PELEVATION
 40
0.0
  9
$THICKNESS
 40
0.0
  9
$LIMCHECK
 70
     0
  9
$CHAMFERA
 40
0.0
  9
$CHAMFERB
 40
0.0
  9
$CHAMFERC
 40
0.0
  9
$CHAMFERD
 40
0.0
  9
$SKPOLY
 70
     0
  9
$TDCREATE
 40
2458262.543418785
  9
$TDUCREATE
 40
2458262.168418785
  9
$TDUPDATE
 40
2458266.412298681
  9
$TDUUPDATE
 40
2458266.037298681
  9
$TDINDWG
 40
0.0013583218
  9
$TDUSRTIMER
 40
2458266.035940405
  9
$USRTIMER
 70
     1
  9
$ANGBASE
 50
0.0
  9
$ANGDIR
 70
     0
  9
$PDMODE
 70
     0
  9
$PDSIZE
 40
-1.0
  9
$PLINEWID
 40
0.0
  9
$SPLFRAME
 70
     0
  9
$SPLINETYPE
 70
     6
  9
$SPLINESEGS
 70
     8
  9
$HANDSEED
  5
13E
  9
$SURFTAB1
 70
     6
  9
$SURFTAB2
 70
     6
  9
$SURFTYPE
 70
     6
  9
$SURFU
 70
     6
  9
$SURFV
 70
     6
  9
$UCSBASE
  2

  9
$UCSNAME
  2

  9
$UCSORG
 10
0.0
 20
0.0
 30
0.0
  9
$UCSXDIR
 10
1.0
 20
0.0
 30
0.0
  9
$UCSYDIR
 10
0.0
 20
1.0
 30
0.0
  9
$UCSORTHOREF
  2

  9
$UCSORTHOVIEW
 70
     0
  9
$UCSORGTOP
 10
0.0
 20
0.0
 30
0.0
  9
$UCSORGBOTTOM
 10
0.0
 20
0.0
 30
0.0
  9
$UCSORGLEFT
 10
0.0
 20
0.0
 30
0.0
  9
$UCSORGRIGHT
 10
0.0
 20
0.0
 30
0.0
  9
$UCSORGFRONT
 10
0.0
 20
0.0
 30
0.0
  9
$UCSORGBACK
 10
0.0
 20
0.0
 30
0.0
  9
$PUCSBASE
  2

  9
$PUCSNAME
  2

  9
$PUCSORG
 10
0.0
 20
0.0
 30
0.0
  9
$PUCSXDIR
 10
1.0
 20
0.0
 30
0.0
  9
$PUCSYDIR
 10
0.0
 20
1.0
 30
0.0
  9
$PUCSORTHOREF
  2

  9
$PUCSORTHOVIEW
 70
     0
  9
$PUCSORGTOP
 10
0.0
 20
0.0
 30
0.0
  9
$PUCSORGBOTTOM
 10
0.0
 20
0.0
 30
0.0
  9
$PUCSORGLEFT
 10
0.0
 20
0.0
 30
0.0
  9
$PUCSORGRIGHT
 10
0.0
 20
0.0
 30
0.0
  9
$PUCSORGFRONT
 10
0.0
 20
0.0
 30
0.0
  9
$PUCSORGBACK
 10
0.0
 20
0.0
 30
0.0
  9
$USERI1
 70
     0
  9
$USERI2
 70
     0
  9
$USERI3
 70
     0
  9
$USERI4
 70
     0
  9
$USERI5
 70
     0
  9
$USERR1
 40
0.0
  9
$USERR2
 40
0.0
  9
$USERR3
 40
0.0
  9
$USERR4
 40
0.0
  9
$USERR5
 40
0.0
  9
$WORLDVIEW
 70
     1
  9
$SHADEDGE
 70
     3
  9
$SHADEDIF
 70
    70
  9
$TILEMODE
 70
     1
  9
$MAXACTVP
 70
    64
  9
$PINSBASE
 10
0.0
 20
0.0
 30
0.0
  9
$PLIMCHECK
 70
     0
  9
$PEXTMIN
 10
1.000000000000000E+20
 20
1.000000000000000E+20
 30
1.000000000000000E+20
  9
$PEXTMAX
 10
-1.000000000000000E+20
 20
-1.000000000000000E+20
 30
-1.000000000000000E+20
  9
$PLIMMIN
 10
0.0
 20
0.0
  9
$PLIMMAX
 10
0.0
 20
0.0
  9
$UNITMODE
 70
     0
  9
$VISRETAIN
 70
     1
  9
$PLINEGEN
 70
     0
  9
$PSLTSCALE
 70
     1
  9
$TREEDEPTH
 70
  3020
  9
$CMLSTYLE
  2
Standard
  9
$CMLJUST
 70
     0
  9
$CMLSCALE
 40
20.0
  9
$PROXYGRAPHICS
 70
     1
  9
$MEASUREMENT
 70
     1
  9
$CELWEIGHT
370
    -1
  9
$ENDCAPS
280
     0
  9
$JOINSTYLE
280
     0
  9
$LWDISPLAY
290
     1
  9
$INSUNITS
 70
     4
  9
$HYPERLINKBASE
  1

  9
$STYLESHEET
  1

  9
$XEDIT
290
     1
  9
$CEPSNTYPE
380
     0
  9
$PSTYLEMODE
290
     1
  9
$FINGERPRINTGUID
  2
{6A1DFF1D-6D5E-437C-84A5-9211522EBF36}
  9
$VERSIONGUID
  2
{FAEB1C32-E019-11D5-929B-00C0DF256EC4}
  9
$EXTNAMES
290
     1
  9
$PSVPSCALE
 40
0.0
  9
$OLESTARTUP
290
     0
  0
ENDSEC
  0
SECTION
  2
CLASSES
  0
CLASS
  1
ACDBDICTIONARYWDFLT
  2
AcDbDictionaryWithDefault
  3
ObjectDBX Classes
 90
        0
280
     0
281
     0
  0
CLASS
  1
VISUALSTYLE
  2
AcDbVisualStyle
  3
ObjectDBX Classes
 90
     4095
280
     0
281
     0
  0
CLASS
  1
MATERIAL
  2
AcDbMaterial
  3
ObjectDBX Classes
 90
     1153
280
     0
281
     0
  0
CLASS
  1
SCALE
  2
AcDbScale
  3
ObjectDBX Classes
 90
     1153
280
     0
281
     0
  0
CLASS
  1
SUN
  2
AcDbSun
  3
SCENEOE
 90
     1153
280
     0
281
     0
  0
CLASS
  1
ACDBPLACEHOLDER
  2
AcDbPlaceHolder
  3
ObjectDBX Classes
 90
        0
280
     0
281
     0
  0
CLASS
  1
LAYOUT
  2
AcDbLayout
  3
ObjectDBX Classes
 90
        0
280
     0
281
     0
  0
CLASS
  1
TABLESTYLE
  2
AcDbTableStyle
  3
ObjectDBX Classes
 90
     4095
280
     0
281
     0
  0
CLASS
  1
MLEADERSTYLE
  2
AcDbMLeaderStyle
  3
ACDB_MLEADERSTYLE_CLASS
 90
     4095
280
     0
281
     0
  0
CLASS
  1
RASTERVARIABLES
  2
AcDbRasterVariables
  3
ISM
 90
        0
280
     0
281
     0
  0
ENDSEC
  0
SECTION
  2
TABLES
  0
TABLE
  2
VPORT
  5
8
330
0
100
AcDbSymbolTable
 70
     1
  0
VPORT
  5
29
330
8
100
AcDbSymbolTableRecord
100
AcDbViewportTableRecord
  2
*Active
 70
     0
 10
0.0
 20
0.0
 11
1.0
 21
1.0
 12
-2.0634486929779
 22
-10.30680359063734
 13
0.0
 23
0.0
 14
10.0
 24
10.0
 15
10.0
 25
10.0
 16
0.0
 26
0.0
 36
1.0
 17
0.0
 27
0.0
 37
0.0
 40
93.49190643018797
 41
1.152454780361757
 42
50.0
 43
0.0
 44
0.0
 50
0.0
 51
0.0
 71
    16
 72
  2000
 73
     1
 74
     3
 75
     0
 76
     0
 77
     0
 78
     0
281
     0
 65
     1
110
0.0
120
0.0
130
0.0
111
1.0
121
0.0
131
0.0
112
0.0
122
1.0
132
0.0
 79
     0
146
0.0
  0
ENDTAB
  0
TABLE
  2
LTYPE
  5
5
330
0
100
AcDbSymbolTable
 70
     6
  0
LTYPE
  5
14
330
5
100
AcDbSymbolTableRecord
100
AcDbLinetypeTableRecord
  2
ByBlock
 70
     0
  3

 72
    65
 73
     0
 40
0.0
  0
LTYPE
  5
15
330
5
100
AcDbSymbolTableRecord
100
AcDbLinetypeTableRecord
  2
ByLayer
 70
     0
  3

 72
    65
 73
     0
 40
0.0
  0
LTYPE
  5
16
330
5
100
AcDbSymbolTableRecord
100
AcDbLinetypeTableRecord
  2
Continuous
 70
     0
  3
Solid line
 72
    65
 73
     0
 40
0.0
  0
LTYPE
  5
6A
330
5
100
AcDbSymbolTableRecord
100
AcDbLinetypeTableRecord
  2
HIDDEN
 70
     0
  3
Hidden __ __ __ __ __ __ __ __ __ __ __ __ __ __
 72
    65
 73
     2
 40
1.905
 49
1.27
 74
     0
 49
-0.635
 74
     0
  0
LTYPE
  5
6B
330
5
100
AcDbSymbolTableRecord
100
AcDbLinetypeTableRecord
  2
PHANTOM
 70
     0
  3
Phantom ______  __  __  ______  __  __  ______
 72
    65
 73
     6
 40
12.7
 49
6.35
 74
     0
 49
-1.27
 74
     0
 49
1.27
 74
     0
 49
-1.27
 74
     0
 49
1.27
 74
     0
 49
-1.27
 74
     0
  0
LTYPE
  5
6C
330
5
100
AcDbSymbolTableRecord
100
AcDbLinetypeTableRecord
  2
CENTER
 70
     0
  3
Center ____ _ ____ _ ____ _ ____ _ ____ _ ____
 72
    65
 73
     4
 40
10.16
 49
6.35
 74
     0
 49
-1.27
 74
     0
 49
1.27
 74
     0
 49
-1.27
 74
     0
  0
LTYPE
  5
6D
330
5
100
AcDbSymbolTableRecord
100
AcDbLinetypeTableRecord
  2
CENTERX2
 70
     0
  3
Center (2x) ________  __  ________  __  _____
 72
    65
 73
     4
 40
20.32
 49
12.7
 74
     0
 49
-2.54
 74
     0
 49
2.54
 74
     0
 49
-2.54
 74
     0
  0
LTYPE
  5
6E
330
5
100
AcDbSymbolTableRecord
100
AcDbLinetypeTableRecord
  2
DOT2
 70
     0
  3
Dot (.5x) ........................................
 72
    65
 73
     2
 40
0.635
 49
0.0
 74
     0
 49
-0.635
 74
     0
  0
ENDTAB
  0
TABLE
  2
LAYER
  5
2
330
0
100
AcDbSymbolTable
 70
    17
  0
LAYER
  5
10
330
2
100
AcDbSymbolTableRecord
100
AcDbLayerTableRecord
  2
0
 70
     0
 62
     7
  6
Continuous
370
    -3
390
F
  0
LAYER
  5
6F
330
2
100
AcDbSymbolTableRecord
100
AcDbLayerTableRecord
  2
FORMAT
 70
     0
 62
     2
  6
Continuous
370
    -3
390
F
  0
LAYER
  5
70
330
2
100
AcDbSymbolTableRecord
100
AcDbLayerTableRecord
  2
외형선
 70
     0
 62
   100
  6
Continuous
370
    30
390
F
  0
LAYER
  5
71
330
2
100
AcDbSymbolTableRecord
100
AcDbLayerTableRecord
  2
숨은선
 70
     0
 62
     2
  6
HIDDEN
370
    15
390
F
  0
LAYER
  5
72
330
2
100
AcDbSymbolTableRecord
100
AcDbLayerTableRecord
  2
중심선
 70
     0
 62
     1
  6
CENTERX2
370
    -3
390
F
  0
LAYER
  5
73
330
2
100
AcDbSymbolTableRecord
100
AcDbLayerTableRecord
  2
파단선
 70
     0
 62
     4
  6
Continuous
370
    -3
390
F
  0
LAYER
  5
74
330
2
100
AcDbSymbolTableRecord
100
AcDbLayerTableRecord
  2
해칭선
 70
     0
 62
     4
  6
Continuous
370
    -3
390
F
  0
LAYER
  5
75
330
2
100
AcDbSymbolTableRecord
100
AcDbLayerTableRecord
  2
가는실선
 70
     0
 62
     4
  6
Continuous
370
    -3
390
F
  0
LAYER
  5
76
330
2
100
AcDbSymbolTableRecord
100
AcDbLayerTableRecord
  2
치수_보조선
 70
     0
 62
     4
  6
Continuous
370
    -3
390
F
  0
LAYER
  5
77
330
2
100
AcDbSymbolTableRecord
100
AcDbLayerTableRecord
  2
치수문자_일반주서
 70
     0
 62
     7
  6
Continuous
370
    15
390
F
  0
LAYER
  5
78
330
2
100
AcDbSymbolTableRecord
100
AcDbLayerTableRecord
  2
개별주서
 70
     0
 62
   100
  6
Continuous
370
    30
390
F
  0
LAYER
  5
79
330
2
100
AcDbSymbolTableRecord
100
AcDbLayerTableRecord
  2
중간선
 70
     0
 62
     2
  6
Continuous
370
    15
390
F
  0
LAYER
  5
7A
330
2
100
AcDbSymbolTableRecord
100
AcDbLayerTableRecord
  2
윤곽선
 70
     0
 62
     3
  6
Continuous
370
    40
390
F
  0
LAYER
  5
7B
330
2
100
AcDbSymbolTableRecord
100
AcDbLayerTableRecord
  2
중심마크
 70
     0
 62
   100
  6
Continuous
370
    30
390
F
  0
LAYER
  5
7C
330
2
100
AcDbSymbolTableRecord
100
AcDbLayerTableRecord
  2
가상선
 70
     0
 62
     4
  6
PHANTOM
370
    -3
390
F
  0
LAYER
  5
7D
330
2
100
AcDbSymbolTableRecord
100
AcDbLayerTableRecord
  2
특수지정선
 70
     0
 62
     5
  6
CENTERX2
370
    60
390
F
  0
LAYER
  5
12E
330
2
100
AcDbSymbolTableRecord
100
AcDbLayerTableRecord
  2
Defpoints
 70
     0
 62
     7
  6
Continuous
290
     0
370
    -3
390
F
  0
ENDTAB
  0
TABLE
  2
STYLE
  5
3
330
0
100
AcDbSymbolTable
 70
     2
  0
STYLE
  5
11
330
3
100
AcDbSymbolTableRecord
100
AcDbTextStyleTableRecord
  2
Standard
 70
     0
 40
0.0
 41
1.0
 50
0.0
 71
     0
 42
3.5
  3
txt
  4

  0
STYLE
  5
93
330
3
100
AcDbSymbolTableRecord
100
AcDbTextStyleTableRecord
  2
SLDTEXTSTYLE0
 70
     0
 40
0.0
 41
0.75
 50
0.0
 71
     0
 42
3.5
  3
TXT
  4

  0
ENDTAB
  0
TABLE
  2
VIEW
  5
6
330
0
100
AcDbSymbolTable
 70
     0
  0
ENDTAB
  0
TABLE
  2
UCS
  5
7
330
0
100
AcDbSymbolTable
 70
     0
  0
ENDTAB
  0
TABLE
  2
APPID
  5
9
330
0
100
AcDbSymbolTable
 70
     1
  0
APPID
  5
12
330
9
100
AcDbSymbolTableRecord
100
AcDbRegAppTableRecord
  2
ACAD
 70
     0
  0
ENDTAB
  0
TABLE
  2
DIMSTYLE
  5
A
330
0
100
AcDbSymbolTable
 70
     3
100
AcDbDimStyleTable
  0
DIMSTYLE
105
27
330
A
100
AcDbSymbolTableRecord
100
AcDbDimStyleTableRecord
  2
ISO-25
 70
     0
 41
2.5
 42
0.625
 43
3.75
 44
1.25
 73
     0
 74
     0
 77
     1
 78
     8
140
2.5
141
2.5
143
0.03937007874016
147
0.625
171
     3
172
     1
178
     0
271
     2
272
     2
274
     3
278
    44
283
     0
284
     8
340
11
  0
DIMSTYLE
105
D4
102
{ACAD_REACTORS
330
D3
330
F6
102
}
330
A
100
AcDbSymbolTableRecord
100
AcDbDimStyleTableRecord
  2
SLDDIMSTYLE0
 70
     0
 41
3.302
 44
0.0
 45
0.000000001
 73
     0
 74
     0
 77
     1
 78
    12
 79
     3
140
3.5
147
0.875
172
     1
173
     1
178
     0
271
     2
272
     2
276
     2
284
    12
289
     0
340
93
  0
DIMSTYLE
105
E2
102
{ACAD_REACTORS
330
E1
330
EC
102
}
330
A
100
AcDbSymbolTableRecord
100
AcDbDimStyleTableRecord
  2
SLDDIMSTYLE1
 70
     0
 41
3.302
 44
0.0
 45
0.000000001
 73
     0
 74
     0
 77
     1
 78
    12
 79
     3
140
3.5
147
0.875
173
     1
178
     0
271
     2
272
     2
276
     2
284
    12
340
93
  0
ENDTAB
  0
TABLE
  2
BLOCK_RECORD
  5
1
330
0
100
AcDbSymbolTable
 70
     7
  0
BLOCK_RECORD
  5
1F
330
1
100
AcDbSymbolTableRecord
100
AcDbBlockTableRecord
  2
*Model_Space
340
22
  0
BLOCK_RECORD
  5
1B
330
1
100
AcDbSymbolTableRecord
100
AcDbBlockTableRecord
  2
*Paper_Space
340
1E
  0
BLOCK_RECORD
  5
23
330
1
100
AcDbSymbolTableRecord
100
AcDbBlockTableRecord
  2
*Paper_Space0
340
26
  0
BLOCK_RECORD
  5
7E
330
1
100
AcDbSymbolTableRecord
100
AcDbBlockTableRecord
  2
블럭10
340
0
102
{BLKREFS
331
CC
102
}
  0
BLOCK_RECORD
  5
D5
330
1
100
AcDbSymbolTableRecord
100
AcDbBlockTableRecord
  2
_D
340
0
  0
BLOCK_RECORD
  5
E3
330
1
100
AcDbSymbolTableRecord
100
AcDbBlockTableRecord
  2
_D_1
340
0
  0
BLOCK_RECORD
  5
ED
330
1
100
AcDbSymbolTableRecord
100
AcDbBlockTableRecord
  2
_D_2
340
0
  0
BLOCK_RECORD
  5
F7
330
1
100
AcDbSymbolTableRecord
100
AcDbBlockTableRecord
  2
_D_3
340
0
  0
BLOCK_RECORD
  5
103
330
1
100
AcDbSymbolTableRecord
100
AcDbBlockTableRecord
  2
SW_DOWELSYMBOL_0
340
0
102
{BLKREFS
331
109
102
}
  0
ENDTAB
  0
ENDSEC
  0
SECTION
  2
BLOCKS
  0
BLOCK
  5
20
330
1F
100
AcDbEntity
  8
0
100
AcDbBlockBegin
  2
*Model_Space
 70
     0
 10
0.0
 20
0.0
 30
0.0
  3
*Model_Space
  1

  0
ENDBLK
  5
21
330
1F
100
AcDbEntity
  8
0
100
AcDbBlockEnd
  0
BLOCK
  5
1C
330
1B
100
AcDbEntity
 67
     1
  8
0
100
AcDbBlockBegin
  2
*Paper_Space
 70
     0
 10
0.0
 20
0.0
 30
0.0
  3
*Paper_Space
  1

  0
ENDBLK
  5
1D
330
1B
100
AcDbEntity
 67
     1
  8
0
100
AcDbBlockEnd
  0
BLOCK
  5
24
330
23
100
AcDbEntity
  8
0
100
AcDbBlockBegin
  2
*Paper_Space0
 70
     0
 10
0.0
 20
0.0
 30
0.0
  3
*Paper_Space0
  1

  0
ENDBLK
  5
25
330
23
100
AcDbEntity
  8
0
100
AcDbBlockEnd
  0
BLOCK
  5
7F
330
7E
100
AcDbEntity
  8
0
100
AcDbBlockBegin
  2
블럭10
 70
     2
 10
0.0
 20
0.0
 30
0.0
  3
블럭10
  1

  0
ELLIPSE
  5
81
330
7E
100
AcDbEntity
  8
중심선
100
AcDbEllipse
 10
20.54032771741204
 20
12.0471743016438
 30
0.0
 11
6.600054785286829
 21
-1.261213355974178E-13
 31
0.0
210
0.0
220
0.0
230
1.0
 40
0.636358354079598
 41
0.9219305317359503
 42
6.513795318482858
  0
ELLIPSE
  5
82
330
7E
100
AcDbEntity
  8
중심선
100
AcDbEllipse
 10
20.54032771746488
 20
12.04717430159265
 30
0.0
 11
3.960054785062283
 21
1.540847449632565E-10
 31
0.0
210
0.0
220
0.0
230
1.0
 40
0.3939339440162632
 41
1.131841032648279
 42
5.62031148352944
  0
LINE
  5
83
330
7E
100
AcDbEntity
  8
중심선
100
AcDbLine
 10
2.268634060543552
 20
16.24717430164393
 30
0.0
 11
5.714909304380834
 21
16.24717430164393
 31
0.0
  0
LINE
  5
84
330
7E
100
AcDbEntity
  8
중심선
100
AcDbLine
 10
5.245725140726316
 20
7.84717430164391
 30
0.0
 11
8.692000384563599
 21
7.84717430164391
 31
0.0
  0
LINE
  5
85
330
7E
100
AcDbEntity
  8
중심선
100
AcDbLine
 10
15.74043728645272
 20
16.24717430164393
 30
0.0
 11
8.692000384563599
 21
7.84717430164391
 31
0.0
  0
LINE
  5
86
330
7E
100
AcDbEntity
  8
중심선
100
AcDbLine
 10
0.1404042013395286
 20
13.71084872107135
 30
0.0
 11
3.58671253028996
 21
13.71088815037384
 31
0.0
  0
LINE
  5
87
330
7E
100
AcDbEntity
  8
중심선
100
AcDbLine
 10
2.750260043222114
 20
10.84717430164391
 30
0.0
 11
6.196535287059397
 21
10.84717430164391
 31
0.0
  0
LINE
  5
88
330
7E
100
AcDbEntity
  8
중심선
100
AcDbLine
 10
12.29416204261559
 20
16.24717430164393
 30
0.0
 11
5.245725140726316
 21
7.84717430164391
 31
0.0
  0
LINE
  5
89
330
7E
100
AcDbEntity
  8
중심선
100
AcDbLine
 10
10.72767329541681
 20
16.24717430164393
 30
0.0
 11
6.196535287059397
 21
10.84717430164391
 31
0.0
  0
LINE
  5
8A
330
7E
100
AcDbEntity
  8
중심선
100
AcDbLine
 10
7.28139805157953
 20
16.24717430164393
 30
0.0
 11
2.750260043222114
 21
10.84717430164391
 31
0.0
  0
LINE
  5
8B
330
7E
100
AcDbEntity
  8
중심선
100
AcDbLine
 10
5.714909304380834
 20
16.24717430164393
 30
0.0
 11
3.58671253028996
 21
13.71088815037384
 31
0.0
  0
LINE
  5
8C
330
7E
100
AcDbEntity
  8
중심선
100
AcDbLine
 10
2.268634060543552
 20
16.24717430164393
 30
0.0
 11
0.1404042013395286
 21
13.71084872107135
 31
0.0
  0
LINE
  5
8D
330
7E
100
AcDbEntity
  8
중심선
100
AcDbLine
 10
7.28139805157953
 20
16.24717430164393
 30
0.0
 11
10.72767329541681
 21
16.24717430164393
 31
0.0
  0
LINE
  5
8E
330
7E
100
AcDbEntity
  8
중심선
100
AcDbLine
 10
12.29416204261559
 20
16.24717430164393
 30
0.0
 11
15.74043728645272
 21
16.24717430164393
 31
0.0
  0
LINE
  5
8F
330
7E
100
AcDbEntity
  8
중심선
100
AcDbLine
 10
19.22036997980202
 20
11.08717430171403
 30
0.0
 11
23.66174974927406
 21
11.08717430171406
 31
0.0
  0
LINE
  5
90
330
7E
100
AcDbEntity
  8
중심선
100
AcDbLine
 10
19.22039502424796
 20
13.00717430171391
 30
0.0
 11
19.22036997980202
 21
11.08717430171403
 31
0.0
  0
LINE
  5
91
330
7E
100
AcDbEntity
  8
중심선
100
AcDbLine
 10
19.22039502424796
 20
13.00717430171391
 30
0.0
 11
26.96566020931264
 21
13.00717430171391
 31
0.0
  0
LINE
  5
92
330
7E
100
AcDbEntity
  8
중심선
100
AcDbLine
 10
22.22332737316547
 20
13.45928029700563
 30
0.0
 11
24.52862924686651
 21
15.39360700705356
 31
0.0
  0
ATTDEF
  5
94
330
7E
100
AcDbEntity
  8
FORMAT
 62
     2
100
AcDbText
 10
-16.11926103943555
 20
2.075366912832191
 30
0.0
 40
4.233333333333333
  1
SEME7008030E [ 2 FLUTE ]
 41
0.75
  7
SLDTEXTSTYLE0
 11
-16.11926103943555
 21
-0.0412997538344756
 31
0.0
100
AcDbAttributeDefinition
  3

  2
AUTOATTR0
 70
     0
 74
     1
  0
ENDBLK
  5
80
330
7E
100
AcDbEntity
  8
0
100
AcDbBlockEnd
  0
BLOCK
  5
D6
330
D5
100
AcDbEntity
  8
0
100
AcDbBlockBegin
  2
_D
 70
     0
 10
0.0
 20
0.0
 30
0.0
  3
_D
  1

  0
LINE
  5
D8
330
D5
100
AcDbEntity
  8
치수문자_일반주서
 62
     0
370
    -2
100
AcDbLine
 10
40.06249999999967
 20
-3.996285161429402
 30
0.0
 11
50.20248978280846
 21
-3.996285161429364
 31
0.0
  0
LINE
  5
D9
330
D5
100
AcDbEntity
  8
치수문자_일반주서
 62
     0
370
    -2
100
AcDbLine
 10
40.06249999999995
 20
4.003714838570589
 30
0.0
 11
50.20248978280843
 21
4.003714838570627
 31
0.0
  0
LINE
  5
DA
330
D5
100
AcDbEntity
  8
치수문자_일반주서
 62
     0
370
    -2
100
AcDbLine
 10
50.20248978280846
 20
-3.996285161429364
 30
0.0
 11
50.20248978280839
 21
16.73271483857063
 31
0.0
  0
LINE
  5
DB
330
D5
100
AcDbEntity
  8
치수문자_일반주서
 62
     0
370
    -2
100
AcDbLine
 10
50.20248978280846
 20
-3.996285161429364
 30
0.0
 11
50.20248978280843
 21
4.003714838570627
 31
0.0
  0
LINE
  5
DC
330
D5
100
AcDbEntity
  8
치수문자_일반주서
 62
     0
370
    -2
100
AcDbLine
 10
50.20248978280848
 20
-7.298285161429364
 30
0.0
 11
50.20248978280849
 21
-10.60028516142936
 31
0.0
  0
LINE
  5
DD
330
D5
100
AcDbEntity
  8
치수문자_일반주서
 62
     0
370
    -2
100
AcDbLine
 10
50.20248978280842
 20
7.305714838570626
 30
0.0
 11
50.20248978280841
 21
10.60771483857063
 31
0.0
  0
SOLID
  5
DE
330
D5
100
AcDbEntity
  8
치수문자_일반주서
 62
     0
100
AcDbTrace
 10
50.75282311614181
 20
-7.298285161429362
 30
0.0
 11
49.65215644947514
 21
-7.298285161429366
 31
0.0
 12
50.20248978280846
 22
-3.996285161429364
 32
0.0
 13
50.20248978280846
 23
-3.996285161429364
 33
0.0
  0
SOLID
  5
DF
330
D5
100
AcDbEntity
  8
치수문자_일반주서
 62
     0
100
AcDbTrace
 10
49.65215644947509
 20
7.305714838570625
 30
0.0
 11
50.75282311614176
 21
7.305714838570628
 31
0.0
 12
50.20248978280843
 22
4.003714838570627
 32
0.0
 13
50.20248978280843
 23
4.003714838570627
 33
0.0
  0
MTEXT
  5
E0
330
D5
100
AcDbEntity
  8
치수문자_일반주서
 62
     0
100
AcDbMText
 10
45.8274897828084
 20
13.67021483857061
 30
0.0
 40
3.5
 41
0.0
 71
     2
 72
     1
  1
\A1;%%c8
  7
SLDTEXTSTYLE0
 11
-3.552713678800505E-15
 21
1.0
 31
0.0
 73
     1
 44
1.0
  0
POINT
  5
138
330
D5
100
AcDbEntity
  8
Defpoints
 62
     0
100
AcDbPoint
 10
39.99999999999967
 20
-3.996285161429402
 30
0.0
  0
POINT
  5
139
330
D5
100
AcDbEntity
  8
Defpoints
 62
     0
100
AcDbPoint
 10
39.99999999999995
 20
4.003714838570589
 30
0.0
  0
POINT
  5
13A
330
D5
100
AcDbEntity
  8
Defpoints
 62
     0
100
AcDbPoint
 10
50.20248978280843
 20
4.003714838570628
 30
0.0
  0
ENDBLK
  5
D7
330
D5
100
AcDbEntity
  8
0
100
AcDbBlockEnd
  0
BLOCK
  5
E4
330
E3
100
AcDbEntity
  8
0
100
AcDbBlockBegin
  2
_D_1
 70
     0
 10
0.0
 20
0.0
 30
0.0
  3
_D_1
  1

  0
LINE
  5
E6
330
E3
100
AcDbEntity
  8
치수문자_일반주서
 62
     0
370
    -2
100
AcDbLine
 10
-39.99999999999991
 20
3.256214838570477
 30
0.0
 11
-39.99999999999991
 21
24.98212527881318
 31
0.0
  0
LINE
  5
E7
330
E3
100
AcDbEntity
  8
치수문자_일반주서
 62
     0
370
    -2
100
AcDbLine
 10
39.99999999999995
 20
4.066214838570589
 30
0.0
 11
39.99999999999996
 21
24.98212527881318
 31
0.0
  0
LINE
  5
E8
330
E3
100
AcDbEntity
  8
치수문자_일반주서
 62
     0
370
    -2
100
AcDbLine
 10
-36.69799999999991
 20
24.98212527881318
 30
0.0
 11
36.69799999999996
 21
24.98212527881318
 31
0.0
  0
SOLID
  5
E9
330
E3
100
AcDbEntity
  8
치수문자_일반주서
 62
     0
100
AcDbTrace
 10
-36.69799999999991
 20
25.53245861214651
 30
0.0
 11
-36.69799999999991
 21
24.43179194547984
 31
0.0
 12
-39.99999999999991
 22
24.98212527881318
 32
0.0
 13
-39.99999999999991
 23
24.98212527881318
 33
0.0
  0
SOLID
  5
EA
330
E3
100
AcDbEntity
  8
치수문자_일반주서
 62
     0
100
AcDbTrace
 10
36.69799999999996
 20
24.43179194547984
 30
0.0
 11
36.69799999999996
 21
25.53245861214651
 31
0.0
 12
39.99999999999996
 22
24.98212527881318
 32
0.0
 13
39.99999999999996
 23
24.98212527881318
 33
0.0
  0
MTEXT
  5
EB
330
E3
100
AcDbEntity
  8
치수문자_일반주서
 62
     0
100
AcDbMText
 10
0.0000000000000169
 20
29.35712527881318
 30
0.0
 40
3.5
 41
0.0
 71
     2
 72
     1
  1
\A1;80
  7
SLDTEXTSTYLE0
 73
     1
 44
1.0
  0
POINT
  5
12F
330
E3
100
AcDbEntity
  8
Defpoints
 62
     0
100
AcDbPoint
 10
-39.99999999999991
 20
3.193714838570477
 30
0.0
  0
POINT
  5
130
330
E3
100
AcDbEntity
  8
Defpoints
 62
     0
100
AcDbPoint
 10
39.99999999999995
 20
4.003714838570589
 30
0.0
  0
POINT
  5
131
330
E3
100
AcDbEntity
  8
Defpoints
 62
     0
100
AcDbPoint
 10
39.99999999999995
 20
24.98212527881318
 30
0.0
  0
ENDBLK
  5
E5
330
E3
100
AcDbEntity
  8
0
100
AcDbBlockEnd
  0
BLOCK
  5
EE
330
ED
100
AcDbEntity
  8
0
100
AcDbBlockBegin
  2
_D_2
 70
     0
 10
0.0
 20
0.0
 30
0.0
  3
_D_2
  1

  0
LINE
  5
F0
330
ED
100
AcDbEntity
  8
치수문자_일반주서
 62
     0
370
    -2
100
AcDbLine
 10
10.00000000000009
 20
3.03516069754216
 30
0.0
 11
10.00000000000009
 21
16.31965850370968
 31
0.0
  0
LINE
  5
F1
330
ED
100
AcDbEntity
  8
치수문자_일반주서
 62
     0
370
    -2
100
AcDbLine
 10
39.99999999999995
 20
4.066214838570589
 30
0.0
 11
39.99999999999995
 21
16.31965850370968
 31
0.0
  0
LINE
  5
F2
330
ED
100
AcDbEntity
  8
치수문자_일반주서
 62
     0
370
    -2
100
AcDbLine
 10
13.30200000000008
 20
16.31965850370968
 30
0.0
 11
36.69799999999995
 21
16.31965850370968
 31
0.0
  0
SOLID
  5
F3
330
ED
100
AcDbEntity
  8
치수문자_일반주서
 62
     0
100
AcDbTrace
 10
13.30200000000008
 20
16.86999183704301
 30
0.0
 11
13.30200000000008
 21
15.76932517037635
 31
0.0
 12
10.00000000000009
 22
16.31965850370968
 32
0.0
 13
10.00000000000009
 23
16.31965850370968
 33
0.0
  0
SOLID
  5
F4
330
ED
100
AcDbEntity
  8
치수문자_일반주서
 62
     0
100
AcDbTrace
 10
36.69799999999995
 20
15.76932517037635
 30
0.0
 11
36.69799999999995
 21
16.86999183704301
 31
0.0
 12
39.99999999999995
 22
16.31965850370968
 32
0.0
 13
39.99999999999995
 23
16.31965850370968
 33
0.0
  0
MTEXT
  5
F5
330
ED
100
AcDbEntity
  8
치수문자_일반주서
 62
     0
100
AcDbMText
 10
25.00000000000009
 20
20.69465850370968
 30
0.0
 40
3.5
 41
0.0
 71
     2
 72
     1
  1
\A1;30
  7
SLDTEXTSTYLE0
 73
     1
 44
1.0
  0
POINT
  5
132
330
ED
100
AcDbEntity
  8
Defpoints
 62
     0
100
AcDbPoint
 10
10.00000000000009
 20
2.97266069754216
 30
0.0
  0
POINT
  5
133
330
ED
100
AcDbEntity
  8
Defpoints
 62
     0
100
AcDbPoint
 10
39.99999999999995
 20
4.003714838570589
 30
0.0
  0
POINT
  5
134
330
ED
100
AcDbEntity
  8
Defpoints
 62
     0
100
AcDbPoint
 10
39.99999999999995
 20
16.31965850370968
 30
0.0
  0
ENDBLK
  5
EF
330
ED
100
AcDbEntity
  8
0
100
AcDbBlockEnd
  0
BLOCK
  5
F8
330
F7
100
AcDbEntity
  8
0
100
AcDbBlockBegin
  2
_D_3
 70
     0
 10
0.0
 20
0.0
 30
0.0
  3
_D_3
  1

  0
LINE
  5
FA
330
F7
100
AcDbEntity
  8
치수문자_일반주서
 62
     0
370
    -2
100
AcDbLine
 10
-39.25249999999992
 20
4.003714838570477
 30
0.0
 11
-50.50472050209757
 21
4.003714838570435
 31
0.0
  0
LINE
  5
FB
330
F7
100
AcDbEntity
  8
치수문자_일반주서
 62
     0
370
    -2
100
AcDbLine
 10
-39.25249999999992
 20
-3.996285161429516
 30
0.0
 11
-50.50472050209754
 21
-3.996285161429558
 31
0.0
  0
LINE
  5
FC
330
F7
100
AcDbEntity
  8
치수문자_일반주서
 62
     0
370
    -2
100
AcDbLine
 10
-50.50472050209757
 20
4.003714838570435
 30
0.0
 11
-50.50472050209762
 21
16.73271483857043
 31
0.0
  0
LINE
  5
FD
330
F7
100
AcDbEntity
  8
치수문자_일반주서
 62
     0
370
    -2
100
AcDbLine
 10
-50.50472050209757
 20
4.003714838570435
 30
0.0
 11
-50.50472050209754
 21
-3.996285161429558
 31
0.0
  0
LINE
  5
FE
330
F7
100
AcDbEntity
  8
치수문자_일반주서
 62
     0
370
    -2
100
AcDbLine
 10
-50.50472050209758
 20
7.305714838570434
 30
0.0
 11
-50.5047205020976
 21
10.60771483857043
 31
0.0
  0
LINE
  5
FF
330
F7
100
AcDbEntity
  8
치수문자_일반주서
 62
     0
370
    -2
100
AcDbLine
 10
-50.50472050209753
 20
-7.298285161429558
 30
0.0
 11
-50.50472050209751
 21
-10.60028516142956
 31
0.0
  0
SOLID
  5
100
330
F7
100
AcDbEntity
  8
치수문자_일반주서
 62
     0
100
AcDbTrace
 10
-51.05505383543092
 20
7.305714838570433
 30
0.0
 11
-49.95438716876425
 21
7.305714838570436
 31
0.0
 12
-50.50472050209757
 22
4.003714838570435
 32
0.0
 13
-50.50472050209757
 23
4.003714838570435
 33
0.0
  0
SOLID
  5
101
330
F7
100
AcDbEntity
  8
치수문자_일반주서
 62
     0
100
AcDbTrace
 10
-49.95438716876419
 20
-7.298285161429556
 30
0.0
 11
-51.05505383543086
 21
-7.298285161429559
 31
0.0
 12
-50.50472050209754
 22
-3.996285161429558
 32
0.0
 13
-50.50472050209754
 23
-3.996285161429558
 33
0.0
  0
MTEXT
  5
102
330
F7
100
AcDbEntity
  8
치수문자_일반주서
 62
     0
100
AcDbMText
 10
-54.87972050209761
 20
13.67021483857042
 30
0.0
 40
3.5
 41
0.0
 71
     2
 72
     1
  1
\A1;%%c8
  7
SLDTEXTSTYLE0
 11
-3.552713678800504E-15
 21
1.0
 31
0.0
 73
     1
 44
1.0
  0
POINT
  5
135
330
F7
100
AcDbEntity
  8
Defpoints
 62
     0
100
AcDbPoint
 10
-39.18999999999992
 20
4.003714838570477
 30
0.0
  0
POINT
  5
136
330
F7
100
AcDbEntity
  8
Defpoints
 62
     0
100
AcDbPoint
 10
-39.18999999999992
 20
-3.996285161429516
 30
0.0
  0
POINT
  5
137
330
F7
100
AcDbEntity
  8
Defpoints
 62
     0
100
AcDbPoint
 10
-50.50472050209753
 20
-3.996285161429558
 30
0.0
  0
ENDBLK
  5
F9
330
F7
100
AcDbEntity
  8
0
100
AcDbBlockEnd
  0
BLOCK
  5
104
330
103
100
AcDbEntity
  8
0
100
AcDbBlockBegin
  2
SW_DOWELSYMBOL_0
 70
     0
 10
0.0
 20
0.0
 30
0.0
  3
SW_DOWELSYMBOL_0
  1

  0
CIRCLE
  5
106
330
103
100
AcDbEntity
  8
외형선
 62
     0
100
AcDbCircle
 10
0.0
 20
0.0
 30
0.0
 40
3.000000000000004
  0
HATCH
  5
107
330
103
100
AcDbEntity
  8
0
  6
Continuous
 62
     0
370
    30
100
AcDbHatch
 10
0.0
 20
0.0
 30
0.0
210
0.0
220
0.0
230
1.0
  2
SOLID
 70
     1
 71
     0
 91
        1
 92
        0
 93
        3
 72
     2
 10
0.0000000000000104
 20
0.0
 40
3.000000000000004
 50
0.0
 51
90.0
 73
     1
 72
     1
 10
0.0000000000000104
 20
3.000000000000004
 11
0.0000000000000104
 21
0.0
 72
     1
 10
0.0000000000000104
 20
0.0
 11
3.000000000000015
 21
0.0
 97
        0
 75
     0
 76
     1
 98
        1
 10
0.0
 20
0.0
  0
HATCH
  5
108
330
103
100
AcDbEntity
  8
0
  6
Continuous
 62
     0
370
    30
100
AcDbHatch
 10
0.0
 20
0.0
 30
0.0
210
0.0
220
0.0
230
1.0
  2
SOLID
 70
     1
 71
     0
 91
        1
 92
        0
 93
        3
 72
     2
 10
0.0000000000000104
 20
0.0
 40
3.000000000000004
 50
180.0
 51
270.0000000000008
 73
     1
 72
     1
 10
0.0000000000000104
 20
-3.000000000000004
 11
0.0000000000000104
 21
0.0
 72
     1
 10
0.0000000000000104
 20
0.0
 11
-2.999999999999994
 21
0.0
 97
        0
 75
     0
 76
     1
 98
        1
 10
0.0
 20
0.0
  0
ENDBLK
  5
105
330
103
100
AcDbEntity
  8
0
100
AcDbBlockEnd
  0
ENDSEC
  0
SECTION
  2
ENTITIES
  0
LINE
  5
95
330
1F
100
AcDbEntity
  8
0
  6
Continuous
 62
     1
370
    15
100
AcDbLine
 10
28.5580193624214
 20
1.567625154085798
 30
0.0
 11
28.52635024164036
 21
1.583880763167679
 31
0.0
  0
SPLINE
  5
96
330
1F
100
AcDbEntity
  8
0
  6
Continuous
 62
     1
370
    15
100
AcDbSpline
210
0.0
220
0.0
230
1.0
 70
     8
 71
     3
 72
     9
 73
     5
 74
     0
 42
0.000000001
 43
0.00000001
 40
0.0
 40
0.0
 40
0.0
 40
0.0
 40
0.4498511457832189
 40
1.0
 40
1.0
 40
1.0
 40
1.0
 10
29.63769005777448
 20
1.028700374387606
 30
0.0
 10
29.47578466549249
 20
1.105572790803326
 30
0.0
 10
29.11587585165563
 20
1.276456909108461
 30
0.0
 10
28.75600299962808
 20
1.464289351254445
 30
0.0
 10
28.5580193624214
 20
1.567625154085798
 30
0.0
  0
LINE
  5
97
330
1F
100
AcDbEntity
  8
0
  6
Continuous
 62
     1
370
    15
100
AcDbLine
 10
20.45896438891397
 20
4.003714838570486
 30
0.0
 11
18.51895476212637
 21
4.003714838570486
 31
0.0
  0
LINE
  5
98
330
1F
100
AcDbEntity
  8
0
  6
Continuous
 62
     1
370
    15
100
AcDbLine
 10
18.51895476212637
 20
-3.996285161429519
 30
0.0
 11
20.45896438891395
 21
-3.996285161429519
 31
0.0
  0
SPLINE
  5
99
330
1F
100
AcDbEntity
  8
0
  6
Continuous
 62
     1
370
    15
100
AcDbSpline
210
0.0
220
0.0
230
1.0
 70
     8
 71
     3
 72
    18
 73
    14
 74
     0
 42
0.000000001
 43
0.00000001
 40
0.0
 40
0.0
 40
0.0
 40
0.0
 40
0.141729704686932
 40
0.2444407793326696
 40
0.3087816227222939
 40
0.365825767785563
 40
0.4284379115735385
 40
0.496207756007747
 40
0.567064222620082
 40
0.7050534767423389
 40
0.8301370313143699
 40
0.9338773001537022
 40
1.0
 40
1.0
 40
1.0
 40
1.0
 10
28.31447299538956
 20
3.182268072628493
 30
0.0
 10
28.15852463294326
 20
3.174444071033372
 30
0.0
 10
27.8895609789497
 20
3.160950039901113
 30
0.0
 10
27.55037410798693
 20
3.148672606456561
 30
0.0
 10
27.30732589743694
 20
3.141357702439775
 30
0.0
 10
27.10620199554714
 20
3.13636570826943
 30
0.0
 10
26.89910789306514
 20
3.132372784416202
 30
0.0
 10
26.67557609705188
 20
3.129366211843895
 30
0.0
 10
26.36939445076622
 20
3.127069269866468
 30
0.0
 10
26.00126098538871
 20
3.127645742796557
 30
0.0
 10
25.59761127599366
 20
3.133156097890048
 30
0.0
 10
25.27330980321096
 20
3.140145910371142
 30
0.0
 10
25.08641305665416
 20
3.146738784927329
 30
0.0
 10
25.01365960385366
 20
3.149305198718259
 30
0.0
  0
SPLINE
  5
9A
330
1F
100
AcDbEntity
  8
0
  6
Continuous
 62
     1
370
    15
100
AcDbSpline
210
0.0
220
0.0
230
1.0
 70
     8
 71
     3
 72
    23
 73
    19
 74
     0
 42
0.000000001
 43
0.00000001
 40
0.0
 40
0.0
 40
0.0
 40
0.0
 40
0.086085224368156
 40
0.1450067132380385
 40
0.1977597372039992
 40
0.2650498003339191
 40
0.3307584159141737
 40
0.3883840913828928
 40
0.4399316722624177
 40
0.4876028247407426
 40
0.5617792700343158
 40
0.6550978659025776
 40
0.7466012044291608
 40
0.7859026281578959
 40
0.8215049548858226
 40
0.8572232936455295
 40
0.9156251216845532
 40
1.0
 40
1.0
 40
1.0
 40
1.0
 10
22.29830603457804
 20
-3.324835141245673
 30
0.0
 10
22.46946077105986
 20
-3.308275883461829
 30
0.0
 10
22.75776327563615
 20
-3.280382553769993
 30
0.0
 10
23.15548691201677
 20
-3.247080089173516
 30
0.0
 10
23.51735504381162
 20
-3.219405416990559
 30
0.0
 10
23.88978243715661
 20
-3.194435142308669
 30
0.0
 10
24.27214782523948
 20
-3.172613559992626
 30
0.0
 10
24.62288289618967
 20
-3.155886679979818
 30
0.0
 10
24.93735375940329
 20
-3.143489380714659
 30
0.0
 10
25.28507166921557
 20
-3.132521985170613
 30
0.0
 10
25.71633907169529
 20
-3.123144751172881
 30
0.0
 10
26.23559841995235
 20
-3.118720237317368
 30
0.0
 10
26.6879901318917
 20
-3.121580280578532
 30
0.0
 10
27.02433884926158
 20
-3.127172540950251
 30
0.0
 10
27.24587472345996
 20
-3.13225265517644
 30
0.0
 10
27.50180497863824
 20
-3.139631274798664
 30
0.0
 10
27.85896088313655
 20
-3.152113223767117
 30
0.0
 10
28.14527417998878
 20
-3.166397188258467
 30
0.0
 10
28.31447299538956
 20
-3.174838395487523
 30
0.0
  0
SPLINE
  5
9B
330
1F
100
AcDbEntity
  8
0
  6
Continuous
 62
     1
370
    15
100
AcDbSpline
210
0.0
220
0.0
230
1.0
 70
     8
 71
     3
 72
    17
 73
    13
 74
     0
 42
0.000000001
 43
0.00000001
 40
0.0
 40
0.0
 40
0.0
 40
0.0
 40
0.1640314270874497
 40
0.2850910977536826
 40
0.365228138694161
 40
0.4487276639671954
 40
0.5500464691152895
 40
0.6595761897418637
 40
0.7514367765745282
 40
0.8502962870411944
 40
0.9443013515836635
 40
1.0
 40
1.0
 40
1.0
 40
1.0
 10
31.52640340622417
 20
-3.004816987787575
 30
0.0
 10
31.6879908458796
 20
-2.979941141175685
 30
0.0
 10
31.96883422676427
 20
-2.936706240741911
 30
0.0
 10
32.32913675225402
 20
-2.88752482091886
 30
0.0
 10
32.6132792201582
 20
-2.851230710925564
 30
0.0
 10
32.87742024114598
 20
-2.819568898747586
 30
0.0
 10
33.1695855327723
 20
-2.787085255371786
 30
0.0
 10
33.46913879564944
 20
-2.756805415476202
 30
0.0
 10
33.76633263008102
 20
-2.729934127460934
 30
0.0
 10
34.04791623775623
 20
-2.707432615604189
 30
0.0
 10
34.29408905816541
 20
-2.689733181219264
 30
0.0
 10
34.44239485199865
 20
-2.681132034232931
 30
0.0
 10
34.49757339169923
 20
-2.677931898094017
 30
0.0
  0
SPLINE
  5
9C
330
1F
100
AcDbEntity
  8
0
  6
Continuous
 62
     1
370
    15
100
AcDbSpline
210
0.0
220
0.0
230
1.0
 70
     8
 71
     3
 72
    26
 73
    22
 74
     0
 42
0.000000001
 43
0.00000001
 40
0.0
 40
0.0
 40
0.0
 40
0.0
 40
0.0741878262359418
 40
0.1291395529897356
 40
0.1644170136016562
 40
0.18942994149426
 40
0.2193496366033204
 40
0.2543120670440147
 40
0.291205043589215
 40
0.3252918674785563
 40
0.3875698348971206
 40
0.4407903117616603
 40
0.4951630173114532
 40
0.5722890631510261
 40
0.651339498502651
 40
0.7181116270135741
 40
0.7604244175901674
 40
0.8058647330034578
 40
0.8507299924662004
 40
0.9155048091808606
 40
1.0
 40
1.0
 40
1.0
 40
1.0
 10
16.74726093382376
 20
2.739511211018711
 30
0.0
 10
16.58056102483551
 20
2.725936853838439
 30
0.0
 10
16.29038468698585
 20
2.702307823210039
 30
0.0
 10
15.92171193302565
 20
2.679868580392345
 30
0.0
 10
15.66381092174137
 20
2.666704335180771
 30
0.0
 10
15.46226093197578
 20
2.657925920248406
 30
0.0
 10
15.2609532950721
 20
2.650481005318092
 30
0.0
 10
15.03297101199109
 20
2.643852069027552
 30
0.0
 10
14.79575865820159
 20
2.639039392736379
 30
0.0
 10
14.4973789155515
 20
2.635640950019787
 30
0.0
 10
14.16233435366294
 20
2.635821850832325
 30
0.0
 10
13.78166535582918
 20
2.641436187611659
 30
0.0
 10
13.36765867608114
 20
2.653027132172132
 30
0.0
 10
12.8963523048433
 20
2.673977099282704
 30
0.0
 10
12.39668312672708
 20
2.705443936443679
 30
0.0
 10
11.97505621419674
 20
2.739250823880538
 30
0.0
 10
11.62846736932369
 20
2.771552209755545
 30
0.0
 10
11.33291257660706
 20
2.802166818443114
 30
0.0
 10
10.97926458638036
 20
2.842253157009015
 30
0.0
 10
10.53512962164741
 20
2.896935395736715
 30
0.0
 10
10.19342434123068
 20
2.944638207739718
 30
0.0
 10
10.00000000000004
 20
2.97164067306679
 30
0.0
  0
SPLINE
  5
9D
330
1F
100
AcDbEntity
  8
0
  6
Continuous
 62
     1
370
    15
100
AcDbSpline
210
0.0
220
0.0
230
1.0
 70
     8
 71
     3
 72
    14
 73
    10
 74
     0
 42
0.000000001
 43
0.00000001
 40
0.0
 40
0.0
 40
0.0
 40
0.0
 40
0.209168934470709
 40
0.3695198285439841
 40
0.4805843568987514
 40
0.6144862230651448
 40
0.7424466920830732
 40
0.901756892356239
 40
1.0
 40
1.0
 40
1.0
 40
1.0
 10
10.00000000000004
 20
-2.964210995925824
 30
0.0
 10
10.19341926601029
 20
-2.937209520922716
 30
0.0
 10
10.5351155804944
 20
-2.889508458435446
 30
0.0
 10
10.97930068455312
 20
-2.834816436058559
 30
0.0
 10
11.35254067191409
 20
-2.792520297027808
 30
0.0
 10
11.68807196355124
 20
-2.758036139313889
 30
0.0
 10
12.06989601347921
 20
-2.723879301248394
 30
0.0
 10
12.41886134723709
 20
-2.696466111586414
 30
0.0
 10
12.65196075806259
 20
-2.683064309806
 30
0.0
 10
12.74087598378671
 20
-2.677952223824335
 30
0.0
  0
SPLINE
  5
9E
330
1F
100
AcDbEntity
  8
0
  6
Continuous
 62
     1
370
    15
100
AcDbSpline
210
0.0
220
0.0
230
1.0
 70
     8
 71
     3
 72
    25
 73
    21
 74
     0
 42
0.000000001
 43
0.00000001
 40
0.0
 40
0.0
 40
0.0
 40
0.0
 40
0.0910181872724609
 40
0.1541251391201679
 40
0.2148264730175576
 40
0.2779190298866776
 40
0.3276793827929881
 40
0.3734940498390736
 40
0.424958100575982
 40
0.4914888880279047
 40
0.5535462424483605
 40
0.5999538850351939
 40
0.6406531330044303
 40
0.6840377026222365
 40
0.7421528208729962
 40
0.792879273845472
 40
0.8348628468950868
 40
0.8707297345754571
 40
0.924277036670668
 40
1.0
 40
1.0
 40
1.0
 40
1.0
 10
38.51299111597642
 20
2.739523092404788
 30
0.0
 10
38.30549088807209
 20
2.722773401244854
 30
0.0
 10
37.95412153595031
 20
2.694410405259043
 30
0.0
 10
37.44651552861185
 20
2.666696592400315
 30
0.0
 10
37.00630134219151
 20
2.648956510470376
 30
0.0
 10
36.60318990200188
 20
2.639132457294313
 30
0.0
 10
36.23367748074028
 20
2.63549057781392
 30
0.0
 10
35.89109443563831
 20
2.636337307529838
 30
0.0
 10
35.50943665257572
 20
2.642025026392544
 30
0.0
 10
35.09009811004995
 20
2.654620275681169
 30
0.0
 10
34.68281433344885
 20
2.673635010020777
 30
0.0
 10
34.33515775348497
 20
2.694497856551769
 30
0.0
 10
34.03124422474404
 20
2.716000170717286
 30
0.0
 10
33.7004569051801
 20
2.742803273944345
 30
0.0
 10
33.34613345543794
 20
2.775988347898516
 30
0.0
 10
32.99465990997243
 20
2.813538897062742
 30
0.0
 10
32.6938061496361
 20
2.848716733522644
 30
0.0
 10
32.38476196957311
 20
2.887578211432583
 30
0.0
 10
32.00132853653215
 20
2.939300672399773
 30
0.0
 10
31.70183719223311
 20
2.985300961644316
 30
0.0
 10
31.52640340622417
 20
3.012246664928544
 30
0.0
  0
LINE
  5
9F
330
1F
100
AcDbEntity
  8
0
  6
Continuous
 62
   131
370
    15
100
AcDbLine
 10
8.479892531345495
 20
4.003714838570484
 30
0.0
 11
-39.18999999999992
 21
4.003714838570481
 31
0.0
  0
LINE
  5
A0
330
1F
100
AcDbEntity
  8
0
  6
Continuous
 62
   131
370
    15
100
AcDbLine
 10
-39.18999999999992
 20
-3.996285161429519
 30
0.0
 11
8.479892531345495
 21
-3.996285161429517
 31
0.0
  0
LINE
  5
A1
330
1F
100
AcDbEntity
  8
0
  6
Continuous
 62
   131
370
    15
100
AcDbLine
 10
-39.18999999999992
 20
4.003714838570477
 30
0.0
 11
-39.99999999999991
 21
3.193714838570477
 31
0.0
  0
LINE
  5
A2
330
1F
100
AcDbEntity
  8
0
  6
Continuous
 62
   131
370
    15
100
AcDbLine
 10
-39.99999999999991
 20
-3.186285161429517
 30
0.0
 11
-39.18999999999992
 21
-3.996285161429516
 31
0.0
  0
SPLINE
  5
A3
330
1F
100
AcDbEntity
  8
0
  6
Continuous
 62
   131
370
    15
100
AcDbSpline
210
0.0
220
0.0
230
1.0
 70
     8
 71
     3
 72
     9
 73
     5
 74
     0
 42
0.000000001
 43
0.00000001
 40
0.0
 40
0.0
 40
0.0
 40
0.0
 40
0.4984843576123827
 40
1.0
 40
1.0
 40
1.0
 40
1.0
 10
9.701963964085259
 20
-3.013994066114621
 30
0.0
 10
9.751731960680983
 20
-3.005815294964846
 30
0.0
 10
9.851570593199162
 20
-2.989408017535019
 30
0.0
 10
9.950423647147305
 20
-2.972626959184448
 30
0.0
 10
10.00000000000009
 20
-2.964210995925817
 30
0.0
  0
SPLINE
  5
A4
330
1F
100
AcDbEntity
  8
0
  6
Continuous
 62
   131
370
    15
100
AcDbSpline
210
0.0
220
0.0
230
1.0
 70
     8
 71
     3
 72
     9
 73
     5
 74
     0
 42
0.000000001
 43
0.00000001
 40
0.0
 40
0.0
 40
0.0
 40
0.0
 40
0.4600743502321474
 40
1.0
 40
1.0
 40
1.0
 40
1.0
 10
9.977200048559055
 20
2.97549031008038
 30
0.0
 10
9.93520525055895
 20
2.982616071813047
 30
0.0
 10
9.843926964823357
 20
2.998104354802679
 30
0.0
 10
9.751738747321104
 20
3.013247545940787
 30
0.0
 10
9.701963964085259
 20
3.021423743255588
 30
0.0
  0
SPLINE
  5
A5
330
1F
100
AcDbEntity
  8
0
  6
Continuous
 62
     1
370
    15
100
AcDbSpline
210
0.0
220
0.0
230
1.0
 70
     8
 71
     3
 72
    31
 73
    27
 74
     0
 42
0.000000001
 43
0.00000001
 40
0.0
 40
0.0
 40
0.0
 40
0.0
 40
0.0343681023155467
 40
0.0768718680834545
 40
0.1190386597609992
 40
0.1614986270565116
 40
0.2036651449259586
 40
0.2461228406375661
 40
0.2882894807970326
 40
0.3307482258866526
 40
0.3729148530940254
 40
0.415373903598252
 40
0.45754048706218
 40
0.499998131089942
 40
0.54216480818477
 40
0.5846242281256476
 40
0.6267907271444115
 40
0.6692488536575592
 40
0.7114154788874899
 40
0.7538736049036966
 40
0.7960376241761761
 40
0.8384948346098854
 40
0.8782472686876489
 40
0.9182435033532904
 40
0.9589902181963892
 40
1.0
 40
1.0
 40
1.0
 40
1.0
 10
12.7409686656072
 20
2.685419595107742
 30
0.0
 10
13.05314300423315
 20
2.816681511339771
 30
0.0
 10
13.75139001122715
 20
3.110277841341547
 30
0.0
 10
14.83343823585584
 20
3.465324514649078
 30
0.0
 10
15.98873684460022
 20
3.757336173765164
 30
0.0
 10
17.14034555312979
 20
3.942949329609268
 30
0.0
 10
18.29519842275578
 20
4.020117896754257
 30
0.0
 10
19.44773605789758
 20
3.98630183789601
 30
0.0
 10
20.60197191185352
 20
3.841984848837322
 30
0.0
 10
21.75392243568942
 20
3.591817452296136
 30
0.0
 10
22.90930942168063
 20
3.242632030113281
 30
0.0
 10
24.06099870532096
 20
2.803784851572534
 30
0.0
 10
25.21539170316058
 20
2.286264551823108
 30
0.0
 10
26.36816459486972
 20
1.708430084599287
 30
0.0
 10
27.52263176965098
 20
1.080707462304205
 30
0.0
 10
28.67428386487074
 20
0.4242155189084328
 30
0.0
 10
29.82960669066452
 20
-0.2435691470480255
 30
0.0
 10
30.98164766304768
 20
-0.9041527618819778
 30
0.0
 10
32.13587121562654
 20
-1.541786802737217
 30
0.0
 10
33.28826397232145
 20
-2.133933130219718
 30
0.0
 10
34.44321423097192
 20
-2.668525629493312
 30
0.0
 10
35.57281797951212
 20
-3.120163452725034
 30
0.0
 10
36.68333513968769
 20
-3.482511944548762
 30
0.0
 10
37.77856712376212
 20
-3.751702437386505
 30
0.0
 10
38.88420731400591
 20
-3.936535098345735
 30
0.0
 10
39.62727212090878
 20
-3.974074384434302
 30
0.0
 10
39.99999999999967
 20
-3.996285161429402
 30
0.0
  0
SPLINE
  5
A6
330
1F
100
AcDbEntity
  8
0
  6
Continuous
 62
     1
370
    15
100
AcDbSpline
210
0.0
220
0.0
230
1.0
 70
     8
 71
     3
 72
    18
 73
    14
 74
     0
 42
0.000000001
 43
0.00000001
 40
0.0
 40
0.0
 40
0.0
 40
0.0
 40
0.0424699092074565
 40
0.1411346298000147
 40
0.2398820955610137
 40
0.338487631572091
 40
0.4370333619578077
 40
0.5356197857367735
 40
0.6343451722880636
 40
0.7330410852435536
 40
0.8316133928638447
 40
0.9301622465048918
 40
1.0
 40
1.0
 40
1.0
 40
1.0
 10
30.06022220311483
 20
-0.3742749224005346
 30
0.0
 10
29.87174020107076
 20
-0.2991904214326803
 30
0.0
 10
29.24538290295376
 20
-0.0496720342834933
 30
0.0
 10
28.18064744079519
 20
0.3841147886251394
 30
0.0
 10
26.86655566419519
 20
0.9021816038315215
 30
0.0
 10
25.55332099719937
 20
1.389479012221354
 30
0.0
 10
24.24084749594448
 20
1.826717144084814
 30
0.0
 10
22.92782160600596
 20
2.19886586303033
 30
0.0
 10
21.61382815581648
 20
2.491815805408025
 30
0.0
 10
20.29997714254715
 20
2.696739181155653
 30
0.0
 10
18.98713392171774
 20
2.801707819344367
 30
0.0
 10
17.8024018093057
 20
2.817822593690339
 30
0.0
 10
17.05502551584213
 20
2.755044540874979
 30
0.0
 10
16.74505382487034
 20
2.729007564110686
 30
0.0
  0
SPLINE
  5
A7
330
1F
100
AcDbEntity
  8
0
  6
Continuous
 62
     1
370
    15
100
AcDbSpline
210
0.0
220
0.0
230
1.0
 70
     8
 71
     3
 72
    20
 73
    16
 74
     0
 42
0.000000001
 43
0.00000001
 40
0.0
 40
0.0
 40
0.0
 40
0.0
 40
0.0806730921763818
 40
0.16133669546798
 40
0.2419920541555506
 40
0.3226404204026368
 40
0.4032830530730383
 40
0.4839212165346045
 40
0.5645561794517627
 40
0.6451892135692435
 40
0.7258215924894761
 40
0.8064545904461669
 40
0.8870894810765827
 40
0.9677275361950575
 40
1.0
 40
1.0
 40
1.0
 40
1.0
 10
40.00000000000009
 20
-3.792048638357114
 30
0.0
 10
39.47448077294994
 20
-3.677380993466445
 30
0.0
 10
38.42350413117468
 20
-3.448059191057927
 30
0.0
 10
36.84717196922706
 20
-2.873791275896191
 30
0.0
 10
35.2710300423235
 20
-2.165325119687453
 30
0.0
 10
33.6950528197604
 20
-1.341368920513327
 30
0.0
 10
32.11920978518181
 20
-0.4491526411310782
 30
0.0
 10
30.54347158130287
 20
0.4666611021589679
 30
0.0
 10
28.96780838924931
 20
1.358473690876973
 30
0.0
 10
27.39219044496927
 20
2.180754949372542
 30
0.0
 10
25.81658777312761
 20
2.88996709108741
 30
0.0
 10
24.24097091516097
 20
3.453924832738294
 30
0.0
 10
22.66530846369924
 20
3.827389726341128
 30
0.0
 10
21.40463771327073
 20
4.006713614244314
 30
0.0
 10
20.66917640934549
 20
3.985087139147183
 30
0.0
 10
20.45896438891397
 20
3.978905787387794
 30
0.0
  0
SPLINE
  5
A8
330
1F
100
AcDbEntity
  8
0
  6
Continuous
 62
     1
370
    15
100
AcDbSpline
210
0.0
220
0.0
230
1.0
 70
     8
 71
     3
 72
    15
 73
    11
 74
     0
 42
0.000000001
 43
0.00000001
 40
0.0
 40
0.0
 40
0.0
 40
0.0
 40
0.1264807570126162
 40
0.2527988812860036
 40
0.3790775282863222
 40
0.50544036223665
 40
0.6319727777074812
 40
0.7583805597557662
 40
0.8846701174231011
 40
1.0
 40
1.0
 40
1.0
 40
1.0
 10
40.00000000000009
 20
-3.152174218902378
 30
0.0
 10
39.5618220566663
 20
-3.061293246507717
 30
0.0
 10
38.68602959230009
 20
-2.879648159190101
 30
0.0
 10
37.37313053538697
 20
-2.473334890770881
 30
0.0
 10
36.06066020197969
 20
-1.986443054238272
 30
0.0
 10
34.74736188660002
 20
-1.425960295469328
 30
0.0
 10
33.4331577080322
 20
-0.8152733703815496
 30
0.0
 10
32.11955933688116
 20
-0.1753947529733282
 30
0.0
 10
30.84496151232238
 20
0.4552472146651
 30
0.0
 10
30.00811481616677
 20
0.8517340894635813
 30
0.0
 10
29.60867083473493
 20
1.040985354459349
 30
0.0
  0
LINE
  5
A9
330
1F
100
AcDbEntity
  8
0
  6
Continuous
 62
     1
370
    15
100
AcDbLine
 10
39.99999999999994
 20
-3.792048638357115
 30
0.0
 11
40.00000000000009
 21
-3.152174218902378
 31
0.0
  0
LINE
  5
AA
330
1F
100
AcDbEntity
  8
0
  6
Continuous
 62
     1
370
    15
100
AcDbLine
 10
39.99999999999967
 20
-3.996285161429402
 30
0.0
 11
39.99999999999992
 21
-3.792048638357109
 31
0.0
  0
SPLINE
  5
AB
330
1F
100
AcDbEntity
  8
0
  6
Continuous
 62
     1
370
    15
100
AcDbSpline
210
0.0
220
0.0
230
1.0
 70
     8
 71
     3
 72
    17
 73
    13
 74
     0
 42
0.000000001
 43
0.00000001
 40
0.0
 40
0.0
 40
0.0
 40
0.0
 40
0.0515521596846956
 40
0.1564959026419447
 40
0.2614437640796537
 40
0.3663973952598322
 40
0.4713584418974114
 40
0.5763285425883902
 40
0.6822389300955993
 40
0.7881581917823633
 40
0.8940832178385307
 40
1.0
 40
1.0
 40
1.0
 40
1.0
 10
25.01499638379665
 20
-3.141403447552413
 30
0.0
 10
24.75699167273462
 20
-3.236524395122484
 30
0.0
 10
23.97377171860509
 20
-3.525281231716366
 30
0.0
 10
22.66530906790346
 20
-3.822549092691406
 30
0.0
 10
21.08957355631489
 20
-4.015659427363611
 30
0.0
 10
19.51373404960821
 20
-3.993067849969019
 30
0.0
 10
17.93776031546522
 20
-3.766879998878512
 30
0.0
 10
16.35697357257431
 20
-3.344539670202258
 30
0.0
 10
14.77134827757567
 20
-2.746767833552068
 30
0.0
 10
13.18092228617665
 20
-2.002680236676719
 30
0.0
 10
11.59043244214816
 20
-1.154334469402477
 30
0.0
 10
10.53013039337757
 20
-0.5459270882618492
 30
0.0
 10
9.999999999996394
 20
-0.2417352358797238
 30
0.0
  0
SPLINE
  5
AC
330
1F
100
AcDbEntity
  8
0
  6
Continuous
 62
     1
370
    15
100
AcDbSpline
210
0.0
220
0.0
230
1.0
 70
     8
 71
     3
 72
    15
 73
    11
 74
     0
 42
0.000000001
 43
0.00000001
 40
0.0
 40
0.0
 40
0.0
 40
0.0
 40
0.1476976777511931
 40
0.2966243446593418
 40
0.4316977617010448
 40
0.5677065765935423
 40
0.7026371000487582
 40
0.8385057631637141
 40
0.9734354104538604
 40
1.0
 40
1.0
 40
1.0
 40
1.0
 10
10.00000000000009
 20
-1.334829928067133
 30
0.0
 10
10.41955123391197
 20
-1.558552927071042
 30
0.0
 10
11.26214477840746
 20
-2.007860519276708
 30
0.0
 10
12.48797750481397
 20
-2.586382054972825
 30
0.0
 10
13.68008853980405
 20
-3.074530422710914
 30
0.0
 10
14.83343936888222
 20
-3.458798279644103
 30
0.0
 10
15.988738593698
 20
-3.751173589088112
 30
0.0
 10
17.14033736978475
 20
-3.929507842968171
 30
0.0
 10
17.98483214315721
 20
-4.006898753455972
 30
0.0
 10
18.4435063058472
 20
-3.990264345968509
 30
0.0
 10
18.51895476212637
 20
-3.987528110819167
 30
0.0
  0
SPLINE
  5
AD
330
1F
100
AcDbEntity
  8
0
  6
Continuous
 62
     1
370
    15
100
AcDbSpline
210
0.0
220
0.0
230
1.0
 70
     8
 71
     3
 72
    12
 73
     8
 74
     0
 42
0.000000001
 43
0.00000001
 40
0.0
 40
0.0
 40
0.0
 40
0.0
 40
0.199933727670292
 40
0.3968598239459425
 40
0.5949936625688084
 40
0.7968452391140829
 40
1.0
 40
1.0
 40
1.0
 40
1.0
 10
34.4975880865228
 20
2.685367419465176
 30
0.0
 10
34.86420024201435
 20
2.836751879428139
 30
0.0
 10
35.59190955439584
 20
3.137243501472657
 30
0.0
 10
36.68332717289814
 20
3.489022910215827
 30
0.0
 10
37.77856929792553
 20
3.759382833948753
 30
0.0
 10
38.88420676213667
 20
3.943901135222255
 30
0.0
 10
39.62727193655819
 20
3.981482802697084
 30
0.0
 10
39.99999999999995
 20
4.003714838570589
 30
0.0
  0
LINE
  5
AE
330
1F
100
AcDbEntity
  8
0
  6
Continuous
 62
   131
370
    15
100
AcDbLine
 10
10.00000000000009
 20
-1.334829928067131
 30
0.0
 11
10.00000000000009
 21
-0.2417352358721405
 31
0.0
  0
SPLINE
  5
AF
330
1F
100
AcDbEntity
  8
0
  6
Continuous
 62
   131
370
    15
100
AcDbSpline
210
0.0
220
0.0
230
1.0
 70
    24
 71
     3
 72
     8
 73
     4
 74
     0
 42
0.000000001
 43
0.00000001
 40
0.0
 40
0.0
 40
0.0
 40
0.0
 40
1.0
 40
1.0
 40
1.0
 40
1.0
 10
10.00000000000022
 20
-0.0000000000001092
 30
0.0
 10
10.00000000000022
 20
-0.0643814117831256
 30
0.0
 10
10.00000000000022
 20
-0.1454058323935473
 30
0.0
 10
10.00000000000022
 20
-0.2417352358768952
 30
0.0
  0
SPLINE
  5
B0
330
1F
100
AcDbEntity
  8
0
  6
Continuous
 62
     1
370
    15
100
AcDbSpline
210
0.0
220
0.0
230
1.0
 70
     8
 71
     3
 72
    17
 73
    13
 74
     0
 42
0.000000001
 43
0.00000001
 40
0.0
 40
0.0
 40
0.0
 40
0.0
 40
0.0560041970163159
 40
0.1628202199179244
 40
0.2695077332773804
 40
0.3761708496476165
 40
0.4829139960279477
 40
0.589792538857671
 40
0.6965501115443353
 40
0.8032167297456326
 40
0.9015041467248346
 40
1.0
 40
1.0
 40
1.0
 40
1.0
 10
22.30275774429724
 20
-3.309530011354703
 30
0.0
 10
22.07305895158243
 20
-3.335165011675846
 30
0.0
 10
21.40525885913918
 20
-3.409693290130918
 30
0.0
 10
20.29988079828039
 20
-3.401202790053164
 30
0.0
 10
18.98707862678544
 20
-3.291430822256399
 30
0.0
 10
17.67458166916346
 20
-3.057630886761373
 30
0.0
 10
16.36119211637283
 20
-2.715633598376736
 30
0.0
 10
15.04696672341755
 20
-2.276266425867344
 30
0.0
 10
13.7334763917965
 20
-1.754882249888895
 30
0.0
 10
12.45530149940409
 20
-1.185878967192637
 30
0.0
 10
11.2112111526261
 20
-0.5934816305784376
 30
0.0
 10
10.40402204716787
 20
-0.1979668555915642
 30
0.0
 10
10.00000000000016
 20
-0.000000000000076
 30
0.0
  0
SPLINE
  5
B1
330
1F
100
AcDbEntity
  8
0
  6
Continuous
 62
     1
370
    15
100
AcDbSpline
210
0.0
220
0.0
230
1.0
 70
    24
 71
     3
 72
    10
 73
     6
 74
     0
 42
0.000000001
 43
0.00000001
 40
0.0
 40
0.0
 40
0.0
 40
0.0
 40
0.5
 40
0.5
 40
1.0
 40
1.0
 40
1.0
 40
1.0
 10
40.00000000000009
 20
2.803714838570487
 30
0.0
 10
40.00000000000009
 20
2.973443865799742
 30
0.0
 10
40.00000000000009
 20
3.170684714038955
 30
0.0
 10
40.00000000000009
 20
3.584495482413909
 30
0.0
 10
40.00000000000009
 20
3.800008581776377
 30
0.0
 10
39.99999999999995
 20
4.003714838570589
 30
0.0
  0
SPLINE
  5
B2
330
1F
100
AcDbEntity
  8
0
  6
Continuous
 62
     1
370
    15
100
AcDbSpline
210
0.0
220
0.0
230
1.0
 70
     8
 71
     3
 72
     9
 73
     5
 74
     0
 42
0.000000001
 43
0.00000001
 40
0.0
 40
0.0
 40
0.0
 40
0.0
 40
0.88304232405367
 40
1.0
 40
1.0
 40
1.0
 40
1.0
 10
40.00000000000009
 20
2.803714838570489
 30
0.0
 10
39.5618171710125
 20
2.801508702740688
 30
0.0
 10
39.06559766142425
 20
2.799010367417785
 30
0.0
 10
38.56948097561244
 20
2.74064159095146
 30
0.0
 10
38.51145632104168
 20
2.733814914508128
 30
0.0
  0
SPLINE
  5
B3
330
1F
100
AcDbEntity
  8
0
  6
Continuous
 62
     1
370
    15
100
AcDbSpline
210
0.0
220
0.0
230
1.0
 70
     8
 71
     3
 72
     8
 73
     4
 74
     0
 42
0.000000001
 43
0.00000001
 40
0.0
 40
0.0
 40
0.0
 40
0.0
 40
1.0
 40
1.0
 40
1.0
 40
1.0
 10
37.52471855126652
 20
1.122868442886734
 30
0.0
 10
37.34554341134248
 20
1.335161685545563
 30
0.0
 10
37.19000160100921
 20
1.538088637212295
 30
0.0
 10
37.06722270051499
 20
1.726850212989295
 30
0.0
  0
LINE
  5
B4
330
1F
100
AcDbEntity
  8
0
  6
Continuous
 62
     1
370
    15
100
AcDbLine
 10
37.06722270051498
 20
1.726850212989297
 30
0.0
 11
40.00000000000009
 21
0.0037148385704874
 31
0.0
  0
LINE
  5
B5
330
1F
100
AcDbEntity
  8
0
  6
Continuous
 62
     1
370
    15
100
AcDbLine
 10
40.00000000000009
 20
0.0037148385704874
 30
0.0
 11
40.00000000000009
 21
-1.065256945548092
 31
0.0
  0
SPLINE
  5
B6
330
1F
100
AcDbEntity
  8
0
  6
Continuous
 62
     1
370
    15
100
AcDbSpline
210
0.0
220
0.0
230
1.0
 70
     8
 71
     3
 72
    10
 73
     6
 74
     0
 42
0.000000001
 43
0.00000001
 40
0.0
 40
0.0
 40
0.0
 40
0.0
 40
0.5
 40
0.5
 40
1.0
 40
1.0
 40
1.0
 40
1.0
 10
40.00000000000009
 20
-1.065256945548092
 30
0.0
 10
39.57151703976402
 20
-0.7283962418337891
 30
0.0
 10
39.15019312186354
 20
-0.377721715598549
 30
0.0
 10
38.32222625633996
 20
0.3519551925180838
 30
0.0
 10
37.91171971059753
 20
0.7347860580585969
 30
0.0
 10
37.52471855126652
 20
1.122868442886728
 30
0.0
  0
SPLINE
  5
B7
330
1F
100
AcDbEntity
  8
0
  6
Continuous
 62
     1
370
    15
100
AcDbSpline
210
0.0
220
0.0
230
1.0
 70
     8
 71
     3
 72
    14
 73
    10
 74
     0
 42
0.000000001
 43
0.00000001
 40
0.0
 40
0.0
 40
0.0
 40
0.0
 40
0.1589205937711564
 40
0.3014828376293665
 40
0.4442390761622216
 40
0.5868527260174513
 40
0.7293311334349649
 40
0.8718156113579414
 40
1.0
 40
1.0
 40
1.0
 40
1.0
 10
37.52471855125345
 20
1.122868442892375
 30
0.0
 10
37.03678288506852
 20
1.329268278629361
 30
0.0
 10
36.11113677633424
 20
1.720822366665467
 30
0.0
 10
34.74736962750836
 20
2.217090967316766
 30
0.0
 10
33.43318021363804
 20
2.618013241569821
 30
0.0
 10
32.11959051382105
 20
2.925623376373529
 30
0.0
 10
30.80699224207429
 20
3.125933162644317
 30
0.0
 10
29.53871112379764
 20
3.221340914590044
 30
0.0
 10
28.7076362878339
 20
3.191247061286378
 30
0.0
 10
28.31405271423803
 20
3.176995100074255
 30
0.0
  0
SPLINE
  5
B8
330
1F
100
AcDbEntity
  8
0
  6
Continuous
 62
     1
370
    15
100
AcDbSpline
210
0.0
220
0.0
230
1.0
 70
    24
 71
     3
 72
    10
 73
     6
 74
     0
 42
0.000000001
 43
0.00000001
 40
0.0
 40
0.0
 40
0.0
 40
0.0
 40
0.5
 40
0.5
 40
1.0
 40
1.0
 40
1.0
 40
1.0
 10
40.00000000000009
 20
-3.152174218902377
 30
0.0
 10
40.00000000000009
 20
-2.910250717444733
 30
0.0
 10
40.00000000000008
 20
-2.604571097055388
 30
0.0
 10
40.00000000000009
 20
-1.893895398032233
 30
0.0
 10
40.00000000000009
 20
-1.489514933634752
 30
0.0
 10
40.00000000000009
 20
-1.06525694554822
 30
0.0
  0
SPLINE
  5
B9
330
1F
100
AcDbEntity
  8
0
  6
Continuous
 62
     1
370
    15
100
AcDbSpline
210
0.0
220
0.0
230
1.0
 70
     8
 71
     3
 72
    24
 73
    20
 74
     0
 42
0.000000001
 43
0.00000001
 40
0.0
 40
0.0
 40
0.0
 40
0.0
 40
0.0336856068219987
 40
0.0946344877183494
 40
0.1556463794260993
 40
0.2167081098861649
 40
0.2776843586105447
 40
0.3386245877959726
 40
0.3995893236660578
 40
0.4606377531670553
 40
0.521668435325282
 40
0.5826246718029638
 40
0.643566781439456
 40
0.7045552660828175
 40
0.7656221827273665
 40
0.8266190009519658
 40
0.8875631334203614
 40
0.9437211937170538
 40
1.0
 40
1.0
 40
1.0
 40
1.0
 10
31.5322731049983
 20
-2.990396462349556
 30
0.0
 10
31.29051931023825
 20
-3.030579373569045
 30
0.0
 10
30.61134951994837
 20
-3.143467030258219
 30
0.0
 10
29.49434848224647
 20
-3.207545032487667
 30
0.0
 10
28.18066323958699
 20
-3.186955320838613
 30
0.0
 10
26.8665187196834
 20
-3.047062497054988
 30
0.0
 10
25.55330592555331
 20
-2.799084670229335
 30
0.0
 10
24.24084602811116
 20
-2.450368408398743
 30
0.0
 10
22.92784264581687
 20
-2.013685953819383
 30
0.0
 10
21.61381373006476
 20
-1.50510147715558
 30
0.0
 10
20.29994291224214
 20
-0.9423607493109887
 30
0.0
 10
18.98712666871284
 20
-0.3454505630431782
 30
0.0
 10
17.67462637883886
 20
0.263855584433767
 30
0.0
 10
16.36123075015204
 20
0.864012622459596
 30
0.0
 10
15.04703676963031
 20
1.432573087245206
 30
0.0
 10
13.73354260088372
 20
1.951079322886762
 30
0.0
 10
12.45535769110002
 20
2.386025725860342
 30
0.0
 10
11.21122080519422
 20
2.738071045725244
 30
0.0
 10
10.40402921616493
 20
2.894408183436128
 30
0.0
 10
10.00000000000009
 20
2.97266069754216
 30
0.0
  0
SPLINE
  5
BA
330
1F
100
AcDbEntity
  8
0
  6
Continuous
 62
   131
370
    15
100
AcDbSpline
210
0.0
220
0.0
230
1.0
 70
    24
 71
     3
 72
    14
 73
    10
 74
     0
 42
0.000000001
 43
0.00000001
 40
0.0
 40
0.0
 40
0.0
 40
0.0
 40
0.2499999999999998
 40
0.2499999999999998
 40
0.4999999999999999
 40
0.4999999999999999
 40
0.75
 40
0.75
 40
1.0
 40
1.0
 40
1.0
 40
1.0
 10
10.0
 20
2.972660697542176
 30
0.0
 10
10.0
 20
2.825259518731531
 30
0.0
 10
10.0
 20
2.645541557874531
 30
0.0
 10
10.0
 20
2.227586233529735
 30
0.0
 10
10.0
 20
1.989398444333202
 30
0.0
 10
10.0
 20
1.469852335996154
 30
0.0
 10
10.0
 20
1.188644046000335
 30
0.0
 10
10.0
 20
0.6046643650196861
 30
0.0
 10
10.0
 20
0.3020732828414618
 30
0.0
 10
10.0
 20
0.0
 30
0.0
  0
SPLINE
  5
BB
330
1F
100
AcDbEntity
  8
0
  6
Continuous
 62
     1
370
    15
100
AcDbSpline
210
0.0
220
0.0
230
1.0
 70
     8
 71
     3
 72
    10
 73
     6
 74
     0
 42
0.000000001
 43
0.00000001
 40
0.0
 40
0.0
 40
0.0
 40
0.0
 40
0.5
 40
0.5
 40
1.0
 40
1.0
 40
1.0
 40
1.0
 10
40.00000000000009
 20
2.803714838570489
 30
0.0
 10
39.50223746009672
 20
2.668660861102946
 30
0.0
 10
39.00821511501312
 20
2.513835488502378
 30
0.0
 10
38.02867820086093
 20
2.159210989418747
 30
0.0
 10
37.54303221981866
 20
1.959979664185015
 30
0.0
 10
37.06722270051296
 20
1.726850212990926
 30
0.0
  0
SPLINE
  5
BC
330
1F
100
AcDbEntity
  8
0
  6
Continuous
 62
   131
370
    15
100
AcDbSpline
210
0.0
220
0.0
230
1.0
 70
    24
 71
     3
 72
    13
 73
     9
 74
     0
 42
0.000000001
 43
0.00000001
 40
0.0
 40
0.0
 40
0.0
 40
0.0
 40
0.0771749670357091
 40
0.2830742677148302
 40
0.4831707566590703
 40
0.689070057338193
 40
0.8871427419327736
 40
1.0
 40
1.0
 40
1.0
 40
1.0
 10
10.00000000000007
 20
-1.38998405048988
 30
0.0
 10
10.00000000000007
 20
-1.46429122045234
 30
0.0
 10
10.00000000000011
 20
-1.736846538983957
 30
0.0
 10
10.00000000000008
 20
-2.115390022575837
 30
0.0
 10
10.00000000000009
 20
-2.513876358171514
 30
0.0
 10
10.00000000000009
 20
-2.785412901302249
 30
0.0
 10
10.00000000000009
 20
-2.936386080038132
 30
0.0
 10
10.00000000000009
 20
-2.94539227246614
 30
0.0
 10
10.00000000000009
 20
-2.948661221652408
 30
0.0
  0
LINE
  5
BD
330
1F
100
AcDbEntity
  8
0
  6
Continuous
 62
     1
370
    15
100
AcDbLine
 10
40.00000000000009
 20
0.0037148385704874
 30
0.0
 11
40.00000000000009
 21
2.803714838570488
 31
0.0
  0
SPLINE
  5
BE
330
1F
100
AcDbEntity
  8
0
  6
Continuous
 62
   131
370
    15
100
AcDbSpline
210
0.0
220
0.0
230
1.0
 70
    24
 71
     3
 72
     8
 73
     4
 74
     0
 42
0.000000001
 43
0.00000001
 40
0.0
 40
0.0
 40
0.0
 40
0.0
 40
1.0
 40
1.0
 40
1.0
 40
1.0
 10
10.00000000000022
 20
-0.0000000000001092
 30
0.0
 10
10.00000000000022
 20
-0.0643814117831271
 30
0.0
 10
10.00000000000022
 20
-0.1454058323935509
 30
0.0
 10
10.00000000000022
 20
-0.2417352358769017
 30
0.0
  0
SPLINE
  5
BF
330
1F
100
AcDbEntity
  8
0
  6
Continuous
 62
   131
370
    15
100
AcDbSpline
210
0.0
220
0.0
230
1.0
 70
     8
 71
     3
 72
    10
 73
     6
 74
     0
 42
0.000000001
 43
0.00000001
 40
0.0
 40
0.0
 40
0.0
 40
0.0
 40
0.5
 40
0.5
 40
1.0
 40
1.0
 40
1.0
 40
1.0
 10
10.00000000000009
 20
-0.2417352358818559
 30
0.0
 10
9.747705482820502
 20
-0.0959582464190237
 30
0.0
 10
9.495633711081
 20
0.0502674467133507
 30
0.0
 10
8.98753337377252
 20
0.3427070470703199
 30
0.0
 10
8.732834587013219
 20
0.4886615429599497
 30
0.0
 10
8.479780047013715
 20
0.6330393015738259
 30
0.0
  0
SPLINE
  5
C0
330
1F
100
AcDbEntity
  8
0
  6
Continuous
 62
   131
370
    15
100
AcDbSpline
210
0.0
220
0.0
230
1.0
 70
     8
 71
     3
 72
    10
 73
     6
 74
     0
 42
0.000000001
 43
0.00000001
 40
0.0
 40
0.0
 40
0.0
 40
0.0
 40
0.5
 40
0.5
 40
1.0
 40
1.0
 40
1.0
 40
1.0
 10
10.00000000000015
 20
-0.0000000000000714
 30
0.0
 10
9.747705482820551
 20
0.1241443114425843
 30
0.0
 10
9.495633711081043
 20
0.2482605383243133
 30
0.0
 10
8.987533373772541
 20
0.4956594203881154
 30
0.0
 10
8.73283458701323
 20
0.618720994710155
 30
0.0
 10
8.479780047013715
 20
0.7400405845645276
 30
0.0
  0
LINE
  5
C1
330
1F
100
AcDbEntity
  8
0
  6
Continuous
 62
   131
370
    15
100
AcDbLine
 10
8.479892531345495
 20
0.6332085947537542
 30
0.0
 11
8.479892531345495
 21
4.003714838570484
 31
0.0
  0
SPLINE
  5
C2
330
1F
100
AcDbEntity
  8
0
  6
Continuous
 62
   131
370
    15
100
AcDbSpline
210
0.0
220
0.0
230
1.0
 70
     8
 71
     3
 72
    10
 73
     6
 74
     0
 42
0.000000001
 43
0.00000001
 40
0.0
 40
0.0
 40
0.0
 40
0.0
 40
0.4999999999999999
 40
0.4999999999999999
 40
1.0
 40
1.0
 40
1.0
 40
1.0
 10
8.479892531345492
 20
-0.4824671099470949
 30
0.0
 10
8.732928810059109
 20
-0.6275710446359684
 30
0.0
 10
8.98760875459635
 20
-0.772011331577166
 30
0.0
 10
9.49567125702227
 20
-1.056951908063894
 30
0.0
 10
9.747724173885358
 20
-1.197208196504344
 30
0.0
 10
10.00000000000009
 20
-1.334829928067128
 30
0.0
  0
LINE
  5
C3
330
1F
100
AcDbEntity
  8
0
  6
Continuous
 62
   131
370
    15
100
AcDbLine
 10
8.479892531345495
 20
-3.996285161429517
 30
0.0
 11
8.479892531345492
 21
-0.4824712327085914
 31
0.0
  0
LINE
  5
C4
330
1F
100
AcDbEntity
  8
0
  6
Continuous
 62
   131
370
    15
100
AcDbLine
 10
-39.18999999999992
 20
4.003714838570477
 30
0.0
 11
-39.18999999999992
 21
-3.996285161429519
 31
0.0
  0
LINE
  5
C5
330
1F
100
AcDbEntity
  8
0
  6
Continuous
 62
   131
370
    15
100
AcDbLine
 10
-39.99999999999991
 20
3.193714838570477
 30
0.0
 11
-39.99999999999991
 21
-3.186285161429517
 31
0.0
  0
SPLINE
  5
C6
330
1F
100
AcDbEntity
  8
0
  6
Continuous
 62
   131
370
    15
100
AcDbSpline
210
0.0
220
0.0
230
1.0
 70
     8
 71
     3
 72
    10
 73
     6
 74
     0
 42
0.000000001
 43
0.00000001
 40
0.0
 40
0.0
 40
0.0
 40
0.0
 40
0.5
 40
0.5
 40
1.0
 40
1.0
 40
1.0
 40
1.0
 10
10.00000000000009
 20
2.97266069754216
 30
0.0
 10
9.747717346954541
 20
3.016251021905017
 30
0.0
 10
9.495657543332044
 20
3.053897620173271
 30
0.0
 10
8.98758122167352
 20
3.116985187150612
 30
0.0
 10
8.732894394988746
 20
3.142346142416796
 30
0.0
 10
8.47985144630166
 20
3.161320371604451
 30
0.0
  0
SPLINE
  5
C7
330
1F
100
AcDbEntity
  8
0
  6
Continuous
 62
   131
370
    15
100
AcDbSpline
210
0.0
220
0.0
230
1.0
 70
    24
 71
     3
 72
    14
 73
    10
 74
     0
 42
0.000000001
 43
0.00000001
 40
0.0
 40
0.0
 40
0.0
 40
0.0
 40
0.2499999999999998
 40
0.2499999999999998
 40
0.4999999999999999
 40
0.4999999999999999
 40
0.75
 40
0.75
 40
1.0
 40
1.0
 40
1.0
 40
1.0
 10
10.0
 20
2.972660697542176
 30
0.0
 10
10.0
 20
2.825259518731531
 30
0.0
 10
10.0
 20
2.645541557874531
 30
0.0
 10
10.0
 20
2.227586233529735
 30
0.0
 10
10.0
 20
1.989398444333202
 30
0.0
 10
10.0
 20
1.469852335996154
 30
0.0
 10
10.0
 20
1.188644046000335
 30
0.0
 10
10.0
 20
0.6046643650196861
 30
0.0
 10
10.0
 20
0.3020732828414618
 30
0.0
 10
10.0
 20
0.0
 30
0.0
  0
LINE
  5
C8
330
1F
100
AcDbEntity
  8
0
  6
Continuous
 62
   131
370
    15
100
AcDbLine
 10
9.704083525493148
 20
-3.001956053289799
 30
0.0
 11
8.47985144630166
 21
-3.153890694463484
 31
0.0
  0
SPLINE
  5
C9
330
1F
100
AcDbEntity
  8
0
  6
Continuous
 62
   131
370
    15
100
AcDbSpline
210
0.0
220
0.0
230
1.0
 70
    24
 71
     3
 72
    13
 73
     9
 74
     0
 42
0.000000001
 43
0.00000001
 40
0.0
 40
0.0
 40
0.0
 40
0.0
 40
0.077017252639087
 40
0.2824957784838031
 40
0.4821833511921807
 40
0.6876618770368986
 40
0.8853297812325736
 40
0.9999999999999999
 40
0.9999999999999999
 40
0.9999999999999999
 40
0.9999999999999999
 10
10.00000000000009
 20
-1.38998405048988
 30
0.0
 10
10.00000000000009
 20
-1.464291135699713
 30
0.0
 10
10.00000000000009
 20
-1.736846143362511
 30
0.0
 10
10.00000000000009
 20
-2.115394935128869
 30
0.0
 10
10.00000000000009
 20
-2.513858832537663
 30
0.0
 10
10.00000000000009
 20
-2.785479271193801
 30
0.0
 10
10.00000000000009
 20
-2.936789171486083
 30
0.0
 10
10.00000000000009
 20
-2.945746288039482
 30
0.0
 10
10.00000000000009
 20
-2.949034757935374
 30
0.0
  0
LINE
  5
CA
330
1F
100
AcDbEntity
  8
중심선
 62
     1
100
AcDbLine
 10
-42.99999999999992
 20
0.0037148385704789
 30
0.0
 11
43.00000000000008
 21
0.0037148385704878
 31
0.0
  0
CIRCLE
  5
CB
330
1F
100
AcDbEntity
  8
외형선
100
AcDbCircle
 10
0.0000000000000104
 20
0.0
 30
0.0
 40
3.000000000000005
  0
INSERT
  5
CC
330
1F
100
AcDbEntity
  8
0
  6
Continuous
 62
     7
100
AcDbBlockReference
 66
     1
  2
블럭10
 10
-22.93944368806589
 20
-52.04609937292004
 30
0.0
  0
ATTRIB
  5
CD
330
CC
100
AcDbEntity
  8
FORMAT
 62
     2
100
AcDbText
 10
-39.05870472750145
 20
-49.97073246008785
 30
0.0
 40
4.233333333333333
  1
SEME7008030E [ 2 FLUTE ]
 41
0.75
  7
SLDTEXTSTYLE0
 11
-39.05870472750145
 21
-52.08739912675452
 31
0.0
100
AcDbAttribute
  2
AUTOATTR0
 70
     0
 74
     1
  0
SEQEND
  5
CE
330
CC
100
AcDbEntity
  8
0
  6
Continuous
 62
     7
  0
HATCH
  5
CF
330
1F
100
AcDbEntity
  8
중심선
100
AcDbHatch
 10
0.0
 20
0.0
 30
0.0
210
0.0
220
0.0
230
1.0
  2
SOLID
 70
     1
 71
     0
 91
        1
 92
        0
 93
        4
 72
     1
 10
-17.22453438368504
 20
-35.7989250712761
 11
-20.67080962752232
 21
-35.7989250712761
 72
     1
 10
-20.67080962752232
 20
-35.7989250712761
 11
-22.79903948672635
 21
-38.3352506518487
 72
     1
 10
-22.79903948672635
 20
-38.3352506518487
 11
-19.35273115777591
 21
-38.33521122254621
 72
     1
 10
-19.35273115777591
 20
-38.33521122254621
 11
-17.22453438368504
 21
-35.7989250712761
 97
        0
 75
     0
 76
     1
 98
        1
 10
0.0
 20
0.0
  0
HATCH
  5
D0
330
1F
100
AcDbEntity
  8
중심선
100
AcDbHatch
 10
0.0
 20
0.0
 30
0.0
210
0.0
220
0.0
230
1.0
  2
SOLID
 70
     1
 71
     0
 91
        1
 92
        0
 93
        4
 72
     1
 10
-12.21177039264909
 20
-35.7989250712761
 11
-15.65804563648637
 21
-35.7989250712761
 72
     1
 10
-15.65804563648637
 20
-35.7989250712761
 11
-20.18918364484376
 21
-41.19892507127612
 72
     1
 10
-20.18918364484376
 20
-41.19892507127612
 11
-16.74290840100648
 21
-41.19892507127612
 72
     1
 10
-16.74290840100648
 20
-41.19892507127612
 11
-12.21177039264909
 21
-35.7989250712761
 97
        0
 75
     0
 76
     1
 98
        1
 10
0.0
 20
0.0
  0
HATCH
  5
D1
330
1F
100
AcDbEntity
  8
중심선
100
AcDbHatch
 10
0.0
 20
0.0
 30
0.0
210
0.0
220
0.0
230
1.0
  2
SOLID
 70
     1
 71
     0
 91
        1
 92
        0
 93
        4
 72
     1
 10
-7.199006401613195
 20
-35.79892507127613
 11
-10.64528164545031
 21
-35.7989250712761
 72
     1
 10
-10.64528164545031
 20
-35.7989250712761
 11
-17.69371854733956
 21
-44.19892507127612
 72
     1
 10
-17.69371854733956
 20
-44.19892507127612
 11
-14.24744330350228
 21
-44.19892507127612
 72
     1
 10
-14.24744330350228
 20
-44.19892507127612
 11
-7.199006401613195
 21
-35.79892507127613
 97
        0
 75
     0
 76
     1
 98
        1
 10
0.0
 20
0.0
  0
HATCH
  5
D2
330
1F
100
AcDbEntity
  8
중심선
100
AcDbHatch
 10
0.0
 20
0.0
 30
0.0
210
0.0
220
0.0
230
1.0
  2
SOLID
 70
     1
 71
     0
 91
        1
 92
        0
 93
        6
 72
     3
 10
-2.399115970600996
 20
-39.99892507132738
 11
3.960054785062284
 21
1.540850780301639E-10
 40
0.3939339440162633
 50
17.09539180608433
 51
320.0019657685079
 73
     0
 72
     1
 10
-0.7161163149004002
 20
-38.58681907591441
 11
1.589185558800638
 21
-36.65249236586649
 72
     3
 10
-2.399115970653842
 20
-39.99892507127625
 11
6.600054785286829
 21
-1.249000902703301E-13
 40
0.6363583540795982
 50
39.99873849337408
 51
368.4976242363725
 73
     1
 72
     1
 10
4.026216521246767
 20
-39.03892507120613
 11
-3.71904866381792
 21
-39.0389250712061
 72
     1
 10
-3.71904866381792
 20
-39.0389250712061
 11
-3.719073708263854
 21
-40.95892507120602
 72
     1
 10
-3.719073708263854
 20
-40.95892507120602
 11
0.7223060612081831
 21
-40.95892507120599
 97
        0
 75
     0
 76
     1
 98
        1
 10
0.0
 20
0.0
  0
DIMENSION
  5
D3
330
1F
100
AcDbEntity
  8
치수문자_일반주서
100
AcDbDimension
  2
_D
 10
50.20248978280843
 20
4.003714838570627
 30
0.0
 11
50.2024897828084
 21
13.67021483857063
 31
0.0
 70
   160
  1
%%c<>
 71
     2
 42
7.999999999999991
 52
-270.0
  3
SLDDIMSTYLE0
100
AcDbAlignedDimension
 13
39.99999999999967
 23
-3.996285161429402
 33
0.0
 14
39.99999999999995
 24
4.003714838570589
 34
0.0
 50
90.0000000000002
100
AcDbRotatedDimension
  0
DIMENSION
  5
E1
330
1F
100
AcDbEntity
  8
치수문자_일반주서
100
AcDbDimension
  2
_D_1
 10
39.99999999999996
 20
24.98212527881318
 30
0.0
 11
0.0000000000000169
 21
24.98212527881318
 31
0.0
 70
   160
  1
<>
 71
     2
 42
79.99999999999986
  3
SLDDIMSTYLE1
100
AcDbAlignedDimension
 13
-39.99999999999991
 23
3.193714838570477
 33
0.0
 14
39.99999999999995
 24
4.003714838570589
 34
0.0
 50
-0.0000000000000051
100
AcDbRotatedDimension
  0
DIMENSION
  5
EC
330
1F
100
AcDbEntity
  8
치수문자_일반주서
100
AcDbDimension
  2
_D_2
 10
39.99999999999995
 20
16.31965850370968
 30
0.0
 11
25.00000000000009
 21
16.31965850370968
 31
0.0
 70
   160
  1
<>
 71
     2
 42
29.99999999999986
  3
SLDDIMSTYLE1
100
AcDbAlignedDimension
 13
10.00000000000009
 23
2.97266069754216
 33
0.0
 14
39.99999999999995
 24
4.003714838570589
 34
0.0
100
AcDbRotatedDimension
  0
DIMENSION
  5
F6
330
1F
100
AcDbEntity
  8
치수문자_일반주서
100
AcDbDimension
  2
_D_3
 10
-50.50472050209754
 20
-3.996285161429558
 30
0.0
 11
-50.50472050209761
 21
13.67021483857043
 31
0.0
 70
   160
  1
%%c<>
 71
     2
 42
7.999999999999993
 52
-270.0
  3
SLDDIMSTYLE0
100
AcDbAlignedDimension
 13
-39.18999999999992
 23
4.003714838570477
 33
0.0
 14
-39.18999999999992
 24
-3.996285161429516
 34
0.0
 50
90.0000000000002
100
AcDbRotatedDimension
  0
INSERT
  5
109
330
1F
100
AcDbEntity
  8
외형선
100
AcDbBlockReference
  2
SW_DOWELSYMBOL_0
 10
0.0000000000000104
 20
0.0
 30
0.0
  0
ENDSEC
  0
SECTION
  2
OBJECTS
  0
DICTIONARY
  5
C
330
0
100
AcDbDictionary
281
     1
  3
ACAD_GROUP
350
D
  3
ACAD_IMAGE_VARS
350
12D
  3
ACAD_LAYOUT
350
1A
  3
ACAD_MLINESTYLE
350
17
  3
ACAD_PLOTSETTINGS
350
19
  3
ACAD_PLOTSTYLENAME
350
E
  3
ACAD_SCALELIST
350
47
  3
APPDATA
350
12B
  3
DWGPROPS
350
13D
  0
DICTIONARY
  5
D
102
{ACAD_REACTORS
330
C
102
}
330
C
100
AcDbDictionary
281
     1
  0
RASTERVARIABLES
  5
12D
102
{ACAD_REACTORS
330
C
102
}
330
C
100
AcDbRasterVariables
 90
        0
 70
     1
 71
     1
 72
     1
  0
DICTIONARY
  5
1A
102
{ACAD_REACTORS
330
C
102
}
330
C
100
AcDbDictionary
281
     1
  3
Layout1
350
1E
  3
Layout2
350
26
  3
Model
350
22
  0
DICTIONARY
  5
17
102
{ACAD_REACTORS
330
C
102
}
330
C
100
AcDbDictionary
281
     1
  3
Standard
350
18
  0
DICTIONARY
  5
19
102
{ACAD_REACTORS
330
C
102
}
330
C
100
AcDbDictionary
281
     1
  0
ACDBDICTIONARYWDFLT
  5
E
102
{ACAD_REACTORS
330
C
102
}
330
C
100
AcDbDictionary
281
     1
  3
Normal
350
F
100
AcDbDictionaryWithDefault
340
F
  0
DICTIONARY
  5
47
102
{ACAD_REACTORS
330
C
102
}
330
C
100
AcDbDictionary
281
     1
  3
A0
350
48
  3
A1
350
49
  3
A2
350
4A
  3
A3
350
4B
  3
A4
350
4C
  3
A5
350
4D
  3
A6
350
4E
  3
A7
350
4F
  3
A8
350
50
  3
A9
350
51
  3
B0
350
52
  3
B1
350
53
  3
B2
350
54
  3
B3
350
55
  3
B4
350
56
  3
B5
350
57
  3
B6
350
58
  3
B7
350
59
  3
B8
350
5A
  3
B9
350
5B
  3
C0
350
5C
  3
C1
350
5D
  3
C2
350
5E
  3
C3
350
5F
  3
C4
350
60
  3
C5
350
61
  3
C6
350
62
  3
C7
350
63
  3
C8
350
64
  3
C9
350
65
  3
D0
350
66
  3
D1
350
67
  3
D2
350
68
  0
DICTIONARY
  5
12B
102
{ACAD_REACTORS
330
C
102
}
330
C
100
AcDbDictionary
281
     1
  0
XRECORD
  5
13D
102
{ACAD_REACTORS
330
C
102
}
330
C
100
AcDbXrecord
280
     1
  1
DWGPROPS COOKIE
  2

  3

  4

  6

  7

  8
12014102
  9

300
=
301
=
302
=
303
=
304
=
305
=
306
=
307
=
308
=
309
=
 40
0.0
 41
2458262.168418785
 42
2458266.037298681
  1

 90
        0
  0
LAYOUT
  5
1E
102
{ACAD_REACTORS
330
1A
102
}
330
1A
100
AcDbPlotSettings
  1

  2
none_device
  4

  6

 40
0.0
 41
0.0
 42
0.0
 43
0.0
 44
0.0
 45
0.0
 46
0.0
 47
0.0
 48
0.0
 49
0.0
140
0.0
141
0.0
142
1.0
143
1.0
 70
   688
 72
     1
 73
     0
 74
     5
  7

 75
    16
147
1.0
148
0.0
149
0.0
100
AcDbLayout
  1
Layout1
 70
     1
 71
     1
 10
0.0
 20
0.0
 11
420.0
 21
297.0
 12
0.0
 22
0.0
 32
0.0
 14
1.000000000000000E+20
 24
1.000000000000000E+20
 34
1.000000000000000E+20
 15
-1.000000000000000E+20
 25
-1.000000000000000E+20
 35
-1.000000000000000E+20
146
0.0
 13
0.0
 23
0.0
 33
0.0
 16
1.0
 26
0.0
 36
0.0
 17
0.0
 27
1.0
 37
0.0
 76
     0
330
1B
  0
LAYOUT
  5
26
102
{ACAD_REACTORS
330
1A
102
}
330
1A
100
AcDbPlotSettings
  1

  2
none_device
  4

  6

 40
0.0
 41
0.0
 42
0.0
 43
0.0
 44
0.0
 45
0.0
 46
0.0
 47
0.0
 48
0.0
 49
0.0
140
0.0
141
0.0
142
1.0
143
1.0
 70
   688
 72
     1
 73
     0
 74
     5
  7

 75
    16
147
1.0
148
0.0
149
0.0
100
AcDbLayout
  1
Layout2
 70
     1
 71
     2
 10
0.0
 20
0.0
 11
0.0
 21
0.0
 12
0.0
 22
0.0
 32
0.0
 14
0.0
 24
0.0
 34
0.0
 15
0.0
 25
0.0
 35
0.0
146
0.0
 13
0.0
 23
0.0
 33
0.0
 16
1.0
 26
0.0
 36
0.0
 17
0.0
 27
1.0
 37
0.0
 76
     0
330
23
  0
LAYOUT
  5
22
102
{ACAD_REACTORS
330
1A
102
}
330
1A
100
AcDbPlotSettings
  1

  2
none_device
  4
ANSI_A_(11.00_x_8.50_Inches)
  6

 40
6.35
 41
19.05
 42
6.35000508
 43
19.05000254
 44
279.4
 45
215.9
 46
141.6833725522842
 47
117.1792512975782
 48
0.0
 49
0.0
140
0.0
141
0.0
142
0.1049174418731369
143
1.0
 70
  1696
 72
     0
 73
     0
 74
     0
  7

 75
     0
147
0.0235690232323232
148
0.0
149
0.0
100
AcDbLayout
  1
Model
 70
     1
 71
     0
 10
0.0
 20
0.0
 11
420.0
 21
297.0
 12
0.0
 22
0.0
 32
0.0
 14
-54.87972050209761
 24
-49.97073246008785
 34
0.0
 15
50.75282311614181
 25
29.35712527881317
 35
0.0
146
0.0
 13
0.0
 23
0.0
 33
0.0
 16
1.0
 26
0.0
 36
0.0
 17
0.0
 27
1.0
 37
0.0
 76
     0
330
1F
331
29
  0
MLINESTYLE
  5
18
102
{ACAD_REACTORS
330
17
102
}
330
17
100
AcDbMlineStyle
  2
Standard
 70
     0
  3

 62
   256
 51
90.0
 52
90.0
 71
     2
 49
0.5
 62
   256
  6
BYLAYER
 49
-0.5
 62
   256
  6
BYLAYER
  0
ACDBPLACEHOLDER
  5
F
102
{ACAD_REACTORS
330
E
102
}
330
E
  0
SCALE
  5
48
102
{ACAD_REACTORS
330
47
102
}
330
47
100
AcDbScale
 70
     0
300
1:1
140
1.0
141
1.0
290
     1
  0
SCALE
  5
49
102
{ACAD_REACTORS
330
47
102
}
330
47
100
AcDbScale
 70
     0
300
1:2
140
1.0
141
2.0
290
     0
  0
SCALE
  5
4A
102
{ACAD_REACTORS
330
47
102
}
330
47
100
AcDbScale
 70
     0
300
1:4
140
1.0
141
4.0
290
     0
  0
SCALE
  5
4B
102
{ACAD_REACTORS
330
47
102
}
330
47
100
AcDbScale
 70
     0
300
1:5
140
1.0
141
5.0
290
     0
  0
SCALE
  5
4C
102
{ACAD_REACTORS
330
47
102
}
330
47
100
AcDbScale
 70
     0
300
1:8
140
1.0
141
8.0
290
     0
  0
SCALE
  5
4D
102
{ACAD_REACTORS
330
47
102
}
330
47
100
AcDbScale
 70
     0
300
1:10
140
1.0
141
10.0
290
     0
  0
SCALE
  5
4E
102
{ACAD_REACTORS
330
47
102
}
330
47
100
AcDbScale
 70
     0
300
1:16
140
1.0
141
16.0
290
     0
  0
SCALE
  5
4F
102
{ACAD_REACTORS
330
47
102
}
330
47
100
AcDbScale
 70
     0
300
1:20
140
1.0
141
20.0
290
     0
  0
SCALE
  5
50
102
{ACAD_REACTORS
330
47
102
}
330
47
100
AcDbScale
 70
     0
300
1:30
140
1.0
141
30.0
290
     0
  0
SCALE
  5
51
102
{ACAD_REACTORS
330
47
102
}
330
47
100
AcDbScale
 70
     0
300
1:40
140
1.0
141
40.0
290
     0
  0
SCALE
  5
52
102
{ACAD_REACTORS
330
47
102
}
330
47
100
AcDbScale
 70
     0
300
1:50
140
1.0
141
50.0
290
     0
  0
SCALE
  5
53
102
{ACAD_REACTORS
330
47
102
}
330
47
100
AcDbScale
 70
     0
300
1:100
140
1.0
141
100.0
290
     0
  0
SCALE
  5
54
102
{ACAD_REACTORS
330
47
102
}
330
47
100
AcDbScale
 70
     0
300
2:1
140
2.0
141
1.0
290
     0
  0
SCALE
  5
55
102
{ACAD_REACTORS
330
47
102
}
330
47
100
AcDbScale
 70
     0
300
4:1
140
4.0
141
1.0
290
     0
  0
SCALE
  5
56
102
{ACAD_REACTORS
330
47
102
}
330
47
100
AcDbScale
 70
     0
300
8:1
140
8.0
141
1.0
290
     0
  0
SCALE
  5
57
102
{ACAD_REACTORS
330
47
102
}
330
47
100
AcDbScale
 70
     0
300
10:1
140
10.0
141
1.0
290
     0
  0
SCALE
  5
58
102
{ACAD_REACTORS
330
47
102
}
330
47
100
AcDbScale
 70
     0
300
100:1
140
100.0
141
1.0
290
     0
  0
SCALE
  5
59
102
{ACAD_REACTORS
330
47
102
}
330
47
100
AcDbScale
 70
     0
300
1/128" = 1'-0"
140
0.0078125
141
12.0
290
     0
  0
SCALE
  5
5A
102
{ACAD_REACTORS
330
47
102
}
330
47
100
AcDbScale
 70
     0
300
1/64" = 1'-0"
140
0.015625
141
12.0
290
     0
  0
SCALE
  5
5B
102
{ACAD_REACTORS
330
47
102
}
330
47
100
AcDbScale
 70
     0
300
1/32" = 1'-0"
140
0.03125
141
12.0
290
     0
  0
SCALE
  5
5C
102
{ACAD_REACTORS
330
47
102
}
330
47
100
AcDbScale
 70
     0
300
1/16" = 1'-0"
140
0.0625
141
12.0
290
     0
  0
SCALE
  5
5D
102
{ACAD_REACTORS
330
47
102
}
330
47
100
AcDbScale
 70
     0
300
3/32" = 1'-0"
140
0.09375
141
12.0
290
     0
  0
SCALE
  5
5E
102
{ACAD_REACTORS
330
47
102
}
330
47
100
AcDbScale
 70
     0
300
1/8" = 1'-0"
140
0.125
141
12.0
290
     0
  0
SCALE
  5
5F
102
{ACAD_REACTORS
330
47
102
}
330
47
100
AcDbScale
 70
     0
300
3/16" = 1'-0"
140
0.1875
141
12.0
290
     0
  0
SCALE
  5
60
102
{ACAD_REACTORS
330
47
102
}
330
47
100
AcDbScale
 70
     0
300
1/4" = 1'-0"
140
0.25
141
12.0
290
     0
  0
SCALE
  5
61
102
{ACAD_REACTORS
330
47
102
}
330
47
100
AcDbScale
 70
     0
300
3/8" = 1'-0"
140
0.375
141
12.0
290
     0
  0
SCALE
  5
62
102
{ACAD_REACTORS
330
47
102
}
330
47
100
AcDbScale
 70
     0
300
1/2" = 1'-0"
140
0.5
141
12.0
290
     0
  0
SCALE
  5
63
102
{ACAD_REACTORS
330
47
102
}
330
47
100
AcDbScale
 70
     0
300
3/4" = 1'-0"
140
0.75
141
12.0
290
     0
  0
SCALE
  5
64
102
{ACAD_REACTORS
330
47
102
}
330
47
100
AcDbScale
 70
     0
300
1" = 1'-0"
140
1.0
141
12.0
290
     0
  0
SCALE
  5
65
102
{ACAD_REACTORS
330
47
102
}
330
47
100
AcDbScale
 70
     0
300
1-1/2" = 1'-0"
140
1.5
141
12.0
290
     0
  0
SCALE
  5
66
102
{ACAD_REACTORS
330
47
102
}
330
47
100
AcDbScale
 70
     0
300
3" = 1'-0"
140
3.0
141
12.0
290
     0
  0
SCALE
  5
67
102
{ACAD_REACTORS
330
47
102
}
330
47
100
AcDbScale
 70
     0
300
6" = 1'-0"
140
6.0
141
12.0
290
     0
  0
SCALE
  5
68
102
{ACAD_REACTORS
330
47
102
}
330
47
100
AcDbScale
 70
     0
300
1'-0" = 1'-0"
140
12.0
141
12.0
290
     0
  0
ENDSEC
  0
EOF
