  0
SECTION
  2
HEADER
  9
$ACADVER
  1
AC1015
  9
$ACADMAINTVER
 70
     6
  9
$DWGCODEPAGE
  3
ANSI_949
  9
$INSBASE
 10
0.0
 20
0.0
 30
0.0
  9
$EXTMIN
 10
-60.83556747020031
 20
-49.97073246008785
 30
0.0
  9
$EXTMAX
 10
57.61399474289431
 20
29.3534104402427
 30
0.0
  9
$LIMMIN
 10
0.0
 20
0.0
  9
$LIMMAX
 10
420.0
 20
297.0
  9
$ORTHOMODE
 70
     0
  9
$REGENMODE
 70
     1
  9
$FILLMODE
 70
     1
  9
$QTEXTMODE
 70
     0
  9
$MIRRTEXT
 70
     1
  9
$LTSCALE
 40
1.0
  9
$ATTMODE
 70
     1
  9
$TEXTSIZE
 40
3.5
  9
$TRACEWID
 40
1.0
  9
$TEXTSTYLE
  7
Standard
  9
$CLAYER
  8
0
  9
$CELTYPE
  6
ByLayer
  9
$CECOLOR
 62
   256
  9
$CELTSCALE
 40
1.0
  9
$DISPSILH
 70
     0
  9
$DIMSCALE
 40
1.0
  9
$DIMASZ
 40
3.302
  9
$DIMEXO
 40
1.0
  9
$DIMDLI
 40
3.75
  9
$DIMRND
 40
0.0
  9
$DIMDLE
 40
0.0
  9
$DIMEXE
 40
1.0
  9
$DIMTP
 40
0.0
  9
$DIMTM
 40
0.0
  9
$DIMTXT
 40
3.5
  9
$DIMCEN
 40
2.5
  9
$DIMTSZ
 40
0.0
  9
$DIMTOL
 70
     0
  9
$DIMLIM
 70
     0
  9
$DIMTIH
 70
     1
  9
$DIMTOH
 70
     1
  9
$DIMSE1
 70
     0
  9
$DIMSE2
 70
     0
  9
$DIMTAD
 70
     1
  9
$DIMZIN
 70
     0
  9
$DIMBLK
  1

  9
$DIMASO
 70
     1
  9
$DIMSHO
 70
     1
  9
$DIMPOST
  1

  9
$DIMAPOST
  1

  9
$DIMALT
 70
     0
  9
$DIMALTD
 70
     3
  9
$DIMALTF
 40
0.0393700787401575
  9
$DIMLFAC
 40
1.0
  9
$DIMTOFL
 70
     1
  9
$DIMTVP
 40
0.0
  9
$DIMTIX
 70
     0
  9
$DIMSOXD
 70
     0
  9
$DIMSAH
 70
     0
  9
$DIMBLK1
  1

  9
$DIMBLK2
  1

  9
$DIMSTYLE
  2
ISO-25
  9
$DIMCLRD
 70
     0
  9
$DIMCLRE
 70
     0
  9
$DIMCLRT
 70
     0
  9
$DIMTFAC
 40
1.0
  9
$DIMGAP
 40
1.524
  9
$DIMJUST
 70
     0
  9
$DIMSD1
 70
     0
  9
$DIMSD2
 70
     0
  9
$DIMTOLJ
 70
     0
  9
$DIMTZIN
 70
     0
  9
$DIMALTZ
 70
     0
  9
$DIMALTTZ
 70
     0
  9
$DIMUPT
 70
     0
  9
$DIMDEC
 70
     2
  9
$DIMTDEC
 70
     2
  9
$DIMALTU
 70
     2
  9
$DIMALTTD
 70
     3
  9
$DIMTXSTY
  7
Standard
  9
$DIMAUNIT
 70
     0
  9
$DIMADEC
 70
     2
  9
$DIMALTRND
 40
0.0
  9
$DIMAZIN
 70
     0
  9
$DIMDSEP
 70
    44
  9
$DIMATFIT
 70
     3
  9
$DIMFRAC
 70
     0
  9
$DIMLDRBLK
  1

  9
$DIMLUNIT
 70
     2
  9
$DIMLWD
 70
    -2
  9
$DIMLWE
 70
    -2
  9
$DIMTMOVE
 70
     0
  9
$LUNITS
 70
     2
  9
$LUPREC
 70
     2
  9
$SKETCHINC
 40
1.0
  9
$FILLETRAD
 40
10.0
  9
$AUNITS
 70
     0
  9
$AUPREC
 70
     2
  9
$MENU
  1
.
  9
$ELEVATION
 40
0.0
  9
$PELEVATION
 40
0.0
  9
$THICKNESS
 40
0.0
  9
$LIMCHECK
 70
     0
  9
$CHAMFERA
 40
0.0
  9
$CHAMFERB
 40
0.0
  9
$CHAMFERC
 40
0.0
  9
$CHAMFERD
 40
0.0
  9
$SKPOLY
 70
     0
  9
$TDCREATE
 40
2458262.543606701
  9
$TDUCREATE
 40
2458262.168606701
  9
$TDUPDATE
 40
2458266.413901435
  9
$TDUUPDATE
 40
2458266.038901435
  9
$TDINDWG
 40
0.0014927778
  9
$TDUSRTIMER
 40
2458266.037408692
  9
$USRTIMER
 70
     1
  9
$ANGBASE
 50
0.0
  9
$ANGDIR
 70
     0
  9
$PDMODE
 70
     0
  9
$PDSIZE
 40
-1.0
  9
$PLINEWID
 40
0.0
  9
$SPLFRAME
 70
     0
  9
$SPLINETYPE
 70
     6
  9
$SPLINESEGS
 70
     8
  9
$HANDSEED
  5
143
  9
$SURFTAB1
 70
     6
  9
$SURFTAB2
 70
     6
  9
$SURFTYPE
 70
     6
  9
$SURFU
 70
     6
  9
$SURFV
 70
     6
  9
$UCSBASE
  2

  9
$UCSNAME
  2

  9
$UCSORG
 10
0.0
 20
0.0
 30
0.0
  9
$UCSXDIR
 10
1.0
 20
0.0
 30
0.0
  9
$UCSYDIR
 10
0.0
 20
1.0
 30
0.0
  9
$UCSORTHOREF
  2

  9
$UCSORTHOVIEW
 70
     0
  9
$UCSORGTOP
 10
0.0
 20
0.0
 30
0.0
  9
$UCSORGBOTTOM
 10
0.0
 20
0.0
 30
0.0
  9
$UCSORGLEFT
 10
0.0
 20
0.0
 30
0.0
  9
$UCSORGRIGHT
 10
0.0
 20
0.0
 30
0.0
  9
$UCSORGFRONT
 10
0.0
 20
0.0
 30
0.0
  9
$UCSORGBACK
 10
0.0
 20
0.0
 30
0.0
  9
$PUCSBASE
  2

  9
$PUCSNAME
  2

  9
$PUCSORG
 10
0.0
 20
0.0
 30
0.0
  9
$PUCSXDIR
 10
1.0
 20
0.0
 30
0.0
  9
$PUCSYDIR
 10
0.0
 20
1.0
 30
0.0
  9
$PUCSORTHOREF
  2

  9
$PUCSORTHOVIEW
 70
     0
  9
$PUCSORGTOP
 10
0.0
 20
0.0
 30
0.0
  9
$PUCSORGBOTTOM
 10
0.0
 20
0.0
 30
0.0
  9
$PUCSORGLEFT
 10
0.0
 20
0.0
 30
0.0
  9
$PUCSORGRIGHT
 10
0.0
 20
0.0
 30
0.0
  9
$PUCSORGFRONT
 10
0.0
 20
0.0
 30
0.0
  9
$PUCSORGBACK
 10
0.0
 20
0.0
 30
0.0
  9
$USERI1
 70
     0
  9
$USERI2
 70
     0
  9
$USERI3
 70
     0
  9
$USERI4
 70
     0
  9
$USERI5
 70
     0
  9
$USERR1
 40
0.0
  9
$USERR2
 40
0.0
  9
$USERR3
 40
0.0
  9
$USERR4
 40
0.0
  9
$USERR5
 40
0.0
  9
$WORLDVIEW
 70
     1
  9
$SHADEDGE
 70
     3
  9
$SHADEDIF
 70
    70
  9
$TILEMODE
 70
     1
  9
$MAXACTVP
 70
    64
  9
$PINSBASE
 10
0.0
 20
0.0
 30
0.0
  9
$PLIMCHECK
 70
     0
  9
$PEXTMIN
 10
1.000000000000000E+20
 20
1.000000000000000E+20
 30
1.000000000000000E+20
  9
$PEXTMAX
 10
-1.000000000000000E+20
 20
-1.000000000000000E+20
 30
-1.000000000000000E+20
  9
$PLIMMIN
 10
0.0
 20
0.0
  9
$PLIMMAX
 10
0.0
 20
0.0
  9
$UNITMODE
 70
     0
  9
$VISRETAIN
 70
     1
  9
$PLINEGEN
 70
     0
  9
$PSLTSCALE
 70
     1
  9
$TREEDEPTH
 70
  3020
  9
$CMLSTYLE
  2
Standard
  9
$CMLJUST
 70
     0
  9
$CMLSCALE
 40
20.0
  9
$PROXYGRAPHICS
 70
     1
  9
$MEASUREMENT
 70
     1
  9
$CELWEIGHT
370
    -1
  9
$ENDCAPS
280
     0
  9
$JOINSTYLE
280
     0
  9
$LWDISPLAY
290
     1
  9
$INSUNITS
 70
     4
  9
$HYPERLINKBASE
  1

  9
$STYLESHEET
  1

  9
$XEDIT
290
     1
  9
$CEPSNTYPE
380
     0
  9
$PSTYLEMODE
290
     1
  9
$FINGERPRINTGUID
  2
{64D442E3-7871-4130-9917-E2B2E3EDE3C6}
  9
$VERSIONGUID
  2
{FAEB1C32-E019-11D5-929B-00C0DF256EC4}
  9
$EXTNAMES
290
     1
  9
$PSVPSCALE
 40
0.0
  9
$OLESTARTUP
290
     0
  0
ENDSEC
  0
SECTION
  2
CLASSES
  0
CLASS
  1
ACDBDICTIONARYWDFLT
  2
AcDbDictionaryWithDefault
  3
ObjectDBX Classes
 90
        0
280
     0
281
     0
  0
CLASS
  1
VISUALSTYLE
  2
AcDbVisualStyle
  3
ObjectDBX Classes
 90
     4095
280
     0
281
     0
  0
CLASS
  1
MATERIAL
  2
AcDbMaterial
  3
ObjectDBX Classes
 90
     1153
280
     0
281
     0
  0
CLASS
  1
SCALE
  2
AcDbScale
  3
ObjectDBX Classes
 90
     1153
280
     0
281
     0
  0
CLASS
  1
SUN
  2
AcDbSun
  3
SCENEOE
 90
     1153
280
     0
281
     0
  0
CLASS
  1
ACDBPLACEHOLDER
  2
AcDbPlaceHolder
  3
ObjectDBX Classes
 90
        0
280
     0
281
     0
  0
CLASS
  1
LAYOUT
  2
AcDbLayout
  3
ObjectDBX Classes
 90
        0
280
     0
281
     0
  0
CLASS
  1
TABLESTYLE
  2
AcDbTableStyle
  3
ObjectDBX Classes
 90
     4095
280
     0
281
     0
  0
CLASS
  1
MLEADERSTYLE
  2
AcDbMLeaderStyle
  3
ACDB_MLEADERSTYLE_CLASS
 90
     4095
280
     0
281
     0
  0
CLASS
  1
RASTERVARIABLES
  2
AcDbRasterVariables
  3
ISM
 90
        0
280
     0
281
     0
  0
ENDSEC
  0
SECTION
  2
TABLES
  0
TABLE
  2
VPORT
  5
8
330
0
100
AcDbSymbolTable
 70
     1
  0
VPORT
  5
29
330
8
100
AcDbSymbolTableRecord
100
AcDbViewportTableRecord
  2
*Active
 70
     0
 10
0.0
 20
0.0
 11
1.0
 21
1.0
 12
-1.610786363652998
 22
-10.30866100992258
 13
0.0
 23
0.0
 14
10.0
 24
10.0
 15
10.0
 25
10.0
 16
0.0
 26
0.0
 36
1.0
 17
0.0
 27
0.0
 37
0.0
 40
104.8358300179304
 41
1.152454780361757
 42
50.0
 43
0.0
 44
0.0
 50
0.0
 51
0.0
 71
    16
 72
  2000
 73
     1
 74
     3
 75
     0
 76
     0
 77
     0
 78
     0
281
     0
 65
     1
110
0.0
120
0.0
130
0.0
111
1.0
121
0.0
131
0.0
112
0.0
122
1.0
132
0.0
 79
     0
146
0.0
  0
ENDTAB
  0
TABLE
  2
LTYPE
  5
5
330
0
100
AcDbSymbolTable
 70
     6
  0
LTYPE
  5
14
330
5
100
AcDbSymbolTableRecord
100
AcDbLinetypeTableRecord
  2
ByBlock
 70
     0
  3

 72
    65
 73
     0
 40
0.0
  0
LTYPE
  5
15
330
5
100
AcDbSymbolTableRecord
100
AcDbLinetypeTableRecord
  2
ByLayer
 70
     0
  3

 72
    65
 73
     0
 40
0.0
  0
LTYPE
  5
16
330
5
100
AcDbSymbolTableRecord
100
AcDbLinetypeTableRecord
  2
Continuous
 70
     0
  3
Solid line
 72
    65
 73
     0
 40
0.0
  0
LTYPE
  5
6A
330
5
100
AcDbSymbolTableRecord
100
AcDbLinetypeTableRecord
  2
HIDDEN
 70
     0
  3
Hidden __ __ __ __ __ __ __ __ __ __ __ __ __ __
 72
    65
 73
     2
 40
1.905
 49
1.27
 74
     0
 49
-0.635
 74
     0
  0
LTYPE
  5
6B
330
5
100
AcDbSymbolTableRecord
100
AcDbLinetypeTableRecord
  2
PHANTOM
 70
     0
  3
Phantom ______  __  __  ______  __  __  ______
 72
    65
 73
     6
 40
12.7
 49
6.35
 74
     0
 49
-1.27
 74
     0
 49
1.27
 74
     0
 49
-1.27
 74
     0
 49
1.27
 74
     0
 49
-1.27
 74
     0
  0
LTYPE
  5
6C
330
5
100
AcDbSymbolTableRecord
100
AcDbLinetypeTableRecord
  2
CENTER
 70
     0
  3
Center ____ _ ____ _ ____ _ ____ _ ____ _ ____
 72
    65
 73
     4
 40
10.16
 49
6.35
 74
     0
 49
-1.27
 74
     0
 49
1.27
 74
     0
 49
-1.27
 74
     0
  0
LTYPE
  5
6D
330
5
100
AcDbSymbolTableRecord
100
AcDbLinetypeTableRecord
  2
CENTERX2
 70
     0
  3
Center (2x) ________  __  ________  __  _____
 72
    65
 73
     4
 40
20.32
 49
12.7
 74
     0
 49
-2.54
 74
     0
 49
2.54
 74
     0
 49
-2.54
 74
     0
  0
LTYPE
  5
6E
330
5
100
AcDbSymbolTableRecord
100
AcDbLinetypeTableRecord
  2
DOT2
 70
     0
  3
Dot (.5x) ........................................
 72
    65
 73
     2
 40
0.635
 49
0.0
 74
     0
 49
-0.635
 74
     0
  0
ENDTAB
  0
TABLE
  2
LAYER
  5
2
330
0
100
AcDbSymbolTable
 70
    17
  0
LAYER
  5
10
330
2
100
AcDbSymbolTableRecord
100
AcDbLayerTableRecord
  2
0
 70
     0
 62
     7
  6
Continuous
370
    -3
390
F
  0
LAYER
  5
6F
330
2
100
AcDbSymbolTableRecord
100
AcDbLayerTableRecord
  2
FORMAT
 70
     0
 62
     2
  6
Continuous
370
    -3
390
F
  0
LAYER
  5
70
330
2
100
AcDbSymbolTableRecord
100
AcDbLayerTableRecord
  2
외형선
 70
     0
 62
   100
  6
Continuous
370
    30
390
F
  0
LAYER
  5
71
330
2
100
AcDbSymbolTableRecord
100
AcDbLayerTableRecord
  2
숨은선
 70
     0
 62
     2
  6
HIDDEN
370
    15
390
F
  0
LAYER
  5
72
330
2
100
AcDbSymbolTableRecord
100
AcDbLayerTableRecord
  2
중심선
 70
     0
 62
     1
  6
CENTERX2
370
    -3
390
F
  0
LAYER
  5
73
330
2
100
AcDbSymbolTableRecord
100
AcDbLayerTableRecord
  2
파단선
 70
     0
 62
     4
  6
Continuous
370
    -3
390
F
  0
LAYER
  5
74
330
2
100
AcDbSymbolTableRecord
100
AcDbLayerTableRecord
  2
해칭선
 70
     0
 62
     4
  6
Continuous
370
    -3
390
F
  0
LAYER
  5
75
330
2
100
AcDbSymbolTableRecord
100
AcDbLayerTableRecord
  2
가는실선
 70
     0
 62
     4
  6
Continuous
370
    -3
390
F
  0
LAYER
  5
76
330
2
100
AcDbSymbolTableRecord
100
AcDbLayerTableRecord
  2
치수_보조선
 70
     0
 62
     4
  6
Continuous
370
    -3
390
F
  0
LAYER
  5
77
330
2
100
AcDbSymbolTableRecord
100
AcDbLayerTableRecord
  2
치수문자_일반주서
 70
     0
 62
     7
  6
Continuous
370
    15
390
F
  0
LAYER
  5
78
330
2
100
AcDbSymbolTableRecord
100
AcDbLayerTableRecord
  2
개별주서
 70
     0
 62
   100
  6
Continuous
370
    30
390
F
  0
LAYER
  5
79
330
2
100
AcDbSymbolTableRecord
100
AcDbLayerTableRecord
  2
중간선
 70
     0
 62
     2
  6
Continuous
370
    15
390
F
  0
LAYER
  5
7A
330
2
100
AcDbSymbolTableRecord
100
AcDbLayerTableRecord
  2
윤곽선
 70
     0
 62
     3
  6
Continuous
370
    40
390
F
  0
LAYER
  5
7B
330
2
100
AcDbSymbolTableRecord
100
AcDbLayerTableRecord
  2
중심마크
 70
     0
 62
   100
  6
Continuous
370
    30
390
F
  0
LAYER
  5
7C
330
2
100
AcDbSymbolTableRecord
100
AcDbLayerTableRecord
  2
가상선
 70
     0
 62
     4
  6
PHANTOM
370
    -3
390
F
  0
LAYER
  5
7D
330
2
100
AcDbSymbolTableRecord
100
AcDbLayerTableRecord
  2
특수지정선
 70
     0
 62
     5
  6
CENTERX2
370
    60
390
F
  0
LAYER
  5
134
330
2
100
AcDbSymbolTableRecord
100
AcDbLayerTableRecord
  2
Defpoints
 70
     0
 62
     7
  6
Continuous
290
     0
370
    -3
390
F
  0
ENDTAB
  0
TABLE
  2
STYLE
  5
3
330
0
100
AcDbSymbolTable
 70
     2
  0
STYLE
  5
11
330
3
100
AcDbSymbolTableRecord
100
AcDbTextStyleTableRecord
  2
Standard
 70
     0
 40
0.0
 41
1.0
 50
0.0
 71
     0
 42
3.5
  3
txt
  4

  0
STYLE
  5
93
330
3
100
AcDbSymbolTableRecord
100
AcDbTextStyleTableRecord
  2
SLDTEXTSTYLE0
 70
     0
 40
0.0
 41
0.75
 50
0.0
 71
     0
 42
3.5
  3
TXT
  4

  0
ENDTAB
  0
TABLE
  2
VIEW
  5
6
330
0
100
AcDbSymbolTable
 70
     0
  0
ENDTAB
  0
TABLE
  2
UCS
  5
7
330
0
100
AcDbSymbolTable
 70
     0
  0
ENDTAB
  0
TABLE
  2
APPID
  5
9
330
0
100
AcDbSymbolTable
 70
     1
  0
APPID
  5
12
330
9
100
AcDbSymbolTableRecord
100
AcDbRegAppTableRecord
  2
ACAD
 70
     0
  0
ENDTAB
  0
TABLE
  2
DIMSTYLE
  5
A
330
0
100
AcDbSymbolTable
 70
     3
100
AcDbDimStyleTable
  0
DIMSTYLE
105
27
330
A
100
AcDbSymbolTableRecord
100
AcDbDimStyleTableRecord
  2
ISO-25
 70
     0
 41
2.5
 42
0.625
 43
3.75
 44
1.25
 73
     0
 74
     0
 77
     1
 78
     8
140
2.5
141
2.5
143
0.03937007874016
147
0.625
171
     3
172
     1
178
     0
271
     2
272
     2
274
     3
278
    44
283
     0
284
     8
340
11
  0
DIMSTYLE
105
DA
102
{ACAD_REACTORS
330
D9
330
FC
102
}
330
A
100
AcDbSymbolTableRecord
100
AcDbDimStyleTableRecord
  2
SLDDIMSTYLE0
 70
     0
 41
3.302
 44
0.0
 45
0.000000001
 73
     0
 74
     0
 77
     1
 78
    12
 79
     3
140
3.5
147
0.875
172
     1
173
     1
178
     0
271
     2
272
     2
276
     2
284
    12
289
     0
340
93
  0
DIMSTYLE
105
E8
102
{ACAD_REACTORS
330
E7
330
F2
102
}
330
A
100
AcDbSymbolTableRecord
100
AcDbDimStyleTableRecord
  2
SLDDIMSTYLE1
 70
     0
 41
3.302
 44
0.0
 45
0.000000001
 73
     0
 74
     0
 77
     1
 78
    12
 79
     3
140
3.5
147
0.875
173
     1
178
     0
271
     2
272
     2
276
     2
284
    12
340
93
  0
ENDTAB
  0
TABLE
  2
BLOCK_RECORD
  5
1
330
0
100
AcDbSymbolTable
 70
     7
  0
BLOCK_RECORD
  5
1F
330
1
100
AcDbSymbolTableRecord
100
AcDbBlockTableRecord
  2
*Model_Space
340
22
  0
BLOCK_RECORD
  5
1B
330
1
100
AcDbSymbolTableRecord
100
AcDbBlockTableRecord
  2
*Paper_Space
340
1E
  0
BLOCK_RECORD
  5
23
330
1
100
AcDbSymbolTableRecord
100
AcDbBlockTableRecord
  2
*Paper_Space0
340
26
  0
BLOCK_RECORD
  5
7E
330
1
100
AcDbSymbolTableRecord
100
AcDbBlockTableRecord
  2
블럭10
340
0
102
{BLKREFS
331
D2
102
}
  0
BLOCK_RECORD
  5
DB
330
1
100
AcDbSymbolTableRecord
100
AcDbBlockTableRecord
  2
_D
340
0
  0
BLOCK_RECORD
  5
E9
330
1
100
AcDbSymbolTableRecord
100
AcDbBlockTableRecord
  2
_D_1
340
0
  0
BLOCK_RECORD
  5
F3
330
1
100
AcDbSymbolTableRecord
100
AcDbBlockTableRecord
  2
_D_2
340
0
  0
BLOCK_RECORD
  5
FD
330
1
100
AcDbSymbolTableRecord
100
AcDbBlockTableRecord
  2
_D_3
340
0
  0
BLOCK_RECORD
  5
109
330
1
100
AcDbSymbolTableRecord
100
AcDbBlockTableRecord
  2
SW_DOWELSYMBOL_0
340
0
102
{BLKREFS
331
10F
102
}
  0
ENDTAB
  0
ENDSEC
  0
SECTION
  2
BLOCKS
  0
BLOCK
  5
20
330
1F
100
AcDbEntity
  8
0
100
AcDbBlockBegin
  2
*Model_Space
 70
     0
 10
0.0
 20
0.0
 30
0.0
  3
*Model_Space
  1

  0
ENDBLK
  5
21
330
1F
100
AcDbEntity
  8
0
100
AcDbBlockEnd
  0
BLOCK
  5
1C
330
1B
100
AcDbEntity
 67
     1
  8
0
100
AcDbBlockBegin
  2
*Paper_Space
 70
     0
 10
0.0
 20
0.0
 30
0.0
  3
*Paper_Space
  1

  0
ENDBLK
  5
1D
330
1B
100
AcDbEntity
 67
     1
  8
0
100
AcDbBlockEnd
  0
BLOCK
  5
24
330
23
100
AcDbEntity
  8
0
100
AcDbBlockBegin
  2
*Paper_Space0
 70
     0
 10
0.0
 20
0.0
 30
0.0
  3
*Paper_Space0
  1

  0
ENDBLK
  5
25
330
23
100
AcDbEntity
  8
0
100
AcDbBlockEnd
  0
BLOCK
  5
7F
330
7E
100
AcDbEntity
  8
0
100
AcDbBlockBegin
  2
블럭10
 70
     2
 10
0.0
 20
0.0
 30
0.0
  3
블럭10
  1

  0
ELLIPSE
  5
81
330
7E
100
AcDbEntity
  8
중심선
100
AcDbEllipse
 10
20.54032771741204
 20
12.0471743016438
 30
0.0
 11
6.600054785286829
 21
-1.261213355974178E-13
 31
0.0
210
0.0
220
0.0
230
1.0
 40
0.636358354079598
 41
0.9219305317359503
 42
6.513795318482858
  0
ELLIPSE
  5
82
330
7E
100
AcDbEntity
  8
중심선
100
AcDbEllipse
 10
20.54032771746488
 20
12.04717430159265
 30
0.0
 11
3.960054785062283
 21
1.540847449632565E-10
 31
0.0
210
0.0
220
0.0
230
1.0
 40
0.3939339440162632
 41
1.131841032648279
 42
5.62031148352944
  0
LINE
  5
83
330
7E
100
AcDbEntity
  8
중심선
100
AcDbLine
 10
2.268634060543552
 20
16.24717430164393
 30
0.0
 11
5.714909304380834
 21
16.24717430164393
 31
0.0
  0
LINE
  5
84
330
7E
100
AcDbEntity
  8
중심선
100
AcDbLine
 10
5.245725140726316
 20
7.84717430164391
 30
0.0
 11
8.692000384563599
 21
7.84717430164391
 31
0.0
  0
LINE
  5
85
330
7E
100
AcDbEntity
  8
중심선
100
AcDbLine
 10
15.74043728645272
 20
16.24717430164393
 30
0.0
 11
8.692000384563599
 21
7.84717430164391
 31
0.0
  0
LINE
  5
86
330
7E
100
AcDbEntity
  8
중심선
100
AcDbLine
 10
0.1404042013395286
 20
13.71084872107135
 30
0.0
 11
3.58671253028996
 21
13.71088815037384
 31
0.0
  0
LINE
  5
87
330
7E
100
AcDbEntity
  8
중심선
100
AcDbLine
 10
2.750260043222114
 20
10.84717430164391
 30
0.0
 11
6.196535287059397
 21
10.84717430164391
 31
0.0
  0
LINE
  5
88
330
7E
100
AcDbEntity
  8
중심선
100
AcDbLine
 10
12.29416204261559
 20
16.24717430164393
 30
0.0
 11
5.245725140726316
 21
7.84717430164391
 31
0.0
  0
LINE
  5
89
330
7E
100
AcDbEntity
  8
중심선
100
AcDbLine
 10
10.72767329541681
 20
16.24717430164393
 30
0.0
 11
6.196535287059397
 21
10.84717430164391
 31
0.0
  0
LINE
  5
8A
330
7E
100
AcDbEntity
  8
중심선
100
AcDbLine
 10
7.28139805157953
 20
16.24717430164393
 30
0.0
 11
2.750260043222114
 21
10.84717430164391
 31
0.0
  0
LINE
  5
8B
330
7E
100
AcDbEntity
  8
중심선
100
AcDbLine
 10
5.714909304380834
 20
16.24717430164393
 30
0.0
 11
3.58671253028996
 21
13.71088815037384
 31
0.0
  0
LINE
  5
8C
330
7E
100
AcDbEntity
  8
중심선
100
AcDbLine
 10
2.268634060543552
 20
16.24717430164393
 30
0.0
 11
0.1404042013395286
 21
13.71084872107135
 31
0.0
  0
LINE
  5
8D
330
7E
100
AcDbEntity
  8
중심선
100
AcDbLine
 10
7.28139805157953
 20
16.24717430164393
 30
0.0
 11
10.72767329541681
 21
16.24717430164393
 31
0.0
  0
LINE
  5
8E
330
7E
100
AcDbEntity
  8
중심선
100
AcDbLine
 10
12.29416204261559
 20
16.24717430164393
 30
0.0
 11
15.74043728645272
 21
16.24717430164393
 31
0.0
  0
LINE
  5
8F
330
7E
100
AcDbEntity
  8
중심선
100
AcDbLine
 10
19.22036997980202
 20
11.08717430171403
 30
0.0
 11
23.66174974927406
 21
11.08717430171406
 31
0.0
  0
LINE
  5
90
330
7E
100
AcDbEntity
  8
중심선
100
AcDbLine
 10
19.22039502424796
 20
13.00717430171391
 30
0.0
 11
19.22036997980202
 21
11.08717430171403
 31
0.0
  0
LINE
  5
91
330
7E
100
AcDbEntity
  8
중심선
100
AcDbLine
 10
19.22039502424796
 20
13.00717430171391
 30
0.0
 11
26.96566020931264
 21
13.00717430171391
 31
0.0
  0
LINE
  5
92
330
7E
100
AcDbEntity
  8
중심선
100
AcDbLine
 10
22.22332737316547
 20
13.45928029700563
 30
0.0
 11
24.52862924686651
 21
15.39360700705356
 31
0.0
  0
ATTDEF
  5
94
330
7E
100
AcDbEntity
  8
FORMAT
 62
     2
100
AcDbText
 10
-16.11926103943555
 20
2.075366912832191
 30
0.0
 40
4.233333333333333
  1
SEME7008035E [ 2 FLUTE ]
 41
0.75
  7
SLDTEXTSTYLE0
 11
-16.11926103943555
 21
-0.0412997538344756
 31
0.0
100
AcDbAttributeDefinition
  3

  2
AUTOATTR0
 70
     0
 74
     1
  0
ENDBLK
  5
80
330
7E
100
AcDbEntity
  8
0
100
AcDbBlockEnd
  0
BLOCK
  5
DC
330
DB
100
AcDbEntity
  8
0
100
AcDbBlockBegin
  2
_D
 70
     0
 10
0.0
 20
0.0
 30
0.0
  3
_D
  1

  0
LINE
  5
DE
330
DB
100
AcDbEntity
  8
치수문자_일반주서
 62
     0
370
    -2
100
AcDbLine
 10
45.06249999999993
 20
-3.99999999999986
 30
0.0
 11
57.06366140956097
 21
-3.999999999999815
 31
0.0
  0
LINE
  5
DF
330
DB
100
AcDbEntity
  8
치수문자_일반주서
 62
     0
370
    -2
100
AcDbLine
 10
45.06250000000001
 20
4.000000000000128
 30
0.0
 11
57.06366140956094
 21
4.000000000000172
 31
0.0
  0
LINE
  5
E0
330
DB
100
AcDbEntity
  8
치수문자_일반주서
 62
     0
370
    -2
100
AcDbLine
 10
57.06366140956097
 20
-3.999999999999815
 30
0.0
 11
57.06366140956089
 21
16.72900000000017
 31
0.0
  0
LINE
  5
E1
330
DB
100
AcDbEntity
  8
치수문자_일반주서
 62
     0
370
    -2
100
AcDbLine
 10
57.06366140956097
 20
-3.999999999999815
 30
0.0
 11
57.06366140956094
 21
4.000000000000172
 31
0.0
  0
LINE
  5
E2
330
DB
100
AcDbEntity
  8
치수문자_일반주서
 62
     0
370
    -2
100
AcDbLine
 10
57.06366140956099
 20
-7.301999999999815
 30
0.0
 11
57.063661409561
 21
-10.60399999999981
 31
0.0
  0
LINE
  5
E3
330
DB
100
AcDbEntity
  8
치수문자_일반주서
 62
     0
370
    -2
100
AcDbLine
 10
57.06366140956093
 20
7.302000000000172
 30
0.0
 11
57.06366140956091
 21
10.60400000000017
 31
0.0
  0
SOLID
  5
E4
330
DB
100
AcDbEntity
  8
치수문자_일반주서
 62
     0
100
AcDbTrace
 10
57.61399474289432
 20
-7.301999999999813
 30
0.0
 11
56.51332807622765
 21
-7.301999999999817
 31
0.0
 12
57.06366140956097
 22
-3.999999999999815
 32
0.0
 13
57.06366140956097
 23
-3.999999999999815
 33
0.0
  0
SOLID
  5
E5
330
DB
100
AcDbEntity
  8
치수문자_일반주서
 62
     0
100
AcDbTrace
 10
56.51332807622759
 20
7.30200000000017
 30
0.0
 11
57.61399474289426
 21
7.302000000000174
 31
0.0
 12
57.06366140956094
 22
4.000000000000172
 32
0.0
 13
57.06366140956094
 23
4.000000000000172
 33
0.0
  0
MTEXT
  5
E6
330
DB
100
AcDbEntity
  8
치수문자_일반주서
 62
     0
100
AcDbMText
 10
52.68866140956091
 20
13.66650000000016
 30
0.0
 40
3.5
 41
0.0
 71
     2
 72
     1
  1
\A1;%%c8
  7
SLDTEXTSTYLE0
 11
-3.552713678800506E-15
 21
1.0
 31
0.0
 73
     1
 44
1.0
  0
POINT
  5
13E
330
DB
100
AcDbEntity
  8
Defpoints
 62
     0
100
AcDbPoint
 10
44.99999999999993
 20
-3.999999999999861
 30
0.0
  0
POINT
  5
13F
330
DB
100
AcDbEntity
  8
Defpoints
 62
     0
100
AcDbPoint
 10
45.00000000000001
 20
4.000000000000128
 30
0.0
  0
POINT
  5
140
330
DB
100
AcDbEntity
  8
Defpoints
 62
     0
100
AcDbPoint
 10
57.06366140956094
 20
4.000000000000173
 30
0.0
  0
ENDBLK
  5
DD
330
DB
100
AcDbEntity
  8
0
100
AcDbBlockEnd
  0
BLOCK
  5
EA
330
E9
100
AcDbEntity
  8
0
100
AcDbBlockBegin
  2
_D_1
 70
     0
 10
0.0
 20
0.0
 30
0.0
  3
_D_1
  1

  0
LINE
  5
EC
330
E9
100
AcDbEntity
  8
치수문자_일반주서
 62
     0
370
    -2
100
AcDbLine
 10
-44.99999999999999
 20
3.252499999999999
 30
0.0
 11
-44.99999999999999
 21
24.9784104402427
 31
0.0
  0
LINE
  5
ED
330
E9
100
AcDbEntity
  8
치수문자_일반주서
 62
     0
370
    -2
100
AcDbLine
 10
45.00000000000001
 20
4.062500000000128
 30
0.0
 11
45.00000000000001
 21
24.9784104402427
 31
0.0
  0
LINE
  5
EE
330
E9
100
AcDbEntity
  8
치수문자_일반주서
 62
     0
370
    -2
100
AcDbLine
 10
-41.69799999999999
 20
24.9784104402427
 30
0.0
 11
41.69800000000001
 21
24.9784104402427
 31
0.0
  0
SOLID
  5
EF
330
E9
100
AcDbEntity
  8
치수문자_일반주서
 62
     0
100
AcDbTrace
 10
-41.69799999999999
 20
25.52874377357603
 30
0.0
 11
-41.69799999999999
 21
24.42807710690936
 31
0.0
 12
-44.99999999999999
 22
24.9784104402427
 32
0.0
 13
-44.99999999999999
 23
24.9784104402427
 33
0.0
  0
SOLID
  5
F0
330
E9
100
AcDbEntity
  8
치수문자_일반주서
 62
     0
100
AcDbTrace
 10
41.69800000000001
 20
24.42807710690936
 30
0.0
 11
41.69800000000001
 21
25.52874377357603
 31
0.0
 12
45.00000000000001
 22
24.9784104402427
 32
0.0
 13
45.00000000000001
 23
24.9784104402427
 33
0.0
  0
MTEXT
  5
F1
330
E9
100
AcDbEntity
  8
치수문자_일반주서
 62
     0
100
AcDbMText
 10
0.0000000000000187
 20
29.3534104402427
 30
0.0
 40
3.5
 41
0.0
 71
     2
 72
     1
  1
\A1;90
  7
SLDTEXTSTYLE0
 73
     1
 44
1.0
  0
POINT
  5
135
330
E9
100
AcDbEntity
  8
Defpoints
 62
     0
100
AcDbPoint
 10
-44.99999999999999
 20
3.189999999999999
 30
0.0
  0
POINT
  5
136
330
E9
100
AcDbEntity
  8
Defpoints
 62
     0
100
AcDbPoint
 10
45.00000000000001
 20
4.000000000000128
 30
0.0
  0
POINT
  5
137
330
E9
100
AcDbEntity
  8
Defpoints
 62
     0
100
AcDbPoint
 10
45.00000000000001
 20
24.9784104402427
 30
0.0
  0
ENDBLK
  5
EB
330
E9
100
AcDbEntity
  8
0
100
AcDbBlockEnd
  0
BLOCK
  5
F4
330
F3
100
AcDbEntity
  8
0
100
AcDbBlockBegin
  2
_D_2
 70
     0
 10
0.0
 20
0.0
 30
0.0
  3
_D_2
  1

  0
LINE
  5
F6
330
F3
100
AcDbEntity
  8
치수문자_일반주서
 62
     0
370
    -2
100
AcDbLine
 10
10.00000000000001
 20
3.189461413731361
 30
0.0
 11
10.00000000000001
 21
16.47395921989886
 31
0.0
  0
LINE
  5
F7
330
F3
100
AcDbEntity
  8
치수문자_일반주서
 62
     0
370
    -2
100
AcDbLine
 10
45.00000000000001
 20
4.062500000000128
 30
0.0
 11
45.00000000000001
 21
16.47395921989886
 31
0.0
  0
LINE
  5
F8
330
F3
100
AcDbEntity
  8
치수문자_일반주서
 62
     0
370
    -2
100
AcDbLine
 10
13.30200000000001
 20
16.47395921989886
 30
0.0
 11
41.69800000000001
 21
16.47395921989886
 31
0.0
  0
SOLID
  5
F9
330
F3
100
AcDbEntity
  8
치수문자_일반주서
 62
     0
100
AcDbTrace
 10
13.30200000000001
 20
17.0242925532322
 30
0.0
 11
13.30200000000001
 21
15.92362588656553
 31
0.0
 12
10.00000000000001
 22
16.47395921989886
 32
0.0
 13
10.00000000000001
 23
16.47395921989886
 33
0.0
  0
SOLID
  5
FA
330
F3
100
AcDbEntity
  8
치수문자_일반주서
 62
     0
100
AcDbTrace
 10
41.69800000000001
 20
15.92362588656553
 30
0.0
 11
41.69800000000001
 21
17.0242925532322
 31
0.0
 12
45.00000000000001
 22
16.47395921989886
 32
0.0
 13
45.00000000000001
 23
16.47395921989886
 33
0.0
  0
MTEXT
  5
FB
330
F3
100
AcDbEntity
  8
치수문자_일반주서
 62
     0
100
AcDbMText
 10
27.50000000000002
 20
20.84895921989886
 30
0.0
 40
3.5
 41
0.0
 71
     2
 72
     1
  1
\A1;35
  7
SLDTEXTSTYLE0
 73
     1
 44
1.0
  0
POINT
  5
138
330
F3
100
AcDbEntity
  8
Defpoints
 62
     0
100
AcDbPoint
 10
10.00000000000001
 20
3.126961413731361
 30
0.0
  0
POINT
  5
139
330
F3
100
AcDbEntity
  8
Defpoints
 62
     0
100
AcDbPoint
 10
45.00000000000001
 20
4.000000000000128
 30
0.0
  0
POINT
  5
13A
330
F3
100
AcDbEntity
  8
Defpoints
 62
     0
100
AcDbPoint
 10
45.00000000000001
 20
16.47395921989886
 30
0.0
  0
ENDBLK
  5
F5
330
F3
100
AcDbEntity
  8
0
100
AcDbBlockEnd
  0
BLOCK
  5
FE
330
FD
100
AcDbEntity
  8
0
100
AcDbBlockBegin
  2
_D_3
 70
     0
 10
0.0
 20
0.0
 30
0.0
  3
_D_3
  1

  0
LINE
  5
100
330
FD
100
AcDbEntity
  8
치수문자_일반주서
 62
     0
370
    -2
100
AcDbLine
 10
-44.25249999999998
 20
3.999999999999997
 30
0.0
 11
-56.46056747020027
 21
3.999999999999952
 31
0.0
  0
LINE
  5
101
330
FD
100
AcDbEntity
  8
치수문자_일반주서
 62
     0
370
    -2
100
AcDbLine
 10
-44.25249999999998
 20
-3.999999999999996
 30
0.0
 11
-56.46056747020024
 21
-4.000000000000041
 31
0.0
  0
LINE
  5
102
330
FD
100
AcDbEntity
  8
치수문자_일반주서
 62
     0
370
    -2
100
AcDbLine
 10
-56.46056747020027
 20
3.999999999999952
 30
0.0
 11
-56.46056747020032
 21
16.72899999999995
 31
0.0
  0
LINE
  5
103
330
FD
100
AcDbEntity
  8
치수문자_일반주서
 62
     0
370
    -2
100
AcDbLine
 10
-56.46056747020027
 20
3.999999999999952
 30
0.0
 11
-56.46056747020024
 21
-4.000000000000041
 31
0.0
  0
LINE
  5
104
330
FD
100
AcDbEntity
  8
치수문자_일반주서
 62
     0
370
    -2
100
AcDbLine
 10
-56.46056747020028
 20
7.301999999999952
 30
0.0
 11
-56.4605674702003
 21
10.60399999999995
 31
0.0
  0
LINE
  5
105
330
FD
100
AcDbEntity
  8
치수문자_일반주서
 62
     0
370
    -2
100
AcDbLine
 10
-56.46056747020022
 20
-7.30200000000004
 30
0.0
 11
-56.46056747020021
 21
-10.60400000000004
 31
0.0
  0
SOLID
  5
106
330
FD
100
AcDbEntity
  8
치수문자_일반주서
 62
     0
100
AcDbTrace
 10
-57.01090080353362
 20
7.30199999999995
 30
0.0
 11
-55.91023413686695
 21
7.301999999999953
 31
0.0
 12
-56.46056747020027
 22
3.999999999999952
 32
0.0
 13
-56.46056747020027
 23
3.999999999999952
 33
0.0
  0
SOLID
  5
107
330
FD
100
AcDbEntity
  8
치수문자_일반주서
 62
     0
100
AcDbTrace
 10
-55.91023413686689
 20
-7.302000000000039
 30
0.0
 11
-57.01090080353356
 21
-7.302000000000042
 31
0.0
 12
-56.46056747020024
 22
-4.000000000000041
 32
0.0
 13
-56.46056747020024
 23
-4.000000000000041
 33
0.0
  0
MTEXT
  5
108
330
FD
100
AcDbEntity
  8
치수문자_일반주서
 62
     0
100
AcDbMText
 10
-60.8355674702003
 20
13.66649999999994
 30
0.0
 40
3.5
 41
0.0
 71
     2
 72
     1
  1
\A1;%%c8
  7
SLDTEXTSTYLE0
 11
-3.552713678800504E-15
 21
1.0
 31
0.0
 73
     1
 44
1.0
  0
POINT
  5
13B
330
FD
100
AcDbEntity
  8
Defpoints
 62
     0
100
AcDbPoint
 10
-44.18999999999998
 20
3.999999999999998
 30
0.0
  0
POINT
  5
13C
330
FD
100
AcDbEntity
  8
Defpoints
 62
     0
100
AcDbPoint
 10
-44.18999999999998
 20
-3.999999999999996
 30
0.0
  0
POINT
  5
13D
330
FD
100
AcDbEntity
  8
Defpoints
 62
     0
100
AcDbPoint
 10
-56.46056747020024
 20
-4.000000000000042
 30
0.0
  0
ENDBLK
  5
FF
330
FD
100
AcDbEntity
  8
0
100
AcDbBlockEnd
  0
BLOCK
  5
10A
330
109
100
AcDbEntity
  8
0
100
AcDbBlockBegin
  2
SW_DOWELSYMBOL_0
 70
     0
 10
0.0
 20
0.0
 30
0.0
  3
SW_DOWELSYMBOL_0
  1

  0
CIRCLE
  5
10C
330
109
100
AcDbEntity
  8
외형선
 62
     0
100
AcDbCircle
 10
0.0
 20
0.0
 30
0.0
 40
3.000000000000004
  0
HATCH
  5
10D
330
109
100
AcDbEntity
  8
0
  6
Continuous
 62
     0
370
    30
100
AcDbHatch
 10
0.0
 20
0.0
 30
0.0
210
0.0
220
0.0
230
1.0
  2
SOLID
 70
     1
 71
     0
 91
        1
 92
        0
 93
        3
 72
     2
 10
0.0000000000000104
 20
0.0
 40
3.000000000000004
 50
0.0
 51
90.0
 73
     1
 72
     1
 10
0.0000000000000104
 20
3.000000000000004
 11
0.0000000000000104
 21
0.0
 72
     1
 10
0.0000000000000104
 20
0.0
 11
3.000000000000015
 21
0.0
 97
        0
 75
     0
 76
     1
 98
        1
 10
0.0
 20
0.0
  0
HATCH
  5
10E
330
109
100
AcDbEntity
  8
0
  6
Continuous
 62
     0
370
    30
100
AcDbHatch
 10
0.0
 20
0.0
 30
0.0
210
0.0
220
0.0
230
1.0
  2
SOLID
 70
     1
 71
     0
 91
        1
 92
        0
 93
        3
 72
     2
 10
0.0000000000000104
 20
0.0
 40
3.000000000000004
 50
180.0
 51
270.0000000000008
 73
     1
 72
     1
 10
0.0000000000000104
 20
-3.000000000000004
 11
0.0000000000000104
 21
0.0
 72
     1
 10
0.0000000000000104
 20
0.0
 11
-2.999999999999994
 21
0.0
 97
        0
 75
     0
 76
     1
 98
        1
 10
0.0
 20
0.0
  0
ENDBLK
  5
10B
330
109
100
AcDbEntity
  8
0
100
AcDbBlockEnd
  0
ENDSEC
  0
SECTION
  2
ENTITIES
  0
LINE
  5
95
330
1F
100
AcDbEntity
  8
0
  6
Continuous
 62
     1
370
    15
100
AcDbLine
 10
33.56511654845218
 20
1.560259604954264
 30
0.0
 11
33.52665865017191
 21
1.580002150382392
 31
0.0
  0
SPLINE
  5
96
330
1F
100
AcDbEntity
  8
0
  6
Continuous
 62
     1
370
    15
100
AcDbSpline
210
0.0
220
0.0
230
1.0
 70
     8
 71
     3
 72
     9
 73
     5
 74
     0
 42
0.000000001
 43
0.00000001
 40
0.0
 40
0.0
 40
0.0
 40
0.0
 40
0.454685445659547
 40
1.0
 40
1.0
 40
1.0
 40
1.0
 10
34.63767442641141
 20
1.024992852779703
 30
0.0
 10
34.47491967169857
 20
1.102269627377368
 30
0.0
 10
34.11696945300012
 20
1.272226188193979
 30
0.0
 10
33.75985581358096
 20
1.458617635780661
 30
0.0
 10
33.56511654845218
 20
1.560259604954264
 30
0.0
  0
SPLINE
  5
97
330
1F
100
AcDbEntity
  8
0
  6
Continuous
 62
     1
370
    15
100
AcDbSpline
210
0.0
220
0.0
230
1.0
 70
     8
 71
     3
 72
     9
 73
     5
 74
     0
 42
0.000000001
 43
0.00000001
 40
0.0
 40
0.0
 40
0.0
 40
0.0
 40
0.4377878763149987
 40
1.0
 40
1.0
 40
1.0
 40
1.0
 10
12.87224517553049
 20
1.0249164968411
 30
0.0
 10
12.70998611156756
 20
1.10199161603144
 30
0.0
 10
12.33935212935517
 20
1.278047471755691
 30
0.0
 10
11.96908593460493
 20
1.471384552035019
 30
0.0
 10
11.76091779092563
 20
1.580081002525917
 30
0.0
  0
LINE
  5
98
330
1F
100
AcDbEntity
  8
0
  6
Continuous
 62
     1
370
    15
100
AcDbLine
 10
25.45661240635584
 20
4.000000000000009
 30
0.0
 11
23.51967018364829
 21
4.000000000000009
 31
0.0
  0
LINE
  5
99
330
1F
100
AcDbEntity
  8
0
  6
Continuous
 62
     1
370
    15
100
AcDbLine
 10
23.51967018364829
 20
-3.999999999999999
 30
0.0
 11
25.45661240635583
 21
-3.999999999999999
 31
0.0
  0
SPLINE
  5
9A
330
1F
100
AcDbEntity
  8
0
  6
Continuous
 62
     1
370
    15
100
AcDbSpline
210
0.0
220
0.0
230
1.0
 70
     8
 71
     3
 72
     9
 73
     5
 74
     0
 42
0.000000001
 43
0.00000001
 40
0.0
 40
0.0
 40
0.0
 40
0.0
 40
0.5156391297111078
 40
1.0
 40
1.0
 40
1.0
 40
1.0
 10
10.00000000000001
 20
-3.126961413534523
 30
0.0
 10
10.26614253192263
 20
-3.131820965100295
 30
0.0
 10
10.78228360149532
 20
-3.141245291699586
 30
0.0
 10
11.29881280277
 20
-3.166383590160513
 30
0.0
 10
11.54899933622904
 20
-3.17855959828063
 30
0.0
  0
SPLINE
  5
9B
330
1F
100
AcDbEntity
  8
0
  6
Continuous
 62
     1
370
    15
100
AcDbSpline
210
0.0
220
0.0
230
1.0
 70
     8
 71
     3
 72
    16
 73
    12
 74
     0
 42
0.000000001
 43
0.00000001
 40
0.0
 40
0.0
 40
0.0
 40
0.0
 40
0.1583275235775187
 40
0.2679636756904361
 40
0.3531918130248456
 40
0.4480534288355306
 40
0.5505587537226232
 40
0.6580569045601005
 40
0.7687248031821903
 40
0.8772996499856734
 40
1.0
 40
1.0
 40
1.0
 40
1.0
 10
33.31454571249489
 20
3.178557132591021
 30
0.0
 10
33.14317123473172
 20
3.170011075720207
 30
0.0
 10
32.85312605532575
 20
3.155547179866738
 30
0.0
 10
32.47090300564754
 20
3.14213263353599
 30
0.0
 10
32.15507722473826
 20
3.133487295632629
 30
0.0
 10
31.84465512862006
 20
3.127561786552392
 30
0.0
 10
31.50930636266329
 20
3.123978719392819
 30
0.0
 10
31.15853722451427
 20
3.12338458178931
 30
0.0
 10
30.80234810203496
 20
3.126354231522067
 30
0.0
 10
30.42930284330476
 20
3.132216310150065
 30
0.0
 10
30.17712310002178
 20
3.140778742630968
 30
0.0
 10
30.04333208743983
 20
3.145321441012968
 30
0.0
  0
SPLINE
  5
9C
330
1F
100
AcDbEntity
  8
0
  6
Continuous
 62
     1
370
    15
100
AcDbSpline
210
0.0
220
0.0
230
1.0
 70
     8
 71
     3
 72
    22
 73
    18
 74
     0
 42
0.000000001
 43
0.00000001
 40
0.0
 40
0.0
 40
0.0
 40
0.0
 40
0.074678884838093
 40
0.1353209176022952
 40
0.2080148792638241
 40
0.2517685504146404
 40
0.2962365195660931
 40
0.3413431897342693
 40
0.3843527327016941
 40
0.4269156214431785
 40
0.4730432211492169
 40
0.5229802252857182
 40
0.6564806494518202
 40
0.7817904776241652
 40
0.8387718227418165
 40
0.9016540195209366
 40
0.9999999999999999
 40
0.9999999999999999
 40
0.9999999999999999
 40
0.9999999999999999
 10
27.29814742066156
 20
-3.328565816649812
 30
0.0
 10
27.44862543465623
 20
-3.313970785252722
 30
0.0
 10
27.72129719424233
 20
-3.287524045382803
 30
0.0
 10
28.13947766945722
 20
-3.251907264947337
 30
0.0
 10
28.49484383133236
 20
-3.224736499692485
 30
0.0
 10
28.81456723734492
 20
-3.20327342785848
 30
0.0
 10
29.08151783479606
 20
-3.187064068463949
 30
0.0
 10
29.34763852432862
 20
-3.172724168611559
 30
0.0
 10
29.60977182639784
 20
-3.160348843431217
 30
0.0
 10
29.87394748134377
 20
-3.149598227343821
 30
0.0
 10
30.15185800712964
 20
-3.140206330081194
 30
0.0
 10
30.61248755842029
 20
-3.12823166768652
 30
0.0
 10
31.23034699295052
 20
-3.121140760666495
 30
0.0
 10
31.86963050571273
 20
-3.126957017968728
 30
0.0
 10
32.36338655904362
 20
-3.138751528921093
 30
0.0
 10
32.79785004901849
 20
-3.153060100154787
 30
0.0
 10
33.11878299837562
 20
-3.168896961963449
 30
0.0
 10
33.31454571249489
 20
-3.178557132591008
 30
0.0
  0
SPLINE
  5
9D
330
1F
100
AcDbEntity
  8
0
  6
Continuous
 62
     1
370
    15
100
AcDbSpline
210
0.0
220
0.0
230
1.0
 70
     8
 71
     3
 72
     9
 73
     5
 74
     0
 42
0.000000001
 43
0.00000001
 40
0.0
 40
0.0
 40
0.0
 40
0.0
 40
0.4843608702888935
 40
1.0
 40
1.0
 40
1.0
 40
1.0
 10
11.54899933622904
 20
3.178559598280639
 30
0.0
 10
11.29881280277001
 20
3.166383590160523
 30
0.0
 10
10.78228360149532
 20
3.141245291699596
 30
0.0
 10
10.26614253192263
 20
3.131820965100305
 30
0.0
 10
10.00000000000001
 20
3.126961413534532
 30
0.0
  0
SPLINE
  5
9E
330
1F
100
AcDbEntity
  8
0
  6
Continuous
 62
     1
370
    15
100
AcDbSpline
210
0.0
220
0.0
230
1.0
 70
     8
 71
     3
 72
    17
 73
    13
 74
     0
 42
0.000000001
 43
0.00000001
 40
0.0
 40
0.0
 40
0.0
 40
0.0
 40
0.1668919491141165
 40
0.3007412166113823
 40
0.4243567994483449
 40
0.4973251725451042
 40
0.5631446145112802
 40
0.6285840705346982
 40
0.6978153420545814
 40
0.776068428864974
 40
0.986080045974207
 40
1.0
 40
1.0
 40
1.0
 40
1.0
 10
36.52653689749322
 20
-3.008510750998683
 30
0.0
 10
36.69367383749356
 20
-2.98280800089608
 30
0.0
 10
36.99485653050674
 20
-2.936491348851772
 30
0.0
 10
37.41853562399537
 20
-2.879191337495263
 30
0.0
 10
37.7480639856858
 20
-2.838343421128106
 30
0.0
 10
38.00567152178986
 20
-2.808917931368573
 30
0.0
 10
38.20711195301352
 20
-2.787165875476249
 30
0.0
 10
38.40607754365266
 20
-2.766933627632781
 30
0.0
 10
38.61819621395661
 20
-2.746834235883838
 30
0.0
 10
38.97400861228603
 20
-2.716356548602255
 30
0.0
 10
39.27490752718113
 20
-2.69244104798508
 30
0.0
 10
39.4976546910159
 20
-2.681458737734183
 30
0.0
 10
39.51150102033981
 20
-2.680776059302488
 30
0.0
  0
SPLINE
  5
9F
330
1F
100
AcDbEntity
  8
0
  6
Continuous
 62
     1
370
    15
100
AcDbSpline
210
0.0
220
0.0
230
1.0
 70
     8
 71
     3
 72
    25
 73
    21
 74
     0
 42
0.000000001
 43
0.00000001
 40
0.0
 40
0.0
 40
0.0
 40
0.0
 40
0.0705327710824777
 40
0.1272005322795397
 40
0.179758045049191
 40
0.2109384413437823
 40
0.2390439364485894
 40
0.2669750436259681
 40
0.2964419890394709
 40
0.3299237646908387
 40
0.4202887828420849
 40
0.505606718534869
 40
0.5995087384480778
 40
0.6869188027193092
 40
0.7176491303589588
 40
0.7495505887454997
 40
0.7888991960414067
 40
0.8439199868345203
 40
0.9145042002294763
 40
1.0
 40
1.0
 40
1.0
 40
1.0
 10
21.74719300183932
 20
2.735790515293398
 30
0.0
 10
21.58166196380802
 20
2.72230643808574
 30
0.0
 10
21.28313922291436
 20
2.697988921961119
 30
0.0
 10
20.86291552549796
 20
2.672530315507022
 30
0.0
 10
20.53515077244438
 20
2.656848588153358
 30
0.0
 10
20.27842148428913
 20
2.647378380163058
 30
0.0
 10
20.07719037966562
 20
2.641386399916285
 30
0.0
 10
19.87863719148627
 20
2.636875568333848
 30
0.0
 10
19.66679718036433
 20
2.633637986766066
 30
0.0
 10
19.30971045429571
 20
2.631099890308988
 30
0.0
 10
18.82213935473682
 20
2.635384689933135
 30
0.0
 10
18.19536565471633
 20
2.654982867558078
 30
0.0
 10
17.57109750900563
 20
2.688957239912407
 30
0.0
 10
17.08640803157196
 20
2.725839304799359
 30
0.0
 10
16.73817523773196
 20
2.757333962167842
 30
0.0
 10
16.4989182208846
 20
2.780985802247331
 30
0.0
 10
16.2026157321194
 20
2.812720496719354
 30
0.0
 10
15.81751035060249
 20
2.858062895145805
 30
0.0
 10
15.32477018513773
 20
2.922326001508529
 30
0.0
 10
14.96050827905364
 20
2.978005911437596
 30
0.0
 10
14.76097688259242
 20
3.008505642530579
 30
0.0
  0
SPLINE
  5
A0
330
1F
100
AcDbEntity
  8
0
  6
Continuous
 62
     1
370
    15
100
AcDbSpline
210
0.0
220
0.0
230
1.0
 70
     8
 71
     3
 72
    16
 73
    12
 74
     0
 42
0.000000001
 43
0.00000001
 40
0.0
 40
0.0
 40
0.0
 40
0.0
 40
0.1876441062258056
 40
0.3267845205516858
 40
0.4162364449854735
 40
0.4784225127958149
 40
0.5433223825498229
 40
0.611006695084088
 40
0.6843647696563117
 40
0.843417920338788
 40
1.0
 40
1.0
 40
1.0
 40
1.0
 10
14.76097688259242
 20
-3.008505642530569
 30
0.0
 10
14.94861275799816
 20
-2.979750522594393
 30
0.0
 10
15.2753829444754
 20
-2.929673127302044
 30
0.0
 10
15.69054377881325
 20
-2.874498746729843
 30
0.0
 10
15.97923542879888
 20
-2.838965680438986
 30
0.0
 10
16.19262759806198
 20
-2.814273100352819
 30
0.0
 10
16.38567218176443
 20
-2.793074262640942
 30
0.0
 10
16.5902228974683
 20
-2.771871351275466
 30
0.0
 10
16.88894613898515
 20
-2.74320350520593
 30
0.0
 10
17.27607858928768
 20
-2.710248315902396
 30
0.0
 10
17.59012232021507
 20
-2.690498129476243
 30
0.0
 10
17.74591487999883
 20
-2.680700347204168
 30
0.0
  0
SPLINE
  5
A1
330
1F
100
AcDbEntity
  8
0
  6
Continuous
 62
     1
370
    15
100
AcDbSpline
210
0.0
220
0.0
230
1.0
 70
     8
 71
     3
 72
    25
 73
    21
 74
     0
 42
0.000000001
 43
0.00000001
 40
0.0
 40
0.0
 40
0.0
 40
0.0
 40
0.0792410940854755
 40
0.1382050111267155
 40
0.1763900994538704
 40
0.2030172850734876
 40
0.2309392982071315
 40
0.2601973881878473
 40
0.2917915726223586
 40
0.3599323566543908
 40
0.4325539669065122
 40
0.4935419558888285
 40
0.580405405689834
 40
0.6638939109687871
 40
0.6956033067199954
 40
0.7308981988505805
 40
0.7720966097438468
 40
0.8301944704797469
 40
0.9064168433801216
 40
1.0
 40
1.0
 40
1.0
 40
1.0
 10
43.51286801938663
 20
2.735797641131487
 30
0.0
 10
43.32727480375452
 20
2.720788116776293
 30
0.0
 10
43.00358022674867
 20
2.694609888112784
 30
0.0
 10
42.5917887906661
 20
2.67074010646939
 30
0.0
 10
42.30422493431901
 20
2.657254580905285
 30
0.0
 10
42.09042465455538
 20
2.649016333651161
 30
0.0
 10
41.89603016510159
 20
2.642824780808833
 30
0.0
 10
41.6896395905561
 20
2.63774687970939
 30
0.0
 10
41.38923417524344
 20
2.632706447159553
 30
0.0
 10
40.98783084978024
 20
2.631173404177803
 30
0.0
 10
40.51795005350523
 20
2.637824522193637
 30
0.0
 10
40.00473121141702
 20
2.653897225890657
 30
0.0
 10
39.46607017135373
 20
2.681020387817777
 30
0.0
 10
38.99540841082738
 20
2.714519147268146
 30
0.0
 10
38.64513349722181
 20
2.744416020548563
 30
0.0
 10
38.39330545403209
 20
2.767998427999036
 30
0.0
 10
38.08016930025109
 20
2.800288350196004
 30
0.0
 10
37.67183744906417
 20
2.846994941470122
 30
0.0
 10
37.1409992092439
 20
2.914899533873902
 30
0.0
 10
36.74485805471627
 20
2.975250274544872
 30
0.0
 10
36.52653689749322
 20
3.008510750998695
 30
0.0
  0
LINE
  5
A2
330
1F
100
AcDbEntity
  8
0
  6
Continuous
 62
   131
370
    15
100
AcDbLine
 10
8.47989083224021
 20
4.000000000000005
 30
0.0
 11
-44.18999999999998
 21
4.000000000000002
 31
0.0
  0
LINE
  5
A3
330
1F
100
AcDbEntity
  8
0
  6
Continuous
 62
   131
370
    15
100
AcDbLine
 10
-44.18999999999998
 20
-3.999999999999999
 30
0.0
 11
8.47989083224021
 21
-3.999999999999996
 31
0.0
  0
LINE
  5
A4
330
1F
100
AcDbEntity
  8
0
  6
Continuous
 62
   131
370
    15
100
AcDbLine
 10
-44.18999999999998
 20
3.999999999999998
 30
0.0
 11
-44.99999999999999
 21
3.189999999999998
 31
0.0
  0
LINE
  5
A5
330
1F
100
AcDbEntity
  8
0
  6
Continuous
 62
   131
370
    15
100
AcDbLine
 10
-44.99999999999999
 20
-3.189999999999996
 30
0.0
 11
-44.18999999999998
 21
-3.999999999999996
 31
0.0
  0
SPLINE
  5
A6
330
1F
100
AcDbEntity
  8
0
  6
Continuous
 62
   131
370
    15
100
AcDbSpline
210
0.0
220
0.0
230
1.0
 70
     8
 71
     3
 72
     9
 73
     5
 74
     0
 42
0.000000001
 43
0.00000001
 40
0.0
 40
0.0
 40
0.0
 40
0.0
 40
0.4361514728308156
 40
1.0
 40
1.0
 40
1.0
 40
1.0
 10
10.0000000000001
 20
3.126961413534534
 30
0.0
 10
9.777633243311305
 20
3.125064515255915
 30
0.0
 10
9.267794871688844
 20
3.120715342097545
 30
0.0
 10
8.758070187669295
 20
3.131871942278567
 30
0.0
 10
8.470662675323092
 20
3.138162574858851
 30
0.0
  0
SPLINE
  5
A7
330
1F
100
AcDbEntity
  8
0
  6
Continuous
 62
   131
370
    15
100
AcDbSpline
210
0.0
220
0.0
230
1.0
 70
     8
 71
     3
 72
     9
 73
     5
 74
     0
 42
0.000000001
 43
0.00000001
 40
0.0
 40
0.0
 40
0.0
 40
0.0
 40
0.4385310388741816
 40
1.0
 40
1.0
 40
1.0
 40
1.0
 10
8.470662675323092
 20
-3.138162574858842
 30
0.0
 10
8.694189176825034
 20
-3.132988967759187
 30
0.0
 10
9.20390566593784
 20
-3.121191383002277
 30
0.0
 10
9.713742463134427
 20
-3.124886640913831
 30
0.0
 10
10.00000000000011
 20
-3.126961413534525
 30
0.0
  0
SPLINE
  5
A8
330
1F
100
AcDbEntity
  8
0
  6
Continuous
 62
     1
370
    15
100
AcDbSpline
210
0.0
220
0.0
230
1.0
 70
     8
 71
     3
 72
    19
 73
    15
 74
     0
 42
0.000000001
 43
0.00000001
 40
0.0
 40
0.0
 40
0.0
 40
0.0
 40
0.0929753197859183
 40
0.1867224987187769
 40
0.2718351660578406
 40
0.3575373821663115
 40
0.442556524015111
 40
0.5281668310620256
 40
0.6131853904625749
 40
0.6987909387058305
 40
0.7838097358542401
 40
0.8694175821777131
 40
0.9544363125726496
 40
0.9999999999999999
 40
0.9999999999999999
 40
0.9999999999999999
 40
0.9999999999999999
 10
10.00000000000001
 20
1.485392043657251
 30
0.0
 10
10.4191428920175
 20
1.256290177744112
 30
0.0
 10
11.26090830135331
 20
0.7961844963338641
 30
0.0
 10
12.48593376014145
 20
0.0871255035551468
 30
0.0
 10
13.67763388064424
 20
-0.6022239825572118
 30
0.0
 10
14.83092913750489
 20
-1.251552164875975
 30
0.0
 10
15.98626732088541
 20
-1.867580216520305
 30
0.0
 10
17.13784314594753
 20
-2.431473243374012
 30
0.0
 10
18.2926086177918
 20
-2.928483307063756
 30
0.0
 10
19.44515659693586
 20
-3.342808229388883
 30
0.0
 10
20.59937228376468
 20
-3.667969629372029
 30
0.0
 10
21.75123076962466
 20
-3.885073543854208
 30
0.0
 10
22.72610112668917
 20
-3.995109462519655
 30
0.0
 10
23.31439779109633
 20
-3.988429422155284
 30
0.0
 10
23.51967018364829
 20
-3.986098577955581
 30
0.0
  0
SPLINE
  5
A9
330
1F
100
AcDbEntity
  8
0
  6
Continuous
 62
     1
370
    15
100
AcDbSpline
210
0.0
220
0.0
230
1.0
 70
     8
 71
     3
 72
    12
 73
     8
 74
     0
 42
0.000000001
 43
0.00000001
 40
0.0
 40
0.0
 40
0.0
 40
0.0
 40
0.1268468420611163
 40
0.3411429639227972
 40
0.5569939540963251
 40
0.7776500820587647
 40
1.0
 40
1.0
 40
1.0
 40
1.0
 10
39.51174497735032
 20
2.680878603819389
 30
0.0
 10
39.74374337907372
 20
2.781011300366487
 30
0.0
 10
40.36768183196116
 20
3.050309016656503
 30
0.0
 10
41.38727582208705
 20
3.397726439907492
 30
0.0
 10
42.57752206181816
 20
3.716082372823274
 30
0.0
 10
43.78250196593207
 20
3.931910845275463
 30
0.0
 10
44.59313419781452
 20
3.974994879850123
 30
0.0
 10
45.00000000000001
 20
4.000000000000128
 30
0.0
  0
SPLINE
  5
AA
330
1F
100
AcDbEntity
  8
0
  6
Continuous
 62
     1
370
    15
100
AcDbSpline
210
0.0
220
0.0
230
1.0
 70
    24
 71
     3
 72
    10
 73
     6
 74
     0
 42
0.000000001
 43
0.00000001
 40
0.0
 40
0.0
 40
0.0
 40
0.0
 40
0.5
 40
0.5
 40
1.0
 40
1.0
 40
1.0
 40
1.0
 10
45.00000000000001
 20
2.800000000000009
 30
0.0
 10
45.00000000000001
 20
2.969729027229263
 30
0.0
 10
45.00000000000003
 20
3.166969875468477
 30
0.0
 10
45.00000000000001
 20
3.580780643843432
 30
0.0
 10
45.00000000000003
 20
3.7962937432059
 30
0.0
 10
45.00000000000001
 20
4.000000000000128
 30
0.0
  0
LINE
  5
AB
330
1F
100
AcDbEntity
  8
0
  6
Continuous
 62
     1
370
    15
100
AcDbLine
 10
45.00000000000001
 20
2.80000000000001
 30
0.0
 11
43.51247980323993
 21
2.734259778164505
 31
0.0
  0
SPLINE
  5
AC
330
1F
100
AcDbEntity
  8
0
  6
Continuous
 62
     1
370
    15
100
AcDbSpline
210
0.0
220
0.0
230
1.0
 70
     8
 71
     3
 72
    10
 73
     6
 74
     0
 42
0.000000001
 43
0.00000001
 40
0.0
 40
0.0
 40
0.0
 40
0.0
 40
0.0742402416866628
 40
0.5371286579564021
 40
0.9999999999999999
 40
0.9999999999999999
 40
0.9999999999999999
 40
0.9999999999999999
 10
13.29101020909547
 20
-0.3765905247966901
 30
0.0
 10
13.20957078181902
 20
-0.3445423358837278
 30
0.0
 10
12.62035596672772
 20
-0.1126734692196644
 30
0.0
 10
11.52332614262819
 20
0.3400416101968205
 30
0.0
 10
10.50776913740962
 20
0.7347032882833017
 30
0.0
 10
10.00000000000001
 20
0.9320304878603195
 30
0.0
  0
SPLINE
  5
AD
330
1F
100
AcDbEntity
  8
0
  6
Continuous
 62
   131
370
    15
100
AcDbSpline
210
0.0
220
0.0
230
1.0
 70
    24
 71
     3
 72
    10
 73
     6
 74
     0
 42
0.000000001
 43
0.00000001
 40
0.0
 40
0.0
 40
0.0
 40
0.0
 40
0.5
 40
0.5
 40
1.0
 40
1.0
 40
1.0
 40
1.0
 10
10.00000000000001
 20
1.485392043656802
 30
0.0
 10
10.00000000000001
 20
1.467044932419135
 30
0.0
 10
10.00000000000001
 20
1.406772467046474
 30
0.0
 10
10.00000000000001
 20
1.213321004191163
 30
0.0
 10
10.00000000000001
 20
1.080932743399114
 30
0.0
 10
10.00000000000001
 20
0.9320304878603207
 30
0.0
  0
SPLINE
  5
AE
330
1F
100
AcDbEntity
  8
0
  6
Continuous
 62
     1
370
    15
100
AcDbSpline
210
0.0
220
0.0
230
1.0
 70
     8
 71
     3
 72
    31
 73
    27
 74
     0
 42
0.000000001
 43
0.00000001
 40
0.0
 40
0.0
 40
0.0
 40
0.0
 40
0.0198732225767596
 40
0.0623418405734008
 40
0.1045193733703382
 40
0.14698913143667
 40
0.1891666311174393
 40
0.2316365279656591
 40
0.2738140076368817
 40
0.3162826221065252
 40
0.3584601974520411
 40
0.4009306252863112
 40
0.4431080122136599
 40
0.4855770271626444
 40
0.527753707886586
 40
0.5702219961506367
 40
0.6123988837981259
 40
0.654869041872799
 40
0.6970456300513642
 40
0.739513355619218
 40
0.7816900538927353
 40
0.8241590710357463
 40
0.8673153361182033
 40
0.9107847301012276
 40
0.9552218121524002
 40
1.0
 40
1.0
 40
1.0
 40
1.0
 10
17.74844397010112
 20
2.681783951067379
 30
0.0
 10
17.92896496929408
 20
2.760831644022157
 30
0.0
 10
18.49525517755652
 20
3.008802432496338
 30
0.0
 10
19.44517470704185
 20
3.340495022933347
 30
0.0
 10
20.59936359474082
 20
3.66774166042971
 30
0.0
 10
21.75124740661369
 20
3.888330687116613
 30
0.0
 10
22.90661660332222
 20
4.002762583925675
 30
0.0
 10
24.0582922779303
 20
4.006414924308657
 30
0.0
 10
25.21262351619107
 20
3.898855056741807
 30
0.0
 10
26.3653547968484
 20
3.684447041966617
 30
0.0
 10
27.51982243509493
 20
3.367169488601758
 30
0.0
 10
28.67142723389814
 20
2.957061305312172
 30
0.0
 10
29.82668168438753
 20
2.465435650658336
 30
0.0
 10
30.97872625231551
 20
1.906235398714895
 30
0.0
 10
32.13289833842769
 20
1.2921345332001
 30
0.0
 10
33.28520193680644
 20
0.6449535167087851
 30
0.0
 10
34.4402000802941
 20
-0.0214089657175688
 30
0.0
 10
35.59175406973527
 20
-0.6871099803706494
 30
0.0
 10
36.74640603014944
 20
-1.334412397074174
 30
0.0
 10
37.89900323921606
 20
-1.942519015044794
 30
0.0
 10
39.05321160663279
 20
-2.499871158961999
 30
0.0
 10
40.21390510747541
 20
-2.990005361314072
 30
0.0
 10
41.38726089856794
 20
-3.399868892174003
 30
0.0
 10
42.57752615186085
 20
-3.715495197559559
 30
0.0
 10
43.78250092481989
 20
-3.932060309561929
 30
0.0
 10
44.59313384989369
 20
-3.975044828108846
 30
0.0
 10
44.99999999999993
 20
-3.999999999999861
 30
0.0
  0
SPLINE
  5
AF
330
1F
100
AcDbEntity
  8
0
  6
Continuous
 62
     1
370
    15
100
AcDbSpline
210
0.0
220
0.0
230
1.0
 70
     8
 71
     3
 72
    17
 73
    13
 74
     0
 42
0.000000001
 43
0.00000001
 40
0.0
 40
0.0
 40
0.0
 40
0.0
 40
0.0531020439412451
 40
0.1673756399549939
 40
0.2816683432367009
 40
0.3959876844433978
 40
0.5103410889237758
 40
0.6246921227670023
 40
0.7390095281507834
 40
0.8533007775243573
 40
0.967573404975922
 40
0.9999999999999999
 40
0.9999999999999999
 40
0.9999999999999999
 40
0.9999999999999999
 10
35.05634270076132
 20
-0.3758876950811449
 30
0.0
 10
34.82070051483825
 20
-0.2820266103732002
 30
0.0
 10
34.077965231185
 20
0.0138199890014786
 30
0.0
 10
32.82803770631334
 20
0.5231464775563448
 30
0.0
 10
31.30642791439728
 20
1.114112860814418
 30
0.0
 10
29.78443124689568
 20
1.652590713478729
 30
0.0
 10
28.26211238321486
 20
2.111530408903851
 30
0.0
 10
26.73980796239865
 20
2.468393189993073
 30
0.0
 10
25.21783879090399
 20
2.709285658993282
 30
0.0
 10
23.69625069337198
 20
2.810128051269693
 30
0.0
 10
22.53808348542221
 20
2.81212859860107
 30
0.0
 10
21.8871005559588
 20
2.738426274031852
 30
0.0
 10
21.74320640665747
 20
2.722135012286849
 30
0.0
  0
SPLINE
  5
B0
330
1F
100
AcDbEntity
  8
0
  6
Continuous
 62
     1
370
    15
100
AcDbSpline
210
0.0
220
0.0
230
1.0
 70
     8
 71
     3
 72
    20
 73
    16
 74
     0
 42
0.000000001
 43
0.00000001
 40
0.0
 40
0.0
 40
0.0
 40
0.0
 40
0.0778949934338478
 40
0.1557687744937719
 40
0.2336260231377612
 40
0.3114714573658393
 40
0.3893098224341713
 40
0.4671458799357406
 40
0.5449843968008669
 40
0.6228301342715109
 40
0.700687836903514
 40
0.7785622216507125
 40
0.8564579408634264
 40
0.9343521869966259
 40
1.0
 40
1.0
 40
1.0
 40
1.0
 10
45.00000000000001
 20
-3.795763476927593
 30
0.0
 10
44.49250874354938
 20
-3.685682249509305
 30
0.0
 10
43.47766443072773
 20
-3.465549772005738
 30
0.0
 10
41.95568449549867
 20
-2.919919828814233
 30
0.0
 10
40.43408477509161
 20
-2.247139809521963
 30
0.0
 10
38.91276389705102
 20
-1.462942094597088
 30
0.0
 10
37.39160818919012
 20
-0.6094416877867006
 30
0.0
 10
35.87050674928132
 20
0.2735812731377161
 30
0.0
 10
34.34934748008351
 20
1.143379463786868
 30
0.0
 10
32.82801950702454
 20
1.95840542675484
 30
0.0
 10
31.30640909910163
 20
2.679009904607251
 30
0.0
 10
29.78441536577796
 20
3.272371608648831
 30
0.0
 10
28.2620724089288
 20
3.70317463274126
 30
0.0
 10
26.81938961648206
 20
3.961507313174685
 30
0.0
 10
25.88427815585147
 20
3.979179278795841
 30
0.0
 10
25.45661240635584
 20
3.987261410970048
 30
0.0
  0
SPLINE
  5
B1
330
1F
100
AcDbEntity
  8
0
  6
Continuous
 62
     1
370
    15
100
AcDbSpline
210
0.0
220
0.0
230
1.0
 70
     8
 71
     3
 72
    14
 73
    10
 74
     0
 42
0.000000001
 43
0.00000001
 40
0.0
 40
0.0
 40
0.0
 40
0.0
 40
0.1465473590901751
 40
0.2930530282846527
 40
0.4395262041134544
 40
0.5859761588175479
 40
0.7324122188852834
 40
0.8788437433208309
 40
1.0
 40
1.0
 40
1.0
 40
1.0
 10
45.00000000000001
 20
-3.155889057472857
 30
0.0
 10
44.49251010800531
 20
-3.048554925186798
 30
0.0
 10
43.47767469509701
 20
-2.833917195104064
 30
0.0
 10
41.95569145698744
 20
-2.335093181230114
 30
0.0
 10
40.43408999192908
 20
-1.735101905276525
 30
0.0
 10
38.91276705620736
 20
-1.048520517722384
 30
0.0
 10
37.3916088877441
 20
-0.3137131826155351
 30
0.0
 10
35.95803990388551
 20
0.3978912507028232
 30
0.0
 10
35.03150162102014
 20
0.8356310609359131
 30
0.0
 10
34.61199102321078
 20
1.033827393318349
 30
0.0
  0
LINE
  5
B2
330
1F
100
AcDbEntity
  8
0
  6
Continuous
 62
     1
370
    15
100
AcDbLine
 10
45.00000000000001
 20
-3.795763476927596
 30
0.0
 11
45.00000000000001
 21
-3.155889057472857
 31
0.0
  0
SPLINE
  5
B3
330
1F
100
AcDbEntity
  8
0
  6
Continuous
 62
     1
370
    15
100
AcDbSpline
210
0.0
220
0.0
230
1.0
 70
     8
 71
     3
 72
    21
 73
    17
 74
     0
 42
0.000000001
 43
0.00000001
 40
0.0
 40
0.0
 40
0.0
 40
0.0
 40
0.013066162653147
 40
0.089007391758373
 40
0.1649471847452857
 40
0.2408664422394179
 40
0.3167697281150684
 40
0.3926616430016683
 40
0.4685468137635834
 40
0.5444298828514728
 40
0.6203154975771731
 40
0.6962253883160806
 40
0.7721470276844236
 40
0.848084982483522
 40
0.9240437066811641
 40
1.0
 40
1.0
 40
1.0
 40
1.0
 10
30.04647241324458
 20
-3.144109268730474
 30
0.0
 10
29.95916059883814
 20
-3.178379192098846
 30
0.0
 10
29.36438789653005
 20
-3.411827724445371
 30
0.0
 10
28.2620659625445
 20
-3.698112382255738
 30
0.0
 10
26.73974631489459
 20
-3.965651367131626
 30
0.0
 10
25.21777801319729
 20
-4.029284141994578
 30
0.0
 10
23.69618946457053
 20
-3.902894862929938
 30
0.0
 10
22.17487540655676
 20
-3.588064827882121
 30
0.0
 10
20.65372319915094
 20
-3.101145575894783
 30
0.0
 10
19.1326215985768
 20
-2.465215232428285
 30
0.0
 10
17.6113446086073
 20
-1.710779631357504
 30
0.0
 10
16.0897809766142
 20
-0.8742097069759062
 30
0.0
 10
14.56781797609001
 20
0.0050960448550638
 30
0.0
 10
13.04547358688308
 20
0.8819805334280432
 30
0.0
 10
11.5227755140672
 20
1.724863564390511
 30
0.0
 10
10.50758642314751
 20
2.210521958888477
 30
0.0
 10
9.999999999997382
 20
2.453347270489032
 30
0.0
  0
SPLINE
  5
B4
330
1F
100
AcDbEntity
  8
0
  6
Continuous
 62
     1
370
    15
100
AcDbSpline
210
0.0
220
0.0
230
1.0
 70
     8
 71
     3
 72
    18
 73
    14
 74
     0
 42
0.000000001
 43
0.00000001
 40
0.0
 40
0.0
 40
0.0
 40
0.0
 40
0.0390184135997807
 40
0.1442894171591421
 40
0.2495372840107246
 40
0.3547686782164817
 40
0.4599903023231143
 40
0.5652088817419579
 40
0.6704311490156526
 40
0.7756638280494595
 40
0.8809136183853974
 40
0.9861871795969895
 40
1.0
 40
1.0
 40
1.0
 40
1.0
 10
27.30375350120493
 20
-3.309365328830735
 30
0.0
 10
27.11570982184649
 20
-3.333126088182642
 30
0.0
 10
26.42032755506868
 20
-3.420992964404499
 30
0.0
 10
25.21778732876322
 20
-3.405529774726797
 30
0.0
 10
23.69619398709183
 20
-3.261096138051542
 30
0.0
 10
22.17487859472836
 20
-2.94962129716784
 30
0.0
 10
20.65372407857159
 20
-2.499281531998247
 30
0.0
 10
19.13262055179811
 20
-1.928042619453922
 30
0.0
 10
17.61145524489095
 20
-1.264790052606611
 30
0.0
 10
16.09011899831781
 20
-0.5391817916345082
 30
0.0
 10
14.56849198465325
 20
0.2066899881610929
 30
0.0
 10
13.48739869673427
 20
0.7445271204161152
 30
0.0
 10
12.91347813258561
 20
1.003275209407665
 30
0.0
 10
12.84690912972653
 20
1.033287380693791
 30
0.0
  0
LINE
  5
B5
330
1F
100
AcDbEntity
  8
0
  6
Continuous
 62
     1
370
    15
100
AcDbLine
 10
44.99999999999993
 20
-3.999999999999861
 30
0.0
 11
45.00000000000001
 21
-3.7957634769276
 31
0.0
  0
LINE
  5
B6
330
1F
100
AcDbEntity
  8
0
  6
Continuous
 62
   131
370
    15
100
AcDbLine
 10
10.00000000000001
 20
1.485392043656803
 30
0.0
 11
10.00000000000001
 21
2.453347270483969
 31
0.0
  0
SPLINE
  5
B7
330
1F
100
AcDbEntity
  8
0
  6
Continuous
 62
     1
370
    15
100
AcDbSpline
210
0.0
220
0.0
230
1.0
 70
     8
 71
     3
 72
     8
 73
     4
 74
     0
 42
0.000000001
 43
0.00000001
 40
0.0
 40
0.0
 40
0.0
 40
0.0
 40
1.0
 40
1.0
 40
1.0
 40
1.0
 10
42.52471855126645
 20
1.119153604316253
 30
0.0
 10
42.3455434113424
 20
1.331446846975082
 30
0.0
 10
42.19000160100913
 20
1.534373798641815
 30
0.0
 10
42.06722270051492
 20
1.723135374418816
 30
0.0
  0
LINE
  5
B8
330
1F
100
AcDbEntity
  8
0
  6
Continuous
 62
     1
370
    15
100
AcDbLine
 10
42.06722270051492
 20
1.723135374418814
 30
0.0
 11
45.00000000000001
 21
0.0000000000000092
 31
0.0
  0
LINE
  5
B9
330
1F
100
AcDbEntity
  8
0
  6
Continuous
 62
     1
370
    15
100
AcDbLine
 10
45.00000000000001
 20
0.0000000000000092
 30
0.0
 11
45.00000000000001
 21
-1.06897178411857
 31
0.0
  0
SPLINE
  5
BA
330
1F
100
AcDbEntity
  8
0
  6
Continuous
 62
     1
370
    15
100
AcDbSpline
210
0.0
220
0.0
230
1.0
 70
     8
 71
     3
 72
    10
 73
     6
 74
     0
 42
0.000000001
 43
0.00000001
 40
0.0
 40
0.0
 40
0.0
 40
0.0
 40
0.5
 40
0.5
 40
1.0
 40
1.0
 40
1.0
 40
1.0
 10
45.00000000000001
 20
-1.06897178411857
 30
0.0
 10
44.57151703976399
 20
-0.7321110804042898
 30
0.0
 10
44.15019312186352
 20
-0.3814365541690717
 30
0.0
 10
43.32222625633999
 20
0.348240353947509
 30
0.0
 10
42.91171971059759
 20
0.7310712194879934
 30
0.0
 10
42.52471855126662
 20
1.119153604316097
 30
0.0
  0
SPLINE
  5
BB
330
1F
100
AcDbEntity
  8
0
  6
Continuous
 62
     1
370
    15
100
AcDbSpline
210
0.0
220
0.0
230
1.0
 70
     8
 71
     3
 72
    14
 73
    10
 74
     0
 42
0.000000001
 43
0.00000001
 40
0.0
 40
0.0
 40
0.0
 40
0.0
 40
0.1133514743895955
 40
0.2269673351283037
 40
0.3921046723304662
 40
0.5572261227814888
 40
0.7223423880825105
 40
0.8874641820271876
 40
1.0
 40
1.0
 40
1.0
 40
1.0
 10
42.52471855004694
 20
1.119153604842672
 30
0.0
 10
42.17675895139735
 20
1.267404296219564
 30
0.0
 10
41.48002815664501
 20
1.56425146590958
 30
0.0
 10
40.27575291975597
 20
2.02721637322482
 30
0.0
 10
38.91279753749548
 20
2.483234200019075
 30
0.0
 10
37.3916202061712
 20
2.873070721286335
 30
0.0
 10
35.87052411061343
 20
3.119496301112989
 30
0.0
 10
34.51089291750802
 20
3.224995680970832
 30
0.0
 10
33.65827104472928
 20
3.179989456722121
 30
0.0
 10
33.31269975204246
 20
3.161748241490457
 30
0.0
  0
SPLINE
  5
BC
330
1F
100
AcDbEntity
  8
0
  6
Continuous
 62
     1
370
    15
100
AcDbSpline
210
0.0
220
0.0
230
1.0
 70
     8
 71
     3
 72
    11
 73
     7
 74
     0
 42
0.000000001
 43
0.00000001
 40
0.0
 40
0.0
 40
0.0
 40
0.0
 40
0.0413000971533996
 40
0.3606847547070527
 40
0.6803481161024714
 40
0.9999999999999999
 40
0.9999999999999999
 40
0.9999999999999999
 40
0.9999999999999999
 10
14.7654666683576
 20
-2.999867240510776
 30
0.0
 10
14.69986542959484
 20
-3.012787983851814
 30
0.0
 10
14.12695232908228
 20
-3.125628278761669
 30
0.0
 10
13.04624828133862
 20
-3.199140345971159
 30
0.0
 10
11.52332191047673
 20
-3.211579052500889
 30
0.0
 10
10.50776789281331
 20
-3.082202209176171
 30
0.0
 10
10.00000000000001
 20
-3.017514948852023
 30
0.0
  0
SPLINE
  5
BD
330
1F
100
AcDbEntity
  8
0
  6
Continuous
 62
     1
370
    15
100
AcDbSpline
210
0.0
220
0.0
230
1.0
 70
    24
 71
     3
 72
    10
 73
     6
 74
     0
 42
0.000000001
 43
0.00000001
 40
0.0
 40
0.0
 40
0.0
 40
0.0
 40
0.5
 40
0.5
 40
1.0
 40
1.0
 40
1.0
 40
1.0
 10
45.00000000000001
 20
-3.155889057472855
 30
0.0
 10
45.00000000000001
 20
-2.913965556015211
 30
0.0
 10
45.00000000000003
 20
-2.608285935625867
 30
0.0
 10
45.00000000000001
 20
-1.897610236602712
 30
0.0
 10
45.00000000000003
 20
-1.493229772205231
 30
0.0
 10
45.00000000000001
 20
-1.068971784118699
 30
0.0
  0
SPLINE
  5
BE
330
1F
100
AcDbEntity
  8
0
  6
Continuous
 62
   131
370
    15
100
AcDbSpline
210
0.0
220
0.0
230
1.0
 70
    24
 71
     3
 72
     9
 73
     5
 74
     0
 42
0.000000001
 43
0.00000001
 40
0.0
 40
0.0
 40
0.0
 40
0.0
 40
0.5079561613510439
 40
1.0
 40
1.0
 40
1.0
 40
1.0
 10
10.00000000000001
 20
-3.017514948852024
 30
0.0
 10
10.00000000000001
 20
-3.049844763648615
 30
0.0
 10
10.00000000000001
 20
-3.113491623863089
 30
0.0
 10
10.00000000000001
 20
-3.12170699887292
 30
0.0
 10
10.00000000000001
 20
-3.125749323528696
 30
0.0
  0
SPLINE
  5
BF
330
1F
100
AcDbEntity
  8
0
  6
Continuous
 62
     1
370
    15
100
AcDbSpline
210
0.0
220
0.0
230
1.0
 70
     8
 71
     3
 72
    24
 73
    20
 74
     0
 42
0.000000001
 43
0.00000001
 40
0.0
 40
0.0
 40
0.0
 40
0.0
 40
0.0266248743874348
 40
0.0875042655230749
 40
0.1483896403525465
 40
0.2092849301351825
 40
0.2701940428780644
 40
0.3311208322357007
 40
0.3920463929664726
 40
0.4529545024815058
 40
0.5138490387993023
 40
0.5747339116921499
 40
0.6356130535978692
 40
0.6964904104192585
 40
0.7573699322566732
 40
0.8182555641197311
 40
0.8791512366643317
 40
0.9400608570009407
 40
0.9999999999999999
 40
0.9999999999999999
 40
0.9999999999999999
 40
0.9999999999999999
 10
36.5357836407952
 20
-2.989228867344484
 30
0.0
 10
36.31403562128293
 20
-3.02836209653912
 30
0.0
 10
35.58524729739229
 20
-3.156975829261136
 30
0.0
 10
34.34936451294318
 20
-3.218767219292469
 30
0.0
 10
32.82803670762839
 20
-3.17148538877073
 30
0.0
 10
31.30642692110878
 20
-2.963453277220173
 30
0.0
 10
29.7844319773236
 20
-2.615246355558543
 30
0.0
 10
28.2621053894634
 20
-2.140803400529795
 30
0.0
 10
26.73979445883511
 20
-1.563655509096602
 30
0.0
 10
25.2178268552957
 20
-0.9112956503703095
 30
0.0
 10
23.69623861424343
 20
-0.2152279830397043
 30
0.0
 10
22.1749249178093
 20
0.491146247217238
 30
0.0
 10
20.65377299907402
 20
1.173885596108001
 30
0.0
 10
19.1326716887642
 20
1.800290515653185
 30
0.0
 10
17.61150901451922
 20
2.340008276165916
 30
0.0
 10
16.09017388348283
 20
2.76815894434954
 30
0.0
 10
14.56855337953824
 20
3.060284938806206
 30
0.0
 10
13.05477522159197
 20
3.215971674440604
 30
0.0
 10
12.04815550953131
 20
3.190103839044041
 30
0.0
 10
11.54888748889557
 20
3.177273787315635
 30
0.0
  0
SPLINE
  5
C0
330
1F
100
AcDbEntity
  8
0
  6
Continuous
 62
   131
370
    15
100
AcDbSpline
210
0.0
220
0.0
230
1.0
 70
    24
 71
     3
 72
    12
 73
     8
 74
     0
 42
0.000000001
 43
0.00000001
 40
0.0
 40
0.0
 40
0.0
 40
0.0
 40
0.0077413302371489
 40
0.265286450001897
 40
0.530300395687169
 40
0.7624418536123891
 40
1.0
 40
1.0
 40
1.0
 40
1.0
 10
10.00000000000001
 20
3.124518113232906
 30
0.0
 10
10.00000000000001
 20
3.125338771130183
 30
0.0
 10
10.00000000000001
 20
3.15346176983524
 30
0.0
 10
10.00000000000001
 20
3.070185480618324
 30
0.0
 10
10.00000000000001
 20
2.902617319308578
 30
0.0
 10
10.00000000000001
 20
2.621443818120402
 30
0.0
 10
10.00000000000001
 20
2.370384935311866
 30
0.0
 10
10.00000000000001
 20
2.243407858289637
 30
0.0
  0
SPLINE
  5
C1
330
1F
100
AcDbEntity
  8
0
  6
Continuous
 62
     1
370
    15
100
AcDbSpline
210
0.0
220
0.0
230
1.0
 70
     8
 71
     3
 72
    10
 73
     6
 74
     0
 42
0.000000001
 43
0.00000001
 40
0.0
 40
0.0
 40
0.0
 40
0.0
 40
0.5
 40
0.5
 40
1.0
 40
1.0
 40
1.0
 40
1.0
 10
45.00000000000001
 20
2.80000000000001
 30
0.0
 10
44.50223746009664
 20
2.664946022532467
 30
0.0
 10
44.00821511501302
 20
2.5101206499319
 30
0.0
 10
43.02867820086084
 20
2.155496150848269
 30
0.0
 10
42.5430322198186
 20
1.956264825614536
 30
0.0
 10
42.06722270051289
 20
1.723135374420448
 30
0.0
  0
SPLINE
  5
C2
330
1F
100
AcDbEntity
  8
0
  6
Continuous
 62
   131
370
    15
100
AcDbSpline
210
0.0
220
0.0
230
1.0
 70
    24
 71
     3
 72
    14
 73
    10
 74
     0
 42
0.000000001
 43
0.00000001
 40
0.0
 40
0.0
 40
0.0
 40
0.0
 40
0.2500000000000001
 40
0.2500000000000001
 40
0.5000000000000001
 40
0.5000000000000001
 40
0.7500000000000001
 40
0.7500000000000001
 40
1.0
 40
1.0
 40
1.0
 40
1.0
 10
10.0
 20
0.9320304878603248
 30
0.0
 10
10.0
 20
0.5804484073496552
 30
0.0
 10
10.0
 20
0.2121696527648295
 30
0.0
 10
10.0
 20
-0.5255679778028683
 30
0.0
 10
10.0
 20
-0.8946705057741754
 30
0.0
 10
10.0
 20
-1.596618599657235
 30
0.0
 10
10.0
 20
-1.929090138277364
 30
0.0
 10
10.0
 20
-2.52725186370771
 30
0.0
 10
10.0
 20
-2.792781744396292
 30
0.0
 10
10.0
 20
-3.01751494885202
 30
0.0
  0
LINE
  5
C3
330
1F
100
AcDbEntity
  8
0
  6
Continuous
 62
     1
370
    15
100
AcDbLine
 10
45.00000000000001
 20
0.0000000000000092
 30
0.0
 11
45.00000000000001
 21
2.800000000000009
 31
0.0
  0
LINE
  5
C4
330
1F
100
AcDbEntity
  8
0
  6
Continuous
 62
   131
370
    15
100
AcDbLine
 10
8.47989083224021
 20
3.08223400799065
 30
0.0
 11
8.47989083224021
 21
4.000000000000005
 31
0.0
  0
SPLINE
  5
C5
330
1F
100
AcDbEntity
  8
0
  6
Continuous
 62
   131
370
    15
100
AcDbSpline
210
0.0
220
0.0
230
1.0
 70
     8
 71
     3
 72
    10
 73
     6
 74
     0
 42
0.000000001
 43
0.00000001
 40
0.0
 40
0.0
 40
0.0
 40
0.0
 40
0.5
 40
0.5
 40
1.0
 40
1.0
 40
1.0
 40
1.0
 10
10.00000000000001
 20
2.45334727048783
 30
0.0
 10
9.747569165305926
 20
2.56872678383205
 30
0.0
 10
9.495720070529185
 20
2.679117355563651
 30
0.0
 10
8.987678420966486
 20
2.889328138327026
 30
0.0
 10
8.732939514703503
 20
2.988921263927617
 30
0.0
 10
8.479776552808493
 20
3.08212474174333
 30
0.0
  0
SPLINE
  5
C6
330
1F
100
AcDbEntity
  8
0
  6
Continuous
 62
   131
370
    15
100
AcDbSpline
210
0.0
220
0.0
230
1.0
 70
     8
 71
     3
 72
    10
 73
     6
 74
     0
 42
0.000000001
 43
0.00000001
 40
0.0
 40
0.0
 40
0.0
 40
0.0
 40
0.5000000000000001
 40
0.5000000000000001
 40
1.0
 40
1.0
 40
1.0
 40
1.0
 10
8.47989083224021
 20
2.258040149824826
 30
0.0
 10
8.73303522076036
 20
2.137352080851355
 30
0.0
 10
8.987754973538177
 20
2.011875113895406
 30
0.0
 10
9.495758184501716
 20
1.753575907886018
 30
0.0
 10
9.74758815677824
 20
1.621019020789976
 30
0.0
 10
9.999999999999154
 20
1.485392043657264
 30
0.0
  0
LINE
  5
C7
330
1F
100
AcDbEntity
  8
0
  6
Continuous
 62
   131
370
    15
100
AcDbLine
 10
8.47989083224021
 20
-3.999999999999996
 30
0.0
 11
8.47989083224021
 21
2.25803672136898
 31
0.0
  0
LINE
  5
C8
330
1F
100
AcDbEntity
  8
0
  6
Continuous
 62
   131
370
    15
100
AcDbLine
 10
-44.18999999999998
 20
3.999999999999998
 30
0.0
 11
-44.18999999999998
 21
-3.999999999999993
 31
0.0
  0
LINE
  5
C9
330
1F
100
AcDbEntity
  8
0
  6
Continuous
 62
   131
370
    15
100
AcDbLine
 10
-44.99999999999999
 20
3.189999999999999
 30
0.0
 11
-44.99999999999999
 21
-3.189999999999996
 31
0.0
  0
SPLINE
  5
CA
330
1F
100
AcDbEntity
  8
0
  6
Continuous
 62
   131
370
    15
100
AcDbSpline
210
0.0
220
0.0
230
1.0
 70
    24
 71
     3
 72
    10
 73
     6
 74
     0
 42
0.000000001
 43
0.00000001
 40
0.0
 40
0.0
 40
0.0
 40
0.0
 40
0.5
 40
0.5
 40
1.0
 40
1.0
 40
1.0
 40
1.0
 10
10.00000000000001
 20
1.485392043656802
 30
0.0
 10
10.00000000000001
 20
1.467044932419135
 30
0.0
 10
10.00000000000001
 20
1.406772467046474
 30
0.0
 10
10.00000000000001
 20
1.213321004191162
 30
0.0
 10
10.00000000000001
 20
1.080932743399115
 30
0.0
 10
10.00000000000001
 20
0.9320304878603207
 30
0.0
  0
SPLINE
  5
CB
330
1F
100
AcDbEntity
  8
0
  6
Continuous
 62
   131
370
    15
100
AcDbSpline
210
0.0
220
0.0
230
1.0
 70
     8
 71
     3
 72
    10
 73
     6
 74
     0
 42
0.000000001
 43
0.00000001
 40
0.0
 40
0.0
 40
0.0
 40
0.0
 40
0.5
 40
0.5
 40
1.0
 40
1.0
 40
1.0
 40
1.0
 10
10.00000000000001
 20
0.9320304878603187
 30
0.0
 10
9.747583580182814
 20
1.02845167208371
 30
0.0
 10
9.495748999738016
 20
1.122937826495843
 30
0.0
 10
8.987736525776178
 20
1.307562503115946
 30
0.0
 10
8.733012157355182
 20
1.397512516508896
 30
0.0
 10
8.479863292976859
 20
1.484299058977518
 30
0.0
  0
SPLINE
  5
CC
330
1F
100
AcDbEntity
  8
0
  6
Continuous
 62
   131
370
    15
100
AcDbSpline
210
0.0
220
0.0
230
1.0
 70
     8
 71
     3
 72
    10
 73
     6
 74
     0
 42
0.000000001
 43
0.00000001
 40
0.0
 40
0.0
 40
0.0
 40
0.0
 40
0.5
 40
0.5
 40
1.0
 40
1.0
 40
1.0
 40
1.0
 10
10.00000000000001
 20
-3.017514948852023
 30
0.0
 10
9.747581220454256
 20
-2.978615709985334
 30
0.0
 10
9.495744264001365
 20
-2.933718115686085
 30
0.0
 10
8.987727013966179
 20
-2.832066165679462
 30
0.0
 10
8.733000265684982
 20
-2.77538404319351
 30
0.0
 10
8.479849093523404
 20
-2.713375330623262
 30
0.0
  0
SPLINE
  5
CD
330
1F
100
AcDbEntity
  8
0
  6
Continuous
 62
   131
370
    15
100
AcDbSpline
210
0.0
220
0.0
230
1.0
 70
    24
 71
     3
 72
    14
 73
    10
 74
     0
 42
0.000000001
 43
0.00000001
 40
0.0
 40
0.0
 40
0.0
 40
0.0
 40
0.25
 40
0.25
 40
0.5
 40
0.5
 40
0.75
 40
0.75
 40
1.0
 40
1.0
 40
1.0
 40
1.0
 10
9.999999999999963
 20
0.9320304878603397
 30
0.0
 10
9.999999999999963
 20
0.5804484073496703
 30
0.0
 10
9.999999999999963
 20
0.2121696527648442
 30
0.0
 10
9.999999999999963
 20
-0.5255679778028538
 30
0.0
 10
9.999999999999963
 20
-0.8946705057741615
 30
0.0
 10
9.999999999999963
 20
-1.596618599657222
 30
0.0
 10
9.999999999999963
 20
-1.929090138277351
 30
0.0
 10
9.999999999999963
 20
-2.527251863707701
 30
0.0
 10
9.999999999999963
 20
-2.792781744396285
 30
0.0
 10
9.999999999999963
 20
-3.017514948852015
 30
0.0
  0
SPLINE
  5
CE
330
1F
100
AcDbEntity
  8
0
  6
Continuous
 62
   131
370
    15
100
AcDbSpline
210
0.0
220
0.0
230
1.0
 70
    24
 71
     3
 72
    12
 73
     8
 74
     0
 42
0.000000001
 43
0.00000001
 40
0.0
 40
0.0
 40
0.0
 40
0.0
 40
0.0066220721104684
 40
0.2644577002648749
 40
0.5297705791027856
 40
0.7621738903342516
 40
1.0
 40
1.0
 40
1.0
 40
1.0
 10
10.00000000000001
 20
3.124867794914939
 30
0.0
 10
10.00000000000001
 20
3.125566616931015
 30
0.0
 10
10.00000000000003
 20
3.153474628227639
 30
0.0
 10
10.0
 20
3.070095998942659
 30
0.0
 10
10.00000000000001
 20
2.902638133692263
 30
0.0
 10
10.00000000000001
 20
2.621438769810915
 30
0.0
 10
10.00000000000001
 20
2.370383239654174
 30
0.0
 10
10.00000000000001
 20
2.243407858289637
 30
0.0
  0
SPLINE
  5
CF
330
1F
100
AcDbEntity
  8
0
  6
Continuous
 62
   131
370
    15
100
AcDbSpline
210
0.0
220
0.0
230
1.0
 70
    24
 71
     3
 72
     9
 73
     5
 74
     0
 42
0.000000001
 43
0.00000001
 40
0.0
 40
0.0
 40
0.0
 40
0.0
 40
0.5062824505582117
 40
1.0
 40
1.0
 40
1.0
 40
1.0
 10
9.999999999999936
 20
-3.017514948852
 30
0.0
 10
9.999999999999966
 20
-3.049829054888417
 30
0.0
 10
10.00000000000003
 20
-3.113655296546188
 30
0.0
 10
10.00000000000002
 20
-3.121866802967736
 30
0.0
 10
10.00000000000001
 20
-3.125920967795407
 30
0.0
  0
LINE
  5
D0
330
1F
100
AcDbEntity
  8
중심선
 62
     1
100
AcDbLine
 10
-47.99999999999999
 20
0.0
 30
0.0
 11
48.00000000000001
 21
0.0000000000000095
 31
0.0
  0
CIRCLE
  5
D1
330
1F
100
AcDbEntity
  8
외형선
100
AcDbCircle
 10
0.0000000000000104
 20
0.0
 30
0.0
 40
3.000000000000005
  0
INSERT
  5
D2
330
1F
100
AcDbEntity
  8
0
  6
Continuous
 62
     7
100
AcDbBlockReference
 66
     1
  2
블럭10
 10
-22.93944368806589
 20
-52.04609937292004
 30
0.0
  0
ATTRIB
  5
D3
330
D2
100
AcDbEntity
  8
FORMAT
 62
     2
100
AcDbText
 10
-39.05870472750145
 20
-49.97073246008785
 30
0.0
 40
4.233333333333333
  1
SEME7008035E [ 2 FLUTE ]
 41
0.75
  7
SLDTEXTSTYLE0
 11
-39.05870472750145
 21
-52.08739912675452
 31
0.0
100
AcDbAttribute
  2
AUTOATTR0
 70
     0
 74
     1
  0
SEQEND
  5
D4
330
D2
100
AcDbEntity
  8
0
  6
Continuous
 62
     7
  0
HATCH
  5
D5
330
1F
100
AcDbEntity
  8
중심선
100
AcDbHatch
 10
0.0
 20
0.0
 30
0.0
210
0.0
220
0.0
230
1.0
  2
SOLID
 70
     1
 71
     0
 91
        1
 92
        0
 93
        4
 72
     1
 10
-17.22453438368504
 20
-35.7989250712761
 11
-20.67080962752232
 21
-35.7989250712761
 72
     1
 10
-20.67080962752232
 20
-35.7989250712761
 11
-22.79903948672635
 21
-38.3352506518487
 72
     1
 10
-22.79903948672635
 20
-38.3352506518487
 11
-19.35273115777591
 21
-38.33521122254621
 72
     1
 10
-19.35273115777591
 20
-38.33521122254621
 11
-17.22453438368504
 21
-35.7989250712761
 97
        0
 75
     0
 76
     1
 98
        1
 10
0.0
 20
0.0
  0
HATCH
  5
D6
330
1F
100
AcDbEntity
  8
중심선
100
AcDbHatch
 10
0.0
 20
0.0
 30
0.0
210
0.0
220
0.0
230
1.0
  2
SOLID
 70
     1
 71
     0
 91
        1
 92
        0
 93
        4
 72
     1
 10
-12.21177039264909
 20
-35.7989250712761
 11
-15.65804563648637
 21
-35.7989250712761
 72
     1
 10
-15.65804563648637
 20
-35.7989250712761
 11
-20.18918364484376
 21
-41.19892507127612
 72
     1
 10
-20.18918364484376
 20
-41.19892507127612
 11
-16.74290840100648
 21
-41.19892507127612
 72
     1
 10
-16.74290840100648
 20
-41.19892507127612
 11
-12.21177039264909
 21
-35.7989250712761
 97
        0
 75
     0
 76
     1
 98
        1
 10
0.0
 20
0.0
  0
HATCH
  5
D7
330
1F
100
AcDbEntity
  8
중심선
100
AcDbHatch
 10
0.0
 20
0.0
 30
0.0
210
0.0
220
0.0
230
1.0
  2
SOLID
 70
     1
 71
     0
 91
        1
 92
        0
 93
        4
 72
     1
 10
-7.199006401613195
 20
-35.79892507127613
 11
-10.64528164545031
 21
-35.7989250712761
 72
     1
 10
-10.64528164545031
 20
-35.7989250712761
 11
-17.69371854733956
 21
-44.19892507127612
 72
     1
 10
-17.69371854733956
 20
-44.19892507127612
 11
-14.24744330350228
 21
-44.19892507127612
 72
     1
 10
-14.24744330350228
 20
-44.19892507127612
 11
-7.199006401613195
 21
-35.79892507127613
 97
        0
 75
     0
 76
     1
 98
        1
 10
0.0
 20
0.0
  0
HATCH
  5
D8
330
1F
100
AcDbEntity
  8
중심선
100
AcDbHatch
 10
0.0
 20
0.0
 30
0.0
210
0.0
220
0.0
230
1.0
  2
SOLID
 70
     1
 71
     0
 91
        1
 92
        0
 93
        6
 72
     3
 10
-2.399115970600996
 20
-39.99892507132738
 11
3.960054785062284
 21
1.540850780301639E-10
 40
0.3939339440162633
 50
17.09539180608433
 51
320.0019657685079
 73
     0
 72
     1
 10
-0.7161163149004002
 20
-38.58681907591441
 11
1.589185558800638
 21
-36.65249236586649
 72
     3
 10
-2.399115970653842
 20
-39.99892507127625
 11
6.600054785286829
 21
-1.249000902703301E-13
 40
0.6363583540795982
 50
39.99873849337408
 51
368.4976242363725
 73
     1
 72
     1
 10
4.026216521246767
 20
-39.03892507120613
 11
-3.71904866381792
 21
-39.0389250712061
 72
     1
 10
-3.71904866381792
 20
-39.0389250712061
 11
-3.719073708263854
 21
-40.95892507120602
 72
     1
 10
-3.719073708263854
 20
-40.95892507120602
 11
0.7223060612081831
 21
-40.95892507120599
 97
        0
 75
     0
 76
     1
 98
        1
 10
0.0
 20
0.0
  0
DIMENSION
  5
D9
330
1F
100
AcDbEntity
  8
치수문자_일반주서
100
AcDbDimension
  2
_D
 10
57.06366140956094
 20
4.000000000000172
 30
0.0
 11
57.06366140956091
 21
13.66650000000017
 31
0.0
 70
   160
  1
%%c<>
 71
     2
 42
7.999999999999988
 52
-270.0
  3
SLDDIMSTYLE0
100
AcDbAlignedDimension
 13
44.99999999999993
 23
-3.999999999999861
 33
0.0
 14
45.00000000000001
 24
4.000000000000128
 34
0.0
 50
90.0000000000002
100
AcDbRotatedDimension
  0
DIMENSION
  5
E7
330
1F
100
AcDbEntity
  8
치수문자_일반주서
100
AcDbDimension
  2
_D_1
 10
45.00000000000001
 20
24.9784104402427
 30
0.0
 11
0.0000000000000187
 21
24.9784104402427
 31
0.0
 70
   160
  1
<>
 71
     2
 42
90.0
  3
SLDDIMSTYLE1
100
AcDbAlignedDimension
 13
-44.99999999999999
 23
3.189999999999999
 33
0.0
 14
45.00000000000001
 24
4.000000000000128
 34
0.0
 50
-0.0000000000000045
100
AcDbRotatedDimension
  0
DIMENSION
  5
F2
330
1F
100
AcDbEntity
  8
치수문자_일반주서
100
AcDbDimension
  2
_D_2
 10
45.00000000000001
 20
16.47395921989886
 30
0.0
 11
27.50000000000002
 21
16.47395921989886
 31
0.0
 70
   160
  1
<>
 71
     2
 42
35.0
  3
SLDDIMSTYLE1
100
AcDbAlignedDimension
 13
10.00000000000001
 23
3.126961413731361
 33
0.0
 14
45.00000000000001
 24
4.000000000000128
 34
0.0
 50
-0.0000000000000698
100
AcDbRotatedDimension
  0
DIMENSION
  5
FC
330
1F
100
AcDbEntity
  8
치수문자_일반주서
100
AcDbDimension
  2
_D_3
 10
-56.46056747020024
 20
-4.000000000000041
 30
0.0
 11
-56.4605674702003
 21
13.66649999999995
 31
0.0
 70
   160
  1
%%c<>
 71
     2
 42
7.999999999999993
 52
-270.0
  3
SLDDIMSTYLE0
100
AcDbAlignedDimension
 13
-44.18999999999998
 23
3.999999999999998
 33
0.0
 14
-44.18999999999998
 24
-3.999999999999996
 34
0.0
 50
90.0000000000002
100
AcDbRotatedDimension
  0
INSERT
  5
10F
330
1F
100
AcDbEntity
  8
외형선
100
AcDbBlockReference
  2
SW_DOWELSYMBOL_0
 10
0.0000000000000104
 20
0.0
 30
0.0
  0
ENDSEC
  0
SECTION
  2
OBJECTS
  0
DICTIONARY
  5
C
330
0
100
AcDbDictionary
281
     1
  3
ACAD_GROUP
350
D
  3
ACAD_IMAGE_VARS
350
133
  3
ACAD_LAYOUT
350
1A
  3
ACAD_MLINESTYLE
350
17
  3
ACAD_PLOTSETTINGS
350
19
  3
ACAD_PLOTSTYLENAME
350
E
  3
ACAD_SCALELIST
350
47
  3
APPDATA
350
131
  3
DWGPROPS
350
142
  0
DICTIONARY
  5
D
102
{ACAD_REACTORS
330
C
102
}
330
C
100
AcDbDictionary
281
     1
  0
RASTERVARIABLES
  5
133
102
{ACAD_REACTORS
330
C
102
}
330
C
100
AcDbRasterVariables
 90
        0
 70
     1
 71
     1
 72
     1
  0
DICTIONARY
  5
1A
102
{ACAD_REACTORS
330
C
102
}
330
C
100
AcDbDictionary
281
     1
  3
Layout1
350
1E
  3
Layout2
350
26
  3
Model
350
22
  0
DICTIONARY
  5
17
102
{ACAD_REACTORS
330
C
102
}
330
C
100
AcDbDictionary
281
     1
  3
Standard
350
18
  0
DICTIONARY
  5
19
102
{ACAD_REACTORS
330
C
102
}
330
C
100
AcDbDictionary
281
     1
  0
ACDBDICTIONARYWDFLT
  5
E
102
{ACAD_REACTORS
330
C
102
}
330
C
100
AcDbDictionary
281
     1
  3
Normal
350
F
100
AcDbDictionaryWithDefault
340
F
  0
DICTIONARY
  5
47
102
{ACAD_REACTORS
330
C
102
}
330
C
100
AcDbDictionary
281
     1
  3
A0
350
48
  3
A1
350
49
  3
A2
350
4A
  3
A3
350
4B
  3
A4
350
4C
  3
A5
350
4D
  3
A6
350
4E
  3
A7
350
4F
  3
A8
350
50
  3
A9
350
51
  3
B0
350
52
  3
B1
350
53
  3
B2
350
54
  3
B3
350
55
  3
B4
350
56
  3
B5
350
57
  3
B6
350
58
  3
B7
350
59
  3
B8
350
5A
  3
B9
350
5B
  3
C0
350
5C
  3
C1
350
5D
  3
C2
350
5E
  3
C3
350
5F
  3
C4
350
60
  3
C5
350
61
  3
C6
350
62
  3
C7
350
63
  3
C8
350
64
  3
C9
350
65
  3
D0
350
66
  3
D1
350
67
  3
D2
350
68
  0
DICTIONARY
  5
131
102
{ACAD_REACTORS
330
C
102
}
330
C
100
AcDbDictionary
281
     1
  0
XRECORD
  5
142
102
{ACAD_REACTORS
330
C
102
}
330
C
100
AcDbXrecord
280
     1
  1
DWGPROPS COOKIE
  2

  3

  4

  6

  7

  8
12014102
  9

300
=
301
=
302
=
303
=
304
=
305
=
306
=
307
=
308
=
309
=
 40
0.0
 41
2458262.168606701
 42
2458266.038901435
  1

 90
        0
  0
LAYOUT
  5
1E
102
{ACAD_REACTORS
330
1A
102
}
330
1A
100
AcDbPlotSettings
  1

  2
none_device
  4

  6

 40
0.0
 41
0.0
 42
0.0
 43
0.0
 44
0.0
 45
0.0
 46
0.0
 47
0.0
 48
0.0
 49
0.0
140
0.0
141
0.0
142
1.0
143
1.0
 70
   688
 72
     1
 73
     0
 74
     5
  7

 75
    16
147
1.0
148
0.0
149
0.0
100
AcDbLayout
  1
Layout1
 70
     1
 71
     1
 10
0.0
 20
0.0
 11
420.0
 21
297.0
 12
0.0
 22
0.0
 32
0.0
 14
1.000000000000000E+20
 24
1.000000000000000E+20
 34
1.000000000000000E+20
 15
-1.000000000000000E+20
 25
-1.000000000000000E+20
 35
-1.000000000000000E+20
146
0.0
 13
0.0
 23
0.0
 33
0.0
 16
1.0
 26
0.0
 36
0.0
 17
0.0
 27
1.0
 37
0.0
 76
     0
330
1B
  0
LAYOUT
  5
26
102
{ACAD_REACTORS
330
1A
102
}
330
1A
100
AcDbPlotSettings
  1

  2
none_device
  4

  6

 40
0.0
 41
0.0
 42
0.0
 43
0.0
 44
0.0
 45
0.0
 46
0.0
 47
0.0
 48
0.0
 49
0.0
140
0.0
141
0.0
142
1.0
143
1.0
 70
   688
 72
     1
 73
     0
 74
     5
  7

 75
    16
147
1.0
148
0.0
149
0.0
100
AcDbLayout
  1
Layout2
 70
     1
 71
     2
 10
0.0
 20
0.0
 11
0.0
 21
0.0
 12
0.0
 22
0.0
 32
0.0
 14
0.0
 24
0.0
 34
0.0
 15
0.0
 25
0.0
 35
0.0
146
0.0
 13
0.0
 23
0.0
 33
0.0
 16
1.0
 26
0.0
 36
0.0
 17
0.0
 27
1.0
 37
0.0
 76
     0
330
23
  0
LAYOUT
  5
22
102
{ACAD_REACTORS
330
1A
102
}
330
1A
100
AcDbPlotSettings
  1

  2
none_device
  4
ANSI_A_(11.00_x_8.50_Inches)
  6

 40
6.35
 41
19.05
 42
6.35000508
 43
19.05000254
 44
279.4
 45
215.9
 46
141.4907651825601
 47
116.5256394782989
 48
0.0
 49
0.0
140
0.0
141
0.0
142
0.1024925093225698
143
1.0
 70
  1696
 72
     0
 73
     0
 74
     0
  7

 75
     0
147
0.0235690232323232
148
0.0
149
0.0
100
AcDbLayout
  1
Model
 70
     1
 71
     0
 10
0.0
 20
0.0
 11
420.0
 21
297.0
 12
0.0
 22
0.0
 32
0.0
 14
-60.83556747020031
 24
-49.97073246008785
 34
0.0
 15
57.61399474289431
 25
29.3534104402427
 35
0.0
146
0.0
 13
0.0
 23
0.0
 33
0.0
 16
1.0
 26
0.0
 36
0.0
 17
0.0
 27
1.0
 37
0.0
 76
     0
330
1F
331
29
  0
MLINESTYLE
  5
18
102
{ACAD_REACTORS
330
17
102
}
330
17
100
AcDbMlineStyle
  2
Standard
 70
     0
  3

 62
   256
 51
90.0
 52
90.0
 71
     2
 49
0.5
 62
   256
  6
BYLAYER
 49
-0.5
 62
   256
  6
BYLAYER
  0
ACDBPLACEHOLDER
  5
F
102
{ACAD_REACTORS
330
E
102
}
330
E
  0
SCALE
  5
48
102
{ACAD_REACTORS
330
47
102
}
330
47
100
AcDbScale
 70
     0
300
1:1
140
1.0
141
1.0
290
     1
  0
SCALE
  5
49
102
{ACAD_REACTORS
330
47
102
}
330
47
100
AcDbScale
 70
     0
300
1:2
140
1.0
141
2.0
290
     0
  0
SCALE
  5
4A
102
{ACAD_REACTORS
330
47
102
}
330
47
100
AcDbScale
 70
     0
300
1:4
140
1.0
141
4.0
290
     0
  0
SCALE
  5
4B
102
{ACAD_REACTORS
330
47
102
}
330
47
100
AcDbScale
 70
     0
300
1:5
140
1.0
141
5.0
290
     0
  0
SCALE
  5
4C
102
{ACAD_REACTORS
330
47
102
}
330
47
100
AcDbScale
 70
     0
300
1:8
140
1.0
141
8.0
290
     0
  0
SCALE
  5
4D
102
{ACAD_REACTORS
330
47
102
}
330
47
100
AcDbScale
 70
     0
300
1:10
140
1.0
141
10.0
290
     0
  0
SCALE
  5
4E
102
{ACAD_REACTORS
330
47
102
}
330
47
100
AcDbScale
 70
     0
300
1:16
140
1.0
141
16.0
290
     0
  0
SCALE
  5
4F
102
{ACAD_REACTORS
330
47
102
}
330
47
100
AcDbScale
 70
     0
300
1:20
140
1.0
141
20.0
290
     0
  0
SCALE
  5
50
102
{ACAD_REACTORS
330
47
102
}
330
47
100
AcDbScale
 70
     0
300
1:30
140
1.0
141
30.0
290
     0
  0
SCALE
  5
51
102
{ACAD_REACTORS
330
47
102
}
330
47
100
AcDbScale
 70
     0
300
1:40
140
1.0
141
40.0
290
     0
  0
SCALE
  5
52
102
{ACAD_REACTORS
330
47
102
}
330
47
100
AcDbScale
 70
     0
300
1:50
140
1.0
141
50.0
290
     0
  0
SCALE
  5
53
102
{ACAD_REACTORS
330
47
102
}
330
47
100
AcDbScale
 70
     0
300
1:100
140
1.0
141
100.0
290
     0
  0
SCALE
  5
54
102
{ACAD_REACTORS
330
47
102
}
330
47
100
AcDbScale
 70
     0
300
2:1
140
2.0
141
1.0
290
     0
  0
SCALE
  5
55
102
{ACAD_REACTORS
330
47
102
}
330
47
100
AcDbScale
 70
     0
300
4:1
140
4.0
141
1.0
290
     0
  0
SCALE
  5
56
102
{ACAD_REACTORS
330
47
102
}
330
47
100
AcDbScale
 70
     0
300
8:1
140
8.0
141
1.0
290
     0
  0
SCALE
  5
57
102
{ACAD_REACTORS
330
47
102
}
330
47
100
AcDbScale
 70
     0
300
10:1
140
10.0
141
1.0
290
     0
  0
SCALE
  5
58
102
{ACAD_REACTORS
330
47
102
}
330
47
100
AcDbScale
 70
     0
300
100:1
140
100.0
141
1.0
290
     0
  0
SCALE
  5
59
102
{ACAD_REACTORS
330
47
102
}
330
47
100
AcDbScale
 70
     0
300
1/128" = 1'-0"
140
0.0078125
141
12.0
290
     0
  0
SCALE
  5
5A
102
{ACAD_REACTORS
330
47
102
}
330
47
100
AcDbScale
 70
     0
300
1/64" = 1'-0"
140
0.015625
141
12.0
290
     0
  0
SCALE
  5
5B
102
{ACAD_REACTORS
330
47
102
}
330
47
100
AcDbScale
 70
     0
300
1/32" = 1'-0"
140
0.03125
141
12.0
290
     0
  0
SCALE
  5
5C
102
{ACAD_REACTORS
330
47
102
}
330
47
100
AcDbScale
 70
     0
300
1/16" = 1'-0"
140
0.0625
141
12.0
290
     0
  0
SCALE
  5
5D
102
{ACAD_REACTORS
330
47
102
}
330
47
100
AcDbScale
 70
     0
300
3/32" = 1'-0"
140
0.09375
141
12.0
290
     0
  0
SCALE
  5
5E
102
{ACAD_REACTORS
330
47
102
}
330
47
100
AcDbScale
 70
     0
300
1/8" = 1'-0"
140
0.125
141
12.0
290
     0
  0
SCALE
  5
5F
102
{ACAD_REACTORS
330
47
102
}
330
47
100
AcDbScale
 70
     0
300
3/16" = 1'-0"
140
0.1875
141
12.0
290
     0
  0
SCALE
  5
60
102
{ACAD_REACTORS
330
47
102
}
330
47
100
AcDbScale
 70
     0
300
1/4" = 1'-0"
140
0.25
141
12.0
290
     0
  0
SCALE
  5
61
102
{ACAD_REACTORS
330
47
102
}
330
47
100
AcDbScale
 70
     0
300
3/8" = 1'-0"
140
0.375
141
12.0
290
     0
  0
SCALE
  5
62
102
{ACAD_REACTORS
330
47
102
}
330
47
100
AcDbScale
 70
     0
300
1/2" = 1'-0"
140
0.5
141
12.0
290
     0
  0
SCALE
  5
63
102
{ACAD_REACTORS
330
47
102
}
330
47
100
AcDbScale
 70
     0
300
3/4" = 1'-0"
140
0.75
141
12.0
290
     0
  0
SCALE
  5
64
102
{ACAD_REACTORS
330
47
102
}
330
47
100
AcDbScale
 70
     0
300
1" = 1'-0"
140
1.0
141
12.0
290
     0
  0
SCALE
  5
65
102
{ACAD_REACTORS
330
47
102
}
330
47
100
AcDbScale
 70
     0
300
1-1/2" = 1'-0"
140
1.5
141
12.0
290
     0
  0
SCALE
  5
66
102
{ACAD_REACTORS
330
47
102
}
330
47
100
AcDbScale
 70
     0
300
3" = 1'-0"
140
3.0
141
12.0
290
     0
  0
SCALE
  5
67
102
{ACAD_REACTORS
330
47
102
}
330
47
100
AcDbScale
 70
     0
300
6" = 1'-0"
140
6.0
141
12.0
290
     0
  0
SCALE
  5
68
102
{ACAD_REACTORS
330
47
102
}
330
47
100
AcDbScale
 70
     0
300
1'-0" = 1'-0"
140
12.0
141
12.0
290
     0
  0
ENDSEC
  0
EOF
