  0
SECTION
  2
HEADER
  9
$ACADVER
  1
AC1015
  9
$ACADMAINTVER
 70
     6
  9
$DWGCODEPAGE
  3
ANSI_949
  9
$INSBASE
 10
0.0
 20
0.0
 30
0.0
  9
$EXTMIN
 10
-115.0158255131244
 20
-49.97073246008785
 30
0.0
  9
$EXTMAX
 10
60.43581687213394
 20
29.35341044024269
 30
0.0
  9
$LIMMIN
 10
0.0
 20
0.0
  9
$LIMMAX
 10
420.0
 20
297.0
  9
$ORTHOMODE
 70
     0
  9
$REGENMODE
 70
     1
  9
$FILLMODE
 70
     1
  9
$QTEXTMODE
 70
     0
  9
$MIRRTEXT
 70
     1
  9
$LTSCALE
 40
1.0
  9
$ATTMODE
 70
     1
  9
$TEXTSIZE
 40
3.5
  9
$TRACEWID
 40
1.0
  9
$TEXTSTYLE
  7
Standard
  9
$CLAYER
  8
0
  9
$CELTYPE
  6
ByLayer
  9
$CECOLOR
 62
   256
  9
$CELTSCALE
 40
1.0
  9
$DISPSILH
 70
     0
  9
$DIMSCALE
 40
1.0
  9
$DIMASZ
 40
3.302
  9
$DIMEXO
 40
1.0
  9
$DIMDLI
 40
3.75
  9
$DIMRND
 40
0.0
  9
$DIMDLE
 40
0.0
  9
$DIMEXE
 40
1.0
  9
$DIMTP
 40
0.0
  9
$DIMTM
 40
0.0
  9
$DIMTXT
 40
3.5
  9
$DIMCEN
 40
2.5
  9
$DIMTSZ
 40
0.0
  9
$DIMTOL
 70
     0
  9
$DIMLIM
 70
     0
  9
$DIMTIH
 70
     1
  9
$DIMTOH
 70
     1
  9
$DIMSE1
 70
     0
  9
$DIMSE2
 70
     0
  9
$DIMTAD
 70
     1
  9
$DIMZIN
 70
     0
  9
$DIMBLK
  1

  9
$DIMASO
 70
     1
  9
$DIMSHO
 70
     1
  9
$DIMPOST
  1

  9
$DIMAPOST
  1

  9
$DIMALT
 70
     0
  9
$DIMALTD
 70
     3
  9
$DIMALTF
 40
0.0393700787401575
  9
$DIMLFAC
 40
1.0
  9
$DIMTOFL
 70
     1
  9
$DIMTVP
 40
0.0
  9
$DIMTIX
 70
     0
  9
$DIMSOXD
 70
     0
  9
$DIMSAH
 70
     0
  9
$DIMBLK1
  1

  9
$DIMBLK2
  1

  9
$DIMSTYLE
  2
ISO-25
  9
$DIMCLRD
 70
     0
  9
$DIMCLRE
 70
     0
  9
$DIMCLRT
 70
     0
  9
$DIMTFAC
 40
1.0
  9
$DIMGAP
 40
1.524
  9
$DIMJUST
 70
     0
  9
$DIMSD1
 70
     0
  9
$DIMSD2
 70
     0
  9
$DIMTOLJ
 70
     0
  9
$DIMTZIN
 70
     0
  9
$DIMALTZ
 70
     0
  9
$DIMALTTZ
 70
     0
  9
$DIMUPT
 70
     0
  9
$DIMDEC
 70
     2
  9
$DIMTDEC
 70
     2
  9
$DIMALTU
 70
     2
  9
$DIMALTTD
 70
     3
  9
$DIMTXSTY
  7
Standard
  9
$DIMAUNIT
 70
     0
  9
$DIMADEC
 70
     2
  9
$DIMALTRND
 40
0.0
  9
$DIMAZIN
 70
     0
  9
$DIMDSEP
 70
    44
  9
$DIMATFIT
 70
     3
  9
$DIMFRAC
 70
     0
  9
$DIMLDRBLK
  1

  9
$DIMLUNIT
 70
     2
  9
$DIMLWD
 70
    -2
  9
$DIMLWE
 70
    -2
  9
$DIMTMOVE
 70
     0
  9
$LUNITS
 70
     2
  9
$LUPREC
 70
     2
  9
$SKETCHINC
 40
1.0
  9
$FILLETRAD
 40
10.0
  9
$AUNITS
 70
     0
  9
$AUPREC
 70
     2
  9
$MENU
  1
.
  9
$ELEVATION
 40
0.0
  9
$PELEVATION
 40
0.0
  9
$THICKNESS
 40
0.0
  9
$LIMCHECK
 70
     0
  9
$CHAMFERA
 40
0.0
  9
$CHAMFERB
 40
0.0
  9
$CHAMFERC
 40
0.0
  9
$CHAMFERD
 40
0.0
  9
$SKPOLY
 70
     0
  9
$TDCREATE
 40
2458262.543982349
  9
$TDUCREATE
 40
2458262.168982349
  9
$TDUPDATE
 40
2458266.66951184
  9
$TDUUPDATE
 40
2458266.29451184
  9
$TDINDWG
 40
0.0011923727
  9
$TDUSRTIMER
 40
2458266.293319514
  9
$USRTIMER
 70
     1
  9
$ANGBASE
 50
0.0
  9
$ANGDIR
 70
     0
  9
$PDMODE
 70
     0
  9
$PDSIZE
 40
-1.0
  9
$PLINEWID
 40
0.0
  9
$SPLFRAME
 70
     0
  9
$SPLINETYPE
 70
     6
  9
$SPLINESEGS
 70
     8
  9
$HANDSEED
  5
145
  9
$SURFTAB1
 70
     6
  9
$SURFTAB2
 70
     6
  9
$SURFTYPE
 70
     6
  9
$SURFU
 70
     6
  9
$SURFV
 70
     6
  9
$UCSBASE
  2

  9
$UCSNAME
  2

  9
$UCSORG
 10
0.0
 20
0.0
 30
0.0
  9
$UCSXDIR
 10
1.0
 20
0.0
 30
0.0
  9
$UCSYDIR
 10
0.0
 20
1.0
 30
0.0
  9
$UCSORTHOREF
  2

  9
$UCSORTHOVIEW
 70
     0
  9
$UCSORGTOP
 10
0.0
 20
0.0
 30
0.0
  9
$UCSORGBOTTOM
 10
0.0
 20
0.0
 30
0.0
  9
$UCSORGLEFT
 10
0.0
 20
0.0
 30
0.0
  9
$UCSORGRIGHT
 10
0.0
 20
0.0
 30
0.0
  9
$UCSORGFRONT
 10
0.0
 20
0.0
 30
0.0
  9
$UCSORGBACK
 10
0.0
 20
0.0
 30
0.0
  9
$PUCSBASE
  2

  9
$PUCSNAME
  2

  9
$PUCSORG
 10
0.0
 20
0.0
 30
0.0
  9
$PUCSXDIR
 10
1.0
 20
0.0
 30
0.0
  9
$PUCSYDIR
 10
0.0
 20
1.0
 30
0.0
  9
$PUCSORTHOREF
  2

  9
$PUCSORTHOVIEW
 70
     0
  9
$PUCSORGTOP
 10
0.0
 20
0.0
 30
0.0
  9
$PUCSORGBOTTOM
 10
0.0
 20
0.0
 30
0.0
  9
$PUCSORGLEFT
 10
0.0
 20
0.0
 30
0.0
  9
$PUCSORGRIGHT
 10
0.0
 20
0.0
 30
0.0
  9
$PUCSORGFRONT
 10
0.0
 20
0.0
 30
0.0
  9
$PUCSORGBACK
 10
0.0
 20
0.0
 30
0.0
  9
$USERI1
 70
     0
  9
$USERI2
 70
     0
  9
$USERI3
 70
     0
  9
$USERI4
 70
     0
  9
$USERI5
 70
     0
  9
$USERR1
 40
0.0
  9
$USERR2
 40
0.0
  9
$USERR3
 40
0.0
  9
$USERR4
 40
0.0
  9
$USERR5
 40
0.0
  9
$WORLDVIEW
 70
     1
  9
$SHADEDGE
 70
     3
  9
$SHADEDIF
 70
    70
  9
$TILEMODE
 70
     1
  9
$MAXACTVP
 70
    64
  9
$PINSBASE
 10
0.0
 20
0.0
 30
0.0
  9
$PLIMCHECK
 70
     0
  9
$PEXTMIN
 10
1.000000000000000E+20
 20
1.000000000000000E+20
 30
1.000000000000000E+20
  9
$PEXTMAX
 10
-1.000000000000000E+20
 20
-1.000000000000000E+20
 30
-1.000000000000000E+20
  9
$PLIMMIN
 10
0.0
 20
0.0
  9
$PLIMMAX
 10
0.0
 20
0.0
  9
$UNITMODE
 70
     0
  9
$VISRETAIN
 70
     1
  9
$PLINEGEN
 70
     0
  9
$PSLTSCALE
 70
     1
  9
$TREEDEPTH
 70
  3020
  9
$CMLSTYLE
  2
Standard
  9
$CMLJUST
 70
     0
  9
$CMLSCALE
 40
20.0
  9
$PROXYGRAPHICS
 70
     1
  9
$MEASUREMENT
 70
     1
  9
$CELWEIGHT
370
    -1
  9
$ENDCAPS
280
     0
  9
$JOINSTYLE
280
     0
  9
$LWDISPLAY
290
     1
  9
$INSUNITS
 70
     4
  9
$HYPERLINKBASE
  1

  9
$STYLESHEET
  1

  9
$XEDIT
290
     1
  9
$CEPSNTYPE
380
     0
  9
$PSTYLEMODE
290
     1
  9
$FINGERPRINTGUID
  2
{512D369C-7278-4291-BB3B-1FDA4D3646E9}
  9
$VERSIONGUID
  2
{FAEB1C32-E019-11D5-929B-00C0DF256EC4}
  9
$EXTNAMES
290
     1
  9
$PSVPSCALE
 40
0.0
  9
$OLESTARTUP
290
     0
  0
ENDSEC
  0
SECTION
  2
CLASSES
  0
CLASS
  1
ACDBDICTIONARYWDFLT
  2
AcDbDictionaryWithDefault
  3
ObjectDBX Classes
 90
        0
280
     0
281
     0
  0
CLASS
  1
VISUALSTYLE
  2
AcDbVisualStyle
  3
ObjectDBX Classes
 90
     4095
280
     0
281
     0
  0
CLASS
  1
MATERIAL
  2
AcDbMaterial
  3
ObjectDBX Classes
 90
     1153
280
     0
281
     0
  0
CLASS
  1
SCALE
  2
AcDbScale
  3
ObjectDBX Classes
 90
     1153
280
     0
281
     0
  0
CLASS
  1
SUN
  2
AcDbSun
  3
SCENEOE
 90
     1153
280
     0
281
     0
  0
CLASS
  1
ACDBPLACEHOLDER
  2
AcDbPlaceHolder
  3
ObjectDBX Classes
 90
        0
280
     0
281
     0
  0
CLASS
  1
LAYOUT
  2
AcDbLayout
  3
ObjectDBX Classes
 90
        0
280
     0
281
     0
  0
CLASS
  1
TABLESTYLE
  2
AcDbTableStyle
  3
ObjectDBX Classes
 90
     4095
280
     0
281
     0
  0
CLASS
  1
MLEADERSTYLE
  2
AcDbMLeaderStyle
  3
ACDB_MLEADERSTYLE_CLASS
 90
     4095
280
     0
281
     0
  0
CLASS
  1
RASTERVARIABLES
  2
AcDbRasterVariables
  3
ISM
 90
        0
280
     0
281
     0
  0
ENDSEC
  0
SECTION
  2
TABLES
  0
TABLE
  2
VPORT
  5
8
330
0
100
AcDbSymbolTable
 70
     1
  0
VPORT
  5
29
330
8
100
AcDbSymbolTableRecord
100
AcDbViewportTableRecord
  2
*Active
 70
     0
 10
0.0
 20
0.0
 11
1.0
 21
1.0
 12
-27.29000432049524
 22
-10.30866100992257
 13
0.0
 23
0.0
 14
10.0
 24
10.0
 15
10.0
 25
10.0
 16
0.0
 26
0.0
 36
1.0
 17
0.0
 27
0.0
 37
0.0
 40
155.2865051909347
 41
1.152454780361757
 42
50.0
 43
0.0
 44
0.0
 50
0.0
 51
0.0
 71
    16
 72
  2000
 73
     1
 74
     3
 75
     0
 76
     0
 77
     0
 78
     0
281
     0
 65
     1
110
0.0
120
0.0
130
0.0
111
1.0
121
0.0
131
0.0
112
0.0
122
1.0
132
0.0
 79
     0
146
0.0
  0
ENDTAB
  0
TABLE
  2
LTYPE
  5
5
330
0
100
AcDbSymbolTable
 70
     6
  0
LTYPE
  5
14
330
5
100
AcDbSymbolTableRecord
100
AcDbLinetypeTableRecord
  2
ByBlock
 70
     0
  3

 72
    65
 73
     0
 40
0.0
  0
LTYPE
  5
15
330
5
100
AcDbSymbolTableRecord
100
AcDbLinetypeTableRecord
  2
ByLayer
 70
     0
  3

 72
    65
 73
     0
 40
0.0
  0
LTYPE
  5
16
330
5
100
AcDbSymbolTableRecord
100
AcDbLinetypeTableRecord
  2
Continuous
 70
     0
  3
Solid line
 72
    65
 73
     0
 40
0.0
  0
LTYPE
  5
6A
330
5
100
AcDbSymbolTableRecord
100
AcDbLinetypeTableRecord
  2
HIDDEN
 70
     0
  3
Hidden __ __ __ __ __ __ __ __ __ __ __ __ __ __
 72
    65
 73
     2
 40
1.905
 49
1.27
 74
     0
 49
-0.635
 74
     0
  0
LTYPE
  5
6B
330
5
100
AcDbSymbolTableRecord
100
AcDbLinetypeTableRecord
  2
PHANTOM
 70
     0
  3
Phantom ______  __  __  ______  __  __  ______
 72
    65
 73
     6
 40
12.7
 49
6.35
 74
     0
 49
-1.27
 74
     0
 49
1.27
 74
     0
 49
-1.27
 74
     0
 49
1.27
 74
     0
 49
-1.27
 74
     0
  0
LTYPE
  5
6C
330
5
100
AcDbSymbolTableRecord
100
AcDbLinetypeTableRecord
  2
CENTER
 70
     0
  3
Center ____ _ ____ _ ____ _ ____ _ ____ _ ____
 72
    65
 73
     4
 40
10.16
 49
6.35
 74
     0
 49
-1.27
 74
     0
 49
1.27
 74
     0
 49
-1.27
 74
     0
  0
LTYPE
  5
6D
330
5
100
AcDbSymbolTableRecord
100
AcDbLinetypeTableRecord
  2
CENTERX2
 70
     0
  3
Center (2x) ________  __  ________  __  _____
 72
    65
 73
     4
 40
20.32
 49
12.7
 74
     0
 49
-2.54
 74
     0
 49
2.54
 74
     0
 49
-2.54
 74
     0
  0
LTYPE
  5
6E
330
5
100
AcDbSymbolTableRecord
100
AcDbLinetypeTableRecord
  2
DOT2
 70
     0
  3
Dot (.5x) ........................................
 72
    65
 73
     2
 40
0.635
 49
0.0
 74
     0
 49
-0.635
 74
     0
  0
ENDTAB
  0
TABLE
  2
LAYER
  5
2
330
0
100
AcDbSymbolTable
 70
    17
  0
LAYER
  5
10
330
2
100
AcDbSymbolTableRecord
100
AcDbLayerTableRecord
  2
0
 70
     0
 62
     7
  6
Continuous
370
    -3
390
F
  0
LAYER
  5
6F
330
2
100
AcDbSymbolTableRecord
100
AcDbLayerTableRecord
  2
FORMAT
 70
     0
 62
     2
  6
Continuous
370
    -3
390
F
  0
LAYER
  5
70
330
2
100
AcDbSymbolTableRecord
100
AcDbLayerTableRecord
  2
외형선
 70
     0
 62
   100
  6
Continuous
370
    30
390
F
  0
LAYER
  5
71
330
2
100
AcDbSymbolTableRecord
100
AcDbLayerTableRecord
  2
숨은선
 70
     0
 62
     2
  6
HIDDEN
370
    15
390
F
  0
LAYER
  5
72
330
2
100
AcDbSymbolTableRecord
100
AcDbLayerTableRecord
  2
중심선
 70
     0
 62
     1
  6
CENTERX2
370
    -3
390
F
  0
LAYER
  5
73
330
2
100
AcDbSymbolTableRecord
100
AcDbLayerTableRecord
  2
파단선
 70
     0
 62
     4
  6
Continuous
370
    -3
390
F
  0
LAYER
  5
74
330
2
100
AcDbSymbolTableRecord
100
AcDbLayerTableRecord
  2
해칭선
 70
     0
 62
     4
  6
Continuous
370
    -3
390
F
  0
LAYER
  5
75
330
2
100
AcDbSymbolTableRecord
100
AcDbLayerTableRecord
  2
가는실선
 70
     0
 62
     4
  6
Continuous
370
    -3
390
F
  0
LAYER
  5
76
330
2
100
AcDbSymbolTableRecord
100
AcDbLayerTableRecord
  2
치수_보조선
 70
     0
 62
     4
  6
Continuous
370
    -3
390
F
  0
LAYER
  5
77
330
2
100
AcDbSymbolTableRecord
100
AcDbLayerTableRecord
  2
치수문자_일반주서
 70
     0
 62
     7
  6
Continuous
370
    15
390
F
  0
LAYER
  5
78
330
2
100
AcDbSymbolTableRecord
100
AcDbLayerTableRecord
  2
개별주서
 70
     0
 62
   100
  6
Continuous
370
    30
390
F
  0
LAYER
  5
79
330
2
100
AcDbSymbolTableRecord
100
AcDbLayerTableRecord
  2
중간선
 70
     0
 62
     2
  6
Continuous
370
    15
390
F
  0
LAYER
  5
7A
330
2
100
AcDbSymbolTableRecord
100
AcDbLayerTableRecord
  2
윤곽선
 70
     0
 62
     3
  6
Continuous
370
    40
390
F
  0
LAYER
  5
7B
330
2
100
AcDbSymbolTableRecord
100
AcDbLayerTableRecord
  2
중심마크
 70
     0
 62
   100
  6
Continuous
370
    30
390
F
  0
LAYER
  5
7C
330
2
100
AcDbSymbolTableRecord
100
AcDbLayerTableRecord
  2
가상선
 70
     0
 62
     4
  6
PHANTOM
370
    -3
390
F
  0
LAYER
  5
7D
330
2
100
AcDbSymbolTableRecord
100
AcDbLayerTableRecord
  2
특수지정선
 70
     0
 62
     5
  6
CENTERX2
370
    60
390
F
  0
LAYER
  5
135
330
2
100
AcDbSymbolTableRecord
100
AcDbLayerTableRecord
  2
Defpoints
 70
     0
 62
     7
  6
Continuous
290
     0
370
    -3
390
F
  0
ENDTAB
  0
TABLE
  2
STYLE
  5
3
330
0
100
AcDbSymbolTable
 70
     2
  0
STYLE
  5
11
330
3
100
AcDbSymbolTableRecord
100
AcDbTextStyleTableRecord
  2
Standard
 70
     0
 40
0.0
 41
1.0
 50
0.0
 71
     0
 42
3.5
  3
txt
  4

  0
STYLE
  5
93
330
3
100
AcDbSymbolTableRecord
100
AcDbTextStyleTableRecord
  2
SLDTEXTSTYLE0
 70
     0
 40
0.0
 41
0.75
 50
0.0
 71
     0
 42
3.5
  3
TXT
  4

  0
ENDTAB
  0
TABLE
  2
VIEW
  5
6
330
0
100
AcDbSymbolTable
 70
     0
  0
ENDTAB
  0
TABLE
  2
UCS
  5
7
330
0
100
AcDbSymbolTable
 70
     0
  0
ENDTAB
  0
TABLE
  2
APPID
  5
9
330
0
100
AcDbSymbolTable
 70
     1
  0
APPID
  5
12
330
9
100
AcDbSymbolTableRecord
100
AcDbRegAppTableRecord
  2
ACAD
 70
     0
  0
ENDTAB
  0
TABLE
  2
DIMSTYLE
  5
A
330
0
100
AcDbSymbolTable
 70
     3
100
AcDbDimStyleTable
  0
DIMSTYLE
105
27
330
A
100
AcDbSymbolTableRecord
100
AcDbDimStyleTableRecord
  2
ISO-25
 70
     0
 41
2.5
 42
0.625
 43
3.75
 44
1.25
 73
     0
 74
     0
 77
     1
 78
     8
140
2.5
141
2.5
143
0.03937007874016
147
0.625
171
     3
172
     1
178
     0
271
     2
272
     2
274
     3
278
    44
283
     0
284
     8
340
11
  0
DIMSTYLE
105
DB
102
{ACAD_REACTORS
330
DA
330
FD
102
}
330
A
100
AcDbSymbolTableRecord
100
AcDbDimStyleTableRecord
  2
SLDDIMSTYLE0
 70
     0
 41
3.302
 44
0.0
 45
0.000000001
 73
     0
 74
     0
 77
     1
 78
    12
 79
     3
140
3.5
147
0.875
172
     1
173
     1
178
     0
271
     2
272
     2
276
     2
284
    12
289
     0
340
93
  0
DIMSTYLE
105
E9
102
{ACAD_REACTORS
330
E8
330
F3
102
}
330
A
100
AcDbSymbolTableRecord
100
AcDbDimStyleTableRecord
  2
SLDDIMSTYLE1
 70
     0
 41
3.302
 44
0.0
 45
0.000000001
 73
     0
 74
     0
 77
     1
 78
    12
 79
     3
140
3.5
147
0.875
173
     1
178
     0
271
     2
272
     2
276
     2
284
    12
340
93
  0
ENDTAB
  0
TABLE
  2
BLOCK_RECORD
  5
1
330
0
100
AcDbSymbolTable
 70
     7
  0
BLOCK_RECORD
  5
1F
330
1
100
AcDbSymbolTableRecord
100
AcDbBlockTableRecord
  2
*Model_Space
340
22
  0
BLOCK_RECORD
  5
1B
330
1
100
AcDbSymbolTableRecord
100
AcDbBlockTableRecord
  2
*Paper_Space
340
1E
  0
BLOCK_RECORD
  5
23
330
1
100
AcDbSymbolTableRecord
100
AcDbBlockTableRecord
  2
*Paper_Space0
340
26
  0
BLOCK_RECORD
  5
7E
330
1
100
AcDbSymbolTableRecord
100
AcDbBlockTableRecord
  2
블럭10
340
0
102
{BLKREFS
331
D3
102
}
  0
BLOCK_RECORD
  5
DC
330
1
100
AcDbSymbolTableRecord
100
AcDbBlockTableRecord
  2
_D
340
0
  0
BLOCK_RECORD
  5
EA
330
1
100
AcDbSymbolTableRecord
100
AcDbBlockTableRecord
  2
_D_1
340
0
  0
BLOCK_RECORD
  5
F4
330
1
100
AcDbSymbolTableRecord
100
AcDbBlockTableRecord
  2
_D_2
340
0
  0
BLOCK_RECORD
  5
FE
330
1
100
AcDbSymbolTableRecord
100
AcDbBlockTableRecord
  2
_D_3
340
0
  0
BLOCK_RECORD
  5
10A
330
1
100
AcDbSymbolTableRecord
100
AcDbBlockTableRecord
  2
SW_DOWELSYMBOL_0
340
0
102
{BLKREFS
331
110
102
}
  0
ENDTAB
  0
ENDSEC
  0
SECTION
  2
BLOCKS
  0
BLOCK
  5
20
330
1F
100
AcDbEntity
  8
0
100
AcDbBlockBegin
  2
*Model_Space
 70
     0
 10
0.0
 20
0.0
 30
0.0
  3
*Model_Space
  1

  0
ENDBLK
  5
21
330
1F
100
AcDbEntity
  8
0
100
AcDbBlockEnd
  0
BLOCK
  5
1C
330
1B
100
AcDbEntity
 67
     1
  8
0
100
AcDbBlockBegin
  2
*Paper_Space
 70
     0
 10
0.0
 20
0.0
 30
0.0
  3
*Paper_Space
  1

  0
ENDBLK
  5
1D
330
1B
100
AcDbEntity
 67
     1
  8
0
100
AcDbBlockEnd
  0
BLOCK
  5
24
330
23
100
AcDbEntity
  8
0
100
AcDbBlockBegin
  2
*Paper_Space0
 70
     0
 10
0.0
 20
0.0
 30
0.0
  3
*Paper_Space0
  1

  0
ENDBLK
  5
25
330
23
100
AcDbEntity
  8
0
100
AcDbBlockEnd
  0
BLOCK
  5
7F
330
7E
100
AcDbEntity
  8
0
100
AcDbBlockBegin
  2
블럭10
 70
     2
 10
0.0
 20
0.0
 30
0.0
  3
블럭10
  1

  0
ELLIPSE
  5
81
330
7E
100
AcDbEntity
  8
중심선
100
AcDbEllipse
 10
20.54032771741204
 20
12.0471743016438
 30
0.0
 11
6.600054785286829
 21
-1.261213355974178E-13
 31
0.0
210
0.0
220
0.0
230
1.0
 40
0.636358354079598
 41
0.9219305317359503
 42
6.513795318482858
  0
ELLIPSE
  5
82
330
7E
100
AcDbEntity
  8
중심선
100
AcDbEllipse
 10
20.54032771746488
 20
12.04717430159265
 30
0.0
 11
3.960054785062283
 21
1.540847449632565E-10
 31
0.0
210
0.0
220
0.0
230
1.0
 40
0.3939339440162632
 41
1.131841032648279
 42
5.62031148352944
  0
LINE
  5
83
330
7E
100
AcDbEntity
  8
중심선
100
AcDbLine
 10
2.268634060543552
 20
16.24717430164393
 30
0.0
 11
5.714909304380834
 21
16.24717430164393
 31
0.0
  0
LINE
  5
84
330
7E
100
AcDbEntity
  8
중심선
100
AcDbLine
 10
5.245725140726316
 20
7.84717430164391
 30
0.0
 11
8.692000384563599
 21
7.84717430164391
 31
0.0
  0
LINE
  5
85
330
7E
100
AcDbEntity
  8
중심선
100
AcDbLine
 10
15.74043728645272
 20
16.24717430164393
 30
0.0
 11
8.692000384563599
 21
7.84717430164391
 31
0.0
  0
LINE
  5
86
330
7E
100
AcDbEntity
  8
중심선
100
AcDbLine
 10
0.1404042013395286
 20
13.71084872107135
 30
0.0
 11
3.58671253028996
 21
13.71088815037384
 31
0.0
  0
LINE
  5
87
330
7E
100
AcDbEntity
  8
중심선
100
AcDbLine
 10
2.750260043222114
 20
10.84717430164391
 30
0.0
 11
6.196535287059397
 21
10.84717430164391
 31
0.0
  0
LINE
  5
88
330
7E
100
AcDbEntity
  8
중심선
100
AcDbLine
 10
12.29416204261559
 20
16.24717430164393
 30
0.0
 11
5.245725140726316
 21
7.84717430164391
 31
0.0
  0
LINE
  5
89
330
7E
100
AcDbEntity
  8
중심선
100
AcDbLine
 10
10.72767329541681
 20
16.24717430164393
 30
0.0
 11
6.196535287059397
 21
10.84717430164391
 31
0.0
  0
LINE
  5
8A
330
7E
100
AcDbEntity
  8
중심선
100
AcDbLine
 10
7.28139805157953
 20
16.24717430164393
 30
0.0
 11
2.750260043222114
 21
10.84717430164391
 31
0.0
  0
LINE
  5
8B
330
7E
100
AcDbEntity
  8
중심선
100
AcDbLine
 10
5.714909304380834
 20
16.24717430164393
 30
0.0
 11
3.58671253028996
 21
13.71088815037384
 31
0.0
  0
LINE
  5
8C
330
7E
100
AcDbEntity
  8
중심선
100
AcDbLine
 10
2.268634060543552
 20
16.24717430164393
 30
0.0
 11
0.1404042013395286
 21
13.71084872107135
 31
0.0
  0
LINE
  5
8D
330
7E
100
AcDbEntity
  8
중심선
100
AcDbLine
 10
7.28139805157953
 20
16.24717430164393
 30
0.0
 11
10.72767329541681
 21
16.24717430164393
 31
0.0
  0
LINE
  5
8E
330
7E
100
AcDbEntity
  8
중심선
100
AcDbLine
 10
12.29416204261559
 20
16.24717430164393
 30
0.0
 11
15.74043728645272
 21
16.24717430164393
 31
0.0
  0
LINE
  5
8F
330
7E
100
AcDbEntity
  8
중심선
100
AcDbLine
 10
19.22036997980202
 20
11.08717430171403
 30
0.0
 11
23.66174974927406
 21
11.08717430171406
 31
0.0
  0
LINE
  5
90
330
7E
100
AcDbEntity
  8
중심선
100
AcDbLine
 10
19.22039502424796
 20
13.00717430171391
 30
0.0
 11
19.22036997980202
 21
11.08717430171403
 31
0.0
  0
LINE
  5
91
330
7E
100
AcDbEntity
  8
중심선
100
AcDbLine
 10
19.22039502424796
 20
13.00717430171391
 30
0.0
 11
26.96566020931264
 21
13.00717430171391
 31
0.0
  0
LINE
  5
92
330
7E
100
AcDbEntity
  8
중심선
100
AcDbLine
 10
22.22332737316547
 20
13.45928029700563
 30
0.0
 11
24.52862924686651
 21
15.39360700705356
 31
0.0
  0
ATTDEF
  5
94
330
7E
100
AcDbEntity
  8
FORMAT
 62
     2
100
AcDbText
 10
-20.85824753159254
 20
2.075366912832191
 30
0.0
 40
4.233333333333333
  1
SEME7008040150E [ 2 FLUTE ]
 41
0.75
  7
SLDTEXTSTYLE0
 11
-20.85824753159254
 21
-0.0412997538344756
 31
0.0
100
AcDbAttributeDefinition
  3

  2
AUTOATTR0
 70
     0
 74
     1
  0
ENDBLK
  5
80
330
7E
100
AcDbEntity
  8
0
100
AcDbBlockEnd
  0
BLOCK
  5
DD
330
DC
100
AcDbEntity
  8
0
100
AcDbBlockBegin
  2
_D
 70
     0
 10
0.0
 20
0.0
 30
0.0
  3
_D
  1

  0
LINE
  5
DF
330
DC
100
AcDbEntity
  8
치수문자_일반주서
 62
     0
370
    -2
100
AcDbLine
 10
50.0625
 20
-3.999999999999842
 30
0.0
 11
59.8854835388006
 21
-3.999999999999805
 31
0.0
  0
LINE
  5
E0
330
DC
100
AcDbEntity
  8
치수문자_일반주서
 62
     0
370
    -2
100
AcDbLine
 10
50.0625
 20
4.000000000000147
 30
0.0
 11
59.88548353880057
 21
4.000000000000185
 31
0.0
  0
LINE
  5
E1
330
DC
100
AcDbEntity
  8
치수문자_일반주서
 62
     0
370
    -2
100
AcDbLine
 10
59.8854835388006
 20
-3.999999999999805
 30
0.0
 11
59.88548353880052
 21
16.72900000000018
 31
0.0
  0
LINE
  5
E2
330
DC
100
AcDbEntity
  8
치수문자_일반주서
 62
     0
370
    -2
100
AcDbLine
 10
59.8854835388006
 20
-3.999999999999805
 30
0.0
 11
59.88548353880057
 21
4.000000000000185
 31
0.0
  0
LINE
  5
E3
330
DC
100
AcDbEntity
  8
치수문자_일반주서
 62
     0
370
    -2
100
AcDbLine
 10
59.88548353880061
 20
-7.301999999999804
 30
0.0
 11
59.88548353880063
 21
-10.6039999999998
 31
0.0
  0
LINE
  5
E4
330
DC
100
AcDbEntity
  8
치수문자_일반주서
 62
     0
370
    -2
100
AcDbLine
 10
59.88548353880056
 20
7.302000000000184
 30
0.0
 11
59.88548353880054
 21
10.60400000000018
 31
0.0
  0
SOLID
  5
E5
330
DC
100
AcDbEntity
  8
치수문자_일반주서
 62
     0
100
AcDbTrace
 10
60.43581687213395
 20
-7.301999999999802
 30
0.0
 11
59.33515020546728
 21
-7.301999999999806
 31
0.0
 12
59.8854835388006
 22
-3.999999999999805
 32
0.0
 13
59.8854835388006
 23
-3.999999999999805
 33
0.0
  0
SOLID
  5
E6
330
DC
100
AcDbEntity
  8
치수문자_일반주서
 62
     0
100
AcDbTrace
 10
59.33515020546722
 20
7.302000000000183
 30
0.0
 11
60.43581687213389
 21
7.302000000000186
 31
0.0
 12
59.88548353880057
 22
4.000000000000185
 32
0.0
 13
59.88548353880057
 23
4.000000000000185
 33
0.0
  0
MTEXT
  5
E7
330
DC
100
AcDbEntity
  8
치수문자_일반주서
 62
     0
100
AcDbMText
 10
55.51048353880054
 20
13.66650000000017
 30
0.0
 40
3.5
 41
0.0
 71
     2
 72
     1
  1
\A1;%%c8
  7
SLDTEXTSTYLE0
 11
-3.552713678800506E-15
 21
1.0
 31
0.0
 73
     1
 44
1.0
  0
POINT
  5
13F
330
DC
100
AcDbEntity
  8
Defpoints
 62
     0
100
AcDbPoint
 10
50.0
 20
-3.999999999999842
 30
0.0
  0
POINT
  5
140
330
DC
100
AcDbEntity
  8
Defpoints
 62
     0
100
AcDbPoint
 10
50.0
 20
4.000000000000147
 30
0.0
  0
POINT
  5
141
330
DC
100
AcDbEntity
  8
Defpoints
 62
     0
100
AcDbPoint
 10
59.88548353880057
 20
4.000000000000185
 30
0.0
  0
ENDBLK
  5
DE
330
DC
100
AcDbEntity
  8
0
100
AcDbBlockEnd
  0
BLOCK
  5
EB
330
EA
100
AcDbEntity
  8
0
100
AcDbBlockBegin
  2
_D_1
 70
     0
 10
0.0
 20
0.0
 30
0.0
  3
_D_1
  1

  0
LINE
  5
ED
330
EA
100
AcDbEntity
  8
치수문자_일반주서
 62
     0
370
    -2
100
AcDbLine
 10
-100.0
 20
3.252499999999992
 30
0.0
 11
-100.0
 21
24.97841044024269
 31
0.0
  0
LINE
  5
EE
330
EA
100
AcDbEntity
  8
치수문자_일반주서
 62
     0
370
    -2
100
AcDbLine
 10
50.0
 20
4.062500000000147
 30
0.0
 11
49.99999999999999
 21
24.97841044024269
 31
0.0
  0
LINE
  5
EF
330
EA
100
AcDbEntity
  8
치수문자_일반주서
 62
     0
370
    -2
100
AcDbLine
 10
-96.69800000000001
 20
24.97841044024269
 30
0.0
 11
46.69799999999999
 21
24.97841044024269
 31
0.0
  0
SOLID
  5
F0
330
EA
100
AcDbEntity
  8
치수문자_일반주서
 62
     0
100
AcDbTrace
 10
-96.69800000000001
 20
25.52874377357602
 30
0.0
 11
-96.69800000000001
 21
24.42807710690936
 31
0.0
 12
-100.0
 22
24.97841044024269
 32
0.0
 13
-100.0
 23
24.97841044024269
 33
0.0
  0
SOLID
  5
F1
330
EA
100
AcDbEntity
  8
치수문자_일반주서
 62
     0
100
AcDbTrace
 10
46.69799999999999
 20
24.42807710690936
 30
0.0
 11
46.69799999999999
 21
25.52874377357602
 31
0.0
 12
49.99999999999999
 22
24.97841044024269
 32
0.0
 13
49.99999999999999
 23
24.97841044024269
 33
0.0
  0
MTEXT
  5
F2
330
EA
100
AcDbEntity
  8
치수문자_일반주서
 62
     0
100
AcDbMText
 10
-24.99999999999999
 20
29.35341044024269
 30
0.0
 40
3.5
 41
0.0
 71
     2
 72
     1
  1
\A1;150
  7
SLDTEXTSTYLE0
 73
     1
 44
1.0
  0
POINT
  5
136
330
EA
100
AcDbEntity
  8
Defpoints
 62
     0
100
AcDbPoint
 10
-100.0
 20
3.189999999999992
 30
0.0
  0
POINT
  5
137
330
EA
100
AcDbEntity
  8
Defpoints
 62
     0
100
AcDbPoint
 10
50.0
 20
4.000000000000147
 30
0.0
  0
POINT
  5
138
330
EA
100
AcDbEntity
  8
Defpoints
 62
     0
100
AcDbPoint
 10
50.0
 20
24.97841044024269
 30
0.0
  0
ENDBLK
  5
EC
330
EA
100
AcDbEntity
  8
0
100
AcDbBlockEnd
  0
BLOCK
  5
F5
330
F4
100
AcDbEntity
  8
0
100
AcDbBlockBegin
  2
_D_2
 70
     0
 10
0.0
 20
0.0
 30
0.0
  3
_D_2
  1

  0
LINE
  5
F7
330
F4
100
AcDbEntity
  8
치수문자_일반주서
 62
     0
370
    -2
100
AcDbLine
 10
10.0
 20
3.991392686883455
 30
0.0
 11
10.0
 21
17.27589049305128
 31
0.0
  0
LINE
  5
F8
330
F4
100
AcDbEntity
  8
치수문자_일반주서
 62
     0
370
    -2
100
AcDbLine
 10
50.0
 20
4.062500000000147
 30
0.0
 11
50.0
 21
17.27589049305128
 31
0.0
  0
LINE
  5
F9
330
F4
100
AcDbEntity
  8
치수문자_일반주서
 62
     0
370
    -2
100
AcDbLine
 10
13.302
 20
17.27589049305128
 30
0.0
 11
46.698
 21
17.27589049305128
 31
0.0
  0
SOLID
  5
FA
330
F4
100
AcDbEntity
  8
치수문자_일반주서
 62
     0
100
AcDbTrace
 10
13.302
 20
17.82622382638462
 30
0.0
 11
13.302
 21
16.72555715971795
 31
0.0
 12
10.0
 22
17.27589049305128
 32
0.0
 13
10.0
 23
17.27589049305128
 33
0.0
  0
SOLID
  5
FB
330
F4
100
AcDbEntity
  8
치수문자_일반주서
 62
     0
100
AcDbTrace
 10
46.698
 20
16.72555715971795
 30
0.0
 11
46.698
 21
17.82622382638462
 31
0.0
 12
50.0
 22
17.27589049305128
 32
0.0
 13
50.0
 23
17.27589049305128
 33
0.0
  0
MTEXT
  5
FC
330
F4
100
AcDbEntity
  8
치수문자_일반주서
 62
     0
100
AcDbMText
 10
29.99999999999974
 20
21.65089049305128
 30
0.0
 40
3.5
 41
0.0
 71
     2
 72
     1
  1
\A1;40
  7
SLDTEXTSTYLE0
 73
     1
 44
1.0
  0
POINT
  5
139
330
F4
100
AcDbEntity
  8
Defpoints
 62
     0
100
AcDbPoint
 10
10.0
 20
3.928892686883455
 30
0.0
  0
POINT
  5
13A
330
F4
100
AcDbEntity
  8
Defpoints
 62
     0
100
AcDbPoint
 10
50.0
 20
4.000000000000147
 30
0.0
  0
POINT
  5
13B
330
F4
100
AcDbEntity
  8
Defpoints
 62
     0
100
AcDbPoint
 10
50.0
 20
17.27589049305128
 30
0.0
  0
ENDBLK
  5
F6
330
F4
100
AcDbEntity
  8
0
100
AcDbBlockEnd
  0
BLOCK
  5
FF
330
FE
100
AcDbEntity
  8
0
100
AcDbBlockBegin
  2
_D_3
 70
     0
 10
0.0
 20
0.0
 30
0.0
  3
_D_3
  1

  0
LINE
  5
101
330
FE
100
AcDbEntity
  8
치수문자_일반주서
 62
     0
370
    -2
100
AcDbLine
 10
-99.25249999999997
 20
3.999999999999991
 30
0.0
 11
-110.6408255131244
 21
3.999999999999948
 31
0.0
  0
LINE
  5
102
330
FE
100
AcDbEntity
  8
치수문자_일반주서
 62
     0
370
    -2
100
AcDbLine
 10
-99.25249999999997
 20
-3.999999999999997
 30
0.0
 11
-110.6408255131244
 21
-4.000000000000037
 31
0.0
  0
LINE
  5
103
330
FE
100
AcDbEntity
  8
치수문자_일반주서
 62
     0
370
    -2
100
AcDbLine
 10
-110.6408255131244
 20
3.999999999999948
 30
0.0
 11
-110.6408255131244
 21
16.72899999999995
 31
0.0
  0
LINE
  5
104
330
FE
100
AcDbEntity
  8
치수문자_일반주서
 62
     0
370
    -2
100
AcDbLine
 10
-110.6408255131244
 20
3.999999999999948
 30
0.0
 11
-110.6408255131244
 21
-4.000000000000037
 31
0.0
  0
LINE
  5
105
330
FE
100
AcDbEntity
  8
치수문자_일반주서
 62
     0
370
    -2
100
AcDbLine
 10
-110.6408255131244
 20
7.301999999999948
 30
0.0
 11
-110.6408255131244
 21
10.60399999999995
 31
0.0
  0
LINE
  5
106
330
FE
100
AcDbEntity
  8
치수문자_일반주서
 62
     0
370
    -2
100
AcDbLine
 10
-110.6408255131244
 20
-7.302000000000037
 30
0.0
 11
-110.6408255131243
 21
-10.60400000000004
 31
0.0
  0
SOLID
  5
107
330
FE
100
AcDbEntity
  8
치수문자_일반주서
 62
     0
100
AcDbTrace
 10
-111.1911588464577
 20
7.301999999999946
 30
0.0
 11
-110.0904921797911
 21
7.30199999999995
 31
0.0
 12
-110.6408255131244
 22
3.999999999999948
 32
0.0
 13
-110.6408255131244
 23
3.999999999999948
 33
0.0
  0
SOLID
  5
108
330
FE
100
AcDbEntity
  8
치수문자_일반주서
 62
     0
100
AcDbTrace
 10
-110.090492179791
 20
-7.302000000000035
 30
0.0
 11
-111.1911588464577
 21
-7.302000000000039
 31
0.0
 12
-110.6408255131244
 22
-4.000000000000037
 32
0.0
 13
-110.6408255131244
 23
-4.000000000000037
 33
0.0
  0
MTEXT
  5
109
330
FE
100
AcDbEntity
  8
치수문자_일반주서
 62
     0
100
AcDbMText
 10
-115.0158255131244
 20
13.66649999999993
 30
0.0
 40
3.5
 41
0.0
 71
     2
 72
     1
  1
\A1;%%c8
  7
SLDTEXTSTYLE0
 11
-3.552713678800506E-15
 21
1.0
 31
0.0
 73
     1
 44
1.0
  0
POINT
  5
13C
330
FE
100
AcDbEntity
  8
Defpoints
 62
     0
100
AcDbPoint
 10
-99.18999999999997
 20
3.999999999999992
 30
0.0
  0
POINT
  5
13D
330
FE
100
AcDbEntity
  8
Defpoints
 62
     0
100
AcDbPoint
 10
-99.18999999999997
 20
-3.999999999999996
 30
0.0
  0
POINT
  5
13E
330
FE
100
AcDbEntity
  8
Defpoints
 62
     0
100
AcDbPoint
 10
-110.6408255131244
 20
-4.000000000000039
 30
0.0
  0
ENDBLK
  5
100
330
FE
100
AcDbEntity
  8
0
100
AcDbBlockEnd
  0
BLOCK
  5
10B
330
10A
100
AcDbEntity
  8
0
100
AcDbBlockBegin
  2
SW_DOWELSYMBOL_0
 70
     0
 10
0.0
 20
0.0
 30
0.0
  3
SW_DOWELSYMBOL_0
  1

  0
CIRCLE
  5
10D
330
10A
100
AcDbEntity
  8
외형선
 62
     0
100
AcDbCircle
 10
0.0
 20
0.0
 30
0.0
 40
3.000000000000004
  0
HATCH
  5
10E
330
10A
100
AcDbEntity
  8
0
  6
Continuous
 62
     0
370
    30
100
AcDbHatch
 10
0.0
 20
0.0
 30
0.0
210
0.0
220
0.0
230
1.0
  2
SOLID
 70
     1
 71
     0
 91
        1
 92
        0
 93
        3
 72
     2
 10
0.0000000000000104
 20
0.0
 40
3.000000000000004
 50
0.0
 51
90.0
 73
     1
 72
     1
 10
0.0000000000000104
 20
3.000000000000004
 11
0.0000000000000104
 21
0.0
 72
     1
 10
0.0000000000000104
 20
0.0
 11
3.000000000000015
 21
0.0
 97
        0
 75
     0
 76
     1
 98
        1
 10
0.0
 20
0.0
  0
HATCH
  5
10F
330
10A
100
AcDbEntity
  8
0
  6
Continuous
 62
     0
370
    30
100
AcDbHatch
 10
0.0
 20
0.0
 30
0.0
210
0.0
220
0.0
230
1.0
  2
SOLID
 70
     1
 71
     0
 91
        1
 92
        0
 93
        3
 72
     2
 10
0.0000000000000104
 20
0.0
 40
3.000000000000004
 50
180.0
 51
270.0000000000008
 73
     1
 72
     1
 10
0.0000000000000104
 20
-3.000000000000004
 11
0.0000000000000104
 21
0.0
 72
     1
 10
0.0000000000000104
 20
0.0
 11
-2.999999999999994
 21
0.0
 97
        0
 75
     0
 76
     1
 98
        1
 10
0.0
 20
0.0
  0
ENDBLK
  5
10C
330
10A
100
AcDbEntity
  8
0
100
AcDbBlockEnd
  0
ENDSEC
  0
SECTION
  2
ENTITIES
  0
SPLINE
  5
95
330
1F
100
AcDbEntity
  8
0
  6
Continuous
 62
     1
370
    15
100
AcDbSpline
210
0.0
220
0.0
230
1.0
 70
     8
 71
     3
 72
     9
 73
     5
 74
     0
 42
0.000000001
 43
0.00000001
 40
0.0
 40
0.0
 40
0.0
 40
0.0
 40
0.4371742797380724
 40
1.0
 40
1.0
 40
1.0
 40
1.0
 10
17.87242449410888
 20
1.024832557552652
 30
0.0
 10
17.71043798789687
 20
1.101773874982212
 30
0.0
 10
17.33990725514408
 20
1.277770773691942
 30
0.0
 10
16.96947666449272
 20
1.4711848675443
 30
0.0
 10
16.76098880050233
 20
1.580043294225562
 30
0.0
  0
LINE
  5
96
330
1F
100
AcDbEntity
  8
0
  6
Continuous
 62
     1
370
    15
100
AcDbLine
 10
38.59846334244771
 20
1.542988055935573
 30
0.0
 11
38.52635214594761
 21
1.5801649133604
 31
0.0
  0
SPLINE
  5
97
330
1F
100
AcDbEntity
  8
0
  6
Continuous
 62
     1
370
    15
100
AcDbSpline
210
0.0
220
0.0
230
1.0
 70
     8
 71
     3
 72
     9
 73
     5
 74
     0
 42
0.000000001
 43
0.00000001
 40
0.0
 40
0.0
 40
0.0
 40
0.0
 40
0.5441292132043433
 40
1.0
 40
1.0
 40
1.0
 40
1.0
 10
39.63808184866683
 20
1.024802138355668
 30
0.0
 10
39.44947011988655
 20
1.114498069607236
 30
0.0
 10
39.1028397162926
 20
1.279341141941754
 30
0.0
 10
38.75639662641166
 20
1.460433390227127
 30
0.0
 10
38.59846334244772
 20
1.542988055935573
 30
0.0
  0
LINE
  5
98
330
1F
100
AcDbEntity
  8
0
  6
Continuous
 62
     1
370
    15
100
AcDbLine
 10
30.45916288185339
 20
4.000000000000009
 30
0.0
 11
28.51888615003764
 21
4.000000000000009
 31
0.0
  0
LINE
  5
99
330
1F
100
AcDbEntity
  8
0
  6
Continuous
 62
     1
370
    15
100
AcDbLine
 10
28.51888615003764
 20
-3.999999999999999
 30
0.0
 11
30.45916288185343
 21
-3.999999999999999
 31
0.0
  0
SPLINE
  5
9A
330
1F
100
AcDbEntity
  8
0
  6
Continuous
 62
     1
370
    15
100
AcDbSpline
210
0.0
220
0.0
230
1.0
 70
     8
 71
     3
 72
    17
 73
    13
 74
     0
 42
0.000000001
 43
0.00000001
 40
0.0
 40
0.0
 40
0.0
 40
0.0
 40
0.1708666985643096
 40
0.3037489379033062
 40
0.4072124302210351
 40
0.4894630779789043
 40
0.5376302233971826
 40
0.5825861837015258
 40
0.6316723996334886
 40
0.715687983773957
 40
0.8386662291007726
 40
1.0
 40
1.0
 40
1.0
 40
1.0
 10
10.856063568836
 20
-3.292668781620192
 30
0.0
 10
11.16927127549466
 20
-3.267327661784275
 30
0.0
 10
11.72605916359734
 20
-3.222278870532869
 30
0.0
 10
12.49620789632907
 20
-3.17556123621335
 30
0.0
 10
13.10702538745345
 20
-3.148700199556612
 30
0.0
 10
13.5539001147153
 20
-3.135321901361691
 30
0.0
 10
13.88942433808005
 20
-3.128621932126485
 30
0.0
 10
14.16144719614114
 20
-3.125110390408662
 30
0.0
 10
14.5019289210973
 20
-3.123116989951339
 30
0.0
 10
14.99081554808744
 20
-3.12538129269051
 30
0.0
 10
15.69492204590363
 20
-3.138668971283512
 30
0.0
 10
16.23966633364287
 20
-3.164110904977428
 30
0.0
 10
16.54878323725946
 20
-3.178548012336775
 30
0.0
  0
SPLINE
  5
9B
330
1F
100
AcDbEntity
  8
0
  6
Continuous
 62
     1
370
    15
100
AcDbSpline
210
0.0
220
0.0
230
1.0
 70
     8
 71
     3
 72
    14
 73
    10
 74
     0
 42
0.000000001
 43
0.00000001
 40
0.0
 40
0.0
 40
0.0
 40
0.0
 40
0.2449879447016064
 40
0.416384834773127
 40
0.5297380061810039
 40
0.6498403831647811
 40
0.7890310385259418
 40
0.9312000186126677
 40
1.0
 40
1.0
 40
1.0
 40
1.0
 10
38.31437974746537
 20
3.178548234296288
 30
0.0
 10
38.0429590406201
 20
3.165633648394861
 30
0.0
 10
37.58164872467198
 20
3.143683842973704
 30
0.0
 10
36.99571480818722
 20
3.129735009135695
 30
0.0
 10
36.54792918954159
 20
3.12408177219599
 30
0.0
 10
36.13563752771108
 20
3.12319595093891
 30
0.0
 10
35.69127917627187
 20
3.127624637570626
 30
0.0
 10
35.30378799674293
 20
3.135112490766456
 30
0.0
 10
35.07042068918246
 20
3.143711699284707
 30
0.0
 10
34.9943162883057
 20
3.14651602358847
 30
0.0
  0
SPLINE
  5
9C
330
1F
100
AcDbEntity
  8
0
  6
Continuous
 62
     1
370
    15
100
AcDbSpline
210
0.0
220
0.0
230
1.0
 70
     8
 71
     3
 72
    17
 73
    13
 74
     0
 42
0.000000001
 43
0.00000001
 40
0.0
 40
0.0
 40
0.0
 40
0.0
 40
0.1415065545333914
 40
0.2428958603735575
 40
0.3172144540467938
 40
0.39839456527163
 40
0.4861414462127806
 40
0.5645941431620496
 40
0.6586602175460164
 40
0.7381149039276369
 40
0.8372821106453707
 40
1.0
 40
1.0
 40
1.0
 40
1.0
 10
32.29769393417773
 20
-3.328611085539933
 30
0.0
 10
32.58184155583742
 20
-3.301741977874065
 30
0.0
 10
33.06958066632395
 20
-3.25562118124036
 30
0.0
 10
33.70504498941395
 20
-3.209592165083098
 30
0.0
 10
34.22036060525937
 20
-3.17872832451842
 30
0.0
 10
34.70814440598541
 20
-3.155337655290785
 30
0.0
 10
35.20396201462097
 20
-3.137941762474961
 30
0.0
 10
35.72588371699994
 20
-3.126660017809606
 30
0.0
 10
36.23130757251523
 20
-3.122573386898138
 30
0.0
 10
36.77792981399904
 20
-3.125948827975625
 30
0.0
 10
37.46198672602813
 20
-3.138984850591651
 30
0.0
 10
37.98772261572287
 20
-3.163386611526077
 30
0.0
 10
38.31437974746538
 20
-3.178548234296275
 30
0.0
  0
SPLINE
  5
9D
330
1F
100
AcDbEntity
  8
0
  6
Continuous
 62
     1
370
    15
100
AcDbSpline
210
0.0
220
0.0
230
1.0
 70
     8
 71
     3
 72
    12
 73
     8
 74
     0
 42
0.000000001
 43
0.00000001
 40
0.0
 40
0.0
 40
0.0
 40
0.0
 40
0.3031743883063218
 40
0.5276595352190785
 40
0.7246164570764129
 40
0.9292790421199004
 40
1.0
 40
1.0
 40
1.0
 40
1.0
 10
16.54878323725946
 20
3.178548012336785
 30
0.0
 10
16.2167390396764
 20
3.163224026421373
 30
0.0
 10
15.63883307622197
 20
3.13655341175962
 30
0.0
 10
14.84641377202261
 20
3.123211221773694
 30
0.0
 10
14.16125914031168
 20
3.123802863703048
 30
0.0
 10
13.644163986456
 20
3.131862862953296
 30
0.0
 10
13.34291946867099
 20
3.142494213945068
 30
0.0
 10
13.26555718104948
 20
3.145224440006204
 30
0.0
  0
SPLINE
  5
9E
330
1F
100
AcDbEntity
  8
0
  6
Continuous
 62
     1
370
    15
100
AcDbSpline
210
0.0
220
0.0
230
1.0
 70
     8
 71
     3
 72
    13
 73
     9
 74
     0
 42
0.000000001
 43
0.00000001
 40
0.0
 40
0.0
 40
0.0
 40
0.0
 40
0.3035292922149652
 40
0.5141934265258405
 40
0.6447204476581189
 40
0.7708094311245016
 40
0.9026451572645979
 40
1.0
 40
1.0
 40
1.0
 40
1.0
 10
41.52653236819464
 20
-3.008511466095254
 30
0.0
 10
41.82906785878383
 20
-2.96307999615345
 30
0.0
 10
42.34157773688007
 20
-2.886116870021498
 30
0.0
 10
42.98250732857865
 20
-2.810469427357774
 30
0.0
 10
43.4469701519671
 20
-2.76225517175867
 30
0.0
 10
43.83334962237662
 20
-2.727776926288863
 30
0.0
 10
44.18686681474076
 20
-2.700239183495248
 30
0.0
 10
44.41486533733487
 20
-2.686799499023133
 30
0.0
 10
44.51171382643266
 20
-2.681090632490727
 30
0.0
  0
SPLINE
  5
9F
330
1F
100
AcDbEntity
  8
0
  6
Continuous
 62
     1
370
    15
100
AcDbSpline
210
0.0
220
0.0
230
1.0
 70
     8
 71
     3
 72
    18
 73
    14
 74
     0
 42
0.000000001
 43
0.00000001
 40
0.0
 40
0.0
 40
0.0
 40
0.0
 40
0.137268554622328
 40
0.2369879076818371
 40
0.3073571232351953
 40
0.3802406742262544
 40
0.4573695296906017
 40
0.5339651962516297
 40
0.624283000321438
 40
0.7029167641067926
 40
0.7679338134868697
 40
0.8624456765399283
 40
1.0
 40
1.0
 40
1.0
 40
1.0
 10
26.74703667924736
 20
2.735777035999916
 30
0.0
 10
26.42689178073602
 20
2.711220757025451
 30
0.0
 10
25.87417619440265
 20
2.668825459787702
 30
0.0
 10
25.15928133225816
 20
2.641899524772996
 30
0.0
 10
24.5937890887516
 20
2.631635991234122
 30
0.0
 10
24.08057295934321
 20
2.632103610335279
 30
0.0
 10
23.55272113320304
 20
2.642594351678182
 30
0.0
 10
22.98511591291881
 20
2.665223085354082
 30
0.0
 10
22.41325707642223
 20
2.699942791948382
 30
0.0
 10
21.86821399215587
 20
2.744200446514748
 30
0.0
 10
21.31413681756921
 20
2.799431569579962
 30
0.0
 10
20.62316100524973
 20
2.879482320385132
 30
0.0
 10
20.08185399651368
 20
2.960487199676874
 30
0.0
 10
19.76100105154288
 20
3.008501826604481
 30
0.0
  0
SPLINE
  5
A0
330
1F
100
AcDbEntity
  8
0
  6
Continuous
 62
     1
370
    15
100
AcDbSpline
210
0.0
220
0.0
230
1.0
 70
     8
 71
     3
 72
    13
 73
     9
 74
     0
 42
0.000000001
 43
0.00000001
 40
0.0
 40
0.0
 40
0.0
 40
0.0
 40
0.2758026837484766
 40
0.4821154833812478
 40
0.6192853910677587
 40
0.7543261921486478
 40
0.9160412533084318
 40
1.0
 40
1.0
 40
1.0
 40
1.0
 10
19.76100105154288
 20
-3.008501826604471
 30
0.0
 10
20.03517109872431
 20
-2.967129803454068
 30
0.0
 10
20.51443266002978
 20
-2.894809648086013
 30
0.0
 10
21.12870536533052
 20
-2.820494241801619
 30
0.0
 10
21.60289566638971
 20
-2.769839018360043
 30
0.0
 10
22.03345675568551
 20
-2.730467090388307
 30
0.0
 10
22.41146521961749
 20
-2.700390419058132
 30
0.0
 10
22.65522534901469
 20
-2.686707812190722
 30
0.0
 10
22.73853009825336
 20
-2.682031796728966
 30
0.0
  0
SPLINE
  5
A1
330
1F
100
AcDbEntity
  8
0
  6
Continuous
 62
     1
370
    15
100
AcDbSpline
210
0.0
220
0.0
230
1.0
 70
     8
 71
     3
 72
    18
 73
    14
 74
     0
 42
0.000000001
 43
0.00000001
 40
0.0
 40
0.0
 40
0.0
 40
0.0
 40
0.1336250290976714
 40
0.2254313802483453
 40
0.2810982598477747
 40
0.3345265412309786
 40
0.3904089210203935
 40
0.4531185211191976
 40
0.5399535828445067
 40
0.6279448575035202
 40
0.7177152383003995
 40
0.8402145390459519
 40
1.0
 40
1.0
 40
1.0
 40
1.0
 10
48.5746374527253
 20
2.741011974336337
 30
0.0
 10
48.25867218979639
 20
2.716093648833676
 30
0.0
 10
47.72562470749777
 20
2.674055323008981
 30
0.0
 10
47.06304316728341
 20
2.64674652655103
 30
0.0
 10
46.59198946338385
 20
2.63524611553627
 30
0.0
 10
46.20519643050843
 20
2.631469263431268
 30
0.0
 10
45.80177912199827
 20
2.633199372432513
 30
0.0
 10
45.31980745812233
 20
2.642607157910428
 30
0.0
 10
44.76264056586373
 20
2.6644123765956
 30
0.0
 10
44.14162648776087
 20
2.702273314135199
 30
0.0
 10
43.43730304359732
 20
2.761059109335474
 30
0.0
 10
42.5660327611123
 20
2.854643546302627
 30
0.0
 10
41.90225785462804
 20
2.95289619225365
 30
0.0
 10
41.52653236819465
 20
3.008511466095269
 30
0.0
  0
LINE
  5
A2
330
1F
100
AcDbEntity
  8
0
  6
Continuous
 62
   131
370
    15
100
AcDbLine
 10
8.691029261094636
 20
4.000000000000005
 30
0.0
 11
-99.18999999999997
 21
3.999999999999998
 31
0.0
  0
LINE
  5
A3
330
1F
100
AcDbEntity
  8
0
  6
Continuous
 62
   131
370
    15
100
AcDbLine
 10
-99.18999999999997
 20
-4.000000000000002
 30
0.0
 11
8.691029261094629
 21
-3.999999999999996
 31
0.0
  0
LINE
  5
A4
330
1F
100
AcDbEntity
  8
0
  6
Continuous
 62
   131
370
    15
100
AcDbLine
 10
-99.18999999999997
 20
3.999999999999992
 30
0.0
 11
-100.0
 21
3.189999999999992
 31
0.0
  0
LINE
  5
A5
330
1F
100
AcDbEntity
  8
0
  6
Continuous
 62
   131
370
    15
100
AcDbLine
 10
-100.0
 20
-3.189999999999996
 30
0.0
 11
-99.18999999999997
 21
-3.999999999999996
 31
0.0
  0
SPLINE
  5
A6
330
1F
100
AcDbEntity
  8
0
  6
Continuous
 62
     1
370
    15
100
AcDbSpline
210
0.0
220
0.0
230
1.0
 70
     8
 71
     3
 72
    23
 73
    19
 74
     0
 42
0.000000001
 43
0.00000001
 40
0.0
 40
0.0
 40
0.0
 40
0.0
 40
0.067809515210279
 40
0.1361806906733425
 40
0.1983163794475398
 40
0.2608825661518061
 40
0.3229473730054129
 40
0.385443766220383
 40
0.4475081227358615
 40
0.510000916733131
 40
0.5720654403682482
 40
0.6345600376934092
 40
0.6966244847529162
 40
0.7591190478314601
 40
0.8211834979670305
 40
0.8836763575359075
 40
0.9457409532613739
 40
1.0
 40
1.0
 40
1.0
 40
1.0
 10
10.0
 20
3.568705967904258
 30
0.0
 10
10.4187387743818
 20
3.44836327288226
 30
0.0
 10
11.25968469959876
 20
3.20668109487573
 30
0.0
 10
12.48391549658653
 20
2.720862893198507
 30
0.0
 10
13.67521177984863
 20
2.174243363208801
 30
0.0
 10
14.82844277866653
 20
1.584431073386434
 30
0.0
 10
15.98382258574241
 20
0.9501968952009981
 30
0.0
 10
17.13536175497261
 20
0.2899173836693275
 30
0.0
 10
18.2900385415366
 20
-0.378938803749309
 30
0.0
 10
19.44259109315677
 20
-1.034957733472287
 30
0.0
 10
20.59677496495226
 20
-1.665514268278508
 30
0.0
 10
21.74857919119432
 20
-2.2481118232265
 30
0.0
 10
22.90392507915897
 20
-2.768676888938199
 30
0.0
 10
24.05558609049224
 20
-3.212853826305614
 30
0.0
 10
25.20985057239719
 20
-3.569562599289454
 30
0.0
 10
26.36254670789894
 20
-3.823307156127342
 30
0.0
 10
27.4661260307645
 20
-3.976240945270801
 30
0.0
 10
28.18402356355139
 20
-3.988088788211931
 30
0.0
 10
28.51888615003764
 20
-3.993615202707533
 30
0.0
  0
SPLINE
  5
A7
330
1F
100
AcDbEntity
  8
0
  6
Continuous
 62
     1
370
    15
100
AcDbSpline
210
0.0
220
0.0
230
1.0
 70
     8
 71
     3
 72
    12
 73
     8
 74
     0
 42
0.000000001
 43
0.00000001
 40
0.0
 40
0.0
 40
0.0
 40
0.0
 40
0.0675697482164069
 40
0.2958242838109236
 40
0.5259634951795142
 40
0.7619456008599188
 40
1.0
 40
1.0
 40
1.0
 40
1.0
 10
44.51351176966356
 20
2.681881100241355
 30
0.0
 10
44.63703743571257
 20
2.737056645222775
 30
0.0
 10
45.1778399790961
 20
2.978618387109548
 30
0.0
 10
46.14012523281993
 20
3.319764985882475
 30
0.0
 10
47.40964851068898
 20
3.680823943091211
 30
0.0
 10
48.69736319192808
 20
3.924556992410274
 30
0.0
 10
49.56452410651693
 20
3.972528600674218
 30
0.0
 10
50.0
 20
4.000000000000147
 30
0.0
  0
SPLINE
  5
A8
330
1F
100
AcDbEntity
  8
0
  6
Continuous
 62
     1
370
    15
100
AcDbSpline
210
0.0
220
0.0
230
1.0
 70
    24
 71
     3
 72
    10
 73
     6
 74
     0
 42
0.000000001
 43
0.00000001
 40
0.0
 40
0.0
 40
0.0
 40
0.0
 40
0.5
 40
0.5
 40
1.0
 40
1.0
 40
1.0
 40
1.0
 10
50.00000000000001
 20
2.80000000000001
 30
0.0
 10
49.99999999999999
 20
2.969729027229264
 30
0.0
 10
50.00000000000001
 20
3.166969875468479
 30
0.0
 10
49.99999999999999
 20
3.580780643843432
 30
0.0
 10
50.00000000000001
 20
3.796293743205902
 30
0.0
 10
50.0
 20
4.000000000000147
 30
0.0
  0
LINE
  5
A9
330
1F
100
AcDbEntity
  8
0
  6
Continuous
 62
     1
370
    15
100
AcDbLine
 10
50.00000000000001
 20
2.800000000000011
 30
0.0
 11
48.56132528334438
 21
2.692384314534864
 31
0.0
  0
SPLINE
  5
AA
330
1F
100
AcDbEntity
  8
0
  6
Continuous
 62
     1
370
    15
100
AcDbSpline
210
0.0
220
0.0
230
1.0
 70
     8
 71
     3
 72
    11
 73
     7
 74
     0
 42
0.000000001
 43
0.00000001
 40
0.0
 40
0.0
 40
0.0
 40
0.0
 40
0.2434660662812639
 40
0.556888100757216
 40
0.7784658581823277
 40
1.0
 40
1.0
 40
1.0
 40
1.0
 10
18.28404016856781
 20
-0.373549932395515
 30
0.0
 10
17.61171545050065
 20
-0.1016775812000269
 30
0.0
 10
16.07388456895178
 20
0.5201851679633273
 30
0.0
 10
13.92317997793253
 20
1.351464333818158
 30
0.0
 10
11.83491000349898
 20
2.032109249833732
 30
0.0
 10
10.61159653082299
 20
2.306709320890792
 30
0.0
 10
10.0
 20
2.443995841944849
 30
0.0
  0
SPLINE
  5
AB
330
1F
100
AcDbEntity
  8
0
  6
Continuous
 62
   131
370
    15
100
AcDbSpline
210
0.0
220
0.0
230
1.0
 70
    24
 71
     3
 72
    10
 73
     6
 74
     0
 42
0.000000001
 43
0.00000001
 40
0.0
 40
0.0
 40
0.0
 40
0.0
 40
0.5
 40
0.5
 40
1.0
 40
1.0
 40
1.0
 40
1.0
 10
10.0
 20
3.568705967904254
 30
0.0
 10
10.0
 20
3.418863464960593
 30
0.0
 10
10.0
 20
3.236684626676434
 30
0.0
 10
10.0
 20
2.846659744924174
 30
0.0
 10
10.0
 20
2.639963307800263
 30
0.0
 10
10.0
 20
2.443995841944847
 30
0.0
  0
SPLINE
  5
AC
330
1F
100
AcDbEntity
  8
0
  6
Continuous
 62
     1
370
    15
100
AcDbSpline
210
0.0
220
0.0
230
1.0
 70
     8
 71
     3
 72
    31
 73
    27
 74
     0
 42
0.000000001
 43
0.00000001
 40
0.0
 40
0.0
 40
0.0
 40
0.0
 40
0.0059254832430291
 40
0.0483800526654641
 40
0.0905424325133596
 40
0.1329958446868142
 40
0.175158323438615
 40
0.2176135809045753
 40
0.2597758613720442
 40
0.302229590941808
 40
0.3443920066626066
 40
0.3868459904815642
 40
0.4290085812886608
 40
0.4714642281545831
 40
0.5136265554735554
 40
0.5560798941728649
 40
0.5982423275789283
 40
0.6406970320657481
 40
0.6830050145947001
 40
0.7253132523514344
 40
0.7688270157650299
 40
0.8123403101613696
 40
0.8582785186997484
 40
0.9045960346131638
 40
0.9520894837743664
 40
1.0
 40
1.0
 40
1.0
 40
1.0
 10
22.73951757111818
 20
2.682475143373117
 30
0.0
 10
22.79337934319931
 20
2.706842172228381
 30
0.0
 10
23.23314691371876
 20
2.905792720389224
 30
0.0
 10
24.05556575488225
 20
3.208743731868462
 30
0.0
 10
25.20985894167912
 20
3.570221566015344
 30
0.0
 10
26.3625336078427
 20
3.824813557374707
 30
0.0
 10
27.51700221036658
 20
3.976642481506822
 30
0.0
 10
28.66855788181336
 20
4.017538782315968
 30
0.0
 10
29.82373580368377
 20
3.947530448289794
 30
0.0
 10
30.97579803745757
 20
3.768763049305129
 30
0.0
 10
32.129947128345
 20
3.484741653816471
 30
0.0
 10
33.28217727562907
 20
3.105607003991175
 30
0.0
 10
34.43721725283392
 20
2.640072775079285
 30
0.0
 10
35.58875885353998
 20
2.101491999775952
 30
0.0
 10
36.74334466192757
 20
1.5040145507278
 30
0.0
 10
37.89597751033968
 20
0.8675665998012827
 30
0.0
 10
39.05011528849525
 20
0.2037768958474624
 30
0.0
 10
40.20345538654725
 20
-0.4641211545091474
 30
0.0
 10
41.35779623742422
 20
-1.120275635989
 30
0.0
 10
42.52251061766506
 20
-1.749632295628015
 30
0.0
 10
43.69856565129486
 20
-2.334409546501533
 30
0.0
 10
44.90590980164409
 20
-2.868714664689075
 30
0.0
 10
46.14012264481194
 20
-3.323493357340535
 30
0.0
 10
47.40964922267001
 20
-3.679798239245882
 30
0.0
 10
48.69736301023524
 20
-3.924818745183282
 30
0.0
 10
49.5645240457764
 20
-3.972616105512081
 30
0.0
 10
49.99999999999983
 20
-3.999999999999845
 30
0.0
  0
SPLINE
  5
AD
330
1F
100
AcDbEntity
  8
0
  6
Continuous
 62
     1
370
    15
100
AcDbSpline
210
0.0
220
0.0
230
1.0
 70
     8
 71
     3
 72
    13
 73
     9
 74
     0
 42
0.000000001
 43
0.00000001
 40
0.0
 40
0.0
 40
0.0
 40
0.0
 40
0.0307473298034145
 40
0.2262421414836025
 40
0.4214298909315787
 40
0.6169112898268988
 40
0.8121325256861742
 40
1.0
 40
1.0
 40
1.0
 40
1.0
 10
40.0298655046286
 20
-0.361960676119144
 30
0.0
 10
39.89372384165359
 20
-0.3092505804105872
 30
0.0
 10
38.89197892352477
 20
0.0785959417802666
 30
0.0
 10
37.02531569829707
 20
0.8558921351282851
 30
0.0
 10
34.43031656554208
 20
1.795165866818842
 30
0.0
 10
31.83534685875736
 20
2.482570676350172
 30
0.0
 10
29.27377876094387
 20
2.850326615295242
 30
0.0
 10
27.57726825377163
 20
2.768499525085617
 30
0.0
 10
26.74529608736322
 20
2.728371355395663
 30
0.0
  0
SPLINE
  5
AE
330
1F
100
AcDbEntity
  8
0
  6
Continuous
 62
     1
370
    15
100
AcDbSpline
210
0.0
220
0.0
230
1.0
 70
     8
 71
     3
 72
    20
 73
    16
 74
     0
 42
0.000000001
 43
0.00000001
 40
0.0
 40
0.0
 40
0.0
 40
0.0
 40
0.0641177131576221
 40
0.147104685774723
 40
0.2301716761735661
 40
0.3132671883139984
 40
0.3963234209692585
 40
0.4793075368748456
 40
0.5623630837844896
 40
0.6454585425497478
 40
0.7163740277036277
 40
0.7872868865069206
 40
0.8581961466600969
 40
0.9291008393155242
 40
0.9999999999999999
 40
0.9999999999999999
 40
0.9999999999999999
 40
0.9999999999999999
 10
34.9943162883057
 20
-3.146516023588458
 30
0.0
 10
34.46006133497598
 20
-3.32838906273928
 30
0.0
 10
33.23432505770179
 20
-3.745658721271935
 30
0.0
 10
31.31700268297046
 20
-4.023485497687424
 30
0.0
 10
29.24084047218683
 20
-3.999297100561796
 30
0.0
 10
27.16403976425956
 20
-3.609748583432252
 30
0.0
 10
25.08807717062122
 20
-2.901136639370318
 30
0.0
 10
23.0130940843044
 20
-1.932587091216938
 30
0.0
 10
20.93721027431248
 20
-0.7927552563849646
 30
0.0
 10
18.96142025262565
 20
0.3589327847506501
 30
0.0
 10
17.08795277575596
 20
1.420208355447833
 30
0.0
 10
15.31574178606497
 20
2.332906722467392
 30
0.0
 10
13.54370880175027
 20
3.088894323531606
 30
0.0
 10
11.77179187206895
 20
3.662260511590019
 30
0.0
 10
10.59058193045813
 20
3.840017606638653
 30
0.0
 10
9.999999999996582
 20
3.928892686883826
 30
0.0
  0
SPLINE
  5
AF
330
1F
100
AcDbEntity
  8
0
  6
Continuous
 62
     1
370
    15
100
AcDbSpline
210
0.0
220
0.0
230
1.0
 70
     8
 71
     3
 72
    16
 73
    12
 74
     0
 42
0.000000001
 43
0.00000001
 40
0.0
 40
0.0
 40
0.0
 40
0.0
 40
0.0921371663929022
 40
0.2117667121513439
 40
0.3313972488693454
 40
0.4510284500741614
 40
0.5706599890837889
 40
0.6902915391098251
 40
0.8099227733603976
 40
0.9295533651430969
 40
1.0
 40
1.0
 40
1.0
 40
1.0
 10
32.303720111895
 20
-3.309602788797414
 30
0.0
 10
31.85954620482367
 20
-3.349709486464091
 30
0.0
 10
30.83866341011297
 20
-3.441890132262359
 30
0.0
 10
29.24106343229844
 20
-3.336139500713065
 30
0.0
 10
27.51091846881074
 20
-3.039298854521712
 30
0.0
 10
25.78076236076426
 20
-2.547280677149632
 30
0.0
 10
24.05060067842924
 20
-1.899219520958623
 30
0.0
 10
22.32043877580695
 20
-1.132128679699319
 30
0.0
 10
20.59028223084306
 20
-0.2977245224116741
 30
0.0
 10
19.09723761851303
 20
0.4472678690747468
 30
0.0
 10
18.1809135830765
 20
0.8734040983856394
 30
0.0
 10
17.8413045416557
 20
1.031339185488322
 30
0.0
  0
SPLINE
  5
B0
330
1F
100
AcDbEntity
  8
0
  6
Continuous
 62
     1
370
    15
100
AcDbSpline
210
0.0
220
0.0
230
1.0
 70
     8
 71
     3
 72
    17
 73
    13
 74
     0
 42
0.000000001
 43
0.00000001
 40
0.0
 40
0.0
 40
0.0
 40
0.0
 40
0.106186277774272
 40
0.2124663477486285
 40
0.3187537180426573
 40
0.4249617770296227
 40
0.5311289316562984
 40
0.6373992503864175
 40
0.7436914666770114
 40
0.8499188893775109
 40
0.9560746528590593
 40
1.0
 40
1.0
 40
1.0
 40
1.0
 10
50.00000000000001
 20
-3.795763476927592
 30
0.0
 10
49.30843327877406
 20
-3.636696953402594
 30
0.0
 10
47.92468898936863
 20
-3.318423406096693
 30
0.0
 10
45.84817124607249
 20
-2.455011029424584
 30
0.0
 10
43.77150938761852
 20
-1.397157127346527
 30
0.0
 10
41.69596952481737
 20
-0.2081743904544088
 30
0.0
 10
39.62085302443592
 20
0.9984857439522096
 30
0.0
 10
37.54451024877745
 20
2.114285720742651
 30
0.0
 10
35.46776017184972
 20
3.047532859441639
 30
0.0
 10
33.39198123822261
 20
3.687844360996024
 30
0.0
 10
31.72295333342802
 20
4.0031642802494
 30
0.0
 10
30.74529992563424
 20
3.967094011746522
 30
0.0
 10
30.45916288185339
 20
3.956537059849751
 30
0.0
  0
SPLINE
  5
B1
330
1F
100
AcDbEntity
  8
0
  6
Continuous
 62
     1
370
    15
100
AcDbSpline
210
0.0
220
0.0
230
1.0
 70
     8
 71
     3
 72
     9
 73
     5
 74
     0
 42
0.000000001
 43
0.00000001
 40
0.0
 40
0.0
 40
0.0
 40
0.0
 40
0.4576080244842412
 40
1.0
 40
1.0
 40
1.0
 40
1.0
 10
13.26657717405755
 20
-3.144906296753533
 30
0.0
 10
12.76830054358057
 20
-3.315436221944191
 30
0.0
 10
11.67942840013732
 20
-3.688091236861942
 30
0.0
 10
10.59058170824555
 20
-3.84421332115984
 30
0.0
 10
9.999999999996582
 20
-3.928892686883817
 30
0.0
  0
SPLINE
  5
B2
330
1F
100
AcDbEntity
  8
0
  6
Continuous
 62
   131
370
    15
100
AcDbSpline
210
0.0
220
0.0
230
1.0
 70
    24
 71
     3
 72
     8
 73
     4
 74
     0
 42
0.000000001
 43
0.00000001
 40
0.0
 40
0.0
 40
0.0
 40
0.0
 40
1.0
 40
1.0
 40
1.0
 40
1.0
 10
10.00000000000009
 20
-3.371955260093234
 30
0.0
 10
10.00000000000009
 20
-3.564978870988183
 30
0.0
 10
10.00000000000009
 20
-3.751850568906542
 30
0.0
 10
10.00000000000009
 20
-3.928892686876998
 30
0.0
  0
SPLINE
  5
B3
330
1F
100
AcDbEntity
  8
0
  6
Continuous
 62
     1
370
    15
100
AcDbSpline
210
0.0
220
0.0
230
1.0
 70
     8
 71
     3
 72
    13
 73
     9
 74
     0
 42
0.000000001
 43
0.00000001
 40
0.0
 40
0.0
 40
0.0
 40
0.0
 40
0.166786152103178
 40
0.3335786344297236
 40
0.5003770042448547
 40
0.6671808169780321
 40
0.8339896263590312
 40
1.0
 40
1.0
 40
1.0
 40
1.0
 10
50.00000000000001
 20
-3.155889057472856
 30
0.0
 10
49.42346941300483
 20
-3.031569305308393
 30
0.0
 10
48.27038635729741
 20
-2.78292508253138
 30
0.0
 10
46.54071795240372
 20
-2.185007490148343
 30
0.0
 10
44.81098022546043
 20
-1.465289654529387
 30
0.0
 10
43.08117736446171
 20
-0.6521558141114786
 30
0.0
 10
41.35409125669587
 20
0.2036761989728552
 30
0.0
 10
40.20360321875105
 20
0.7540617235915015
 30
0.0
 10
39.62973921453565
 20
1.028594296380406
 30
0.0
  0
LINE
  5
B4
330
1F
100
AcDbEntity
  8
0
  6
Continuous
 62
     1
370
    15
100
AcDbLine
 10
10.86146592530919
 20
-3.263192401023061
 30
0.0
 11
10.00000000000011
 21
-3.371955260093232
 31
0.0
  0
LINE
  5
B5
330
1F
100
AcDbEntity
  8
0
  6
Continuous
 62
     1
370
    15
100
AcDbLine
 10
50.00000000000001
 20
-3.795763476927595
 30
0.0
 11
50.00000000000001
 21
-3.155889057472856
 31
0.0
  0
LINE
  5
B6
330
1F
100
AcDbEntity
  8
0
  6
Continuous
 62
     1
370
    15
100
AcDbLine
 10
49.99999999999983
 20
-3.999999999999845
 30
0.0
 11
49.99999999999999
 21
-3.795763476927599
 31
0.0
  0
LINE
  5
B7
330
1F
100
AcDbEntity
  8
0
  6
Continuous
 62
   131
370
    15
100
AcDbLine
 10
10.0
 20
3.568705967904254
 30
0.0
 11
10.0
 21
3.928892686866902
 31
0.0
  0
SPLINE
  5
B8
330
1F
100
AcDbEntity
  8
0
  6
Continuous
 62
     1
370
    15
100
AcDbSpline
210
0.0
220
0.0
230
1.0
 70
     8
 71
     3
 72
     8
 73
     4
 74
     0
 42
0.000000001
 43
0.00000001
 40
0.0
 40
0.0
 40
0.0
 40
0.0
 40
1.0
 40
1.0
 40
1.0
 40
1.0
 10
47.52471855126646
 20
1.119153604316241
 30
0.0
 10
47.34554341134241
 20
1.331446846975075
 30
0.0
 10
47.19000160100912
 20
1.534373798641812
 30
0.0
 10
47.0672227005149
 20
1.723135374418817
 30
0.0
  0
LINE
  5
B9
330
1F
100
AcDbEntity
  8
0
  6
Continuous
 62
     1
370
    15
100
AcDbLine
 10
47.0672227005149
 20
1.723135374418818
 30
0.0
 11
50.00000000000001
 21
0.0000000000000098
 31
0.0
  0
LINE
  5
BA
330
1F
100
AcDbEntity
  8
0
  6
Continuous
 62
     1
370
    15
100
AcDbLine
 10
50.00000000000001
 20
0.0000000000000098
 30
0.0
 11
50.00000000000001
 21
-1.06897178411857
 31
0.0
  0
SPLINE
  5
BB
330
1F
100
AcDbEntity
  8
0
  6
Continuous
 62
     1
370
    15
100
AcDbSpline
210
0.0
220
0.0
230
1.0
 70
     8
 71
     3
 72
    10
 73
     6
 74
     0
 42
0.000000001
 43
0.00000001
 40
0.0
 40
0.0
 40
0.0
 40
0.0
 40
0.5
 40
0.5
 40
1.0
 40
1.0
 40
1.0
 40
1.0
 10
50.00000000000001
 20
-1.068971784118574
 30
0.0
 10
49.57151703976395
 20
-0.732111080404268
 30
0.0
 10
49.15019312186347
 20
-0.3814365541690239
 30
0.0
 10
48.32222625633987
 20
0.3482403539476162
 30
0.0
 10
47.91171971059742
 20
0.7310712194881251
 30
0.0
 10
47.52471855126642
 20
1.11915360431626
 30
0.0
  0
SPLINE
  5
BC
330
1F
100
AcDbEntity
  8
0
  6
Continuous
 62
   131
370
    15
100
AcDbSpline
210
0.0
220
0.0
230
1.0
 70
    24
 71
     3
 72
    14
 73
    10
 74
     0
 42
0.000000001
 43
0.00000001
 40
0.0
 40
0.0
 40
0.0
 40
0.0
 40
0.2499999999999998
 40
0.2499999999999998
 40
0.4999999999999999
 40
0.4999999999999999
 40
0.75
 40
0.75
 40
1.0
 40
1.0
 40
1.0
 40
1.0
 10
10.0
 20
-1.561531147928562
 30
0.0
 10
10.0
 20
-1.811593060231264
 30
0.0
 10
10.0
 20
-2.048382537833037
 30
0.0
 10
10.0
 20
-2.474983287110937
 30
0.0
 10
10.0
 20
-2.664628883054983
 30
0.0
 10
10.0
 20
-2.981045352210849
 30
0.0
 10
10.0
 20
-3.107724853951547
 30
0.0
 10
10.0
 20
-3.291327379458017
 30
0.0
 10
10.0
 20
-3.348276074446207
 30
0.0
 10
10.0
 20
-3.371955260093237
 30
0.0
  0
SPLINE
  5
BD
330
1F
100
AcDbEntity
  8
0
  6
Continuous
 62
     1
370
    15
100
AcDbSpline
210
0.0
220
0.0
230
1.0
 70
     8
 71
     3
 72
    13
 73
     9
 74
     0
 42
0.000000001
 43
0.00000001
 40
0.0
 40
0.0
 40
0.0
 40
0.0
 40
0.1472526076081412
 40
0.294611824998363
 40
0.4823692528842612
 40
0.6701323831812345
 40
0.8579007048571462
 40
1.0
 40
1.0
 40
1.0
 40
1.0
 10
47.52471855126642
 20
1.119153604316259
 30
0.0
 10
47.0726259597475
 20
1.310758425411396
 30
0.0
 10
46.16811346506852
 20
1.694106788053243
 30
0.0
 10
44.6870072259666
 20
2.237860136500221
 30
0.0
 10
43.0811711245136
 20
2.719960242795749
 30
0.0
 10
41.35133490560214
 20
3.062755423688183
 30
0.0
 10
39.76168069151637
 20
3.225670810961155
 30
0.0
 10
38.74865085400918
 20
3.179840119553131
 30
0.0
 10
38.31226116757463
 20
3.160097323919549
 30
0.0
  0
SPLINE
  5
BE
330
1F
100
AcDbEntity
  8
0
  6
Continuous
 62
     1
370
    15
100
AcDbSpline
210
0.0
220
0.0
230
1.0
 70
     8
 71
     3
 72
    13
 73
     9
 74
     0
 42
0.000000001
 43
0.00000001
 40
0.0
 40
0.0
 40
0.0
 40
0.0
 40
0.0933129808699703
 40
0.2703646615608625
 40
0.4474143993460797
 40
0.6244617054128175
 40
0.8122488526540277
 40
1.0
 40
1.0
 40
1.0
 40
1.0
 10
19.77203144247351
 20
-2.983272681587149
 30
0.0
 10
19.4680831548266
 20
-3.03535757835439
 30
0.0
 10
18.58742458883168
 20
-3.186268152163305
 30
0.0
 10
17.13006694433675
 20
-3.225857042933487
 30
0.0
 10
15.39995064470152
 20
-3.107942704121156
 30
0.0
 10
13.63492154581653
 20
-2.779563414449819
 30
0.0
 10
11.83483355248801
 20
-2.269641987743653
 30
0.0
 10
10.61157209601914
 20
-1.797553009384257
 30
0.0
 10
10.0
 20
-1.561531147928561
 30
0.0
  0
SPLINE
  5
BF
330
1F
100
AcDbEntity
  8
0
  6
Continuous
 62
     1
370
    15
100
AcDbSpline
210
0.0
220
0.0
230
1.0
 70
    24
 71
     3
 72
    10
 73
     6
 74
     0
 42
0.000000001
 43
0.00000001
 40
0.0
 40
0.0
 40
0.0
 40
0.0
 40
0.5
 40
0.5
 40
1.0
 40
1.0
 40
1.0
 40
1.0
 10
50.00000000000001
 20
-3.155889057472854
 30
0.0
 10
49.99999999999999
 20
-2.91396555601521
 30
0.0
 10
50.00000000000001
 20
-2.608285935625867
 30
0.0
 10
49.99999999999999
 20
-1.897610236602713
 30
0.0
 10
50.00000000000001
 20
-1.493229772205234
 30
0.0
 10
50.00000000000001
 20
-1.068971784118702
 30
0.0
  0
SPLINE
  5
C0
330
1F
100
AcDbEntity
  8
0
  6
Continuous
 62
     1
370
    15
100
AcDbSpline
210
0.0
220
0.0
230
1.0
 70
     8
 71
     3
 72
    23
 73
    19
 74
     0
 42
0.000000001
 43
0.00000001
 40
0.0
 40
0.0
 40
0.0
 40
0.0
 40
0.0071909203403579
 40
0.076428544711011
 40
0.1456678943099821
 40
0.2149087795560001
 40
0.2841510103845394
 40
0.3533943963072497
 40
0.4226387464716708
 40
0.4918838697211912
 40
0.5611295746552138
 40
0.6303756696894841
 40
0.6996219631165411
 40
0.7688682631662546
 40
0.8381143780664023
 40
0.907360116103249
 40
0.9766052856820854
 40
1.0
 40
1.0
 40
1.0
 40
1.0
 10
41.53101081889949
 20
-2.999373028423565
 30
0.0
 10
41.47112222592028
 20
-3.011575994791405
 30
0.0
 10
40.83459758240522
 20
-3.141274964673895
 30
0.0
 10
39.6214164089663
 20
-3.213161474322598
 30
0.0
 10
37.89145483349257
 20
-3.186032190258203
 30
0.0
 10
36.16144912712229
 20
-2.942617542095119
 30
0.0
 10
34.43140552728213
 20
-2.521679711467882
 30
0.0
 10
32.70132919309635
 20
-1.942983802669856
 30
0.0
 10
30.9712255864495
 20
-1.24412132909995
 30
0.0
 10
29.24110009985386
 20
-0.4679923928029799
 30
0.0
 10
27.51095815344891
 20
0.3371614740394238
 30
0.0
 10
25.78080516868019
 20
1.121340097127222
 30
0.0
 10
24.05064656608833
 20
1.836220677108535
 30
0.0
 10
22.32048778995914
 20
2.436229503226651
 30
0.0
 10
20.59033420140418
 20
2.888740255646921
 30
0.0
 10
18.86019147084895
 20
3.148540864154905
 30
0.0
 10
17.51192412593416
 20
3.238123601357407
 30
0.0
 10
16.7403727241893
 20
3.172824504443199
 30
0.0
 10
16.54552981348871
 20
3.156334266618328
 30
0.0
  0
SPLINE
  5
C1
330
1F
100
AcDbEntity
  8
0
  6
Continuous
 62
   131
370
    15
100
AcDbSpline
210
0.0
220
0.0
230
1.0
 70
    24
 71
     3
 72
    14
 73
    10
 74
     0
 42
0.000000001
 43
0.00000001
 40
0.0
 40
0.0
 40
0.0
 40
0.0
 40
0.2499999999999998
 40
0.2499999999999998
 40
0.4999999999999999
 40
0.4999999999999999
 40
0.75
 40
0.75
 40
1.0
 40
1.0
 40
1.0
 40
1.0
 10
9.999999999999993
 20
2.443995841944851
 30
0.0
 10
9.999999999999993
 20
2.209204842067674
 30
0.0
 10
9.999999999999993
 20
1.934344590698277
 30
0.0
 10
9.999999999999993
 20
1.320142506302562
 30
0.0
 10
9.999999999999993
 20
0.9809738727146479
 30
0.0
 10
9.999999999999993
 20
0.2690762428245462
 30
0.0
 10
9.999999999999993
 20
-0.1032734246572617
 30
0.0
 10
9.999999999999993
 20
-0.843905969195173
 30
0.0
 10
9.999999999999993
 20
-1.211838068409733
 30
0.0
 10
9.999999999999993
 20
-1.561531147928557
 30
0.0
  0
SPLINE
  5
C2
330
1F
100
AcDbEntity
  8
0
  6
Continuous
 62
     1
370
    15
100
AcDbSpline
210
0.0
220
0.0
230
1.0
 70
     8
 71
     3
 72
    10
 73
     6
 74
     0
 42
0.000000001
 43
0.00000001
 40
0.0
 40
0.0
 40
0.0
 40
0.0
 40
0.5
 40
0.5
 40
1.0
 40
1.0
 40
1.0
 40
1.0
 10
50.00000000000001
 20
2.800000000000011
 30
0.0
 10
49.50223746009664
 20
2.664946022532468
 30
0.0
 10
49.00821511501303
 20
2.5101206499319
 30
0.0
 10
48.02867820086083
 20
2.155496150848269
 30
0.0
 10
47.54303221981856
 20
1.956264825614537
 30
0.0
 10
47.06722270051286
 20
1.723135374420448
 30
0.0
  0
LINE
  5
C3
330
1F
100
AcDbEntity
  8
0
  6
Continuous
 62
     1
370
    15
100
AcDbLine
 10
50.00000000000001
 20
0.0000000000000098
 30
0.0
 11
50.00000000000001
 21
2.80000000000001
 31
0.0
  0
SPLINE
  5
C4
330
1F
100
AcDbEntity
  8
0
  6
Continuous
 62
   131
370
    15
100
AcDbSpline
210
0.0
220
0.0
230
1.0
 70
     8
 71
     3
 72
    10
 73
     6
 74
     0
 42
0.000000001
 43
0.00000001
 40
0.0
 40
0.0
 40
0.0
 40
0.0
 40
0.5
 40
0.5
 40
1.0
 40
1.0
 40
1.0
 40
1.0
 10
10.0
 20
-3.928892686883446
 30
0.0
 10
9.74743767797754
 20
-3.956320500612483
 30
0.0
 10
9.495788645182076
 20
-3.975866526082454
 30
0.0
 10
8.987815378112767
 20
-3.999038159301205
 30
0.0
 10
8.733041257474685
 20
-4.002601083974149
 30
0.0
 10
8.479774692646828
 20
-3.99813171716822
 30
0.0
  0
LINE
  5
C5
330
1F
100
AcDbEntity
  8
0
  6
Continuous
 62
   131
370
    15
100
AcDbLine
 10
10.0
 20
3.928892686883455
 30
0.0
 11
8.691029261094636
 21
3.988510076618105
 31
0.0
  0
SPLINE
  5
C6
330
1F
100
AcDbEntity
  8
0
  6
Continuous
 62
   131
370
    15
100
AcDbSpline
210
0.0
220
0.0
230
1.0
 70
     8
 71
     3
 72
    10
 73
     6
 74
     0
 42
0.000000001
 43
0.00000001
 40
0.0
 40
0.0
 40
0.0
 40
0.0
 40
0.4999999999999999
 40
0.4999999999999999
 40
1.0
 40
1.0
 40
1.0
 40
1.0
 10
8.479889931341138
 20
3.876371306446867
 30
0.0
 10
8.733137746053739
 20
3.840295132938651
 30
0.0
 10
8.987892541792935
 20
3.796352543853341
 30
0.0
 10
9.495827047703004
 20
3.693483034290152
 30
0.0
 10
9.74745683100314
 20
3.634698135348738
 30
0.0
 10
10.0
 20
3.568705967904251
 30
0.0
  0
LINE
  5
C7
330
1F
100
AcDbEntity
  8
0
  6
Continuous
 62
   131
370
    15
100
AcDbLine
 10
8.479889931341141
 20
-3.998126474606841
 30
0.0
 11
8.479889931341138
 21
3.876370281777448
 31
0.0
  0
LINE
  5
C8
330
1F
100
AcDbEntity
  8
0
  6
Continuous
 62
   131
370
    15
100
AcDbLine
 10
-99.18999999999997
 20
3.999999999999992
 30
0.0
 11
-99.18999999999997
 21
-4.000000000000002
 31
0.0
  0
LINE
  5
C9
330
1F
100
AcDbEntity
  8
0
  6
Continuous
 62
   131
370
    15
100
AcDbLine
 10
-100.0
 20
3.189999999999992
 30
0.0
 11
-100.0
 21
-3.189999999999996
 31
0.0
  0
SPLINE
  5
CA
330
1F
100
AcDbEntity
  8
0
  6
Continuous
 62
   131
370
    15
100
AcDbSpline
210
0.0
220
0.0
230
1.0
 70
    24
 71
     3
 72
    14
 73
    10
 74
     0
 42
0.000000001
 43
0.00000001
 40
0.0
 40
0.0
 40
0.0
 40
0.0
 40
0.25
 40
0.25
 40
0.5
 40
0.5
 40
0.75
 40
0.75
 40
1.0
 40
1.0
 40
1.0
 40
1.0
 10
10.0
 20
-1.56153114792856
 30
0.0
 10
10.0
 20
-1.811593060231262
 30
0.0
 10
10.0
 20
-2.048382537833036
 30
0.0
 10
10.0
 20
-2.474983287110936
 30
0.0
 10
10.0
 20
-2.664628883054982
 30
0.0
 10
10.0
 20
-2.981045352210848
 30
0.0
 10
10.0
 20
-3.107724853951545
 30
0.0
 10
10.0
 20
-3.291327379458017
 30
0.0
 10
10.0
 20
-3.348276074446205
 30
0.0
 10
10.0
 20
-3.371955260093237
 30
0.0
  0
SPLINE
  5
CB
330
1F
100
AcDbEntity
  8
0
  6
Continuous
 62
   131
370
    15
100
AcDbSpline
210
0.0
220
0.0
230
1.0
 70
     8
 71
     3
 72
    10
 73
     6
 74
     0
 42
0.000000001
 43
0.00000001
 40
0.0
 40
0.0
 40
0.0
 40
0.0
 40
0.5
 40
0.5
 40
1.0
 40
1.0
 40
1.0
 40
1.0
 10
10.0000000000001
 20
-3.371955260093233
 30
0.0
 10
9.747437677977624
 20
-3.387874067758664
 30
0.0
 10
9.495788645182143
 20
-3.397037477963504
 30
0.0
 10
8.9878153781128
 20
-3.401745507170939
 30
0.0
 10
8.733041257474703
 20
-3.397252115020622
 30
0.0
 10
8.479774692646828
 20
-3.385971097969316
 30
0.0
  0
SPLINE
  5
CC
330
1F
100
AcDbEntity
  8
0
  6
Continuous
 62
   131
370
    15
100
AcDbSpline
210
0.0
220
0.0
230
1.0
 70
     8
 71
     3
 72
    10
 73
     6
 74
     0
 42
0.000000001
 43
0.00000001
 40
0.0
 40
0.0
 40
0.0
 40
0.0
 40
0.5
 40
0.5
 40
1.0
 40
1.0
 40
1.0
 40
1.0
 10
10.0
 20
-1.561531147928563
 30
0.0
 10
9.747449835997267
 20
-1.459507866019122
 30
0.0
 10
9.495813022463013
 20
-1.354487335795339
 30
0.0
 10
8.987864360326215
 20
-1.13878361166221
 30
0.0
 10
8.733102506804013
 20
-1.028309412715484
 30
0.0
 10
8.479847844215021
 20
-0.9162143899237328
 30
0.0
  0
SPLINE
  5
CD
330
1F
100
AcDbEntity
  8
0
  6
Continuous
 62
   131
370
    15
100
AcDbSpline
210
0.0
220
0.0
230
1.0
 70
    24
 71
     3
 72
    14
 73
    10
 74
     0
 42
0.000000001
 43
0.00000001
 40
0.0
 40
0.0
 40
0.0
 40
0.0
 40
0.25
 40
0.25
 40
0.5
 40
0.5
 40
0.75
 40
0.75
 40
1.0
 40
1.0
 40
1.0
 40
1.0
 10
9.99999999999999
 20
2.443995841944851
 30
0.0
 10
9.99999999999999
 20
2.209204842067675
 30
0.0
 10
9.99999999999999
 20
1.934344590698277
 30
0.0
 10
9.99999999999999
 20
1.320142506302564
 30
0.0
 10
9.99999999999999
 20
0.9809738727146491
 30
0.0
 10
9.99999999999999
 20
0.269076242824548
 30
0.0
 10
9.99999999999999
 20
-0.10327342465726
 30
0.0
 10
9.99999999999999
 20
-0.8439059691951711
 30
0.0
 10
9.99999999999999
 20
-1.211838068409731
 30
0.0
 10
9.99999999999999
 20
-1.561531147928555
 30
0.0
  0
SPLINE
  5
CE
330
1F
100
AcDbEntity
  8
0
  6
Continuous
 62
   131
370
    15
100
AcDbSpline
210
0.0
220
0.0
230
1.0
 70
     8
 71
     3
 72
    10
 73
     6
 74
     0
 42
0.000000001
 43
0.00000001
 40
0.0
 40
0.0
 40
0.0
 40
0.0
 40
0.5
 40
0.5
 40
1.0
 40
1.0
 40
1.0
 40
1.0
 10
10.0
 20
2.443995841944848
 30
0.0
 10
9.747452215783698
 20
2.493902845161892
 30
0.0
 10
9.495817794021482
 20
2.53886820303533
 30
0.0
 10
8.987873948005658
 20
2.61870345972706
 30
0.0
 10
8.733114495626637
 20
2.653466333271395
 30
0.0
 10
8.479862162766226
 20
2.682776195416719
 30
0.0
  0
SPLINE
  5
CF
330
1F
100
AcDbEntity
  8
0
  6
Continuous
 62
   131
370
    15
100
AcDbSpline
210
0.0
220
0.0
230
1.0
 70
    24
 71
     3
 72
    10
 73
     6
 74
     0
 42
0.000000001
 43
0.00000001
 40
0.0
 40
0.0
 40
0.0
 40
0.0
 40
0.5
 40
0.5
 40
1.0
 40
1.0
 40
1.0
 40
1.0
 10
10.0
 20
3.568705967904254
 30
0.0
 10
10.0
 20
3.418863464960593
 30
0.0
 10
10.0
 20
3.236684626676434
 30
0.0
 10
10.0
 20
2.846659744924174
 30
0.0
 10
10.0
 20
2.639963307800262
 30
0.0
 10
10.0
 20
2.443995841944847
 30
0.0
  0
SPLINE
  5
D0
330
1F
100
AcDbEntity
  8
0
  6
Continuous
 62
   131
370
    15
100
AcDbSpline
210
0.0
220
0.0
230
1.0
 70
    24
 71
     3
 72
     8
 73
     4
 74
     0
 42
0.000000001
 43
0.00000001
 40
0.0
 40
0.0
 40
0.0
 40
0.0
 40
1.0
 40
1.0
 40
1.0
 40
1.0
 10
10.00000000000009
 20
-3.371955260093234
 30
0.0
 10
10.00000000000009
 20
-3.564978870988183
 30
0.0
 10
10.00000000000009
 20
-3.751850568906542
 30
0.0
 10
10.00000000000009
 20
-3.928892686876998
 30
0.0
  0
LINE
  5
D1
330
1F
100
AcDbEntity
  8
중심선
100
AcDbLine
 10
-103.0
 20
0.0
 30
0.0
 11
53.00000000000001
 21
0.00000000000001
 31
0.0
  0
CIRCLE
  5
D2
330
1F
100
AcDbEntity
  8
외형선
100
AcDbCircle
 10
0.0000000000000104
 20
0.0
 30
0.0
 40
3.000000000000005
  0
INSERT
  5
D3
330
1F
100
AcDbEntity
  8
0
  6
Continuous
 62
     7
100
AcDbBlockReference
 66
     1
  2
블럭10
 10
-22.93944368806589
 20
-52.04609937292004
 30
0.0
  0
ATTRIB
  5
D4
330
D3
100
AcDbEntity
  8
FORMAT
 62
     2
100
AcDbText
 10
-43.79769121965843
 20
-49.97073246008785
 30
0.0
 40
4.233333333333333
  1
SEME7008040150E [ 2 FLUTE ]
 41
0.75
  7
SLDTEXTSTYLE0
 11
-43.79769121965843
 21
-52.08739912675452
 31
0.0
100
AcDbAttribute
  2
AUTOATTR0
 70
     0
 74
     1
  0
SEQEND
  5
D5
330
D3
100
AcDbEntity
  8
0
  6
Continuous
 62
     7
  0
HATCH
  5
D6
330
1F
100
AcDbEntity
  8
중심선
100
AcDbHatch
 10
0.0
 20
0.0
 30
0.0
210
0.0
220
0.0
230
1.0
  2
SOLID
 70
     1
 71
     0
 91
        1
 92
        0
 93
        4
 72
     1
 10
-17.22453438368504
 20
-35.7989250712761
 11
-20.67080962752232
 21
-35.7989250712761
 72
     1
 10
-20.67080962752232
 20
-35.7989250712761
 11
-22.79903948672635
 21
-38.3352506518487
 72
     1
 10
-22.79903948672635
 20
-38.3352506518487
 11
-19.35273115777591
 21
-38.33521122254621
 72
     1
 10
-19.35273115777591
 20
-38.33521122254621
 11
-17.22453438368504
 21
-35.7989250712761
 97
        0
 75
     0
 76
     1
 98
        1
 10
0.0
 20
0.0
  0
HATCH
  5
D7
330
1F
100
AcDbEntity
  8
중심선
100
AcDbHatch
 10
0.0
 20
0.0
 30
0.0
210
0.0
220
0.0
230
1.0
  2
SOLID
 70
     1
 71
     0
 91
        1
 92
        0
 93
        4
 72
     1
 10
-12.21177039264909
 20
-35.7989250712761
 11
-15.65804563648637
 21
-35.7989250712761
 72
     1
 10
-15.65804563648637
 20
-35.7989250712761
 11
-20.18918364484376
 21
-41.19892507127612
 72
     1
 10
-20.18918364484376
 20
-41.19892507127612
 11
-16.74290840100648
 21
-41.19892507127612
 72
     1
 10
-16.74290840100648
 20
-41.19892507127612
 11
-12.21177039264909
 21
-35.7989250712761
 97
        0
 75
     0
 76
     1
 98
        1
 10
0.0
 20
0.0
  0
HATCH
  5
D8
330
1F
100
AcDbEntity
  8
중심선
100
AcDbHatch
 10
0.0
 20
0.0
 30
0.0
210
0.0
220
0.0
230
1.0
  2
SOLID
 70
     1
 71
     0
 91
        1
 92
        0
 93
        4
 72
     1
 10
-7.199006401613195
 20
-35.79892507127613
 11
-10.64528164545031
 21
-35.7989250712761
 72
     1
 10
-10.64528164545031
 20
-35.7989250712761
 11
-17.69371854733956
 21
-44.19892507127612
 72
     1
 10
-17.69371854733956
 20
-44.19892507127612
 11
-14.24744330350228
 21
-44.19892507127612
 72
     1
 10
-14.24744330350228
 20
-44.19892507127612
 11
-7.199006401613195
 21
-35.79892507127613
 97
        0
 75
     0
 76
     1
 98
        1
 10
0.0
 20
0.0
  0
HATCH
  5
D9
330
1F
100
AcDbEntity
  8
중심선
100
AcDbHatch
 10
0.0
 20
0.0
 30
0.0
210
0.0
220
0.0
230
1.0
  2
SOLID
 70
     1
 71
     0
 91
        1
 92
        0
 93
        6
 72
     3
 10
-2.399115970600996
 20
-39.99892507132738
 11
3.960054785062284
 21
1.540850780301639E-10
 40
0.3939339440162633
 50
17.09539180608433
 51
320.0019657685079
 73
     0
 72
     1
 10
-0.7161163149004002
 20
-38.58681907591441
 11
1.589185558800638
 21
-36.65249236586649
 72
     3
 10
-2.399115970653842
 20
-39.99892507127625
 11
6.600054785286829
 21
-1.249000902703301E-13
 40
0.6363583540795982
 50
39.99873849337408
 51
368.4976242363725
 73
     1
 72
     1
 10
4.026216521246767
 20
-39.03892507120613
 11
-3.71904866381792
 21
-39.0389250712061
 72
     1
 10
-3.71904866381792
 20
-39.0389250712061
 11
-3.719073708263854
 21
-40.95892507120602
 72
     1
 10
-3.719073708263854
 20
-40.95892507120602
 11
0.7223060612081831
 21
-40.95892507120599
 97
        0
 75
     0
 76
     1
 98
        1
 10
0.0
 20
0.0
  0
DIMENSION
  5
DA
330
1F
100
AcDbEntity
  8
치수문자_일반주서
100
AcDbDimension
  2
_D
 10
59.88548353880057
 20
4.000000000000185
 30
0.0
 11
59.88548353880054
 21
13.66650000000018
 31
0.0
 70
   160
  1
%%c<>
 71
     2
 42
7.999999999999989
 52
-270.0
  3
SLDDIMSTYLE0
100
AcDbAlignedDimension
 13
50.0
 23
-3.999999999999842
 33
0.0
 14
50.0
 24
4.000000000000147
 34
0.0
 50
90.0000000000002
100
AcDbRotatedDimension
  0
DIMENSION
  5
E8
330
1F
100
AcDbEntity
  8
치수문자_일반주서
100
AcDbDimension
  2
_D_1
 10
49.99999999999999
 20
24.97841044024269
 30
0.0
 11
-24.99999999999999
 21
24.97841044024269
 31
0.0
 70
   160
  1
<>
 71
     2
 42
150.0
  3
SLDDIMSTYLE1
100
AcDbAlignedDimension
 13
-100.0
 23
3.189999999999992
 33
0.0
 14
50.0
 24
4.000000000000147
 34
0.0
 50
-0.0000000000000027
100
AcDbRotatedDimension
  0
DIMENSION
  5
F3
330
1F
100
AcDbEntity
  8
치수문자_일반주서
100
AcDbDimension
  2
_D_2
 10
50.0
 20
17.27589049305128
 30
0.0
 11
29.99999999999974
 21
17.27589049305128
 31
0.0
 70
   160
  1
<>
 71
     2
 42
40.0
  3
SLDDIMSTYLE1
100
AcDbAlignedDimension
 13
10.0
 23
3.928892686883455
 33
0.0
 14
50.0
 24
4.000000000000147
 34
0.0
 50
0.0000000000008651
100
AcDbRotatedDimension
  0
DIMENSION
  5
FD
330
1F
100
AcDbEntity
  8
치수문자_일반주서
100
AcDbDimension
  2
_D_3
 10
-110.6408255131244
 20
-4.000000000000037
 30
0.0
 11
-110.6408255131244
 21
13.66649999999995
 31
0.0
 70
   160
  1
%%c<>
 71
     2
 42
7.999999999999988
 52
-270.0
  3
SLDDIMSTYLE0
100
AcDbAlignedDimension
 13
-99.18999999999997
 23
3.999999999999992
 33
0.0
 14
-99.18999999999997
 24
-3.999999999999996
 34
0.0
 50
90.0000000000002
100
AcDbRotatedDimension
  0
INSERT
  5
110
330
1F
100
AcDbEntity
  8
외형선
100
AcDbBlockReference
  2
SW_DOWELSYMBOL_0
 10
0.0000000000000104
 20
0.0
 30
0.0
  0
ENDSEC
  0
SECTION
  2
OBJECTS
  0
DICTIONARY
  5
C
330
0
100
AcDbDictionary
281
     1
  3
ACAD_GROUP
350
D
  3
ACAD_IMAGE_VARS
350
134
  3
ACAD_LAYOUT
350
1A
  3
ACAD_MLINESTYLE
350
17
  3
ACAD_PLOTSETTINGS
350
19
  3
ACAD_PLOTSTYLENAME
350
E
  3
ACAD_SCALELIST
350
47
  3
APPDATA
350
132
  3
DWGPROPS
350
144
  0
DICTIONARY
  5
D
102
{ACAD_REACTORS
330
C
102
}
330
C
100
AcDbDictionary
281
     1
  0
RASTERVARIABLES
  5
134
102
{ACAD_REACTORS
330
C
102
}
330
C
100
AcDbRasterVariables
 90
        0
 70
     1
 71
     1
 72
     1
  0
DICTIONARY
  5
1A
102
{ACAD_REACTORS
330
C
102
}
330
C
100
AcDbDictionary
281
     1
  3
Layout1
350
1E
  3
Layout2
350
26
  3
Model
350
22
  0
DICTIONARY
  5
17
102
{ACAD_REACTORS
330
C
102
}
330
C
100
AcDbDictionary
281
     1
  3
Standard
350
18
  0
DICTIONARY
  5
19
102
{ACAD_REACTORS
330
C
102
}
330
C
100
AcDbDictionary
281
     1
  0
ACDBDICTIONARYWDFLT
  5
E
102
{ACAD_REACTORS
330
C
102
}
330
C
100
AcDbDictionary
281
     1
  3
Normal
350
F
100
AcDbDictionaryWithDefault
340
F
  0
DICTIONARY
  5
47
102
{ACAD_REACTORS
330
C
102
}
330
C
100
AcDbDictionary
281
     1
  3
A0
350
48
  3
A1
350
49
  3
A2
350
4A
  3
A3
350
4B
  3
A4
350
4C
  3
A5
350
4D
  3
A6
350
4E
  3
A7
350
4F
  3
A8
350
50
  3
A9
350
51
  3
B0
350
52
  3
B1
350
53
  3
B2
350
54
  3
B3
350
55
  3
B4
350
56
  3
B5
350
57
  3
B6
350
58
  3
B7
350
59
  3
B8
350
5A
  3
B9
350
5B
  3
C0
350
5C
  3
C1
350
5D
  3
C2
350
5E
  3
C3
350
5F
  3
C4
350
60
  3
C5
350
61
  3
C6
350
62
  3
C7
350
63
  3
C8
350
64
  3
C9
350
65
  3
D0
350
66
  3
D1
350
67
  3
D2
350
68
  0
DICTIONARY
  5
132
102
{ACAD_REACTORS
330
C
102
}
330
C
100
AcDbDictionary
281
     1
  0
XRECORD
  5
144
102
{ACAD_REACTORS
330
C
102
}
330
C
100
AcDbXrecord
280
     1
  1
DWGPROPS COOKIE
  2

  3

  4

  6

  7

  8
12014102
  9

300
=
301
=
302
=
303
=
304
=
305
=
306
=
307
=
308
=
309
=
 40
0.0
 41
2458262.168982349
 42
2458266.29451184
  1

 90
        0
  0
LAYOUT
  5
1E
102
{ACAD_REACTORS
330
1A
102
}
330
1A
100
AcDbPlotSettings
  1

  2
none_device
  4

  6

 40
0.0
 41
0.0
 42
0.0
 43
0.0
 44
0.0
 45
0.0
 46
0.0
 47
0.0
 48
0.0
 49
0.0
140
0.0
141
0.0
142
1.0
143
1.0
 70
   688
 72
     1
 73
     0
 74
     5
  7

 75
    16
147
1.0
148
0.0
149
0.0
100
AcDbLayout
  1
Layout1
 70
     1
 71
     1
 10
0.0
 20
0.0
 11
420.0
 21
297.0
 12
0.0
 22
0.0
 32
0.0
 14
1.000000000000000E+20
 24
1.000000000000000E+20
 34
1.000000000000000E+20
 15
-1.000000000000000E+20
 25
-1.000000000000000E+20
 35
-1.000000000000000E+20
146
0.0
 13
0.0
 23
0.0
 33
0.0
 16
1.0
 26
0.0
 36
0.0
 17
0.0
 27
1.0
 37
0.0
 76
     0
330
1B
  0
LAYOUT
  5
26
102
{ACAD_REACTORS
330
1A
102
}
330
1A
100
AcDbPlotSettings
  1

  2
none_device
  4

  6

 40
0.0
 41
0.0
 42
0.0
 43
0.0
 44
0.0
 45
0.0
 46
0.0
 47
0.0
 48
0.0
 49
0.0
140
0.0
141
0.0
142
1.0
143
1.0
 70
   688
 72
     1
 73
     0
 74
     5
  7

 75
    16
147
1.0
148
0.0
149
0.0
100
AcDbLayout
  1
Layout2
 70
     1
 71
     2
 10
0.0
 20
0.0
 11
0.0
 21
0.0
 12
0.0
 22
0.0
 32
0.0
 14
0.0
 24
0.0
 34
0.0
 15
0.0
 25
0.0
 35
0.0
146
0.0
 13
0.0
 23
0.0
 33
0.0
 16
1.0
 26
0.0
 36
0.0
 17
0.0
 27
1.0
 37
0.0
 76
     0
330
23
  0
LAYOUT
  5
22
102
{ACAD_REACTORS
330
1A
102
}
330
1A
100
AcDbPlotSettings
  1

  2
none_device
  4
ANSI_A_(11.00_x_8.50_Inches)
  6

 40
6.35
 41
19.05
 42
6.35000508
 43
19.05000254
 44
279.4
 45
215.9
 46
180.147243288934
 47
106.5555834064293
 48
0.0
 49
0.0
140
0.0
141
0.0
142
0.0655031024811894
143
1.0
 70
  1696
 72
     0
 73
     0
 74
     0
  7

 75
     0
147
0.0235690232323232
148
0.0
149
0.0
100
AcDbLayout
  1
Model
 70
     1
 71
     0
 10
0.0
 20
0.0
 11
420.0
 21
297.0
 12
0.0
 22
0.0
 32
0.0
 14
-115.0158255131244
 24
-49.97073246008785
 34
0.0
 15
60.43581687213394
 25
29.35341044024269
 35
0.0
146
0.0
 13
0.0
 23
0.0
 33
0.0
 16
1.0
 26
0.0
 36
0.0
 17
0.0
 27
1.0
 37
0.0
 76
     0
330
1F
331
29
  0
MLINESTYLE
  5
18
102
{ACAD_REACTORS
330
17
102
}
330
17
100
AcDbMlineStyle
  2
Standard
 70
     0
  3

 62
   256
 51
90.0
 52
90.0
 71
     2
 49
0.5
 62
   256
  6
BYLAYER
 49
-0.5
 62
   256
  6
BYLAYER
  0
ACDBPLACEHOLDER
  5
F
102
{ACAD_REACTORS
330
E
102
}
330
E
  0
SCALE
  5
48
102
{ACAD_REACTORS
330
47
102
}
330
47
100
AcDbScale
 70
     0
300
1:1
140
1.0
141
1.0
290
     1
  0
SCALE
  5
49
102
{ACAD_REACTORS
330
47
102
}
330
47
100
AcDbScale
 70
     0
300
1:2
140
1.0
141
2.0
290
     0
  0
SCALE
  5
4A
102
{ACAD_REACTORS
330
47
102
}
330
47
100
AcDbScale
 70
     0
300
1:4
140
1.0
141
4.0
290
     0
  0
SCALE
  5
4B
102
{ACAD_REACTORS
330
47
102
}
330
47
100
AcDbScale
 70
     0
300
1:5
140
1.0
141
5.0
290
     0
  0
SCALE
  5
4C
102
{ACAD_REACTORS
330
47
102
}
330
47
100
AcDbScale
 70
     0
300
1:8
140
1.0
141
8.0
290
     0
  0
SCALE
  5
4D
102
{ACAD_REACTORS
330
47
102
}
330
47
100
AcDbScale
 70
     0
300
1:10
140
1.0
141
10.0
290
     0
  0
SCALE
  5
4E
102
{ACAD_REACTORS
330
47
102
}
330
47
100
AcDbScale
 70
     0
300
1:16
140
1.0
141
16.0
290
     0
  0
SCALE
  5
4F
102
{ACAD_REACTORS
330
47
102
}
330
47
100
AcDbScale
 70
     0
300
1:20
140
1.0
141
20.0
290
     0
  0
SCALE
  5
50
102
{ACAD_REACTORS
330
47
102
}
330
47
100
AcDbScale
 70
     0
300
1:30
140
1.0
141
30.0
290
     0
  0
SCALE
  5
51
102
{ACAD_REACTORS
330
47
102
}
330
47
100
AcDbScale
 70
     0
300
1:40
140
1.0
141
40.0
290
     0
  0
SCALE
  5
52
102
{ACAD_REACTORS
330
47
102
}
330
47
100
AcDbScale
 70
     0
300
1:50
140
1.0
141
50.0
290
     0
  0
SCALE
  5
53
102
{ACAD_REACTORS
330
47
102
}
330
47
100
AcDbScale
 70
     0
300
1:100
140
1.0
141
100.0
290
     0
  0
SCALE
  5
54
102
{ACAD_REACTORS
330
47
102
}
330
47
100
AcDbScale
 70
     0
300
2:1
140
2.0
141
1.0
290
     0
  0
SCALE
  5
55
102
{ACAD_REACTORS
330
47
102
}
330
47
100
AcDbScale
 70
     0
300
4:1
140
4.0
141
1.0
290
     0
  0
SCALE
  5
56
102
{ACAD_REACTORS
330
47
102
}
330
47
100
AcDbScale
 70
     0
300
8:1
140
8.0
141
1.0
290
     0
  0
SCALE
  5
57
102
{ACAD_REACTORS
330
47
102
}
330
47
100
AcDbScale
 70
     0
300
10:1
140
10.0
141
1.0
290
     0
  0
SCALE
  5
58
102
{ACAD_REACTORS
330
47
102
}
330
47
100
AcDbScale
 70
     0
300
100:1
140
100.0
141
1.0
290
     0
  0
SCALE
  5
59
102
{ACAD_REACTORS
330
47
102
}
330
47
100
AcDbScale
 70
     0
300
1/128" = 1'-0"
140
0.0078125
141
12.0
290
     0
  0
SCALE
  5
5A
102
{ACAD_REACTORS
330
47
102
}
330
47
100
AcDbScale
 70
     0
300
1/64" = 1'-0"
140
0.015625
141
12.0
290
     0
  0
SCALE
  5
5B
102
{ACAD_REACTORS
330
47
102
}
330
47
100
AcDbScale
 70
     0
300
1/32" = 1'-0"
140
0.03125
141
12.0
290
     0
  0
SCALE
  5
5C
102
{ACAD_REACTORS
330
47
102
}
330
47
100
AcDbScale
 70
     0
300
1/16" = 1'-0"
140
0.0625
141
12.0
290
     0
  0
SCALE
  5
5D
102
{ACAD_REACTORS
330
47
102
}
330
47
100
AcDbScale
 70
     0
300
3/32" = 1'-0"
140
0.09375
141
12.0
290
     0
  0
SCALE
  5
5E
102
{ACAD_REACTORS
330
47
102
}
330
47
100
AcDbScale
 70
     0
300
1/8" = 1'-0"
140
0.125
141
12.0
290
     0
  0
SCALE
  5
5F
102
{ACAD_REACTORS
330
47
102
}
330
47
100
AcDbScale
 70
     0
300
3/16" = 1'-0"
140
0.1875
141
12.0
290
     0
  0
SCALE
  5
60
102
{ACAD_REACTORS
330
47
102
}
330
47
100
AcDbScale
 70
     0
300
1/4" = 1'-0"
140
0.25
141
12.0
290
     0
  0
SCALE
  5
61
102
{ACAD_REACTORS
330
47
102
}
330
47
100
AcDbScale
 70
     0
300
3/8" = 1'-0"
140
0.375
141
12.0
290
     0
  0
SCALE
  5
62
102
{ACAD_REACTORS
330
47
102
}
330
47
100
AcDbScale
 70
     0
300
1/2" = 1'-0"
140
0.5
141
12.0
290
     0
  0
SCALE
  5
63
102
{ACAD_REACTORS
330
47
102
}
330
47
100
AcDbScale
 70
     0
300
3/4" = 1'-0"
140
0.75
141
12.0
290
     0
  0
SCALE
  5
64
102
{ACAD_REACTORS
330
47
102
}
330
47
100
AcDbScale
 70
     0
300
1" = 1'-0"
140
1.0
141
12.0
290
     0
  0
SCALE
  5
65
102
{ACAD_REACTORS
330
47
102
}
330
47
100
AcDbScale
 70
     0
300
1-1/2" = 1'-0"
140
1.5
141
12.0
290
     0
  0
SCALE
  5
66
102
{ACAD_REACTORS
330
47
102
}
330
47
100
AcDbScale
 70
     0
300
3" = 1'-0"
140
3.0
141
12.0
290
     0
  0
SCALE
  5
67
102
{ACAD_REACTORS
330
47
102
}
330
47
100
AcDbScale
 70
     0
300
6" = 1'-0"
140
6.0
141
12.0
290
     0
  0
SCALE
  5
68
102
{ACAD_REACTORS
330
47
102
}
330
47
100
AcDbScale
 70
     0
300
1'-0" = 1'-0"
140
12.0
141
12.0
290
     0
  0
ENDSEC
  0
EOF
