  0
SECTION
  2
HEADER
  9
$ACADVER
  1
AC1015
  9
$ACADMAINTVER
 70
     6
  9
$DWGCODEPAGE
  3
ANSI_949
  9
$INSBASE
 10
0.0
 20
0.0
 30
0.0
  9
$EXTMIN
 10
-54.96659760126893
 20
-49.97073246008785
 30
0.0
  9
$EXTMAX
 10
63.29312476420071
 20
29.3534104402427
 30
0.0
  9
$LIMMIN
 10
0.0
 20
0.0
  9
$LIMMAX
 10
420.0
 20
297.0
  9
$ORTHOMODE
 70
     0
  9
$REGENMODE
 70
     1
  9
$FILLMODE
 70
     1
  9
$QTEXTMODE
 70
     0
  9
$MIRRTEXT
 70
     1
  9
$LTSCALE
 40
1.0
  9
$ATTMODE
 70
     1
  9
$TEXTSIZE
 40
3.5
  9
$TRACEWID
 40
1.0
  9
$TEXTSTYLE
  7
Standard
  9
$CLAYER
  8
0
  9
$CELTYPE
  6
ByLayer
  9
$CECOLOR
 62
   256
  9
$CELTSCALE
 40
1.0
  9
$DISPSILH
 70
     0
  9
$DIMSCALE
 40
1.0
  9
$DIMASZ
 40
3.302
  9
$DIMEXO
 40
1.0
  9
$DIMDLI
 40
3.75
  9
$DIMRND
 40
0.0
  9
$DIMDLE
 40
0.0
  9
$DIMEXE
 40
1.0
  9
$DIMTP
 40
0.0
  9
$DIMTM
 40
0.0
  9
$DIMTXT
 40
3.5
  9
$DIMCEN
 40
2.5
  9
$DIMTSZ
 40
0.0
  9
$DIMTOL
 70
     0
  9
$DIMLIM
 70
     0
  9
$DIMTIH
 70
     1
  9
$DIMTOH
 70
     1
  9
$DIMSE1
 70
     0
  9
$DIMSE2
 70
     0
  9
$DIMTAD
 70
     1
  9
$DIMZIN
 70
     0
  9
$DIMBLK
  1

  9
$DIMASO
 70
     1
  9
$DIMSHO
 70
     1
  9
$DIMPOST
  1

  9
$DIMAPOST
  1

  9
$DIMALT
 70
     0
  9
$DIMALTD
 70
     3
  9
$DIMALTF
 40
0.0393700787401575
  9
$DIMLFAC
 40
1.0
  9
$DIMTOFL
 70
     1
  9
$DIMTVP
 40
0.0
  9
$DIMTIX
 70
     0
  9
$DIMSOXD
 70
     0
  9
$DIMSAH
 70
     0
  9
$DIMBLK1
  1

  9
$DIMBLK2
  1

  9
$DIMSTYLE
  2
ISO-25
  9
$DIMCLRD
 70
     0
  9
$DIMCLRE
 70
     0
  9
$DIMCLRT
 70
     0
  9
$DIMTFAC
 40
1.0
  9
$DIMGAP
 40
1.524
  9
$DIMJUST
 70
     0
  9
$DIMSD1
 70
     0
  9
$DIMSD2
 70
     0
  9
$DIMTOLJ
 70
     0
  9
$DIMTZIN
 70
     0
  9
$DIMALTZ
 70
     0
  9
$DIMALTTZ
 70
     0
  9
$DIMUPT
 70
     0
  9
$DIMDEC
 70
     2
  9
$DIMTDEC
 70
     2
  9
$DIMALTU
 70
     2
  9
$DIMALTTD
 70
     3
  9
$DIMTXSTY
  7
Standard
  9
$DIMAUNIT
 70
     0
  9
$DIMADEC
 70
     2
  9
$DIMALTRND
 40
0.0
  9
$DIMAZIN
 70
     0
  9
$DIMDSEP
 70
    44
  9
$DIMATFIT
 70
     3
  9
$DIMFRAC
 70
     0
  9
$DIMLDRBLK
  1

  9
$DIMLUNIT
 70
     2
  9
$DIMLWD
 70
    -2
  9
$DIMLWE
 70
    -2
  9
$DIMTMOVE
 70
     0
  9
$LUNITS
 70
     2
  9
$LUPREC
 70
     2
  9
$SKETCHINC
 40
1.0
  9
$FILLETRAD
 40
10.0
  9
$AUNITS
 70
     0
  9
$AUPREC
 70
     2
  9
$MENU
  1
.
  9
$ELEVATION
 40
0.0
  9
$PELEVATION
 40
0.0
  9
$THICKNESS
 40
0.0
  9
$LIMCHECK
 70
     0
  9
$CHAMFERA
 40
0.0
  9
$CHAMFERB
 40
0.0
  9
$CHAMFERC
 40
0.0
  9
$CHAMFERD
 40
0.0
  9
$SKPOLY
 70
     0
  9
$TDCREATE
 40
2458262.544170799
  9
$TDUCREATE
 40
2458262.169170799
  9
$TDUPDATE
 40
2458266.415418079
  9
$TDUUPDATE
 40
2458266.040418079
  9
$TDINDWG
 40
0.0013686111
  9
$TDUSRTIMER
 40
2458266.039049491
  9
$USRTIMER
 70
     1
  9
$ANGBASE
 50
0.0
  9
$ANGDIR
 70
     0
  9
$PDMODE
 70
     0
  9
$PDSIZE
 40
-1.0
  9
$PLINEWID
 40
0.0
  9
$SPLFRAME
 70
     0
  9
$SPLINETYPE
 70
     6
  9
$SPLINESEGS
 70
     8
  9
$HANDSEED
  5
145
  9
$SURFTAB1
 70
     6
  9
$SURFTAB2
 70
     6
  9
$SURFTYPE
 70
     6
  9
$SURFU
 70
     6
  9
$SURFV
 70
     6
  9
$UCSBASE
  2

  9
$UCSNAME
  2

  9
$UCSORG
 10
0.0
 20
0.0
 30
0.0
  9
$UCSXDIR
 10
1.0
 20
0.0
 30
0.0
  9
$UCSYDIR
 10
0.0
 20
1.0
 30
0.0
  9
$UCSORTHOREF
  2

  9
$UCSORTHOVIEW
 70
     0
  9
$UCSORGTOP
 10
0.0
 20
0.0
 30
0.0
  9
$UCSORGBOTTOM
 10
0.0
 20
0.0
 30
0.0
  9
$UCSORGLEFT
 10
0.0
 20
0.0
 30
0.0
  9
$UCSORGRIGHT
 10
0.0
 20
0.0
 30
0.0
  9
$UCSORGFRONT
 10
0.0
 20
0.0
 30
0.0
  9
$UCSORGBACK
 10
0.0
 20
0.0
 30
0.0
  9
$PUCSBASE
  2

  9
$PUCSNAME
  2

  9
$PUCSORG
 10
0.0
 20
0.0
 30
0.0
  9
$PUCSXDIR
 10
1.0
 20
0.0
 30
0.0
  9
$PUCSYDIR
 10
0.0
 20
1.0
 30
0.0
  9
$PUCSORTHOREF
  2

  9
$PUCSORTHOVIEW
 70
     0
  9
$PUCSORGTOP
 10
0.0
 20
0.0
 30
0.0
  9
$PUCSORGBOTTOM
 10
0.0
 20
0.0
 30
0.0
  9
$PUCSORGLEFT
 10
0.0
 20
0.0
 30
0.0
  9
$PUCSORGRIGHT
 10
0.0
 20
0.0
 30
0.0
  9
$PUCSORGFRONT
 10
0.0
 20
0.0
 30
0.0
  9
$PUCSORGBACK
 10
0.0
 20
0.0
 30
0.0
  9
$USERI1
 70
     0
  9
$USERI2
 70
     0
  9
$USERI3
 70
     0
  9
$USERI4
 70
     0
  9
$USERI5
 70
     0
  9
$USERR1
 40
0.0
  9
$USERR2
 40
0.0
  9
$USERR3
 40
0.0
  9
$USERR4
 40
0.0
  9
$USERR5
 40
0.0
  9
$WORLDVIEW
 70
     1
  9
$SHADEDGE
 70
     3
  9
$SHADEDIF
 70
    70
  9
$TILEMODE
 70
     1
  9
$MAXACTVP
 70
    64
  9
$PINSBASE
 10
0.0
 20
0.0
 30
0.0
  9
$PLIMCHECK
 70
     0
  9
$PEXTMIN
 10
1.000000000000000E+20
 20
1.000000000000000E+20
 30
1.000000000000000E+20
  9
$PEXTMAX
 10
-1.000000000000000E+20
 20
-1.000000000000000E+20
 30
-1.000000000000000E+20
  9
$PLIMMIN
 10
0.0
 20
0.0
  9
$PLIMMAX
 10
0.0
 20
0.0
  9
$UNITMODE
 70
     0
  9
$VISRETAIN
 70
     1
  9
$PLINEGEN
 70
     0
  9
$PSLTSCALE
 70
     1
  9
$TREEDEPTH
 70
  3020
  9
$CMLSTYLE
  2
Standard
  9
$CMLJUST
 70
     0
  9
$CMLSCALE
 40
20.0
  9
$PROXYGRAPHICS
 70
     1
  9
$MEASUREMENT
 70
     1
  9
$CELWEIGHT
370
    -1
  9
$ENDCAPS
280
     0
  9
$JOINSTYLE
280
     0
  9
$LWDISPLAY
290
     1
  9
$INSUNITS
 70
     4
  9
$HYPERLINKBASE
  1

  9
$STYLESHEET
  1

  9
$XEDIT
290
     1
  9
$CEPSNTYPE
380
     0
  9
$PSTYLEMODE
290
     1
  9
$FINGERPRINTGUID
  2
{58BAE8A8-12F3-488A-98C8-19F2AE1D38AF}
  9
$VERSIONGUID
  2
{FAEB1C32-E019-11D5-929B-00C0DF256EC4}
  9
$EXTNAMES
290
     1
  9
$PSVPSCALE
 40
0.0
  9
$OLESTARTUP
290
     0
  0
ENDSEC
  0
SECTION
  2
CLASSES
  0
CLASS
  1
ACDBDICTIONARYWDFLT
  2
AcDbDictionaryWithDefault
  3
ObjectDBX Classes
 90
        0
280
     0
281
     0
  0
CLASS
  1
VISUALSTYLE
  2
AcDbVisualStyle
  3
ObjectDBX Classes
 90
     4095
280
     0
281
     0
  0
CLASS
  1
MATERIAL
  2
AcDbMaterial
  3
ObjectDBX Classes
 90
     1153
280
     0
281
     0
  0
CLASS
  1
SCALE
  2
AcDbScale
  3
ObjectDBX Classes
 90
     1153
280
     0
281
     0
  0
CLASS
  1
SUN
  2
AcDbSun
  3
SCENEOE
 90
     1153
280
     0
281
     0
  0
CLASS
  1
ACDBPLACEHOLDER
  2
AcDbPlaceHolder
  3
ObjectDBX Classes
 90
        0
280
     0
281
     0
  0
CLASS
  1
LAYOUT
  2
AcDbLayout
  3
ObjectDBX Classes
 90
        0
280
     0
281
     0
  0
CLASS
  1
TABLESTYLE
  2
AcDbTableStyle
  3
ObjectDBX Classes
 90
     4095
280
     0
281
     0
  0
CLASS
  1
MLEADERSTYLE
  2
AcDbMLeaderStyle
  3
ACDB_MLEADERSTYLE_CLASS
 90
     4095
280
     0
281
     0
  0
CLASS
  1
RASTERVARIABLES
  2
AcDbRasterVariables
  3
ISM
 90
        0
280
     0
281
     0
  0
ENDSEC
  0
SECTION
  2
TABLES
  0
TABLE
  2
VPORT
  5
8
330
0
100
AcDbSymbolTable
 70
     1
  0
VPORT
  5
29
330
8
100
AcDbSymbolTableRecord
100
AcDbViewportTableRecord
  2
*Active
 70
     0
 10
0.0
 20
0.0
 11
1.0
 21
1.0
 12
4.163263581465891
 22
-10.30866100992258
 13
0.0
 23
0.0
 14
10.0
 24
10.0
 15
10.0
 25
10.0
 16
0.0
 26
0.0
 36
1.0
 17
0.0
 27
0.0
 37
0.0
 40
104.6678089832859
 41
1.152454780361757
 42
50.0
 43
0.0
 44
0.0
 50
0.0
 51
0.0
 71
    16
 72
  2000
 73
     1
 74
     3
 75
     0
 76
     0
 77
     0
 78
     0
281
     0
 65
     1
110
0.0
120
0.0
130
0.0
111
1.0
121
0.0
131
0.0
112
0.0
122
1.0
132
0.0
 79
     0
146
0.0
  0
ENDTAB
  0
TABLE
  2
LTYPE
  5
5
330
0
100
AcDbSymbolTable
 70
     6
  0
LTYPE
  5
14
330
5
100
AcDbSymbolTableRecord
100
AcDbLinetypeTableRecord
  2
ByBlock
 70
     0
  3

 72
    65
 73
     0
 40
0.0
  0
LTYPE
  5
15
330
5
100
AcDbSymbolTableRecord
100
AcDbLinetypeTableRecord
  2
ByLayer
 70
     0
  3

 72
    65
 73
     0
 40
0.0
  0
LTYPE
  5
16
330
5
100
AcDbSymbolTableRecord
100
AcDbLinetypeTableRecord
  2
Continuous
 70
     0
  3
Solid line
 72
    65
 73
     0
 40
0.0
  0
LTYPE
  5
6A
330
5
100
AcDbSymbolTableRecord
100
AcDbLinetypeTableRecord
  2
HIDDEN
 70
     0
  3
Hidden __ __ __ __ __ __ __ __ __ __ __ __ __ __
 72
    65
 73
     2
 40
1.905
 49
1.27
 74
     0
 49
-0.635
 74
     0
  0
LTYPE
  5
6B
330
5
100
AcDbSymbolTableRecord
100
AcDbLinetypeTableRecord
  2
PHANTOM
 70
     0
  3
Phantom ______  __  __  ______  __  __  ______
 72
    65
 73
     6
 40
12.7
 49
6.35
 74
     0
 49
-1.27
 74
     0
 49
1.27
 74
     0
 49
-1.27
 74
     0
 49
1.27
 74
     0
 49
-1.27
 74
     0
  0
LTYPE
  5
6C
330
5
100
AcDbSymbolTableRecord
100
AcDbLinetypeTableRecord
  2
CENTER
 70
     0
  3
Center ____ _ ____ _ ____ _ ____ _ ____ _ ____
 72
    65
 73
     4
 40
10.16
 49
6.35
 74
     0
 49
-1.27
 74
     0
 49
1.27
 74
     0
 49
-1.27
 74
     0
  0
LTYPE
  5
6D
330
5
100
AcDbSymbolTableRecord
100
AcDbLinetypeTableRecord
  2
CENTERX2
 70
     0
  3
Center (2x) ________  __  ________  __  _____
 72
    65
 73
     4
 40
20.32
 49
12.7
 74
     0
 49
-2.54
 74
     0
 49
2.54
 74
     0
 49
-2.54
 74
     0
  0
LTYPE
  5
6E
330
5
100
AcDbSymbolTableRecord
100
AcDbLinetypeTableRecord
  2
DOT2
 70
     0
  3
Dot (.5x) ........................................
 72
    65
 73
     2
 40
0.635
 49
0.0
 74
     0
 49
-0.635
 74
     0
  0
ENDTAB
  0
TABLE
  2
LAYER
  5
2
330
0
100
AcDbSymbolTable
 70
    17
  0
LAYER
  5
10
330
2
100
AcDbSymbolTableRecord
100
AcDbLayerTableRecord
  2
0
 70
     0
 62
     7
  6
Continuous
370
    -3
390
F
  0
LAYER
  5
6F
330
2
100
AcDbSymbolTableRecord
100
AcDbLayerTableRecord
  2
FORMAT
 70
     0
 62
     2
  6
Continuous
370
    -3
390
F
  0
LAYER
  5
70
330
2
100
AcDbSymbolTableRecord
100
AcDbLayerTableRecord
  2
외형선
 70
     0
 62
   100
  6
Continuous
370
    30
390
F
  0
LAYER
  5
71
330
2
100
AcDbSymbolTableRecord
100
AcDbLayerTableRecord
  2
숨은선
 70
     0
 62
     2
  6
HIDDEN
370
    15
390
F
  0
LAYER
  5
72
330
2
100
AcDbSymbolTableRecord
100
AcDbLayerTableRecord
  2
중심선
 70
     0
 62
     1
  6
CENTERX2
370
    -3
390
F
  0
LAYER
  5
73
330
2
100
AcDbSymbolTableRecord
100
AcDbLayerTableRecord
  2
파단선
 70
     0
 62
     4
  6
Continuous
370
    -3
390
F
  0
LAYER
  5
74
330
2
100
AcDbSymbolTableRecord
100
AcDbLayerTableRecord
  2
해칭선
 70
     0
 62
     4
  6
Continuous
370
    -3
390
F
  0
LAYER
  5
75
330
2
100
AcDbSymbolTableRecord
100
AcDbLayerTableRecord
  2
가는실선
 70
     0
 62
     4
  6
Continuous
370
    -3
390
F
  0
LAYER
  5
76
330
2
100
AcDbSymbolTableRecord
100
AcDbLayerTableRecord
  2
치수_보조선
 70
     0
 62
     4
  6
Continuous
370
    -3
390
F
  0
LAYER
  5
77
330
2
100
AcDbSymbolTableRecord
100
AcDbLayerTableRecord
  2
치수문자_일반주서
 70
     0
 62
     7
  6
Continuous
370
    15
390
F
  0
LAYER
  5
78
330
2
100
AcDbSymbolTableRecord
100
AcDbLayerTableRecord
  2
개별주서
 70
     0
 62
   100
  6
Continuous
370
    30
390
F
  0
LAYER
  5
79
330
2
100
AcDbSymbolTableRecord
100
AcDbLayerTableRecord
  2
중간선
 70
     0
 62
     2
  6
Continuous
370
    15
390
F
  0
LAYER
  5
7A
330
2
100
AcDbSymbolTableRecord
100
AcDbLayerTableRecord
  2
윤곽선
 70
     0
 62
     3
  6
Continuous
370
    40
390
F
  0
LAYER
  5
7B
330
2
100
AcDbSymbolTableRecord
100
AcDbLayerTableRecord
  2
중심마크
 70
     0
 62
   100
  6
Continuous
370
    30
390
F
  0
LAYER
  5
7C
330
2
100
AcDbSymbolTableRecord
100
AcDbLayerTableRecord
  2
가상선
 70
     0
 62
     4
  6
PHANTOM
370
    -3
390
F
  0
LAYER
  5
7D
330
2
100
AcDbSymbolTableRecord
100
AcDbLayerTableRecord
  2
특수지정선
 70
     0
 62
     5
  6
CENTERX2
370
    60
390
F
  0
LAYER
  5
135
330
2
100
AcDbSymbolTableRecord
100
AcDbLayerTableRecord
  2
Defpoints
 70
     0
 62
     7
  6
Continuous
290
     0
370
    -3
390
F
  0
ENDTAB
  0
TABLE
  2
STYLE
  5
3
330
0
100
AcDbSymbolTable
 70
     2
  0
STYLE
  5
11
330
3
100
AcDbSymbolTableRecord
100
AcDbTextStyleTableRecord
  2
Standard
 70
     0
 40
0.0
 41
1.0
 50
0.0
 71
     0
 42
3.5
  3
txt
  4

  0
STYLE
  5
93
330
3
100
AcDbSymbolTableRecord
100
AcDbTextStyleTableRecord
  2
SLDTEXTSTYLE0
 70
     0
 40
0.0
 41
0.75
 50
0.0
 71
     0
 42
3.5
  3
TXT
  4

  0
ENDTAB
  0
TABLE
  2
VIEW
  5
6
330
0
100
AcDbSymbolTable
 70
     0
  0
ENDTAB
  0
TABLE
  2
UCS
  5
7
330
0
100
AcDbSymbolTable
 70
     0
  0
ENDTAB
  0
TABLE
  2
APPID
  5
9
330
0
100
AcDbSymbolTable
 70
     1
  0
APPID
  5
12
330
9
100
AcDbSymbolTableRecord
100
AcDbRegAppTableRecord
  2
ACAD
 70
     0
  0
ENDTAB
  0
TABLE
  2
DIMSTYLE
  5
A
330
0
100
AcDbSymbolTable
 70
     3
100
AcDbDimStyleTable
  0
DIMSTYLE
105
27
330
A
100
AcDbSymbolTableRecord
100
AcDbDimStyleTableRecord
  2
ISO-25
 70
     0
 41
2.5
 42
0.625
 43
3.75
 44
1.25
 73
     0
 74
     0
 77
     1
 78
     8
140
2.5
141
2.5
143
0.03937007874016
147
0.625
171
     3
172
     1
178
     0
271
     2
272
     2
274
     3
278
    44
283
     0
284
     8
340
11
  0
DIMSTYLE
105
DB
102
{ACAD_REACTORS
330
DA
330
FD
102
}
330
A
100
AcDbSymbolTableRecord
100
AcDbDimStyleTableRecord
  2
SLDDIMSTYLE0
 70
     0
 41
3.302
 44
0.0
 45
0.000000001
 73
     0
 74
     0
 77
     1
 78
    12
 79
     3
140
3.5
147
0.875
172
     1
173
     1
178
     0
271
     2
272
     2
276
     2
284
    12
289
     0
340
93
  0
DIMSTYLE
105
E9
102
{ACAD_REACTORS
330
E8
330
F3
102
}
330
A
100
AcDbSymbolTableRecord
100
AcDbDimStyleTableRecord
  2
SLDDIMSTYLE1
 70
     0
 41
3.302
 44
0.0
 45
0.000000001
 73
     0
 74
     0
 77
     1
 78
    12
 79
     3
140
3.5
147
0.875
173
     1
178
     0
271
     2
272
     2
276
     2
284
    12
340
93
  0
ENDTAB
  0
TABLE
  2
BLOCK_RECORD
  5
1
330
0
100
AcDbSymbolTable
 70
     7
  0
BLOCK_RECORD
  5
1F
330
1
100
AcDbSymbolTableRecord
100
AcDbBlockTableRecord
  2
*Model_Space
340
22
  0
BLOCK_RECORD
  5
1B
330
1
100
AcDbSymbolTableRecord
100
AcDbBlockTableRecord
  2
*Paper_Space
340
1E
  0
BLOCK_RECORD
  5
23
330
1
100
AcDbSymbolTableRecord
100
AcDbBlockTableRecord
  2
*Paper_Space0
340
26
  0
BLOCK_RECORD
  5
7E
330
1
100
AcDbSymbolTableRecord
100
AcDbBlockTableRecord
  2
블럭10
340
0
102
{BLKREFS
331
D3
102
}
  0
BLOCK_RECORD
  5
DC
330
1
100
AcDbSymbolTableRecord
100
AcDbBlockTableRecord
  2
_D
340
0
  0
BLOCK_RECORD
  5
EA
330
1
100
AcDbSymbolTableRecord
100
AcDbBlockTableRecord
  2
_D_1
340
0
  0
BLOCK_RECORD
  5
F4
330
1
100
AcDbSymbolTableRecord
100
AcDbBlockTableRecord
  2
_D_2
340
0
  0
BLOCK_RECORD
  5
FE
330
1
100
AcDbSymbolTableRecord
100
AcDbBlockTableRecord
  2
_D_3
340
0
  0
BLOCK_RECORD
  5
10A
330
1
100
AcDbSymbolTableRecord
100
AcDbBlockTableRecord
  2
SW_DOWELSYMBOL_0
340
0
102
{BLKREFS
331
110
102
}
  0
ENDTAB
  0
ENDSEC
  0
SECTION
  2
BLOCKS
  0
BLOCK
  5
20
330
1F
100
AcDbEntity
  8
0
100
AcDbBlockBegin
  2
*Model_Space
 70
     0
 10
0.0
 20
0.0
 30
0.0
  3
*Model_Space
  1

  0
ENDBLK
  5
21
330
1F
100
AcDbEntity
  8
0
100
AcDbBlockEnd
  0
BLOCK
  5
1C
330
1B
100
AcDbEntity
 67
     1
  8
0
100
AcDbBlockBegin
  2
*Paper_Space
 70
     0
 10
0.0
 20
0.0
 30
0.0
  3
*Paper_Space
  1

  0
ENDBLK
  5
1D
330
1B
100
AcDbEntity
 67
     1
  8
0
100
AcDbBlockEnd
  0
BLOCK
  5
24
330
23
100
AcDbEntity
  8
0
100
AcDbBlockBegin
  2
*Paper_Space0
 70
     0
 10
0.0
 20
0.0
 30
0.0
  3
*Paper_Space0
  1

  0
ENDBLK
  5
25
330
23
100
AcDbEntity
  8
0
100
AcDbBlockEnd
  0
BLOCK
  5
7F
330
7E
100
AcDbEntity
  8
0
100
AcDbBlockBegin
  2
블럭10
 70
     2
 10
0.0
 20
0.0
 30
0.0
  3
블럭10
  1

  0
ELLIPSE
  5
81
330
7E
100
AcDbEntity
  8
중심선
100
AcDbEllipse
 10
20.54032771741204
 20
12.0471743016438
 30
0.0
 11
6.600054785286829
 21
-1.261213355974178E-13
 31
0.0
210
0.0
220
0.0
230
1.0
 40
0.636358354079598
 41
0.9219305317359503
 42
6.513795318482858
  0
ELLIPSE
  5
82
330
7E
100
AcDbEntity
  8
중심선
100
AcDbEllipse
 10
20.54032771746488
 20
12.04717430159265
 30
0.0
 11
3.960054785062283
 21
1.540847449632565E-10
 31
0.0
210
0.0
220
0.0
230
1.0
 40
0.3939339440162632
 41
1.131841032648279
 42
5.62031148352944
  0
LINE
  5
83
330
7E
100
AcDbEntity
  8
중심선
100
AcDbLine
 10
2.268634060543552
 20
16.24717430164393
 30
0.0
 11
5.714909304380834
 21
16.24717430164393
 31
0.0
  0
LINE
  5
84
330
7E
100
AcDbEntity
  8
중심선
100
AcDbLine
 10
5.245725140726316
 20
7.84717430164391
 30
0.0
 11
8.692000384563599
 21
7.84717430164391
 31
0.0
  0
LINE
  5
85
330
7E
100
AcDbEntity
  8
중심선
100
AcDbLine
 10
15.74043728645272
 20
16.24717430164393
 30
0.0
 11
8.692000384563599
 21
7.84717430164391
 31
0.0
  0
LINE
  5
86
330
7E
100
AcDbEntity
  8
중심선
100
AcDbLine
 10
0.1404042013395286
 20
13.71084872107135
 30
0.0
 11
3.58671253028996
 21
13.71088815037384
 31
0.0
  0
LINE
  5
87
330
7E
100
AcDbEntity
  8
중심선
100
AcDbLine
 10
2.750260043222114
 20
10.84717430164391
 30
0.0
 11
6.196535287059397
 21
10.84717430164391
 31
0.0
  0
LINE
  5
88
330
7E
100
AcDbEntity
  8
중심선
100
AcDbLine
 10
12.29416204261559
 20
16.24717430164393
 30
0.0
 11
5.245725140726316
 21
7.84717430164391
 31
0.0
  0
LINE
  5
89
330
7E
100
AcDbEntity
  8
중심선
100
AcDbLine
 10
10.72767329541681
 20
16.24717430164393
 30
0.0
 11
6.196535287059397
 21
10.84717430164391
 31
0.0
  0
LINE
  5
8A
330
7E
100
AcDbEntity
  8
중심선
100
AcDbLine
 10
7.28139805157953
 20
16.24717430164393
 30
0.0
 11
2.750260043222114
 21
10.84717430164391
 31
0.0
  0
LINE
  5
8B
330
7E
100
AcDbEntity
  8
중심선
100
AcDbLine
 10
5.714909304380834
 20
16.24717430164393
 30
0.0
 11
3.58671253028996
 21
13.71088815037384
 31
0.0
  0
LINE
  5
8C
330
7E
100
AcDbEntity
  8
중심선
100
AcDbLine
 10
2.268634060543552
 20
16.24717430164393
 30
0.0
 11
0.1404042013395286
 21
13.71084872107135
 31
0.0
  0
LINE
  5
8D
330
7E
100
AcDbEntity
  8
중심선
100
AcDbLine
 10
7.28139805157953
 20
16.24717430164393
 30
0.0
 11
10.72767329541681
 21
16.24717430164393
 31
0.0
  0
LINE
  5
8E
330
7E
100
AcDbEntity
  8
중심선
100
AcDbLine
 10
12.29416204261559
 20
16.24717430164393
 30
0.0
 11
15.74043728645272
 21
16.24717430164393
 31
0.0
  0
LINE
  5
8F
330
7E
100
AcDbEntity
  8
중심선
100
AcDbLine
 10
19.22036997980202
 20
11.08717430171403
 30
0.0
 11
23.66174974927406
 21
11.08717430171406
 31
0.0
  0
LINE
  5
90
330
7E
100
AcDbEntity
  8
중심선
100
AcDbLine
 10
19.22039502424796
 20
13.00717430171391
 30
0.0
 11
19.22036997980202
 21
11.08717430171403
 31
0.0
  0
LINE
  5
91
330
7E
100
AcDbEntity
  8
중심선
100
AcDbLine
 10
19.22039502424796
 20
13.00717430171391
 30
0.0
 11
26.96566020931264
 21
13.00717430171391
 31
0.0
  0
LINE
  5
92
330
7E
100
AcDbEntity
  8
중심선
100
AcDbLine
 10
22.22332737316547
 20
13.45928029700563
 30
0.0
 11
24.52862924686651
 21
15.39360700705356
 31
0.0
  0
ATTDEF
  5
94
330
7E
100
AcDbEntity
  8
FORMAT
 62
     2
100
AcDbText
 10
-16.11926103943555
 20
2.075366912832191
 30
0.0
 40
4.233333333333333
  1
SEME7008040E [ 2 FLUTE ]
 41
0.75
  7
SLDTEXTSTYLE0
 11
-16.11926103943555
 21
-0.0412997538344756
 31
0.0
100
AcDbAttributeDefinition
  3

  2
AUTOATTR0
 70
     0
 74
     1
  0
ENDBLK
  5
80
330
7E
100
AcDbEntity
  8
0
100
AcDbBlockEnd
  0
BLOCK
  5
DD
330
DC
100
AcDbEntity
  8
0
100
AcDbBlockBegin
  2
_D
 70
     0
 10
0.0
 20
0.0
 30
0.0
  3
_D
  1

  0
LINE
  5
DF
330
DC
100
AcDbEntity
  8
치수문자_일반주서
 62
     0
370
    -2
100
AcDbLine
 10
50.06249999999984
 20
-3.999999999999844
 30
0.0
 11
62.74279143086736
 21
-3.999999999999794
 31
0.0
  0
LINE
  5
E0
330
DC
100
AcDbEntity
  8
치수문자_일반주서
 62
     0
370
    -2
100
AcDbLine
 10
50.06250000000003
 20
4.000000000000147
 30
0.0
 11
62.74279143086734
 21
4.000000000000195
 31
0.0
  0
LINE
  5
E1
330
DC
100
AcDbEntity
  8
치수문자_일반주서
 62
     0
370
    -2
100
AcDbLine
 10
62.74279143086736
 20
-3.999999999999794
 30
0.0
 11
62.74279143086729
 21
16.7290000000002
 31
0.0
  0
LINE
  5
E2
330
DC
100
AcDbEntity
  8
치수문자_일반주서
 62
     0
370
    -2
100
AcDbLine
 10
62.74279143086736
 20
-3.999999999999794
 30
0.0
 11
62.74279143086734
 21
4.000000000000195
 31
0.0
  0
LINE
  5
E3
330
DC
100
AcDbEntity
  8
치수문자_일반주서
 62
     0
370
    -2
100
AcDbLine
 10
62.74279143086738
 20
-7.301999999999794
 30
0.0
 11
62.74279143086739
 21
-10.60399999999979
 31
0.0
  0
LINE
  5
E4
330
DC
100
AcDbEntity
  8
치수문자_일반주서
 62
     0
370
    -2
100
AcDbLine
 10
62.74279143086732
 20
7.302000000000195
 30
0.0
 11
62.74279143086731
 21
10.60400000000019
 31
0.0
  0
SOLID
  5
E5
330
DC
100
AcDbEntity
  8
치수문자_일반주서
 62
     0
100
AcDbTrace
 10
63.29312476420071
 20
-7.301999999999792
 30
0.0
 11
62.19245809753404
 21
-7.301999999999795
 31
0.0
 12
62.74279143086736
 22
-3.999999999999794
 32
0.0
 13
62.74279143086736
 23
-3.999999999999794
 33
0.0
  0
SOLID
  5
E6
330
DC
100
AcDbEntity
  8
치수문자_일반주서
 62
     0
100
AcDbTrace
 10
62.19245809753399
 20
7.302000000000193
 30
0.0
 11
63.29312476420066
 21
7.302000000000197
 31
0.0
 12
62.74279143086734
 22
4.000000000000195
 32
0.0
 13
62.74279143086734
 23
4.000000000000195
 33
0.0
  0
MTEXT
  5
E7
330
DC
100
AcDbEntity
  8
치수문자_일반주서
 62
     0
100
AcDbMText
 10
58.3677914308673
 20
13.66650000000018
 30
0.0
 40
3.5
 41
0.0
 71
     2
 72
     1
  1
\A1;%%c8
  7
SLDTEXTSTYLE0
 11
-3.552713678800505E-15
 21
1.0
 31
0.0
 73
     1
 44
1.0
  0
POINT
  5
13F
330
DC
100
AcDbEntity
  8
Defpoints
 62
     0
100
AcDbPoint
 10
49.99999999999984
 20
-3.999999999999845
 30
0.0
  0
POINT
  5
140
330
DC
100
AcDbEntity
  8
Defpoints
 62
     0
100
AcDbPoint
 10
50.00000000000003
 20
4.000000000000147
 30
0.0
  0
POINT
  5
141
330
DC
100
AcDbEntity
  8
Defpoints
 62
     0
100
AcDbPoint
 10
62.74279143086734
 20
4.000000000000195
 30
0.0
  0
ENDBLK
  5
DE
330
DC
100
AcDbEntity
  8
0
100
AcDbBlockEnd
  0
BLOCK
  5
EB
330
EA
100
AcDbEntity
  8
0
100
AcDbBlockBegin
  2
_D_1
 70
     0
 10
0.0
 20
0.0
 30
0.0
  3
_D_1
  1

  0
LINE
  5
ED
330
EA
100
AcDbEntity
  8
치수문자_일반주서
 62
     0
370
    -2
100
AcDbLine
 10
-39.99999999999999
 20
3.252499999999999
 30
0.0
 11
-40.0
 21
24.9784104402427
 31
0.0
  0
LINE
  5
EE
330
EA
100
AcDbEntity
  8
치수문자_일반주서
 62
     0
370
    -2
100
AcDbLine
 10
50.00000000000003
 20
4.062500000000147
 30
0.0
 11
50.00000000000003
 21
24.9784104402427
 31
0.0
  0
LINE
  5
EF
330
EA
100
AcDbEntity
  8
치수문자_일반주서
 62
     0
370
    -2
100
AcDbLine
 10
-36.698
 20
24.9784104402427
 30
0.0
 11
46.69800000000003
 21
24.9784104402427
 31
0.0
  0
SOLID
  5
F0
330
EA
100
AcDbEntity
  8
치수문자_일반주서
 62
     0
100
AcDbTrace
 10
-36.698
 20
25.52874377357603
 30
0.0
 11
-36.698
 21
24.42807710690936
 31
0.0
 12
-40.0
 22
24.9784104402427
 32
0.0
 13
-40.0
 23
24.9784104402427
 33
0.0
  0
SOLID
  5
F1
330
EA
100
AcDbEntity
  8
치수문자_일반주서
 62
     0
100
AcDbTrace
 10
46.69800000000003
 20
24.42807710690936
 30
0.0
 11
46.69800000000003
 21
25.52874377357603
 31
0.0
 12
50.00000000000003
 22
24.9784104402427
 32
0.0
 13
50.00000000000003
 23
24.9784104402427
 33
0.0
  0
MTEXT
  5
F2
330
EA
100
AcDbEntity
  8
치수문자_일반주서
 62
     0
100
AcDbMText
 10
5.000000000000004
 20
29.3534104402427
 30
0.0
 40
3.5
 41
0.0
 71
     2
 72
     1
  1
\A1;90
  7
SLDTEXTSTYLE0
 73
     1
 44
1.0
  0
POINT
  5
136
330
EA
100
AcDbEntity
  8
Defpoints
 62
     0
100
AcDbPoint
 10
-39.99999999999999
 20
3.189999999999999
 30
0.0
  0
POINT
  5
137
330
EA
100
AcDbEntity
  8
Defpoints
 62
     0
100
AcDbPoint
 10
50.00000000000003
 20
4.000000000000147
 30
0.0
  0
POINT
  5
138
330
EA
100
AcDbEntity
  8
Defpoints
 62
     0
100
AcDbPoint
 10
50.00000000000003
 20
24.9784104402427
 30
0.0
  0
ENDBLK
  5
EC
330
EA
100
AcDbEntity
  8
0
100
AcDbBlockEnd
  0
BLOCK
  5
F5
330
F4
100
AcDbEntity
  8
0
100
AcDbBlockBegin
  2
_D_2
 70
     0
 10
0.0
 20
0.0
 30
0.0
  3
_D_2
  1

  0
LINE
  5
F7
330
F4
100
AcDbEntity
  8
치수문자_일반주서
 62
     0
370
    -2
100
AcDbLine
 10
10.00000000000001
 20
3.991392686883455
 30
0.0
 11
10.00000000000001
 21
17.27589049305128
 31
0.0
  0
LINE
  5
F8
330
F4
100
AcDbEntity
  8
치수문자_일반주서
 62
     0
370
    -2
100
AcDbLine
 10
50.00000000000003
 20
4.062500000000147
 30
0.0
 11
50.00000000000003
 21
17.27589049305128
 31
0.0
  0
LINE
  5
F9
330
F4
100
AcDbEntity
  8
치수문자_일반주서
 62
     0
370
    -2
100
AcDbLine
 10
13.30200000000001
 20
17.27589049305128
 30
0.0
 11
46.69800000000003
 21
17.27589049305128
 31
0.0
  0
SOLID
  5
FA
330
F4
100
AcDbEntity
  8
치수문자_일반주서
 62
     0
100
AcDbTrace
 10
13.30200000000001
 20
17.82622382638462
 30
0.0
 11
13.30200000000001
 21
16.72555715971795
 31
0.0
 12
10.00000000000001
 22
17.27589049305128
 32
0.0
 13
10.00000000000001
 23
17.27589049305128
 33
0.0
  0
SOLID
  5
FB
330
F4
100
AcDbEntity
  8
치수문자_일반주서
 62
     0
100
AcDbTrace
 10
46.69800000000003
 20
16.72555715971795
 30
0.0
 11
46.69800000000003
 21
17.82622382638462
 31
0.0
 12
50.00000000000003
 22
17.27589049305128
 32
0.0
 13
50.00000000000003
 23
17.27589049305128
 33
0.0
  0
MTEXT
  5
FC
330
F4
100
AcDbEntity
  8
치수문자_일반주서
 62
     0
100
AcDbMText
 10
29.99999999999975
 20
21.65089049305128
 30
0.0
 40
3.5
 41
0.0
 71
     2
 72
     1
  1
\A1;40
  7
SLDTEXTSTYLE0
 73
     1
 44
1.0
  0
POINT
  5
139
330
F4
100
AcDbEntity
  8
Defpoints
 62
     0
100
AcDbPoint
 10
10.00000000000001
 20
3.928892686883455
 30
0.0
  0
POINT
  5
13A
330
F4
100
AcDbEntity
  8
Defpoints
 62
     0
100
AcDbPoint
 10
50.00000000000003
 20
4.000000000000147
 30
0.0
  0
POINT
  5
13B
330
F4
100
AcDbEntity
  8
Defpoints
 62
     0
100
AcDbPoint
 10
50.00000000000003
 20
17.27589049305128
 30
0.0
  0
ENDBLK
  5
F6
330
F4
100
AcDbEntity
  8
0
100
AcDbBlockEnd
  0
BLOCK
  5
FF
330
FE
100
AcDbEntity
  8
0
100
AcDbBlockBegin
  2
_D_3
 70
     0
 10
0.0
 20
0.0
 30
0.0
  3
_D_3
  1

  0
LINE
  5
101
330
FE
100
AcDbEntity
  8
치수문자_일반주서
 62
     0
370
    -2
100
AcDbLine
 10
-39.25249999999999
 20
3.999999999999998
 30
0.0
 11
-50.59159760126889
 21
3.999999999999956
 31
0.0
  0
LINE
  5
102
330
FE
100
AcDbEntity
  8
치수문자_일반주서
 62
     0
370
    -2
100
AcDbLine
 10
-39.25249999999999
 20
-3.999999999999995
 30
0.0
 11
-50.59159760126886
 21
-4.000000000000037
 31
0.0
  0
LINE
  5
103
330
FE
100
AcDbEntity
  8
치수문자_일반주서
 62
     0
370
    -2
100
AcDbLine
 10
-50.59159760126889
 20
3.999999999999956
 30
0.0
 11
-50.59159760126894
 21
16.72899999999996
 31
0.0
  0
LINE
  5
104
330
FE
100
AcDbEntity
  8
치수문자_일반주서
 62
     0
370
    -2
100
AcDbLine
 10
-50.59159760126889
 20
3.999999999999956
 30
0.0
 11
-50.59159760126886
 21
-4.000000000000037
 31
0.0
  0
LINE
  5
105
330
FE
100
AcDbEntity
  8
치수문자_일반주서
 62
     0
370
    -2
100
AcDbLine
 10
-50.5915976012689
 20
7.301999999999955
 30
0.0
 11
-50.59159760126892
 21
10.60399999999995
 31
0.0
  0
LINE
  5
106
330
FE
100
AcDbEntity
  8
치수문자_일반주서
 62
     0
370
    -2
100
AcDbLine
 10
-50.59159760126884
 20
-7.302000000000037
 30
0.0
 11
-50.59159760126883
 21
-10.60400000000004
 31
0.0
  0
SOLID
  5
107
330
FE
100
AcDbEntity
  8
치수문자_일반주서
 62
     0
100
AcDbTrace
 10
-51.14193093460224
 20
7.301999999999953
 30
0.0
 11
-50.04126426793557
 21
7.301999999999957
 31
0.0
 12
-50.59159760126889
 22
3.999999999999956
 32
0.0
 13
-50.59159760126889
 23
3.999999999999956
 33
0.0
  0
SOLID
  5
108
330
FE
100
AcDbEntity
  8
치수문자_일반주서
 62
     0
100
AcDbTrace
 10
-50.04126426793551
 20
-7.302000000000035
 30
0.0
 11
-51.14193093460218
 21
-7.302000000000039
 31
0.0
 12
-50.59159760126886
 22
-4.000000000000037
 32
0.0
 13
-50.59159760126886
 23
-4.000000000000037
 33
0.0
  0
MTEXT
  5
109
330
FE
100
AcDbEntity
  8
치수문자_일반주서
 62
     0
100
AcDbMText
 10
-54.96659760126892
 20
13.66649999999994
 30
0.0
 40
3.5
 41
0.0
 71
     2
 72
     1
  1
\A1;%%c8
  7
SLDTEXTSTYLE0
 11
-3.552713678800504E-15
 21
1.0
 31
0.0
 73
     1
 44
1.0
  0
POINT
  5
13C
330
FE
100
AcDbEntity
  8
Defpoints
 62
     0
100
AcDbPoint
 10
-39.18999999999999
 20
3.999999999999999
 30
0.0
  0
POINT
  5
13D
330
FE
100
AcDbEntity
  8
Defpoints
 62
     0
100
AcDbPoint
 10
-39.18999999999999
 20
-3.999999999999995
 30
0.0
  0
POINT
  5
13E
330
FE
100
AcDbEntity
  8
Defpoints
 62
     0
100
AcDbPoint
 10
-50.59159760126886
 20
-4.000000000000037
 30
0.0
  0
ENDBLK
  5
100
330
FE
100
AcDbEntity
  8
0
100
AcDbBlockEnd
  0
BLOCK
  5
10B
330
10A
100
AcDbEntity
  8
0
100
AcDbBlockBegin
  2
SW_DOWELSYMBOL_0
 70
     0
 10
0.0
 20
0.0
 30
0.0
  3
SW_DOWELSYMBOL_0
  1

  0
CIRCLE
  5
10D
330
10A
100
AcDbEntity
  8
외형선
 62
     0
100
AcDbCircle
 10
0.0
 20
0.0
 30
0.0
 40
3.000000000000004
  0
HATCH
  5
10E
330
10A
100
AcDbEntity
  8
0
  6
Continuous
 62
     0
370
    30
100
AcDbHatch
 10
0.0
 20
0.0
 30
0.0
210
0.0
220
0.0
230
1.0
  2
SOLID
 70
     1
 71
     0
 91
        1
 92
        0
 93
        3
 72
     2
 10
0.0000000000000104
 20
0.0
 40
3.000000000000004
 50
0.0
 51
90.0
 73
     1
 72
     1
 10
0.0000000000000104
 20
3.000000000000004
 11
0.0000000000000104
 21
0.0
 72
     1
 10
0.0000000000000104
 20
0.0
 11
3.000000000000015
 21
0.0
 97
        0
 75
     0
 76
     1
 98
        1
 10
0.0
 20
0.0
  0
HATCH
  5
10F
330
10A
100
AcDbEntity
  8
0
  6
Continuous
 62
     0
370
    30
100
AcDbHatch
 10
0.0
 20
0.0
 30
0.0
210
0.0
220
0.0
230
1.0
  2
SOLID
 70
     1
 71
     0
 91
        1
 92
        0
 93
        3
 72
     2
 10
0.0000000000000104
 20
0.0
 40
3.000000000000004
 50
180.0
 51
270.0000000000008
 73
     1
 72
     1
 10
0.0000000000000104
 20
-3.000000000000004
 11
0.0000000000000104
 21
0.0
 72
     1
 10
0.0000000000000104
 20
0.0
 11
-2.999999999999994
 21
0.0
 97
        0
 75
     0
 76
     1
 98
        1
 10
0.0
 20
0.0
  0
ENDBLK
  5
10C
330
10A
100
AcDbEntity
  8
0
100
AcDbBlockEnd
  0
ENDSEC
  0
SECTION
  2
ENTITIES
  0
LINE
  5
95
330
1F
100
AcDbEntity
  8
0
  6
Continuous
 62
     1
370
    15
100
AcDbLine
 10
16.79577721322262
 20
1.562186889089493
 30
0.0
 11
16.76098880050233
 21
1.580043294225562
 31
0.0
  0
SPLINE
  5
96
330
1F
100
AcDbEntity
  8
0
  6
Continuous
 62
     1
370
    15
100
AcDbSpline
210
0.0
220
0.0
230
1.0
 70
     8
 71
     3
 72
     9
 73
     5
 74
     0
 42
0.000000001
 43
0.00000001
 40
0.0
 40
0.0
 40
0.0
 40
0.0
 40
0.4513013169720304
 40
1.0
 40
1.0
 40
1.0
 40
1.0
 10
17.87242449410888
 20
1.024832557552652
 30
0.0
 10
17.71043778173842
 20
1.101738018914775
 30
0.0
 10
17.35150527638412
 20
1.272146254986662
 30
0.0
 10
16.99266977839366
 20
1.459426477589908
 30
0.0
 10
16.79577721322262
 20
1.562186889089493
 30
0.0
  0
SPLINE
  5
97
330
1F
100
AcDbEntity
  8
0
  6
Continuous
 62
     1
370
    15
100
AcDbSpline
210
0.0
220
0.0
230
1.0
 70
     8
 71
     3
 72
     9
 73
     5
 74
     0
 42
0.000000001
 43
0.00000001
 40
0.0
 40
0.0
 40
0.0
 40
0.0
 40
0.5088283622452966
 40
1.0
 40
1.0
 40
1.0
 40
1.0
 10
39.63808184866684
 20
1.024802138355668
 30
0.0
 10
39.44947131920782
 20
1.114602108879125
 30
0.0
 10
39.07879518663784
 20
1.291085923828432
 30
0.0
 10
38.70831936299486
 20
1.484946229518823
 30
0.0
 10
38.52635214594761
 20
1.5801649133604
 30
0.0
  0
LINE
  5
98
330
1F
100
AcDbEntity
  8
0
  6
Continuous
 62
     1
370
    15
100
AcDbLine
 10
30.45847073425611
 20
4.000000000000009
 30
0.0
 11
28.51888615003765
 21
4.000000000000009
 31
0.0
  0
LINE
  5
99
330
1F
100
AcDbEntity
  8
0
  6
Continuous
 62
     1
370
    15
100
AcDbLine
 10
28.51888615003765
 20
-3.999999999999999
 30
0.0
 11
30.45847073425614
 21
-3.999999999999999
 31
0.0
  0
SPLINE
  5
9A
330
1F
100
AcDbEntity
  8
0
  6
Continuous
 62
     1
370
    15
100
AcDbSpline
210
0.0
220
0.0
230
1.0
 70
     8
 71
     3
 72
    19
 73
    15
 74
     0
 42
0.000000001
 43
0.00000001
 40
0.0
 40
0.0
 40
0.0
 40
0.0
 40
0.1050268375321665
 40
0.1819479670012352
 40
0.2320903467456997
 40
0.2746827392170503
 40
0.319106590495276
 40
0.496785989694938
 40
0.607407243256378
 40
0.7109982957817936
 40
0.7525622644331119
 40
0.8091256517254203
 40
0.8918606765486449
 40
1.0
 40
1.0
 40
1.0
 40
1.0
 10
10.56725628643731
 20
-3.325059848543192
 30
0.0
 10
10.77709480479432
 20
-3.305102677939908
 30
0.0
 10
11.14061800239528
 20
-3.270528975601664
 30
0.0
 10
11.60291484158272
 20
-3.233994508364245
 30
0.0
 10
11.93929156383584
 20
-3.210393504702532
 30
0.0
 10
12.21144290220327
 20
-3.193211794804246
 30
0.0
 10
12.73908385017023
 20
-3.163315419446278
 30
0.0
 10
13.4031619500237
 20
-3.136706278510865
 30
0.0
 10
14.1849101167079
 20
-3.123432745810597
 30
0.0
 10
14.69251423113866
 20
-3.12330302377426
 30
0.0
 10
15.09620447652954
 20
-3.127934092610378
 30
0.0
 10
15.45762596339959
 20
-3.134958835760559
 30
0.0
 10
15.95154615753177
 20
-3.149407578044166
 30
0.0
 10
16.33282352685962
 20
-3.168011050667642
 30
0.0
 10
16.54883514465497
 20
-3.178550795591642
 30
0.0
  0
SPLINE
  5
9B
330
1F
100
AcDbEntity
  8
0
  6
Continuous
 62
     1
370
    15
100
AcDbSpline
210
0.0
220
0.0
230
1.0
 70
     8
 71
     3
 72
    10
 73
     6
 74
     0
 42
0.000000001
 43
0.00000001
 40
0.0
 40
0.0
 40
0.0
 40
0.0
 40
0.3836803047883217
 40
0.9201138389860992
 40
1.0
 40
1.0
 40
1.0
 40
1.0
 10
38.31434271532511
 20
3.178546248545862
 30
0.0
 10
37.89683710778327
 20
3.160755524137695
 30
0.0
 10
36.89560591984028
 20
3.11809111960806
 30
0.0
 10
35.80816517371439
 20
3.11422065326568
 30
0.0
 10
35.13785248945338
 20
3.143124034459094
 30
0.0
 10
35.05096786213972
 20
3.146870434552752
 30
0.0
  0
SPLINE
  5
9C
330
1F
100
AcDbEntity
  8
0
  6
Continuous
 62
     1
370
    15
100
AcDbSpline
210
0.0
220
0.0
230
1.0
 70
     8
 71
     3
 72
    12
 73
     8
 74
     0
 42
0.000000001
 43
0.00000001
 40
0.0
 40
0.0
 40
0.0
 40
0.0
 40
0.2086097683880695
 40
0.5008960871766287
 40
0.6987608742557054
 40
0.7918845561582145
 40
1.0
 40
1.0
 40
1.0
 40
1.0
 10
32.29809672356495
 20
-3.328570878145197
 30
0.0
 10
32.71657196957044
 20
-3.290152068187887
 30
0.0
 10
33.72137924644968
 20
-3.197904079369832
 30
0.0
 10
35.12206666539894
 20
-3.13210750134778
 30
0.0
 10
36.29220422766555
 20
-3.120489595894128
 30
0.0
 10
37.29226944504369
 20
-3.133004840677002
 30
0.0
 10
37.89673728880209
 20
-3.159938640255406
 30
0.0
 10
38.31434271532511
 20
-3.17854624854585
 30
0.0
  0
SPLINE
  5
9D
330
1F
100
AcDbEntity
  8
0
  6
Continuous
 62
     1
370
    15
100
AcDbSpline
210
0.0
220
0.0
230
1.0
 70
     8
 71
     3
 72
    15
 73
    11
 74
     0
 42
0.000000001
 43
0.00000001
 40
0.0
 40
0.0
 40
0.0
 40
0.0
 40
0.2007666972653413
 40
0.3533709721672448
 40
0.4563873466262289
 40
0.5335364905777629
 40
0.609565944748333
 40
0.7590902111567784
 40
0.9195002914876914
 40
1.0
 40
1.0
 40
1.0
 40
1.0
 10
16.54883514465497
 20
3.178550795591653
 30
0.0
 10
16.32935399937284
 20
3.167858250491204
 30
0.0
 10
15.94304358665423
 20
3.14903822152946
 30
0.0
 10
15.4445108976762
 20
3.134626872804472
 30
0.0
 10
15.08047766339867
 20
3.127685813225892
 30
0.0
 10
14.80001565002747
 20
3.124597182405415
 30
0.0
 10
14.46983570992369
 20
3.123138236813974
 30
0.0
 10
14.05072531049065
 20
3.125822962240633
 30
0.0
 10
13.62408017095537
 20
3.13252166721111
 30
0.0
 10
13.36111117780683
 20
3.142291874468244
 30
0.0
 10
13.27324041341041
 20
3.145556577160819
 30
0.0
  0
SPLINE
  5
9E
330
1F
100
AcDbEntity
  8
0
  6
Continuous
 62
     1
370
    15
100
AcDbSpline
210
0.0
220
0.0
230
1.0
 70
     8
 71
     3
 72
    14
 73
    10
 74
     0
 42
0.000000001
 43
0.00000001
 40
0.0
 40
0.0
 40
0.0
 40
0.0
 40
0.1798248122937964
 40
0.3096563933689307
 40
0.4118103828755022
 40
0.5308568109000715
 40
0.664067453852185
 40
0.9307799451468857
 40
1.0
 40
1.0
 40
1.0
 40
1.0
 10
41.52653757396412
 20
-3.008510644195709
 30
0.0
 10
41.703313176182
 20
-2.981339219968981
 30
0.0
 10
42.00771886258401
 20
-2.934550319586317
 30
0.0
 10
42.41772170843798
 20
-2.87938456817191
 30
0.0
 10
42.77258482796723
 20
-2.835385662426514
 30
0.0
 10
43.12692840201979
 20
-2.795047444098521
 30
0.0
 10
43.64310905185605
 20
-2.743173456425067
 30
0.0
 10
44.11065128349046
 20
-2.702730605725486
 30
0.0
 10
44.44505210458517
 20
-2.685605360575223
 30
0.0
 10
44.51395654223057
 20
-2.682076644997446
 30
0.0
  0
SPLINE
  5
9F
330
1F
100
AcDbEntity
  8
0
  6
Continuous
 62
     1
370
    15
100
AcDbSpline
210
0.0
220
0.0
230
1.0
 70
     8
 71
     3
 72
    22
 73
    18
 74
     0
 42
0.000000001
 43
0.00000001
 40
0.0
 40
0.0
 40
0.0
 40
0.0
 40
0.0863198979369046
 40
0.1468080820114386
 40
0.1874505992954196
 40
0.22922727090508
 40
0.2736982771824298
 40
0.3732543945954178
 40
0.4811035295650561
 40
0.5930722313651656
 40
0.6898504199896427
 40
0.7395826005086155
 40
0.7874878668597962
 40
0.8202032242580144
 40
0.8666609346691329
 40
0.9267388894042723
 40
1.0
 40
1.0
 40
1.0
 40
1.0
 10
26.74737759256242
 20
2.735806430237539
 30
0.0
 10
26.54658194902969
 20
2.719661143051348
 30
0.0
 10
26.20507988510419
 20
2.692202136472575
 30
0.0
 10
25.76914135242467
 20
2.667737605226939
 30
0.0
 10
25.43496859284125
 20
2.652816478653634
 30
0.0
 10
25.13894200028678
 20
2.642762325082368
 30
0.0
 10
24.70641287912713
 20
2.632760585959938
 30
0.0
 10
24.11978564685688
 20
2.630179740447848
 30
0.0
 10
23.37601288808337
 20
2.646598313597754
 30
0.0
 10
22.63912688954227
 20
2.683777367128796
 30
0.0
 10
22.03665822798682
 20
2.729488155875875
 30
0.0
 10
21.5839927860614
 20
2.772101478124148
 30
0.0
 10
21.28419283762647
 20
2.803832237635012
 30
0.0
 10
20.98966058110319
 20
2.83753878079892
 30
0.0
 10
20.66506008006034
 20
2.877671043129814
 30
0.0
 10
20.2449205388181
 20
2.934145689930623
 30
0.0
 10
19.93261218454354
 20
2.982133050181848
 30
0.0
 10
19.76101913470699
 20
3.008498971510593
 30
0.0
  0
SPLINE
  5
A0
330
1F
100
AcDbEntity
  8
0
  6
Continuous
 62
     1
370
    15
100
AcDbSpline
210
0.0
220
0.0
230
1.0
 70
     8
 71
     3
 72
    16
 73
    12
 74
     0
 42
0.000000001
 43
0.00000001
 40
0.0
 40
0.0
 40
0.0
 40
0.0
 40
0.1719864170771253
 40
0.313024303292584
 40
0.4490665711272881
 40
0.533288059249994
 40
0.6067864326110995
 40
0.6823826825211401
 40
0.7593944172914796
 40
0.8345348491520806
 40
1.0
 40
1.0
 40
1.0
 40
1.0
 10
19.76101913470699
 20
-3.008498971510583
 30
0.0
 10
19.93262243070073
 20
-2.982132826734752
 30
0.0
 10
20.24494943351902
 20
-2.934145059798105
 30
0.0
 10
20.69182415054946
 20
-2.874063265960876
 30
0.0
 10
21.05085203172398
 20
-2.830130111133382
 30
0.0
 10
21.33945910624131
 20
-2.797948033733292
 30
0.0
 10
21.56882376431056
 20
-2.77400533059527
 30
0.0
 10
21.79238069170984
 20
-2.752365107869021
 30
0.0
 10
22.0184874769165
 20
-2.732369261715157
 30
0.0
 10
22.33365371943729
 20
-2.706729717887806
 30
0.0
 10
22.57242843138091
 20
-2.69159139236046
 30
0.0
 10
22.73663448714098
 20
-2.681180722380282
 30
0.0
  0
SPLINE
  5
A1
330
1F
100
AcDbEntity
  8
0
  6
Continuous
 62
     1
370
    15
100
AcDbSpline
210
0.0
220
0.0
230
1.0
 70
     8
 71
     3
 72
    22
 73
    18
 74
     0
 42
0.000000001
 43
0.00000001
 40
0.0
 40
0.0
 40
0.0
 40
0.0
 40
0.0823293191092143
 40
0.1401002355374882
 40
0.1834109563264486
 40
0.2327500289556205
 40
0.2874138817682966
 40
0.3999239877135175
 40
0.5042051329904228
 40
0.5836989584886372
 40
0.658860626608518
 40
0.7294862383732089
 40
0.7586757704304502
 40
0.7915525678256782
 40
0.842606129253307
 40
0.9123080716013731
 40
0.9999999999999999
 40
0.9999999999999999
 40
0.9999999999999999
 40
0.9999999999999999
 10
48.5348859996644
 20
2.737681838136083
 30
0.0
 10
48.34364687345934
 20
2.722079245746837
 30
0.0
 10
48.01821424611341
 20
2.695528232178644
 30
0.0
 10
47.58927646613911
 20
2.670524823726243
 30
0.0
 10
47.23325718715567
 20
2.653980381038558
 30
0.0
 10
46.88804440600677
 20
2.642038223676626
 30
0.0
 10
46.38271392673131
 20
2.631231905201061
 30
0.0
 10
45.75096323433274
 20
2.631397040707926
 30
0.0
 10
45.04929091303618
 20
2.650997607188921
 30
0.0
 10
44.44358692125474
 20
2.682674841689672
 30
0.0
 10
43.92915598301653
 20
2.719260558984288
 30
0.0
 10
43.51832493071674
 20
2.755595520644442
 30
0.0
 10
43.2089767116463
 20
2.786926572267917
 30
0.0
 10
42.9451141657628
 20
2.815467234997477
 30
0.0
 10
42.58677041370137
 20
2.857687594980329
 30
0.0
 10
42.09990553523505
 20
2.920946473011849
 30
0.0
 10
41.73168916732929
 20
2.977180101763159
 30
0.0
 10
41.52653757396412
 20
3.008510644195722
 30
0.0
  0
LINE
  5
A2
330
1F
100
AcDbEntity
  8
0
  6
Continuous
 62
   131
370
    15
100
AcDbLine
 10
8.69102926109464
 20
4.000000000000005
 30
0.0
 11
-39.18999999999999
 21
4.000000000000003
 31
0.0
  0
LINE
  5
A3
330
1F
100
AcDbEntity
  8
0
  6
Continuous
 62
   131
370
    15
100
AcDbLine
 10
-39.18999999999999
 20
-3.999999999999998
 30
0.0
 11
8.691029261094625
 21
-3.999999999999996
 31
0.0
  0
LINE
  5
A4
330
1F
100
AcDbEntity
  8
0
  6
Continuous
 62
   131
370
    15
100
AcDbLine
 10
-39.18999999999999
 20
3.999999999999999
 30
0.0
 11
-39.99999999999999
 21
3.189999999999998
 31
0.0
  0
LINE
  5
A5
330
1F
100
AcDbEntity
  8
0
  6
Continuous
 62
   131
370
    15
100
AcDbLine
 10
-39.99999999999999
 20
-3.189999999999996
 30
0.0
 11
-39.18999999999999
 21
-3.999999999999995
 31
0.0
  0
SPLINE
  5
A6
330
1F
100
AcDbEntity
  8
0
  6
Continuous
 62
     1
370
    15
100
AcDbSpline
210
0.0
220
0.0
230
1.0
 70
     8
 71
     3
 72
    23
 73
    19
 74
     0
 42
0.000000001
 43
0.00000001
 40
0.0
 40
0.0
 40
0.0
 40
0.0
 40
0.067809515210279
 40
0.1361806906733425
 40
0.1983163794475398
 40
0.2608825661518061
 40
0.3229473730054129
 40
0.385443766220383
 40
0.4475081227358615
 40
0.510000916733131
 40
0.5720654403682482
 40
0.6345600376934092
 40
0.6966244847529162
 40
0.7591190478314601
 40
0.8211834979670305
 40
0.8836763575359075
 40
0.9457409532613739
 40
1.0
 40
1.0
 40
1.0
 40
1.0
 10
10.00000000000001
 20
3.568705967904258
 30
0.0
 10
10.4187387743818
 20
3.44836327288226
 30
0.0
 10
11.25968469959876
 20
3.20668109487573
 30
0.0
 10
12.48391549658653
 20
2.720862893198507
 30
0.0
 10
13.67521177984864
 20
2.174243363208801
 30
0.0
 10
14.82844277866653
 20
1.584431073386434
 30
0.0
 10
15.98382258574241
 20
0.9501968952009981
 30
0.0
 10
17.13536175497261
 20
0.2899173836693275
 30
0.0
 10
18.2900385415366
 20
-0.378938803749309
 30
0.0
 10
19.44259109315677
 20
-1.034957733472287
 30
0.0
 10
20.59677496495227
 20
-1.665514268278508
 30
0.0
 10
21.74857919119432
 20
-2.2481118232265
 30
0.0
 10
22.90392507915897
 20
-2.768676888938199
 30
0.0
 10
24.05558609049225
 20
-3.212853826305614
 30
0.0
 10
25.20985057239719
 20
-3.569562599289454
 30
0.0
 10
26.36254670789894
 20
-3.823307156127342
 30
0.0
 10
27.46612603076451
 20
-3.976240945270801
 30
0.0
 10
28.1840235635514
 20
-3.988088788211931
 30
0.0
 10
28.51888615003765
 20
-3.993615202707533
 30
0.0
  0
SPLINE
  5
A7
330
1F
100
AcDbEntity
  8
0
  6
Continuous
 62
     1
370
    15
100
AcDbSpline
210
0.0
220
0.0
230
1.0
 70
     8
 71
     3
 72
    12
 73
     8
 74
     0
 42
0.000000001
 43
0.00000001
 40
0.0
 40
0.0
 40
0.0
 40
0.0
 40
0.0679415027269084
 40
0.2961050345675384
 40
0.5261524907729886
 40
0.7620405117623222
 40
1.0
 40
1.0
 40
1.0
 40
1.0
 10
44.5113241824106
 20
2.680919325061022
 30
0.0
 10
44.6355789674362
 20
2.736424380911632
 30
0.0
 10
45.17711051941072
 20
2.978328457531483
 30
0.0
 10
46.14012512962088
 20
3.319776974862563
 30
0.0
 10
47.40964853907983
 20
3.680820644829995
 30
0.0
 10
48.69736318468293
 20
3.924557834104514
 30
0.0
 10
49.56452410409486
 20
3.972528882055452
 30
0.0
 10
50.00000000000003
 20
4.000000000000147
 30
0.0
  0
SPLINE
  5
A8
330
1F
100
AcDbEntity
  8
0
  6
Continuous
 62
     1
370
    15
100
AcDbSpline
210
0.0
220
0.0
230
1.0
 70
    24
 71
     3
 72
    10
 73
     6
 74
     0
 42
0.000000001
 43
0.00000001
 40
0.0
 40
0.0
 40
0.0
 40
0.0
 40
0.5
 40
0.5
 40
1.0
 40
1.0
 40
1.0
 40
1.0
 10
50.00000000000001
 20
2.80000000000001
 30
0.0
 10
50.0
 20
2.969729027229264
 30
0.0
 10
50.00000000000001
 20
3.166969875468479
 30
0.0
 10
50.0
 20
3.580780643843432
 30
0.0
 10
50.00000000000001
 20
3.796293743205902
 30
0.0
 10
50.00000000000003
 20
4.000000000000147
 30
0.0
  0
LINE
  5
A9
330
1F
100
AcDbEntity
  8
0
  6
Continuous
 62
     1
370
    15
100
AcDbLine
 10
50.00000000000001
 20
2.800000000000011
 30
0.0
 11
48.53240336870482
 21
2.726328065031081
 31
0.0
  0
SPLINE
  5
AA
330
1F
100
AcDbEntity
  8
0
  6
Continuous
 62
     1
370
    15
100
AcDbSpline
210
0.0
220
0.0
230
1.0
 70
     8
 71
     3
 72
    12
 73
     8
 74
     0
 42
0.000000001
 43
0.00000001
 40
0.0
 40
0.0
 40
0.0
 40
0.0
 40
0.1394536428962188
 40
0.3482682703307914
 40
0.5570799532525554
 40
0.7785617749879546
 40
1.0
 40
1.0
 40
1.0
 40
1.0
 10
18.28549621294457
 20
-0.3743895028469456
 30
0.0
 10
17.90035438305047
 20
-0.2199809773241952
 30
0.0
 10
16.93851017343685
 20
0.1656352675533651
 30
0.0
 10
15.39996465962655
 20
0.7872557835756255
 30
0.0
 10
13.63491810298487
 20
1.444498908733997
 30
0.0
 10
11.83484709080061
 20
2.032365496804482
 30
0.0
 10
10.6115755612997
 20
2.306794730942535
 30
0.0
 10
10.00000000000001
 20
2.443995841944848
 30
0.0
  0
SPLINE
  5
AB
330
1F
100
AcDbEntity
  8
0
  6
Continuous
 62
   131
370
    15
100
AcDbSpline
210
0.0
220
0.0
230
1.0
 70
    24
 71
     3
 72
    10
 73
     6
 74
     0
 42
0.000000001
 43
0.00000001
 40
0.0
 40
0.0
 40
0.0
 40
0.0
 40
0.5
 40
0.5
 40
1.0
 40
1.0
 40
1.0
 40
1.0
 10
10.00000000000001
 20
3.568705967904254
 30
0.0
 10
10.00000000000001
 20
3.418863464960593
 30
0.0
 10
10.00000000000001
 20
3.236684626676434
 30
0.0
 10
10.00000000000001
 20
2.846659744924174
 30
0.0
 10
10.00000000000001
 20
2.639963307800263
 30
0.0
 10
10.00000000000001
 20
2.443995841944847
 30
0.0
  0
SPLINE
  5
AC
330
1F
100
AcDbEntity
  8
0
  6
Continuous
 62
     1
370
    15
100
AcDbSpline
210
0.0
220
0.0
230
1.0
 70
     8
 71
     3
 72
    31
 73
    27
 74
     0
 42
0.000000001
 43
0.00000001
 40
0.0
 40
0.0
 40
0.0
 40
0.0
 40
0.0059377541228577
 40
0.048391799485063
 40
0.090553658879524
 40
0.133006547007034
 40
0.1751685053041795
 40
0.2176232387014169
 40
0.259784998716678
 40
0.3022382042365793
 40
0.3444000995035006
 40
0.3868535592694572
 40
0.4290156296205152
 40
0.4714707524129078
 40
0.5136325592790941
 40
0.556085373933366
 40
0.5982472868853338
 40
0.6407014673102567
 40
0.6830089275884512
 40
0.7253166430912774
 40
0.768829869369927
 40
0.8123426266371105
 40
0.8582802681131342
 40
0.9045972122820154
 40
0.9520900751829351
 40
1.0
 40
1.0
 40
1.0
 40
1.0
 10
22.73918096086058
 20
2.682324015141238
 30
0.0
 10
22.79315494256676
 20
2.70674213940896
 30
0.0
 10
23.23303474326129
 20
2.905746164990987
 30
0.0
 10
24.05556577381548
 20
3.208745926466596
 30
0.0
 10
25.20985893658082
 20
3.57022097505795
 30
0.0
 10
26.36253360920202
 20
3.824813714936515
 30
0.0
 10
27.51700221000053
 20
3.97664243907632
 30
0.0
 10
28.66855788191096
 20
4.017538793628441
 30
0.0
 10
29.82373580365749
 20
3.947530445243582
 30
0.0
 10
30.97579803746457
 20
3.768763050117308
 30
0.0
 10
32.12994712834313
 20
3.484741653597764
 30
0.0
 10
33.28217727562958
 20
3.105607004049486
 30
0.0
 10
34.43721725283381
 20
2.640072775063584
 30
0.0
 10
35.58875885354001
 20
2.101491999780137
 30
0.0
 10
36.74334466192757
 20
1.504014550726674
 30
0.0
 10
37.89597751033968
 20
0.8675665998015823
 30
0.0
 10
39.05011528849526
 20
0.203776895847383
 30
0.0
 10
40.20345538654725
 20
-0.4641211545091278
 30
0.0
 10
41.35779623742422
 20
-1.120275635989004
 30
0.0
 10
42.52251061766507
 20
-1.749632295628015
 30
0.0
 10
43.69856565129486
 20
-2.334409546501533
 30
0.0
 10
44.90590980164412
 20
-2.868714664689076
 30
0.0
 10
46.14012264481195
 20
-3.323493357340536
 30
0.0
 10
47.40964922267001
 20
-3.67979823924588
 30
0.0
 10
48.69736301023526
 20
-3.924818745183284
 30
0.0
 10
49.56452404577641
 20
-3.97261610551208
 30
0.0
 10
49.99999999999984
 20
-3.999999999999845
 30
0.0
  0
SPLINE
  5
AD
330
1F
100
AcDbEntity
  8
0
  6
Continuous
 62
     1
370
    15
100
AcDbSpline
210
0.0
220
0.0
230
1.0
 70
     8
 71
     3
 72
    16
 73
    12
 74
     0
 42
0.000000001
 43
0.00000001
 40
0.0
 40
0.0
 40
0.0
 40
0.0
 40
0.0318478487287775
 40
0.1618898550686305
 40
0.2919348226586982
 40
0.4219823850087543
 40
0.5520321748067512
 40
0.6820838240346044
 40
0.8121369640844549
 40
0.9421912258753272
 40
1.0
 40
1.0
 40
1.0
 40
1.0
 10
40.04510811182493
 20
-0.3707503998555298
 30
0.0
 10
39.90388338308133
 20
-0.315083815969023
 30
0.0
 10
39.18600598222095
 20
-0.0321179153740072
 30
0.0
 10
37.89145814694021
 20
0.4997739457987869
 30
0.0
 10
36.16145355228661
 20
1.170591366699608
 30
0.0
 10
34.43141049754706
 20
1.771384964734935
 30
0.0
 10
32.70133485769905
 20
2.260967545688982
 30
0.0
 10
30.9712319170224
 20
2.613083422074702
 30
0.0
 10
29.24110706138455
 20
2.793347390885457
 30
0.0
 10
27.83133555337778
 20
2.828612419513805
 30
0.0
 10
26.99827275227972
 20
2.741181841377164
 30
0.0
 10
26.74192461510815
 20
2.714277908315193
 30
0.0
  0
SPLINE
  5
AE
330
1F
100
AcDbEntity
  8
0
  6
Continuous
 62
     1
370
    15
100
AcDbSpline
210
0.0
220
0.0
230
1.0
 70
     8
 71
     3
 72
    24
 73
    20
 74
     0
 42
0.000000001
 43
0.00000001
 40
0.0
 40
0.0
 40
0.0
 40
0.0
 40
0.0541456302470515
 40
0.1133411855644839
 40
0.1725285449140633
 40
0.231715040887176
 40
0.2909080092070053
 40
0.3501147621311734
 40
0.4093425620342757
 40
0.4685903493744791
 40
0.5278176672093573
 40
0.5870240798248741
 40
0.6462168508255901
 40
0.7051554881194098
 40
0.7640954518706713
 40
0.8230448079803998
 40
0.8820115860939616
 40
0.9410037487662571
 40
0.9999999999999999
 40
0.9999999999999999
 40
0.9999999999999999
 40
0.9999999999999999
 10
35.04383737923001
 20
-3.149099156203146
 30
0.0
 10
34.59182304926818
 20
-3.300242077051815
 30
0.0
 10
33.64563699849632
 20
-3.61662435500304
 30
0.0
 10
32.20545305505903
 20
-3.900889630012796
 30
0.0
 10
30.72322201945544
 20
-4.028265208018239
 30
0.0
 10
29.2410193338858
 20
-3.968438495265036
 30
0.0
 10
27.75862211934428
 20
-3.728458801632587
 30
0.0
 10
26.2758092610073
 20
-3.318071604463552
 30
0.0
 10
24.79244051775726
 20
-2.756248451489848
 30
0.0
 10
23.30873216270652
 20
-2.06876031663987
 30
0.0
 10
21.82537328866687
 20
-1.286707289473114
 30
0.0
 10
20.34257138461049
 20
-0.4460087251081427
 30
0.0
 10
18.86224510961735
 20
0.4137429053698248
 30
0.0
 10
17.38419164221578
 20
1.253491298772555
 30
0.0
 10
15.90816029428801
 20
2.035114303819504
 30
0.0
 10
14.43184454967851
 20
2.72561372283368
 30
0.0
 10
12.9550183036413
 20
3.289425124125737
 30
0.0
 10
11.47762562375709
 20
3.717083590477443
 30
0.0
 10
10.49255325290096
 20
3.858288023732282
 30
0.0
 10
9.999999999996586
 20
3.928892686883826
 30
0.0
  0
SPLINE
  5
AF
330
1F
100
AcDbEntity
  8
0
  6
Continuous
 62
     1
370
    15
100
AcDbSpline
210
0.0
220
0.0
230
1.0
 70
     8
 71
     3
 72
    16
 73
    12
 74
     0
 42
0.000000001
 43
0.00000001
 40
0.0
 40
0.0
 40
0.0
 40
0.0
 40
0.0922584928363053
 40
0.2120337363628043
 40
0.3318099720557607
 40
0.4515868730448153
 40
0.5713641122500964
 40
0.6911413624852035
 40
0.8109182965602613
 40
0.9306945873849792
 40
1.0
 40
1.0
 40
1.0
 40
1.0
 10
32.30385173073835
 20
-3.309593891420285
 30
0.0
 10
31.85963395074076
 20
-3.349705079454356
 30
0.0
 10
30.83870728311355
 20
-3.441890902215472
 30
0.0
 10
29.24106343230579
 20
-3.336140103380551
 30
0.0
 10
27.51091846881428
 20
-3.039298804988909
 30
0.0
 10
25.78076236074281
 20
-2.547280272604695
 30
0.0
 10
24.05060067851152
 20
-1.899221188676234
 30
0.0
 10
22.32043877549934
 20
-1.132122413382109
 30
0.0
 10
20.59028223199125
 20
-0.2977479198426447
 30
0.0
 10
19.10314564456543
 20
0.4443916795251125
 30
0.0
 10
18.19272962691461
 20
0.8678201800658208
 30
0.0
 10
17.85902860451651
 20
1.023022330295475
 30
0.0
  0
SPLINE
  5
B0
330
1F
100
AcDbEntity
  8
0
  6
Continuous
 62
     1
370
    15
100
AcDbSpline
210
0.0
220
0.0
230
1.0
 70
     8
 71
     3
 72
    21
 73
    17
 74
     0
 42
0.000000001
 43
0.00000001
 40
0.0
 40
0.0
 40
0.0
 40
0.0
 40
0.0759213193018212
 40
0.1518111364844055
 40
0.2276787152432481
 40
0.3035333996358416
 40
0.3793845804334663
 40
0.4552416611152124
 40
0.5311140237645183
 40
0.6070109951297956
 40
0.6829391710172409
 40
0.7588515863467998
 40
0.8347348514237124
 40
0.9105982535937522
 40
0.9864511520359012
 40
1.0
 40
1.0
 40
1.0
 40
1.0
 10
50.00000000000001
 20
-3.795763476927592
 30
0.0
 10
49.50539808502677
 20
-3.688931888122094
 30
0.0
 10
48.51639948081451
 20
-3.475313038263565
 30
0.0
 10
47.03331443231313
 20
-2.949793575898326
 30
0.0
 10
45.55073900085164
 20
-2.302161977412592
 30
0.0
 10
44.06846881305937
 20
-1.546205430016665
 30
0.0
 10
42.58627961153031
 20
-0.7206107301374151
 30
0.0
 10
41.10395348390433
 20
0.1381222395081957
 30
0.0
 10
39.6212651349252
 20
0.9905758352315049
 30
0.0
 10
38.13803284078629
 20
1.79787136961871
 30
0.0
 10
36.65435032298006
 20
2.523274200975684
 30
0.0
 10
35.17086526999224
 20
3.132449554634222
 30
0.0
 10
33.68792726514963
 20
3.603047547616426
 30
0.0
 10
32.20545078819962
 20
3.892708970127017
 30
0.0
 10
31.12902419298803
 20
4.018710622383248
 30
0.0
 10
30.54671915010767
 20
3.990818310588625
 30
0.0
 10
30.45847073425611
 20
3.986591226587879
 30
0.0
  0
SPLINE
  5
B1
330
1F
100
AcDbEntity
  8
0
  6
Continuous
 62
     1
370
    15
100
AcDbSpline
210
0.0
220
0.0
230
1.0
 70
     8
 71
     3
 72
    10
 73
     6
 74
     0
 42
0.000000001
 43
0.00000001
 40
0.0
 40
0.0
 40
0.0
 40
0.0
 40
0.0961070475477773
 40
0.5480378628214467
 40
1.0
 40
1.0
 40
1.0
 40
1.0
 10
13.26938571687337
 20
-3.147024119909221
 30
0.0
 10
13.16465834533751
 20
-3.187632816702735
 30
0.0
 10
12.56746421296242
 20
-3.41919859642995
 30
0.0
 10
11.47761891449699
 20
-3.71054099368786
 30
0.0
 10
10.49255101642926
 20
-3.856107107755096
 30
0.0
 10
9.999999999996586
 20
-3.928892686883817
 30
0.0
  0
SPLINE
  5
B2
330
1F
100
AcDbEntity
  8
0
  6
Continuous
 62
   131
370
    15
100
AcDbSpline
210
0.0
220
0.0
230
1.0
 70
    24
 71
     3
 72
     8
 73
     4
 74
     0
 42
0.000000001
 43
0.00000001
 40
0.0
 40
0.0
 40
0.0
 40
0.0
 40
1.0
 40
1.0
 40
1.0
 40
1.0
 10
10.00000000000009
 20
-3.371955260093234
 30
0.0
 10
10.00000000000009
 20
-3.564978870988183
 30
0.0
 10
10.00000000000009
 20
-3.751850568906542
 30
0.0
 10
10.00000000000009
 20
-3.928892686876998
 30
0.0
  0
SPLINE
  5
B3
330
1F
100
AcDbEntity
  8
0
  6
Continuous
 62
     1
370
    15
100
AcDbSpline
210
0.0
220
0.0
230
1.0
 70
     8
 71
     3
 72
    13
 73
     9
 74
     0
 42
0.000000001
 43
0.00000001
 40
0.0
 40
0.0
 40
0.0
 40
0.0
 40
0.166786152103178
 40
0.3335786344297236
 40
0.5003770042448547
 40
0.6671808169780321
 40
0.8339896263590312
 40
1.0
 40
1.0
 40
1.0
 40
1.0
 10
50.00000000000001
 20
-3.155889057472856
 30
0.0
 10
49.42346941300484
 20
-3.031569305308393
 30
0.0
 10
48.27038635729742
 20
-2.78292508253138
 30
0.0
 10
46.54071795240373
 20
-2.185007490148343
 30
0.0
 10
44.81098022546043
 20
-1.465289654529387
 30
0.0
 10
43.08117736446172
 20
-0.6521558141114786
 30
0.0
 10
41.35409125669588
 20
0.2036761989728552
 30
0.0
 10
40.20360321875106
 20
0.7540617235915015
 30
0.0
 10
39.62973921453565
 20
1.028594296380406
 30
0.0
  0
LINE
  5
B4
330
1F
100
AcDbEntity
  8
0
  6
Continuous
 62
     1
370
    15
100
AcDbLine
 10
10.57393949892817
 20
-3.299493542220502
 30
0.0
 11
10.00000000000012
 21
-3.371955260093232
 31
0.0
  0
LINE
  5
B5
330
1F
100
AcDbEntity
  8
0
  6
Continuous
 62
     1
370
    15
100
AcDbLine
 10
50.00000000000001
 20
-3.795763476927595
 30
0.0
 11
50.00000000000001
 21
-3.155889057472856
 31
0.0
  0
LINE
  5
B6
330
1F
100
AcDbEntity
  8
0
  6
Continuous
 62
     1
370
    15
100
AcDbLine
 10
49.99999999999984
 20
-3.999999999999845
 30
0.0
 11
50.0
 21
-3.795763476927599
 31
0.0
  0
LINE
  5
B7
330
1F
100
AcDbEntity
  8
0
  6
Continuous
 62
   131
370
    15
100
AcDbLine
 10
10.00000000000001
 20
3.568705967904254
 30
0.0
 11
10.00000000000001
 21
3.928892686866902
 31
0.0
  0
SPLINE
  5
B8
330
1F
100
AcDbEntity
  8
0
  6
Continuous
 62
     1
370
    15
100
AcDbSpline
210
0.0
220
0.0
230
1.0
 70
     8
 71
     3
 72
     8
 73
     4
 74
     0
 42
0.000000001
 43
0.00000001
 40
0.0
 40
0.0
 40
0.0
 40
0.0
 40
1.0
 40
1.0
 40
1.0
 40
1.0
 10
47.52471855126647
 20
1.119153604316241
 30
0.0
 10
47.34554341134242
 20
1.331446846975075
 30
0.0
 10
47.19000160100913
 20
1.534373798641812
 30
0.0
 10
47.06722270051491
 20
1.723135374418817
 30
0.0
  0
LINE
  5
B9
330
1F
100
AcDbEntity
  8
0
  6
Continuous
 62
     1
370
    15
100
AcDbLine
 10
47.0672227005149
 20
1.723135374418818
 30
0.0
 11
50.00000000000001
 21
0.0000000000000098
 31
0.0
  0
LINE
  5
BA
330
1F
100
AcDbEntity
  8
0
  6
Continuous
 62
     1
370
    15
100
AcDbLine
 10
50.00000000000001
 20
0.0000000000000098
 30
0.0
 11
50.00000000000001
 21
-1.06897178411857
 31
0.0
  0
SPLINE
  5
BB
330
1F
100
AcDbEntity
  8
0
  6
Continuous
 62
     1
370
    15
100
AcDbSpline
210
0.0
220
0.0
230
1.0
 70
     8
 71
     3
 72
    10
 73
     6
 74
     0
 42
0.000000001
 43
0.00000001
 40
0.0
 40
0.0
 40
0.0
 40
0.0
 40
0.5
 40
0.5
 40
1.0
 40
1.0
 40
1.0
 40
1.0
 10
50.00000000000001
 20
-1.068971784118574
 30
0.0
 10
49.57151703976395
 20
-0.732111080404268
 30
0.0
 10
49.15019312186347
 20
-0.3814365541690239
 30
0.0
 10
48.32222625633987
 20
0.3482403539476162
 30
0.0
 10
47.91171971059742
 20
0.7310712194881251
 30
0.0
 10
47.52471855126642
 20
1.11915360431626
 30
0.0
  0
SPLINE
  5
BC
330
1F
100
AcDbEntity
  8
0
  6
Continuous
 62
   131
370
    15
100
AcDbSpline
210
0.0
220
0.0
230
1.0
 70
    24
 71
     3
 72
    14
 73
    10
 74
     0
 42
0.000000001
 43
0.00000001
 40
0.0
 40
0.0
 40
0.0
 40
0.0
 40
0.2499999999999998
 40
0.2499999999999998
 40
0.4999999999999999
 40
0.4999999999999999
 40
0.75
 40
0.75
 40
1.0
 40
1.0
 40
1.0
 40
1.0
 10
10.00000000000001
 20
-1.561531147928562
 30
0.0
 10
10.00000000000001
 20
-1.811593060231264
 30
0.0
 10
10.00000000000001
 20
-2.048382537833037
 30
0.0
 10
10.00000000000001
 20
-2.474983287110937
 30
0.0
 10
10.00000000000001
 20
-2.664628883054983
 30
0.0
 10
10.00000000000001
 20
-2.981045352210849
 30
0.0
 10
10.00000000000001
 20
-3.107724853951547
 30
0.0
 10
10.00000000000001
 20
-3.291327379458017
 30
0.0
 10
10.00000000000001
 20
-3.348276074446207
 30
0.0
 10
10.00000000000001
 20
-3.371955260093237
 30
0.0
  0
SPLINE
  5
BD
330
1F
100
AcDbEntity
  8
0
  6
Continuous
 62
     1
370
    15
100
AcDbSpline
210
0.0
220
0.0
230
1.0
 70
     8
 71
     3
 72
    13
 73
     9
 74
     0
 42
0.000000001
 43
0.00000001
 40
0.0
 40
0.0
 40
0.0
 40
0.0
 40
0.1472561344110559
 40
0.2946188811575713
 40
0.4823808059651518
 40
0.6701484333203841
 40
0.857921252178892
 40
0.9999999999999999
 40
0.9999999999999999
 40
0.9999999999999999
 40
0.9999999999999999
 10
47.52471855126642
 20
1.119153604316259
 30
0.0
 10
47.07262595974752
 20
1.310758429605051
 30
0.0
 10
46.16811346506852
 20
1.694106800637242
 30
0.0
 10
44.68700722596664
 20
2.237860080366641
 30
0.0
 10
43.08117112451342
 20
2.719960518699763
 30
0.0
 10
41.35133490560288
 20
3.062754401813991
 30
0.0
 10
39.76175424282111
 20
3.225666692681416
 30
0.0
 10
38.74879795661194
 20
3.179841261570437
 30
0.0
 10
38.31248182147619
 20
3.160102625989134
 30
0.0
  0
SPLINE
  5
BE
330
1F
100
AcDbEntity
  8
0
  6
Continuous
 62
     1
370
    15
100
AcDbSpline
210
0.0
220
0.0
230
1.0
 70
     8
 71
     3
 72
    13
 73
     9
 74
     0
 42
0.000000001
 43
0.00000001
 40
0.0
 40
0.0
 40
0.0
 40
0.0
 40
0.0933958481895155
 40
0.2704313471132817
 40
0.4474649033089461
 40
0.6244960280083798
 40
0.8122660123066906
 40
1.0
 40
1.0
 40
1.0
 40
1.0
 10
19.77292463342191
 20
-2.983134440705667
 30
0.0
 10
19.46867861527316
 20
-3.035273429260755
 30
0.0
 10
18.5877223186414
 20
-3.186243918692627
 30
0.0
 10
17.13006694421147
 20
-3.225862447544376
 30
0.0
 10
15.39995064473502
 20
-3.107941259326735
 30
0.0
 10
13.63492154580699
 20
-2.779563825912244
 30
0.0
 10
11.83483355249046
 20
-2.269641882390458
 30
0.0
 10
10.61157209601996
 20
-1.797552974268769
 30
0.0
 10
10.0
 20
-1.561531147928561
 30
0.0
  0
SPLINE
  5
BF
330
1F
100
AcDbEntity
  8
0
  6
Continuous
 62
     1
370
    15
100
AcDbSpline
210
0.0
220
0.0
230
1.0
 70
    24
 71
     3
 72
    10
 73
     6
 74
     0
 42
0.000000001
 43
0.00000001
 40
0.0
 40
0.0
 40
0.0
 40
0.0
 40
0.5
 40
0.5
 40
1.0
 40
1.0
 40
1.0
 40
1.0
 10
50.00000000000001
 20
-3.155889057472854
 30
0.0
 10
50.0
 20
-2.91396555601521
 30
0.0
 10
50.00000000000001
 20
-2.608285935625867
 30
0.0
 10
50.0
 20
-1.897610236602713
 30
0.0
 10
50.00000000000001
 20
-1.493229772205234
 30
0.0
 10
50.00000000000001
 20
-1.068971784118702
 30
0.0
  0
SPLINE
  5
C0
330
1F
100
AcDbEntity
  8
0
  6
Continuous
 62
     1
370
    15
100
AcDbSpline
210
0.0
220
0.0
230
1.0
 70
     8
 71
     3
 72
    23
 73
    19
 74
     0
 42
0.000000001
 43
0.00000001
 40
0.0
 40
0.0
 40
0.0
 40
0.0
 40
0.007180751400202
 40
0.0764185351948831
 40
0.1456580442218548
 40
0.2148990888994091
 40
0.2841414791625833
 40
0.3533850245225879
 40
0.4226295341265237
 40
0.4918748168173387
 40
0.5611206811939955
 40
0.6303669356717981
 40
0.6996133885428443
 40
0.768859848036562
 40
0.8381061223802879
 40
0.9073520198598448
 40
0.9765973488800825
 40
1.0
 40
1.0
 40
1.0
 40
1.0
 10
41.53075633388671
 20
-2.999423729227284
 30
0.0
 10
41.47095256921975
 20
-3.011609068037474
 30
0.0
 10
40.83451275390168
 20
-3.141287104614804
 30
0.0
 10
39.62141640885934
 20
-3.213158405840005
 30
0.0
 10
37.89145483352123
 20
-3.186033012484811
 30
0.0
 10
36.16144912711461
 20
-2.942617321770541
 30
0.0
 10
34.4314055272842
 20
-2.52167977051613
 30
0.0
 10
32.7013291930958
 20
-1.942983786806882
 30
0.0
 10
30.97122558644966
 20
-1.244121333502369
 30
0.0
 10
29.24110009985382
 20
-0.4679923910565388
 30
0.0
 10
27.51095815344896
 20
0.3371614714561117
 30
0.0
 10
25.78080516868008
 20
1.121340105714074
 30
0.0
 10
24.05064656608875
 20
1.836220645344361
 30
0.0
 10
22.32048778995755
 20
2.436229621696335
 30
0.0
 10
20.59033420141008
 20
2.888739813534658
 30
0.0
 10
18.86019147082694
 20
3.148542514119328
 30
0.0
 10
17.51185847298383
 20
3.238123528807254
 30
0.0
 10
16.74024141839355
 20
3.172816497123987
 30
0.0
 10
16.54533285482382
 20
3.156320102104377
 30
0.0
  0
SPLINE
  5
C1
330
1F
100
AcDbEntity
  8
0
  6
Continuous
 62
   131
370
    15
100
AcDbSpline
210
0.0
220
0.0
230
1.0
 70
    24
 71
     3
 72
    14
 73
    10
 74
     0
 42
0.000000001
 43
0.00000001
 40
0.0
 40
0.0
 40
0.0
 40
0.0
 40
0.2499999999999998
 40
0.2499999999999998
 40
0.4999999999999999
 40
0.4999999999999999
 40
0.75
 40
0.75
 40
1.0
 40
1.0
 40
1.0
 40
1.0
 10
9.999999999999996
 20
2.443995841944851
 30
0.0
 10
9.999999999999996
 20
2.209204842067674
 30
0.0
 10
9.999999999999996
 20
1.934344590698277
 30
0.0
 10
9.999999999999996
 20
1.320142506302562
 30
0.0
 10
9.999999999999996
 20
0.9809738727146479
 30
0.0
 10
9.999999999999996
 20
0.2690762428245462
 30
0.0
 10
9.999999999999996
 20
-0.1032734246572617
 30
0.0
 10
9.999999999999996
 20
-0.843905969195173
 30
0.0
 10
9.999999999999996
 20
-1.211838068409733
 30
0.0
 10
9.999999999999996
 20
-1.561531147928557
 30
0.0
  0
SPLINE
  5
C2
330
1F
100
AcDbEntity
  8
0
  6
Continuous
 62
     1
370
    15
100
AcDbSpline
210
0.0
220
0.0
230
1.0
 70
     8
 71
     3
 72
    10
 73
     6
 74
     0
 42
0.000000001
 43
0.00000001
 40
0.0
 40
0.0
 40
0.0
 40
0.0
 40
0.5
 40
0.5
 40
1.0
 40
1.0
 40
1.0
 40
1.0
 10
50.00000000000001
 20
2.800000000000011
 30
0.0
 10
49.50223746009664
 20
2.664946022532468
 30
0.0
 10
49.00821511501304
 20
2.5101206499319
 30
0.0
 10
48.02867820086084
 20
2.155496150848269
 30
0.0
 10
47.54303221981856
 20
1.956264825614537
 30
0.0
 10
47.06722270051286
 20
1.723135374420448
 30
0.0
  0
LINE
  5
C3
330
1F
100
AcDbEntity
  8
0
  6
Continuous
 62
     1
370
    15
100
AcDbLine
 10
50.00000000000001
 20
0.0000000000000098
 30
0.0
 11
50.00000000000001
 21
2.80000000000001
 31
0.0
  0
SPLINE
  5
C4
330
1F
100
AcDbEntity
  8
0
  6
Continuous
 62
   131
370
    15
100
AcDbSpline
210
0.0
220
0.0
230
1.0
 70
     8
 71
     3
 72
    10
 73
     6
 74
     0
 42
0.000000001
 43
0.00000001
 40
0.0
 40
0.0
 40
0.0
 40
0.0
 40
0.5
 40
0.5
 40
1.0
 40
1.0
 40
1.0
 40
1.0
 10
10.00000000000001
 20
-3.928892686883446
 30
0.0
 10
9.747437677977544
 20
-3.956320500612483
 30
0.0
 10
9.49578864518208
 20
-3.975866526082454
 30
0.0
 10
8.98781537811277
 20
-3.999038159301205
 30
0.0
 10
8.733041257474689
 20
-4.002601083974149
 30
0.0
 10
8.479774692646831
 20
-3.99813171716822
 30
0.0
  0
LINE
  5
C5
330
1F
100
AcDbEntity
  8
0
  6
Continuous
 62
   131
370
    15
100
AcDbLine
 10
10.00000000000001
 20
3.928892686883455
 30
0.0
 11
8.69102926109464
 21
3.988510076618105
 31
0.0
  0
SPLINE
  5
C6
330
1F
100
AcDbEntity
  8
0
  6
Continuous
 62
   131
370
    15
100
AcDbSpline
210
0.0
220
0.0
230
1.0
 70
     8
 71
     3
 72
    10
 73
     6
 74
     0
 42
0.000000001
 43
0.00000001
 40
0.0
 40
0.0
 40
0.0
 40
0.0
 40
0.4999999999999999
 40
0.4999999999999999
 40
1.0
 40
1.0
 40
1.0
 40
1.0
 10
8.479889931341141
 20
3.876371306446867
 30
0.0
 10
8.733137746053742
 20
3.840295132938651
 30
0.0
 10
8.987892541792938
 20
3.796352543853341
 30
0.0
 10
9.495827047703008
 20
3.693483034290152
 30
0.0
 10
9.747456831003143
 20
3.634698135348738
 30
0.0
 10
10.00000000000001
 20
3.568705967904251
 30
0.0
  0
LINE
  5
C7
330
1F
100
AcDbEntity
  8
0
  6
Continuous
 62
   131
370
    15
100
AcDbLine
 10
8.479889931341145
 20
-3.998126474606841
 30
0.0
 11
8.479889931341141
 21
3.876370281777448
 31
0.0
  0
LINE
  5
C8
330
1F
100
AcDbEntity
  8
0
  6
Continuous
 62
   131
370
    15
100
AcDbLine
 10
-39.18999999999999
 20
3.999999999999999
 30
0.0
 11
-39.18999999999999
 21
-3.999999999999992
 31
0.0
  0
LINE
  5
C9
330
1F
100
AcDbEntity
  8
0
  6
Continuous
 62
   131
370
    15
100
AcDbLine
 10
-39.99999999999999
 20
3.189999999999999
 30
0.0
 11
-39.99999999999999
 21
-3.189999999999996
 31
0.0
  0
SPLINE
  5
CA
330
1F
100
AcDbEntity
  8
0
  6
Continuous
 62
   131
370
    15
100
AcDbSpline
210
0.0
220
0.0
230
1.0
 70
    24
 71
     3
 72
    14
 73
    10
 74
     0
 42
0.000000001
 43
0.00000001
 40
0.0
 40
0.0
 40
0.0
 40
0.0
 40
0.25
 40
0.25
 40
0.5
 40
0.5
 40
0.75
 40
0.75
 40
1.0
 40
1.0
 40
1.0
 40
1.0
 10
10.0
 20
-1.56153114792856
 30
0.0
 10
10.0
 20
-1.811593060231262
 30
0.0
 10
10.0
 20
-2.048382537833036
 30
0.0
 10
10.0
 20
-2.474983287110936
 30
0.0
 10
10.0
 20
-2.664628883054982
 30
0.0
 10
10.0
 20
-2.981045352210848
 30
0.0
 10
10.0
 20
-3.107724853951545
 30
0.0
 10
10.0
 20
-3.291327379458017
 30
0.0
 10
10.0
 20
-3.348276074446205
 30
0.0
 10
10.0
 20
-3.371955260093237
 30
0.0
  0
SPLINE
  5
CB
330
1F
100
AcDbEntity
  8
0
  6
Continuous
 62
   131
370
    15
100
AcDbSpline
210
0.0
220
0.0
230
1.0
 70
     8
 71
     3
 72
    10
 73
     6
 74
     0
 42
0.000000001
 43
0.00000001
 40
0.0
 40
0.0
 40
0.0
 40
0.0
 40
0.5
 40
0.5
 40
1.0
 40
1.0
 40
1.0
 40
1.0
 10
10.00000000000011
 20
-3.371955260093233
 30
0.0
 10
9.747437677977628
 20
-3.387874067758664
 30
0.0
 10
9.495788645182147
 20
-3.397037477963504
 30
0.0
 10
8.987815378112803
 20
-3.401745507170939
 30
0.0
 10
8.733041257474706
 20
-3.397252115020622
 30
0.0
 10
8.479774692646831
 20
-3.385971097969316
 30
0.0
  0
SPLINE
  5
CC
330
1F
100
AcDbEntity
  8
0
  6
Continuous
 62
   131
370
    15
100
AcDbSpline
210
0.0
220
0.0
230
1.0
 70
     8
 71
     3
 72
    10
 73
     6
 74
     0
 42
0.000000001
 43
0.00000001
 40
0.0
 40
0.0
 40
0.0
 40
0.0
 40
0.5
 40
0.5
 40
1.0
 40
1.0
 40
1.0
 40
1.0
 10
10.0
 20
-1.561531147928563
 30
0.0
 10
9.747449835997271
 20
-1.459507866019122
 30
0.0
 10
9.495813022463016
 20
-1.354487335795339
 30
0.0
 10
8.987864360326219
 20
-1.13878361166221
 30
0.0
 10
8.733102506804016
 20
-1.028309412715484
 30
0.0
 10
8.479847844215024
 20
-0.9162143899237328
 30
0.0
  0
SPLINE
  5
CD
330
1F
100
AcDbEntity
  8
0
  6
Continuous
 62
   131
370
    15
100
AcDbSpline
210
0.0
220
0.0
230
1.0
 70
    24
 71
     3
 72
    14
 73
    10
 74
     0
 42
0.000000001
 43
0.00000001
 40
0.0
 40
0.0
 40
0.0
 40
0.0
 40
0.25
 40
0.25
 40
0.5
 40
0.5
 40
0.75
 40
0.75
 40
1.0
 40
1.0
 40
1.0
 40
1.0
 10
9.999999999999993
 20
2.443995841944851
 30
0.0
 10
9.999999999999993
 20
2.209204842067675
 30
0.0
 10
9.999999999999993
 20
1.934344590698277
 30
0.0
 10
9.999999999999993
 20
1.320142506302564
 30
0.0
 10
9.999999999999993
 20
0.9809738727146491
 30
0.0
 10
9.999999999999993
 20
0.269076242824548
 30
0.0
 10
9.999999999999993
 20
-0.10327342465726
 30
0.0
 10
9.999999999999993
 20
-0.8439059691951711
 30
0.0
 10
9.999999999999993
 20
-1.211838068409731
 30
0.0
 10
9.999999999999993
 20
-1.561531147928555
 30
0.0
  0
SPLINE
  5
CE
330
1F
100
AcDbEntity
  8
0
  6
Continuous
 62
   131
370
    15
100
AcDbSpline
210
0.0
220
0.0
230
1.0
 70
     8
 71
     3
 72
    10
 73
     6
 74
     0
 42
0.000000001
 43
0.00000001
 40
0.0
 40
0.0
 40
0.0
 40
0.0
 40
0.5
 40
0.5
 40
1.0
 40
1.0
 40
1.0
 40
1.0
 10
10.00000000000001
 20
2.443995841944848
 30
0.0
 10
9.747452215783701
 20
2.493902845161892
 30
0.0
 10
9.495817794021486
 20
2.53886820303533
 30
0.0
 10
8.987873948005662
 20
2.61870345972706
 30
0.0
 10
8.73311449562664
 20
2.653466333271395
 30
0.0
 10
8.47986216276623
 20
2.682776195416719
 30
0.0
  0
SPLINE
  5
CF
330
1F
100
AcDbEntity
  8
0
  6
Continuous
 62
   131
370
    15
100
AcDbSpline
210
0.0
220
0.0
230
1.0
 70
    24
 71
     3
 72
    10
 73
     6
 74
     0
 42
0.000000001
 43
0.00000001
 40
0.0
 40
0.0
 40
0.0
 40
0.0
 40
0.5
 40
0.5
 40
1.0
 40
1.0
 40
1.0
 40
1.0
 10
10.00000000000001
 20
3.568705967904254
 30
0.0
 10
10.00000000000001
 20
3.418863464960593
 30
0.0
 10
10.00000000000001
 20
3.236684626676434
 30
0.0
 10
10.00000000000001
 20
2.846659744924174
 30
0.0
 10
10.00000000000001
 20
2.639963307800262
 30
0.0
 10
10.00000000000001
 20
2.443995841944847
 30
0.0
  0
SPLINE
  5
D0
330
1F
100
AcDbEntity
  8
0
  6
Continuous
 62
   131
370
    15
100
AcDbSpline
210
0.0
220
0.0
230
1.0
 70
    24
 71
     3
 72
     8
 73
     4
 74
     0
 42
0.000000001
 43
0.00000001
 40
0.0
 40
0.0
 40
0.0
 40
0.0
 40
1.0
 40
1.0
 40
1.0
 40
1.0
 10
10.00000000000009
 20
-3.371955260093234
 30
0.0
 10
10.00000000000009
 20
-3.564978870988183
 30
0.0
 10
10.00000000000009
 20
-3.751850568906542
 30
0.0
 10
10.00000000000009
 20
-3.928892686876998
 30
0.0
  0
LINE
  5
D1
330
1F
100
AcDbEntity
  8
중심선
 62
     1
100
AcDbLine
 10
-43.0
 20
0.0
 30
0.0
 11
53.00000000000001
 21
0.0000000000000102
 31
0.0
  0
CIRCLE
  5
D2
330
1F
100
AcDbEntity
  8
외형선
100
AcDbCircle
 10
0.0000000000000104
 20
0.0
 30
0.0
 40
3.000000000000005
  0
INSERT
  5
D3
330
1F
100
AcDbEntity
  8
0
  6
Continuous
 62
     7
100
AcDbBlockReference
 66
     1
  2
블럭10
 10
-22.93944368806589
 20
-52.04609937292004
 30
0.0
  0
ATTRIB
  5
D4
330
D3
100
AcDbEntity
  8
FORMAT
 62
     2
100
AcDbText
 10
-39.05870472750145
 20
-49.97073246008785
 30
0.0
 40
4.233333333333333
  1
SEME7008040E [ 2 FLUTE ]
 41
0.75
  7
SLDTEXTSTYLE0
 11
-39.05870472750145
 21
-52.08739912675452
 31
0.0
100
AcDbAttribute
  2
AUTOATTR0
 70
     0
 74
     1
  0
SEQEND
  5
D5
330
D3
100
AcDbEntity
  8
0
  6
Continuous
 62
     7
  0
HATCH
  5
D6
330
1F
100
AcDbEntity
  8
중심선
100
AcDbHatch
 10
0.0
 20
0.0
 30
0.0
210
0.0
220
0.0
230
1.0
  2
SOLID
 70
     1
 71
     0
 91
        1
 92
        0
 93
        4
 72
     1
 10
-17.22453438368504
 20
-35.7989250712761
 11
-20.67080962752232
 21
-35.7989250712761
 72
     1
 10
-20.67080962752232
 20
-35.7989250712761
 11
-22.79903948672635
 21
-38.3352506518487
 72
     1
 10
-22.79903948672635
 20
-38.3352506518487
 11
-19.35273115777591
 21
-38.33521122254621
 72
     1
 10
-19.35273115777591
 20
-38.33521122254621
 11
-17.22453438368504
 21
-35.7989250712761
 97
        0
 75
     0
 76
     1
 98
        1
 10
0.0
 20
0.0
  0
HATCH
  5
D7
330
1F
100
AcDbEntity
  8
중심선
100
AcDbHatch
 10
0.0
 20
0.0
 30
0.0
210
0.0
220
0.0
230
1.0
  2
SOLID
 70
     1
 71
     0
 91
        1
 92
        0
 93
        4
 72
     1
 10
-12.21177039264909
 20
-35.7989250712761
 11
-15.65804563648637
 21
-35.7989250712761
 72
     1
 10
-15.65804563648637
 20
-35.7989250712761
 11
-20.18918364484376
 21
-41.19892507127612
 72
     1
 10
-20.18918364484376
 20
-41.19892507127612
 11
-16.74290840100648
 21
-41.19892507127612
 72
     1
 10
-16.74290840100648
 20
-41.19892507127612
 11
-12.21177039264909
 21
-35.7989250712761
 97
        0
 75
     0
 76
     1
 98
        1
 10
0.0
 20
0.0
  0
HATCH
  5
D8
330
1F
100
AcDbEntity
  8
중심선
100
AcDbHatch
 10
0.0
 20
0.0
 30
0.0
210
0.0
220
0.0
230
1.0
  2
SOLID
 70
     1
 71
     0
 91
        1
 92
        0
 93
        4
 72
     1
 10
-7.199006401613195
 20
-35.79892507127613
 11
-10.64528164545031
 21
-35.7989250712761
 72
     1
 10
-10.64528164545031
 20
-35.7989250712761
 11
-17.69371854733956
 21
-44.19892507127612
 72
     1
 10
-17.69371854733956
 20
-44.19892507127612
 11
-14.24744330350228
 21
-44.19892507127612
 72
     1
 10
-14.24744330350228
 20
-44.19892507127612
 11
-7.199006401613195
 21
-35.79892507127613
 97
        0
 75
     0
 76
     1
 98
        1
 10
0.0
 20
0.0
  0
HATCH
  5
D9
330
1F
100
AcDbEntity
  8
중심선
100
AcDbHatch
 10
0.0
 20
0.0
 30
0.0
210
0.0
220
0.0
230
1.0
  2
SOLID
 70
     1
 71
     0
 91
        1
 92
        0
 93
        6
 72
     3
 10
-2.399115970600996
 20
-39.99892507132738
 11
3.960054785062284
 21
1.540850780301639E-10
 40
0.3939339440162633
 50
17.09539180608433
 51
320.0019657685079
 73
     0
 72
     1
 10
-0.7161163149004002
 20
-38.58681907591441
 11
1.589185558800638
 21
-36.65249236586649
 72
     3
 10
-2.399115970653842
 20
-39.99892507127625
 11
6.600054785286829
 21
-1.249000902703301E-13
 40
0.6363583540795982
 50
39.99873849337408
 51
368.4976242363725
 73
     1
 72
     1
 10
4.026216521246767
 20
-39.03892507120613
 11
-3.71904866381792
 21
-39.0389250712061
 72
     1
 10
-3.71904866381792
 20
-39.0389250712061
 11
-3.719073708263854
 21
-40.95892507120602
 72
     1
 10
-3.719073708263854
 20
-40.95892507120602
 11
0.7223060612081831
 21
-40.95892507120599
 97
        0
 75
     0
 76
     1
 98
        1
 10
0.0
 20
0.0
  0
DIMENSION
  5
DA
330
1F
100
AcDbEntity
  8
치수문자_일반주서
100
AcDbDimension
  2
_D
 10
62.74279143086734
 20
4.000000000000195
 30
0.0
 11
62.7427914308673
 21
13.6665000000002
 31
0.0
 70
   160
  1
%%c<>
 71
     2
 42
7.999999999999992
 52
-270.0
  3
SLDDIMSTYLE0
100
AcDbAlignedDimension
 13
49.99999999999984
 23
-3.999999999999845
 33
0.0
 14
50.00000000000003
 24
4.000000000000147
 34
0.0
 50
90.0000000000002
100
AcDbRotatedDimension
  0
DIMENSION
  5
E8
330
1F
100
AcDbEntity
  8
치수문자_일반주서
100
AcDbDimension
  2
_D_1
 10
50.00000000000003
 20
24.9784104402427
 30
0.0
 11
5.000000000000004
 21
24.9784104402427
 31
0.0
 70
   160
  1
<>
 71
     2
 42
90.00000000000003
  3
SLDDIMSTYLE1
100
AcDbAlignedDimension
 13
-39.99999999999999
 23
3.189999999999999
 33
0.0
 14
50.00000000000003
 24
4.000000000000147
 34
0.0
 50
-0.0000000000000045
100
AcDbRotatedDimension
  0
DIMENSION
  5
F3
330
1F
100
AcDbEntity
  8
치수문자_일반주서
100
AcDbDimension
  2
_D_2
 10
50.00000000000003
 20
17.27589049305128
 30
0.0
 11
29.99999999999975
 21
17.27589049305128
 31
0.0
 70
   160
  1
<>
 71
     2
 42
40.00000000000002
  3
SLDDIMSTYLE1
100
AcDbAlignedDimension
 13
10.00000000000001
 23
3.928892686883455
 33
0.0
 14
50.00000000000003
 24
4.000000000000147
 34
0.0
 50
0.0000000000008651
100
AcDbRotatedDimension
  0
DIMENSION
  5
FD
330
1F
100
AcDbEntity
  8
치수문자_일반주서
100
AcDbDimension
  2
_D_3
 10
-50.59159760126886
 20
-4.000000000000037
 30
0.0
 11
-50.59159760126892
 21
13.66649999999995
 31
0.0
 70
   160
  1
%%c<>
 71
     2
 42
7.999999999999993
 52
-270.0
  3
SLDDIMSTYLE0
100
AcDbAlignedDimension
 13
-39.18999999999999
 23
3.999999999999999
 33
0.0
 14
-39.18999999999999
 24
-3.999999999999995
 34
0.0
 50
90.0000000000002
100
AcDbRotatedDimension
  0
INSERT
  5
110
330
1F
100
AcDbEntity
  8
외형선
100
AcDbBlockReference
  2
SW_DOWELSYMBOL_0
 10
0.0000000000000104
 20
0.0
 30
0.0
  0
ENDSEC
  0
SECTION
  2
OBJECTS
  0
DICTIONARY
  5
C
330
0
100
AcDbDictionary
281
     1
  3
ACAD_GROUP
350
D
  3
ACAD_IMAGE_VARS
350
134
  3
ACAD_LAYOUT
350
1A
  3
ACAD_MLINESTYLE
350
17
  3
ACAD_PLOTSETTINGS
350
19
  3
ACAD_PLOTSTYLENAME
350
E
  3
ACAD_SCALELIST
350
47
  3
APPDATA
350
132
  3
DWGPROPS
350
144
  0
DICTIONARY
  5
D
102
{ACAD_REACTORS
330
C
102
}
330
C
100
AcDbDictionary
281
     1
  0
RASTERVARIABLES
  5
134
102
{ACAD_REACTORS
330
C
102
}
330
C
100
AcDbRasterVariables
 90
        0
 70
     1
 71
     1
 72
     1
  0
DICTIONARY
  5
1A
102
{ACAD_REACTORS
330
C
102
}
330
C
100
AcDbDictionary
281
     1
  3
Layout1
350
1E
  3
Layout2
350
26
  3
Model
350
22
  0
DICTIONARY
  5
17
102
{ACAD_REACTORS
330
C
102
}
330
C
100
AcDbDictionary
281
     1
  3
Standard
350
18
  0
DICTIONARY
  5
19
102
{ACAD_REACTORS
330
C
102
}
330
C
100
AcDbDictionary
281
     1
  0
ACDBDICTIONARYWDFLT
  5
E
102
{ACAD_REACTORS
330
C
102
}
330
C
100
AcDbDictionary
281
     1
  3
Normal
350
F
100
AcDbDictionaryWithDefault
340
F
  0
DICTIONARY
  5
47
102
{ACAD_REACTORS
330
C
102
}
330
C
100
AcDbDictionary
281
     1
  3
A0
350
48
  3
A1
350
49
  3
A2
350
4A
  3
A3
350
4B
  3
A4
350
4C
  3
A5
350
4D
  3
A6
350
4E
  3
A7
350
4F
  3
A8
350
50
  3
A9
350
51
  3
B0
350
52
  3
B1
350
53
  3
B2
350
54
  3
B3
350
55
  3
B4
350
56
  3
B5
350
57
  3
B6
350
58
  3
B7
350
59
  3
B8
350
5A
  3
B9
350
5B
  3
C0
350
5C
  3
C1
350
5D
  3
C2
350
5E
  3
C3
350
5F
  3
C4
350
60
  3
C5
350
61
  3
C6
350
62
  3
C7
350
63
  3
C8
350
64
  3
C9
350
65
  3
D0
350
66
  3
D1
350
67
  3
D2
350
68
  0
DICTIONARY
  5
132
102
{ACAD_REACTORS
330
C
102
}
330
C
100
AcDbDictionary
281
     1
  0
XRECORD
  5
144
102
{ACAD_REACTORS
330
C
102
}
330
C
100
AcDbXrecord
280
     1
  1
DWGPROPS COOKIE
  2

  3

  4

  6

  7

  8
12014102
  9

300
=
301
=
302
=
303
=
304
=
305
=
306
=
307
=
308
=
309
=
 40
0.0
 41
2458262.169170799
 42
2458266.040418079
  1

 90
        0
  0
LAYOUT
  5
1E
102
{ACAD_REACTORS
330
1A
102
}
330
1A
100
AcDbPlotSettings
  1

  2
none_device
  4

  6

 40
0.0
 41
0.0
 42
0.0
 43
0.0
 44
0.0
 45
0.0
 46
0.0
 47
0.0
 48
0.0
 49
0.0
140
0.0
141
0.0
142
1.0
143
1.0
 70
   688
 72
     1
 73
     0
 74
     5
  7

 75
    16
147
1.0
148
0.0
149
0.0
100
AcDbLayout
  1
Layout1
 70
     1
 71
     1
 10
0.0
 20
0.0
 11
420.0
 21
297.0
 12
0.0
 22
0.0
 32
0.0
 14
1.000000000000000E+20
 24
1.000000000000000E+20
 34
1.000000000000000E+20
 15
-1.000000000000000E+20
 25
-1.000000000000000E+20
 35
-1.000000000000000E+20
146
0.0
 13
0.0
 23
0.0
 33
0.0
 16
1.0
 26
0.0
 36
0.0
 17
0.0
 27
1.0
 37
0.0
 76
     0
330
1B
  0
LAYOUT
  5
26
102
{ACAD_REACTORS
330
1A
102
}
330
1A
100
AcDbPlotSettings
  1

  2
none_device
  4

  6

 40
0.0
 41
0.0
 42
0.0
 43
0.0
 44
0.0
 45
0.0
 46
0.0
 47
0.0
 48
0.0
 49
0.0
140
0.0
141
0.0
142
1.0
143
1.0
 70
   688
 72
     1
 73
     0
 74
     5
  7

 75
    16
147
1.0
148
0.0
149
0.0
100
AcDbLayout
  1
Layout2
 70
     1
 71
     2
 10
0.0
 20
0.0
 11
0.0
 21
0.0
 12
0.0
 22
0.0
 32
0.0
 14
0.0
 24
0.0
 34
0.0
 15
0.0
 25
0.0
 35
0.0
146
0.0
 13
0.0
 23
0.0
 33
0.0
 16
1.0
 26
0.0
 36
0.0
 17
0.0
 27
1.0
 37
0.0
 76
     0
330
23
  0
LAYOUT
  5
22
102
{ACAD_REACTORS
330
1A
102
}
330
1A
100
AcDbPlotSettings
  1

  2
none_device
  4
ANSI_A_(11.00_x_8.50_Inches)
  6

 40
6.35
 41
19.05
 42
6.35000508
 43
19.05000254
 44
279.4
 45
215.9
 46
128.4742164985937
 47
116.5256394782989
 48
0.0
 49
0.0
140
0.0
141
0.0
142
0.1024925093225698
143
1.0
 70
  1696
 72
     0
 73
     0
 74
     0
  7

 75
     0
147
0.0235690232323232
148
0.0
149
0.0
100
AcDbLayout
  1
Model
 70
     1
 71
     0
 10
0.0
 20
0.0
 11
420.0
 21
297.0
 12
0.0
 22
0.0
 32
0.0
 14
-54.96659760126893
 24
-49.97073246008785
 34
0.0
 15
63.29312476420071
 25
29.3534104402427
 35
0.0
146
0.0
 13
0.0
 23
0.0
 33
0.0
 16
1.0
 26
0.0
 36
0.0
 17
0.0
 27
1.0
 37
0.0
 76
     0
330
1F
331
29
  0
MLINESTYLE
  5
18
102
{ACAD_REACTORS
330
17
102
}
330
17
100
AcDbMlineStyle
  2
Standard
 70
     0
  3

 62
   256
 51
90.0
 52
90.0
 71
     2
 49
0.5
 62
   256
  6
BYLAYER
 49
-0.5
 62
   256
  6
BYLAYER
  0
ACDBPLACEHOLDER
  5
F
102
{ACAD_REACTORS
330
E
102
}
330
E
  0
SCALE
  5
48
102
{ACAD_REACTORS
330
47
102
}
330
47
100
AcDbScale
 70
     0
300
1:1
140
1.0
141
1.0
290
     1
  0
SCALE
  5
49
102
{ACAD_REACTORS
330
47
102
}
330
47
100
AcDbScale
 70
     0
300
1:2
140
1.0
141
2.0
290
     0
  0
SCALE
  5
4A
102
{ACAD_REACTORS
330
47
102
}
330
47
100
AcDbScale
 70
     0
300
1:4
140
1.0
141
4.0
290
     0
  0
SCALE
  5
4B
102
{ACAD_REACTORS
330
47
102
}
330
47
100
AcDbScale
 70
     0
300
1:5
140
1.0
141
5.0
290
     0
  0
SCALE
  5
4C
102
{ACAD_REACTORS
330
47
102
}
330
47
100
AcDbScale
 70
     0
300
1:8
140
1.0
141
8.0
290
     0
  0
SCALE
  5
4D
102
{ACAD_REACTORS
330
47
102
}
330
47
100
AcDbScale
 70
     0
300
1:10
140
1.0
141
10.0
290
     0
  0
SCALE
  5
4E
102
{ACAD_REACTORS
330
47
102
}
330
47
100
AcDbScale
 70
     0
300
1:16
140
1.0
141
16.0
290
     0
  0
SCALE
  5
4F
102
{ACAD_REACTORS
330
47
102
}
330
47
100
AcDbScale
 70
     0
300
1:20
140
1.0
141
20.0
290
     0
  0
SCALE
  5
50
102
{ACAD_REACTORS
330
47
102
}
330
47
100
AcDbScale
 70
     0
300
1:30
140
1.0
141
30.0
290
     0
  0
SCALE
  5
51
102
{ACAD_REACTORS
330
47
102
}
330
47
100
AcDbScale
 70
     0
300
1:40
140
1.0
141
40.0
290
     0
  0
SCALE
  5
52
102
{ACAD_REACTORS
330
47
102
}
330
47
100
AcDbScale
 70
     0
300
1:50
140
1.0
141
50.0
290
     0
  0
SCALE
  5
53
102
{ACAD_REACTORS
330
47
102
}
330
47
100
AcDbScale
 70
     0
300
1:100
140
1.0
141
100.0
290
     0
  0
SCALE
  5
54
102
{ACAD_REACTORS
330
47
102
}
330
47
100
AcDbScale
 70
     0
300
2:1
140
2.0
141
1.0
290
     0
  0
SCALE
  5
55
102
{ACAD_REACTORS
330
47
102
}
330
47
100
AcDbScale
 70
     0
300
4:1
140
4.0
141
1.0
290
     0
  0
SCALE
  5
56
102
{ACAD_REACTORS
330
47
102
}
330
47
100
AcDbScale
 70
     0
300
8:1
140
8.0
141
1.0
290
     0
  0
SCALE
  5
57
102
{ACAD_REACTORS
330
47
102
}
330
47
100
AcDbScale
 70
     0
300
10:1
140
10.0
141
1.0
290
     0
  0
SCALE
  5
58
102
{ACAD_REACTORS
330
47
102
}
330
47
100
AcDbScale
 70
     0
300
100:1
140
100.0
141
1.0
290
     0
  0
SCALE
  5
59
102
{ACAD_REACTORS
330
47
102
}
330
47
100
AcDbScale
 70
     0
300
1/128" = 1'-0"
140
0.0078125
141
12.0
290
     0
  0
SCALE
  5
5A
102
{ACAD_REACTORS
330
47
102
}
330
47
100
AcDbScale
 70
     0
300
1/64" = 1'-0"
140
0.015625
141
12.0
290
     0
  0
SCALE
  5
5B
102
{ACAD_REACTORS
330
47
102
}
330
47
100
AcDbScale
 70
     0
300
1/32" = 1'-0"
140
0.03125
141
12.0
290
     0
  0
SCALE
  5
5C
102
{ACAD_REACTORS
330
47
102
}
330
47
100
AcDbScale
 70
     0
300
1/16" = 1'-0"
140
0.0625
141
12.0
290
     0
  0
SCALE
  5
5D
102
{ACAD_REACTORS
330
47
102
}
330
47
100
AcDbScale
 70
     0
300
3/32" = 1'-0"
140
0.09375
141
12.0
290
     0
  0
SCALE
  5
5E
102
{ACAD_REACTORS
330
47
102
}
330
47
100
AcDbScale
 70
     0
300
1/8" = 1'-0"
140
0.125
141
12.0
290
     0
  0
SCALE
  5
5F
102
{ACAD_REACTORS
330
47
102
}
330
47
100
AcDbScale
 70
     0
300
3/16" = 1'-0"
140
0.1875
141
12.0
290
     0
  0
SCALE
  5
60
102
{ACAD_REACTORS
330
47
102
}
330
47
100
AcDbScale
 70
     0
300
1/4" = 1'-0"
140
0.25
141
12.0
290
     0
  0
SCALE
  5
61
102
{ACAD_REACTORS
330
47
102
}
330
47
100
AcDbScale
 70
     0
300
3/8" = 1'-0"
140
0.375
141
12.0
290
     0
  0
SCALE
  5
62
102
{ACAD_REACTORS
330
47
102
}
330
47
100
AcDbScale
 70
     0
300
1/2" = 1'-0"
140
0.5
141
12.0
290
     0
  0
SCALE
  5
63
102
{ACAD_REACTORS
330
47
102
}
330
47
100
AcDbScale
 70
     0
300
3/4" = 1'-0"
140
0.75
141
12.0
290
     0
  0
SCALE
  5
64
102
{ACAD_REACTORS
330
47
102
}
330
47
100
AcDbScale
 70
     0
300
1" = 1'-0"
140
1.0
141
12.0
290
     0
  0
SCALE
  5
65
102
{ACAD_REACTORS
330
47
102
}
330
47
100
AcDbScale
 70
     0
300
1-1/2" = 1'-0"
140
1.5
141
12.0
290
     0
  0
SCALE
  5
66
102
{ACAD_REACTORS
330
47
102
}
330
47
100
AcDbScale
 70
     0
300
3" = 1'-0"
140
3.0
141
12.0
290
     0
  0
SCALE
  5
67
102
{ACAD_REACTORS
330
47
102
}
330
47
100
AcDbScale
 70
     0
300
6" = 1'-0"
140
6.0
141
12.0
290
     0
  0
SCALE
  5
68
102
{ACAD_REACTORS
330
47
102
}
330
47
100
AcDbScale
 70
     0
300
1'-0" = 1'-0"
140
12.0
141
12.0
290
     0
  0
ENDSEC
  0
EOF
