  0
SECTION
  2
HEADER
  9
$ACADVER
  1
AC1015
  9
$ACADMAINTVER
 70
     6
  9
$DWGCODEPAGE
  3
ANSI_949
  9
$INSBASE
 10
0.0
 20
0.0
 30
0.0
  9
$EXTMIN
 10
-60.59407634643242
 20
-49.97073246008785
 30
0.0
  9
$EXTMAX
 10
68.20044209640147
 20
29.3534104402427
 30
0.0
  9
$LIMMIN
 10
0.0
 20
0.0
  9
$LIMMAX
 10
420.0
 20
297.0
  9
$ORTHOMODE
 70
     0
  9
$REGENMODE
 70
     1
  9
$FILLMODE
 70
     1
  9
$QTEXTMODE
 70
     0
  9
$MIRRTEXT
 70
     1
  9
$LTSCALE
 40
1.0
  9
$ATTMODE
 70
     1
  9
$TEXTSIZE
 40
3.5
  9
$TRACEWID
 40
1.0
  9
$TEXTSTYLE
  7
Standard
  9
$CLAYER
  8
0
  9
$CELTYPE
  6
ByLayer
  9
$CECOLOR
 62
   256
  9
$CELTSCALE
 40
1.0
  9
$DISPSILH
 70
     0
  9
$DIMSCALE
 40
1.0
  9
$DIMASZ
 40
3.302
  9
$DIMEXO
 40
1.0
  9
$DIMDLI
 40
3.75
  9
$DIMRND
 40
0.0
  9
$DIMDLE
 40
0.0
  9
$DIMEXE
 40
1.0
  9
$DIMTP
 40
0.0
  9
$DIMTM
 40
0.0
  9
$DIMTXT
 40
3.5
  9
$DIMCEN
 40
2.5
  9
$DIMTSZ
 40
0.0
  9
$DIMTOL
 70
     0
  9
$DIMLIM
 70
     0
  9
$DIMTIH
 70
     1
  9
$DIMTOH
 70
     1
  9
$DIMSE1
 70
     0
  9
$DIMSE2
 70
     0
  9
$DIMTAD
 70
     1
  9
$DIMZIN
 70
     0
  9
$DIMBLK
  1

  9
$DIMASO
 70
     1
  9
$DIMSHO
 70
     1
  9
$DIMPOST
  1

  9
$DIMAPOST
  1

  9
$DIMALT
 70
     0
  9
$DIMALTD
 70
     3
  9
$DIMALTF
 40
0.0393700787401575
  9
$DIMLFAC
 40
1.0
  9
$DIMTOFL
 70
     1
  9
$DIMTVP
 40
0.0
  9
$DIMTIX
 70
     0
  9
$DIMSOXD
 70
     0
  9
$DIMSAH
 70
     0
  9
$DIMBLK1
  1

  9
$DIMBLK2
  1

  9
$DIMSTYLE
  2
ISO-25
  9
$DIMCLRD
 70
     0
  9
$DIMCLRE
 70
     0
  9
$DIMCLRT
 70
     0
  9
$DIMTFAC
 40
1.0
  9
$DIMGAP
 40
1.524
  9
$DIMJUST
 70
     0
  9
$DIMSD1
 70
     0
  9
$DIMSD2
 70
     0
  9
$DIMTOLJ
 70
     0
  9
$DIMTZIN
 70
     0
  9
$DIMALTZ
 70
     0
  9
$DIMALTTZ
 70
     0
  9
$DIMUPT
 70
     0
  9
$DIMDEC
 70
     2
  9
$DIMTDEC
 70
     2
  9
$DIMALTU
 70
     2
  9
$DIMALTTD
 70
     3
  9
$DIMTXSTY
  7
Standard
  9
$DIMAUNIT
 70
     0
  9
$DIMADEC
 70
     2
  9
$DIMALTRND
 40
0.0
  9
$DIMAZIN
 70
     0
  9
$DIMDSEP
 70
    44
  9
$DIMATFIT
 70
     3
  9
$DIMFRAC
 70
     0
  9
$DIMLDRBLK
  1

  9
$DIMLUNIT
 70
     2
  9
$DIMLWD
 70
    -2
  9
$DIMLWE
 70
    -2
  9
$DIMTMOVE
 70
     0
  9
$LUNITS
 70
     2
  9
$LUPREC
 70
     2
  9
$SKETCHINC
 40
1.0
  9
$FILLETRAD
 40
10.0
  9
$AUNITS
 70
     0
  9
$AUPREC
 70
     2
  9
$MENU
  1
.
  9
$ELEVATION
 40
0.0
  9
$PELEVATION
 40
0.0
  9
$THICKNESS
 40
0.0
  9
$LIMCHECK
 70
     0
  9
$CHAMFERA
 40
0.0
  9
$CHAMFERB
 40
0.0
  9
$CHAMFERC
 40
0.0
  9
$CHAMFERD
 40
0.0
  9
$SKPOLY
 70
     0
  9
$TDCREATE
 40
2458262.544357986
  9
$TDUCREATE
 40
2458262.169357986
  9
$TDUPDATE
 40
2458266.417184769
  9
$TDUUPDATE
 40
2458266.042184769
  9
$TDINDWG
 40
0.0016694213
  9
$TDUSRTIMER
 40
2458266.040515382
  9
$USRTIMER
 70
     1
  9
$ANGBASE
 50
0.0
  9
$ANGDIR
 70
     0
  9
$PDMODE
 70
     0
  9
$PDSIZE
 40
-1.0
  9
$PLINEWID
 40
0.0
  9
$SPLFRAME
 70
     0
  9
$SPLINETYPE
 70
     6
  9
$SPLINESEGS
 70
     8
  9
$HANDSEED
  5
148
  9
$SURFTAB1
 70
     6
  9
$SURFTAB2
 70
     6
  9
$SURFTYPE
 70
     6
  9
$SURFU
 70
     6
  9
$SURFV
 70
     6
  9
$UCSBASE
  2

  9
$UCSNAME
  2

  9
$UCSORG
 10
0.0
 20
0.0
 30
0.0
  9
$UCSXDIR
 10
1.0
 20
0.0
 30
0.0
  9
$UCSYDIR
 10
0.0
 20
1.0
 30
0.0
  9
$UCSORTHOREF
  2

  9
$UCSORTHOVIEW
 70
     0
  9
$UCSORGTOP
 10
0.0
 20
0.0
 30
0.0
  9
$UCSORGBOTTOM
 10
0.0
 20
0.0
 30
0.0
  9
$UCSORGLEFT
 10
0.0
 20
0.0
 30
0.0
  9
$UCSORGRIGHT
 10
0.0
 20
0.0
 30
0.0
  9
$UCSORGFRONT
 10
0.0
 20
0.0
 30
0.0
  9
$UCSORGBACK
 10
0.0
 20
0.0
 30
0.0
  9
$PUCSBASE
  2

  9
$PUCSNAME
  2

  9
$PUCSORG
 10
0.0
 20
0.0
 30
0.0
  9
$PUCSXDIR
 10
1.0
 20
0.0
 30
0.0
  9
$PUCSYDIR
 10
0.0
 20
1.0
 30
0.0
  9
$PUCSORTHOREF
  2

  9
$PUCSORTHOVIEW
 70
     0
  9
$PUCSORGTOP
 10
0.0
 20
0.0
 30
0.0
  9
$PUCSORGBOTTOM
 10
0.0
 20
0.0
 30
0.0
  9
$PUCSORGLEFT
 10
0.0
 20
0.0
 30
0.0
  9
$PUCSORGRIGHT
 10
0.0
 20
0.0
 30
0.0
  9
$PUCSORGFRONT
 10
0.0
 20
0.0
 30
0.0
  9
$PUCSORGBACK
 10
0.0
 20
0.0
 30
0.0
  9
$USERI1
 70
     0
  9
$USERI2
 70
     0
  9
$USERI3
 70
     0
  9
$USERI4
 70
     0
  9
$USERI5
 70
     0
  9
$USERR1
 40
0.0
  9
$USERR2
 40
0.0
  9
$USERR3
 40
0.0
  9
$USERR4
 40
0.0
  9
$USERR5
 40
0.0
  9
$WORLDVIEW
 70
     1
  9
$SHADEDGE
 70
     3
  9
$SHADEDIF
 70
    70
  9
$TILEMODE
 70
     1
  9
$MAXACTVP
 70
    64
  9
$PINSBASE
 10
0.0
 20
0.0
 30
0.0
  9
$PLIMCHECK
 70
     0
  9
$PEXTMIN
 10
1.000000000000000E+20
 20
1.000000000000000E+20
 30
1.000000000000000E+20
  9
$PEXTMAX
 10
-1.000000000000000E+20
 20
-1.000000000000000E+20
 30
-1.000000000000000E+20
  9
$PLIMMIN
 10
0.0
 20
0.0
  9
$PLIMMAX
 10
0.0
 20
0.0
  9
$UNITMODE
 70
     0
  9
$VISRETAIN
 70
     1
  9
$PLINEGEN
 70
     0
  9
$PSLTSCALE
 70
     1
  9
$TREEDEPTH
 70
  3020
  9
$CMLSTYLE
  2
Standard
  9
$CMLJUST
 70
     0
  9
$CMLSCALE
 40
20.0
  9
$PROXYGRAPHICS
 70
     1
  9
$MEASUREMENT
 70
     1
  9
$CELWEIGHT
370
    -1
  9
$ENDCAPS
280
     0
  9
$JOINSTYLE
280
     0
  9
$LWDISPLAY
290
     1
  9
$INSUNITS
 70
     4
  9
$HYPERLINKBASE
  1

  9
$STYLESHEET
  1

  9
$XEDIT
290
     1
  9
$CEPSNTYPE
380
     0
  9
$PSTYLEMODE
290
     1
  9
$FINGERPRINTGUID
  2
{D6600FBD-85C6-41CE-BE43-C7F7DD57EF42}
  9
$VERSIONGUID
  2
{FAEB1C32-E019-11D5-929B-00C0DF256EC4}
  9
$EXTNAMES
290
     1
  9
$PSVPSCALE
 40
0.0
  9
$OLESTARTUP
290
     0
  0
ENDSEC
  0
SECTION
  2
CLASSES
  0
CLASS
  1
ACDBDICTIONARYWDFLT
  2
AcDbDictionaryWithDefault
  3
ObjectDBX Classes
 90
        0
280
     0
281
     0
  0
CLASS
  1
VISUALSTYLE
  2
AcDbVisualStyle
  3
ObjectDBX Classes
 90
     4095
280
     0
281
     0
  0
CLASS
  1
MATERIAL
  2
AcDbMaterial
  3
ObjectDBX Classes
 90
     1153
280
     0
281
     0
  0
CLASS
  1
SCALE
  2
AcDbScale
  3
ObjectDBX Classes
 90
     1153
280
     0
281
     0
  0
CLASS
  1
SUN
  2
AcDbSun
  3
SCENEOE
 90
     1153
280
     0
281
     0
  0
CLASS
  1
ACDBPLACEHOLDER
  2
AcDbPlaceHolder
  3
ObjectDBX Classes
 90
        0
280
     0
281
     0
  0
CLASS
  1
LAYOUT
  2
AcDbLayout
  3
ObjectDBX Classes
 90
        0
280
     0
281
     0
  0
CLASS
  1
TABLESTYLE
  2
AcDbTableStyle
  3
ObjectDBX Classes
 90
     4095
280
     0
281
     0
  0
CLASS
  1
MLEADERSTYLE
  2
AcDbMLeaderStyle
  3
ACDB_MLEADERSTYLE_CLASS
 90
     4095
280
     0
281
     0
  0
CLASS
  1
RASTERVARIABLES
  2
AcDbRasterVariables
  3
ISM
 90
        0
280
     0
281
     0
  0
ENDSEC
  0
SECTION
  2
TABLES
  0
TABLE
  2
VPORT
  5
8
330
0
100
AcDbSymbolTable
 70
     1
  0
VPORT
  5
29
330
8
100
AcDbSymbolTableRecord
100
AcDbViewportTableRecord
  2
*Active
 70
     0
 10
0.0
 20
0.0
 11
1.0
 21
1.0
 12
3.803182874984522
 22
-10.30866100992258
 13
0.0
 23
0.0
 14
10.0
 24
10.0
 15
10.0
 25
10.0
 16
0.0
 26
0.0
 36
1.0
 17
0.0
 27
0.0
 37
0.0
 40
113.9918121303235
 41
1.152454780361757
 42
50.0
 43
0.0
 44
0.0
 50
0.0
 51
0.0
 71
    16
 72
  2000
 73
     1
 74
     3
 75
     0
 76
     0
 77
     0
 78
     0
281
     0
 65
     1
110
0.0
120
0.0
130
0.0
111
1.0
121
0.0
131
0.0
112
0.0
122
1.0
132
0.0
 79
     0
146
0.0
  0
ENDTAB
  0
TABLE
  2
LTYPE
  5
5
330
0
100
AcDbSymbolTable
 70
     6
  0
LTYPE
  5
14
330
5
100
AcDbSymbolTableRecord
100
AcDbLinetypeTableRecord
  2
ByBlock
 70
     0
  3

 72
    65
 73
     0
 40
0.0
  0
LTYPE
  5
15
330
5
100
AcDbSymbolTableRecord
100
AcDbLinetypeTableRecord
  2
ByLayer
 70
     0
  3

 72
    65
 73
     0
 40
0.0
  0
LTYPE
  5
16
330
5
100
AcDbSymbolTableRecord
100
AcDbLinetypeTableRecord
  2
Continuous
 70
     0
  3
Solid line
 72
    65
 73
     0
 40
0.0
  0
LTYPE
  5
6A
330
5
100
AcDbSymbolTableRecord
100
AcDbLinetypeTableRecord
  2
HIDDEN
 70
     0
  3
Hidden __ __ __ __ __ __ __ __ __ __ __ __ __ __
 72
    65
 73
     2
 40
1.905
 49
1.27
 74
     0
 49
-0.635
 74
     0
  0
LTYPE
  5
6B
330
5
100
AcDbSymbolTableRecord
100
AcDbLinetypeTableRecord
  2
PHANTOM
 70
     0
  3
Phantom ______  __  __  ______  __  __  ______
 72
    65
 73
     6
 40
12.7
 49
6.35
 74
     0
 49
-1.27
 74
     0
 49
1.27
 74
     0
 49
-1.27
 74
     0
 49
1.27
 74
     0
 49
-1.27
 74
     0
  0
LTYPE
  5
6C
330
5
100
AcDbSymbolTableRecord
100
AcDbLinetypeTableRecord
  2
CENTER
 70
     0
  3
Center ____ _ ____ _ ____ _ ____ _ ____ _ ____
 72
    65
 73
     4
 40
10.16
 49
6.35
 74
     0
 49
-1.27
 74
     0
 49
1.27
 74
     0
 49
-1.27
 74
     0
  0
LTYPE
  5
6D
330
5
100
AcDbSymbolTableRecord
100
AcDbLinetypeTableRecord
  2
CENTERX2
 70
     0
  3
Center (2x) ________  __  ________  __  _____
 72
    65
 73
     4
 40
20.32
 49
12.7
 74
     0
 49
-2.54
 74
     0
 49
2.54
 74
     0
 49
-2.54
 74
     0
  0
LTYPE
  5
6E
330
5
100
AcDbSymbolTableRecord
100
AcDbLinetypeTableRecord
  2
DOT2
 70
     0
  3
Dot (.5x) ........................................
 72
    65
 73
     2
 40
0.635
 49
0.0
 74
     0
 49
-0.635
 74
     0
  0
ENDTAB
  0
TABLE
  2
LAYER
  5
2
330
0
100
AcDbSymbolTable
 70
    17
  0
LAYER
  5
10
330
2
100
AcDbSymbolTableRecord
100
AcDbLayerTableRecord
  2
0
 70
     0
 62
     7
  6
Continuous
370
    -3
390
F
  0
LAYER
  5
6F
330
2
100
AcDbSymbolTableRecord
100
AcDbLayerTableRecord
  2
FORMAT
 70
     0
 62
     2
  6
Continuous
370
    -3
390
F
  0
LAYER
  5
70
330
2
100
AcDbSymbolTableRecord
100
AcDbLayerTableRecord
  2
외형선
 70
     0
 62
   100
  6
Continuous
370
    30
390
F
  0
LAYER
  5
71
330
2
100
AcDbSymbolTableRecord
100
AcDbLayerTableRecord
  2
숨은선
 70
     0
 62
     2
  6
HIDDEN
370
    15
390
F
  0
LAYER
  5
72
330
2
100
AcDbSymbolTableRecord
100
AcDbLayerTableRecord
  2
중심선
 70
     0
 62
     1
  6
CENTERX2
370
    -3
390
F
  0
LAYER
  5
73
330
2
100
AcDbSymbolTableRecord
100
AcDbLayerTableRecord
  2
파단선
 70
     0
 62
     4
  6
Continuous
370
    -3
390
F
  0
LAYER
  5
74
330
2
100
AcDbSymbolTableRecord
100
AcDbLayerTableRecord
  2
해칭선
 70
     0
 62
     4
  6
Continuous
370
    -3
390
F
  0
LAYER
  5
75
330
2
100
AcDbSymbolTableRecord
100
AcDbLayerTableRecord
  2
가는실선
 70
     0
 62
     4
  6
Continuous
370
    -3
390
F
  0
LAYER
  5
76
330
2
100
AcDbSymbolTableRecord
100
AcDbLayerTableRecord
  2
치수_보조선
 70
     0
 62
     4
  6
Continuous
370
    -3
390
F
  0
LAYER
  5
77
330
2
100
AcDbSymbolTableRecord
100
AcDbLayerTableRecord
  2
치수문자_일반주서
 70
     0
 62
     7
  6
Continuous
370
    15
390
F
  0
LAYER
  5
78
330
2
100
AcDbSymbolTableRecord
100
AcDbLayerTableRecord
  2
개별주서
 70
     0
 62
   100
  6
Continuous
370
    30
390
F
  0
LAYER
  5
79
330
2
100
AcDbSymbolTableRecord
100
AcDbLayerTableRecord
  2
중간선
 70
     0
 62
     2
  6
Continuous
370
    15
390
F
  0
LAYER
  5
7A
330
2
100
AcDbSymbolTableRecord
100
AcDbLayerTableRecord
  2
윤곽선
 70
     0
 62
     3
  6
Continuous
370
    40
390
F
  0
LAYER
  5
7B
330
2
100
AcDbSymbolTableRecord
100
AcDbLayerTableRecord
  2
중심마크
 70
     0
 62
   100
  6
Continuous
370
    30
390
F
  0
LAYER
  5
7C
330
2
100
AcDbSymbolTableRecord
100
AcDbLayerTableRecord
  2
가상선
 70
     0
 62
     4
  6
PHANTOM
370
    -3
390
F
  0
LAYER
  5
7D
330
2
100
AcDbSymbolTableRecord
100
AcDbLayerTableRecord
  2
특수지정선
 70
     0
 62
     5
  6
CENTERX2
370
    60
390
F
  0
LAYER
  5
139
330
2
100
AcDbSymbolTableRecord
100
AcDbLayerTableRecord
  2
Defpoints
 70
     0
 62
     7
  6
Continuous
290
     0
370
    -3
390
F
  0
ENDTAB
  0
TABLE
  2
STYLE
  5
3
330
0
100
AcDbSymbolTable
 70
     2
  0
STYLE
  5
11
330
3
100
AcDbSymbolTableRecord
100
AcDbTextStyleTableRecord
  2
Standard
 70
     0
 40
0.0
 41
1.0
 50
0.0
 71
     0
 42
3.5
  3
txt
  4

  0
STYLE
  5
93
330
3
100
AcDbSymbolTableRecord
100
AcDbTextStyleTableRecord
  2
SLDTEXTSTYLE0
 70
     0
 40
0.0
 41
0.75
 50
0.0
 71
     0
 42
3.5
  3
TXT
  4

  0
ENDTAB
  0
TABLE
  2
VIEW
  5
6
330
0
100
AcDbSymbolTable
 70
     0
  0
ENDTAB
  0
TABLE
  2
UCS
  5
7
330
0
100
AcDbSymbolTable
 70
     0
  0
ENDTAB
  0
TABLE
  2
APPID
  5
9
330
0
100
AcDbSymbolTable
 70
     1
  0
APPID
  5
12
330
9
100
AcDbSymbolTableRecord
100
AcDbRegAppTableRecord
  2
ACAD
 70
     0
  0
ENDTAB
  0
TABLE
  2
DIMSTYLE
  5
A
330
0
100
AcDbSymbolTable
 70
     3
100
AcDbDimStyleTable
  0
DIMSTYLE
105
27
330
A
100
AcDbSymbolTableRecord
100
AcDbDimStyleTableRecord
  2
ISO-25
 70
     0
 41
2.5
 42
0.625
 43
3.75
 44
1.25
 73
     0
 74
     0
 77
     1
 78
     8
140
2.5
141
2.5
143
0.03937007874016
147
0.625
171
     3
172
     1
178
     0
271
     2
272
     2
274
     3
278
    44
283
     0
284
     8
340
11
  0
DIMSTYLE
105
DF
102
{ACAD_REACTORS
330
DE
330
101
102
}
330
A
100
AcDbSymbolTableRecord
100
AcDbDimStyleTableRecord
  2
SLDDIMSTYLE0
 70
     0
 41
3.302
 44
0.0
 45
0.000000001
 73
     0
 74
     0
 77
     1
 78
    12
 79
     3
140
3.5
147
0.875
172
     1
173
     1
178
     0
271
     2
272
     2
276
     2
284
    12
289
     0
340
93
  0
DIMSTYLE
105
ED
102
{ACAD_REACTORS
330
EC
330
F7
102
}
330
A
100
AcDbSymbolTableRecord
100
AcDbDimStyleTableRecord
  2
SLDDIMSTYLE1
 70
     0
 41
3.302
 44
0.0
 45
0.000000001
 73
     0
 74
     0
 77
     1
 78
    12
 79
     3
140
3.5
147
0.875
173
     1
178
     0
271
     2
272
     2
276
     2
284
    12
340
93
  0
ENDTAB
  0
TABLE
  2
BLOCK_RECORD
  5
1
330
0
100
AcDbSymbolTable
 70
     7
  0
BLOCK_RECORD
  5
1F
330
1
100
AcDbSymbolTableRecord
100
AcDbBlockTableRecord
  2
*Model_Space
340
22
  0
BLOCK_RECORD
  5
1B
330
1
100
AcDbSymbolTableRecord
100
AcDbBlockTableRecord
  2
*Paper_Space
340
1E
  0
BLOCK_RECORD
  5
23
330
1
100
AcDbSymbolTableRecord
100
AcDbBlockTableRecord
  2
*Paper_Space0
340
26
  0
BLOCK_RECORD
  5
7E
330
1
100
AcDbSymbolTableRecord
100
AcDbBlockTableRecord
  2
블럭10
340
0
102
{BLKREFS
331
D7
102
}
  0
BLOCK_RECORD
  5
E0
330
1
100
AcDbSymbolTableRecord
100
AcDbBlockTableRecord
  2
_D
340
0
  0
BLOCK_RECORD
  5
EE
330
1
100
AcDbSymbolTableRecord
100
AcDbBlockTableRecord
  2
_D_1
340
0
  0
BLOCK_RECORD
  5
F8
330
1
100
AcDbSymbolTableRecord
100
AcDbBlockTableRecord
  2
_D_2
340
0
  0
BLOCK_RECORD
  5
102
330
1
100
AcDbSymbolTableRecord
100
AcDbBlockTableRecord
  2
_D_3
340
0
  0
BLOCK_RECORD
  5
10E
330
1
100
AcDbSymbolTableRecord
100
AcDbBlockTableRecord
  2
SW_DOWELSYMBOL_0
340
0
102
{BLKREFS
331
114
102
}
  0
ENDTAB
  0
ENDSEC
  0
SECTION
  2
BLOCKS
  0
BLOCK
  5
20
330
1F
100
AcDbEntity
  8
0
100
AcDbBlockBegin
  2
*Model_Space
 70
     0
 10
0.0
 20
0.0
 30
0.0
  3
*Model_Space
  1

  0
ENDBLK
  5
21
330
1F
100
AcDbEntity
  8
0
100
AcDbBlockEnd
  0
BLOCK
  5
1C
330
1B
100
AcDbEntity
 67
     1
  8
0
100
AcDbBlockBegin
  2
*Paper_Space
 70
     0
 10
0.0
 20
0.0
 30
0.0
  3
*Paper_Space
  1

  0
ENDBLK
  5
1D
330
1B
100
AcDbEntity
 67
     1
  8
0
100
AcDbBlockEnd
  0
BLOCK
  5
24
330
23
100
AcDbEntity
  8
0
100
AcDbBlockBegin
  2
*Paper_Space0
 70
     0
 10
0.0
 20
0.0
 30
0.0
  3
*Paper_Space0
  1

  0
ENDBLK
  5
25
330
23
100
AcDbEntity
  8
0
100
AcDbBlockEnd
  0
BLOCK
  5
7F
330
7E
100
AcDbEntity
  8
0
100
AcDbBlockBegin
  2
블럭10
 70
     2
 10
0.0
 20
0.0
 30
0.0
  3
블럭10
  1

  0
ELLIPSE
  5
81
330
7E
100
AcDbEntity
  8
중심선
100
AcDbEllipse
 10
20.54032771741204
 20
12.0471743016438
 30
0.0
 11
6.600054785286829
 21
-1.261213355974178E-13
 31
0.0
210
0.0
220
0.0
230
1.0
 40
0.636358354079598
 41
0.9219305317359503
 42
6.513795318482858
  0
ELLIPSE
  5
82
330
7E
100
AcDbEntity
  8
중심선
100
AcDbEllipse
 10
20.54032771746488
 20
12.04717430159265
 30
0.0
 11
3.960054785062283
 21
1.540847449632565E-10
 31
0.0
210
0.0
220
0.0
230
1.0
 40
0.3939339440162632
 41
1.131841032648279
 42
5.62031148352944
  0
LINE
  5
83
330
7E
100
AcDbEntity
  8
중심선
100
AcDbLine
 10
2.268634060543552
 20
16.24717430164393
 30
0.0
 11
5.714909304380834
 21
16.24717430164393
 31
0.0
  0
LINE
  5
84
330
7E
100
AcDbEntity
  8
중심선
100
AcDbLine
 10
5.245725140726316
 20
7.84717430164391
 30
0.0
 11
8.692000384563599
 21
7.84717430164391
 31
0.0
  0
LINE
  5
85
330
7E
100
AcDbEntity
  8
중심선
100
AcDbLine
 10
15.74043728645272
 20
16.24717430164393
 30
0.0
 11
8.692000384563599
 21
7.84717430164391
 31
0.0
  0
LINE
  5
86
330
7E
100
AcDbEntity
  8
중심선
100
AcDbLine
 10
0.1404042013395286
 20
13.71084872107135
 30
0.0
 11
3.58671253028996
 21
13.71088815037384
 31
0.0
  0
LINE
  5
87
330
7E
100
AcDbEntity
  8
중심선
100
AcDbLine
 10
2.750260043222114
 20
10.84717430164391
 30
0.0
 11
6.196535287059397
 21
10.84717430164391
 31
0.0
  0
LINE
  5
88
330
7E
100
AcDbEntity
  8
중심선
100
AcDbLine
 10
12.29416204261559
 20
16.24717430164393
 30
0.0
 11
5.245725140726316
 21
7.84717430164391
 31
0.0
  0
LINE
  5
89
330
7E
100
AcDbEntity
  8
중심선
100
AcDbLine
 10
10.72767329541681
 20
16.24717430164393
 30
0.0
 11
6.196535287059397
 21
10.84717430164391
 31
0.0
  0
LINE
  5
8A
330
7E
100
AcDbEntity
  8
중심선
100
AcDbLine
 10
7.28139805157953
 20
16.24717430164393
 30
0.0
 11
2.750260043222114
 21
10.84717430164391
 31
0.0
  0
LINE
  5
8B
330
7E
100
AcDbEntity
  8
중심선
100
AcDbLine
 10
5.714909304380834
 20
16.24717430164393
 30
0.0
 11
3.58671253028996
 21
13.71088815037384
 31
0.0
  0
LINE
  5
8C
330
7E
100
AcDbEntity
  8
중심선
100
AcDbLine
 10
2.268634060543552
 20
16.24717430164393
 30
0.0
 11
0.1404042013395286
 21
13.71084872107135
 31
0.0
  0
LINE
  5
8D
330
7E
100
AcDbEntity
  8
중심선
100
AcDbLine
 10
7.28139805157953
 20
16.24717430164393
 30
0.0
 11
10.72767329541681
 21
16.24717430164393
 31
0.0
  0
LINE
  5
8E
330
7E
100
AcDbEntity
  8
중심선
100
AcDbLine
 10
12.29416204261559
 20
16.24717430164393
 30
0.0
 11
15.74043728645272
 21
16.24717430164393
 31
0.0
  0
LINE
  5
8F
330
7E
100
AcDbEntity
  8
중심선
100
AcDbLine
 10
19.22036997980202
 20
11.08717430171403
 30
0.0
 11
23.66174974927406
 21
11.08717430171406
 31
0.0
  0
LINE
  5
90
330
7E
100
AcDbEntity
  8
중심선
100
AcDbLine
 10
19.22039502424796
 20
13.00717430171391
 30
0.0
 11
19.22036997980202
 21
11.08717430171403
 31
0.0
  0
LINE
  5
91
330
7E
100
AcDbEntity
  8
중심선
100
AcDbLine
 10
19.22039502424796
 20
13.00717430171391
 30
0.0
 11
26.96566020931264
 21
13.00717430171391
 31
0.0
  0
LINE
  5
92
330
7E
100
AcDbEntity
  8
중심선
100
AcDbLine
 10
22.22332737316547
 20
13.45928029700563
 30
0.0
 11
24.52862924686651
 21
15.39360700705356
 31
0.0
  0
ATTDEF
  5
94
330
7E
100
AcDbEntity
  8
FORMAT
 62
     2
100
AcDbText
 10
-16.11926103943555
 20
2.075366912832191
 30
0.0
 40
4.233333333333333
  1
SEME7008045E [ 2 FLUTE ]
 41
0.75
  7
SLDTEXTSTYLE0
 11
-16.11926103943555
 21
-0.0412997538344756
 31
0.0
100
AcDbAttributeDefinition
  3

  2
AUTOATTR0
 70
     0
 74
     1
  0
ENDBLK
  5
80
330
7E
100
AcDbEntity
  8
0
100
AcDbBlockEnd
  0
BLOCK
  5
E1
330
E0
100
AcDbEntity
  8
0
100
AcDbBlockBegin
  2
_D
 70
     0
 10
0.0
 20
0.0
 30
0.0
  3
_D
  1

  0
LINE
  5
E3
330
E0
100
AcDbEntity
  8
치수문자_일반주서
 62
     0
370
    -2
100
AcDbLine
 10
55.06249999999986
 20
-3.999999999999826
 30
0.0
 11
67.65010876306813
 21
-3.99999999999978
 31
0.0
  0
LINE
  5
E4
330
E0
100
AcDbEntity
  8
치수문자_일반주서
 62
     0
370
    -2
100
AcDbLine
 10
55.06250000000004
 20
4.000000000000165
 30
0.0
 11
67.6501087630681
 21
4.000000000000211
 31
0.0
  0
LINE
  5
E5
330
E0
100
AcDbEntity
  8
치수문자_일반주서
 62
     0
370
    -2
100
AcDbLine
 10
67.65010876306813
 20
-3.99999999999978
 30
0.0
 11
67.65010876306806
 21
16.72900000000021
 31
0.0
  0
LINE
  5
E6
330
E0
100
AcDbEntity
  8
치수문자_일반주서
 62
     0
370
    -2
100
AcDbLine
 10
67.65010876306813
 20
-3.99999999999978
 30
0.0
 11
67.6501087630681
 21
4.000000000000211
 31
0.0
  0
LINE
  5
E7
330
E0
100
AcDbEntity
  8
치수문자_일반주서
 62
     0
370
    -2
100
AcDbLine
 10
67.65010876306815
 20
-7.301999999999779
 30
0.0
 11
67.65010876306816
 21
-10.60399999999978
 31
0.0
  0
LINE
  5
E8
330
E0
100
AcDbEntity
  8
치수문자_일반주서
 62
     0
370
    -2
100
AcDbLine
 10
67.65010876306809
 20
7.302000000000211
 30
0.0
 11
67.65010876306808
 21
10.60400000000021
 31
0.0
  0
SOLID
  5
E9
330
E0
100
AcDbEntity
  8
치수문자_일반주서
 62
     0
100
AcDbTrace
 10
68.20044209640147
 20
-7.301999999999778
 30
0.0
 11
67.09977542973482
 21
-7.301999999999781
 31
0.0
 12
67.65010876306813
 22
-3.99999999999978
 32
0.0
 13
67.65010876306813
 23
-3.99999999999978
 33
0.0
  0
SOLID
  5
EA
330
E0
100
AcDbEntity
  8
치수문자_일반주서
 62
     0
100
AcDbTrace
 10
67.09977542973476
 20
7.302000000000209
 30
0.0
 11
68.20044209640142
 21
7.302000000000213
 31
0.0
 12
67.6501087630681
 22
4.000000000000211
 32
0.0
 13
67.6501087630681
 23
4.000000000000211
 33
0.0
  0
MTEXT
  5
EB
330
E0
100
AcDbEntity
  8
치수문자_일반주서
 62
     0
100
AcDbMText
 10
63.27510876306808
 20
13.6665000000002
 30
0.0
 40
3.5
 41
0.0
 71
     2
 72
     1
  1
\A1;%%c8
  7
SLDTEXTSTYLE0
 11
-3.552713678800505E-15
 21
1.0
 31
0.0
 73
     1
 44
1.0
  0
POINT
  5
143
330
E0
100
AcDbEntity
  8
Defpoints
 62
     0
100
AcDbPoint
 10
54.99999999999986
 20
-3.999999999999826
 30
0.0
  0
POINT
  5
144
330
E0
100
AcDbEntity
  8
Defpoints
 62
     0
100
AcDbPoint
 10
55.00000000000004
 20
4.000000000000165
 30
0.0
  0
POINT
  5
145
330
E0
100
AcDbEntity
  8
Defpoints
 62
     0
100
AcDbPoint
 10
67.6501087630681
 20
4.000000000000212
 30
0.0
  0
ENDBLK
  5
E2
330
E0
100
AcDbEntity
  8
0
100
AcDbBlockEnd
  0
BLOCK
  5
EF
330
EE
100
AcDbEntity
  8
0
100
AcDbBlockBegin
  2
_D_1
 70
     0
 10
0.0
 20
0.0
 30
0.0
  3
_D_1
  1

  0
LINE
  5
F1
330
EE
100
AcDbEntity
  8
치수문자_일반주서
 62
     0
370
    -2
100
AcDbLine
 10
-44.99999999999997
 20
3.252499999999999
 30
0.0
 11
-44.99999999999997
 21
24.9784104402427
 31
0.0
  0
LINE
  5
F2
330
EE
100
AcDbEntity
  8
치수문자_일반주서
 62
     0
370
    -2
100
AcDbLine
 10
55.00000000000004
 20
4.062500000000165
 30
0.0
 11
55.00000000000004
 21
24.9784104402427
 31
0.0
  0
LINE
  5
F3
330
EE
100
AcDbEntity
  8
치수문자_일반주서
 62
     0
370
    -2
100
AcDbLine
 10
-41.69799999999997
 20
24.9784104402427
 30
0.0
 11
51.69800000000004
 21
24.9784104402427
 31
0.0
  0
SOLID
  5
F4
330
EE
100
AcDbEntity
  8
치수문자_일반주서
 62
     0
100
AcDbTrace
 10
-41.69799999999997
 20
25.52874377357603
 30
0.0
 11
-41.69799999999997
 21
24.42807710690936
 31
0.0
 12
-44.99999999999997
 22
24.9784104402427
 32
0.0
 13
-44.99999999999997
 23
24.9784104402427
 33
0.0
  0
SOLID
  5
F5
330
EE
100
AcDbEntity
  8
치수문자_일반주서
 62
     0
100
AcDbTrace
 10
51.69800000000004
 20
24.42807710690936
 30
0.0
 11
51.69800000000004
 21
25.52874377357603
 31
0.0
 12
55.00000000000004
 22
24.9784104402427
 32
0.0
 13
55.00000000000004
 23
24.9784104402427
 33
0.0
  0
MTEXT
  5
F6
330
EE
100
AcDbEntity
  8
치수문자_일반주서
 62
     0
100
AcDbMText
 10
5.000000000000032
 20
29.3534104402427
 30
0.0
 40
3.5
 41
0.0
 71
     2
 72
     1
  1
\A1;100
  7
SLDTEXTSTYLE0
 73
     1
 44
1.0
  0
POINT
  5
13A
330
EE
100
AcDbEntity
  8
Defpoints
 62
     0
100
AcDbPoint
 10
-44.99999999999997
 20
3.189999999999999
 30
0.0
  0
POINT
  5
13B
330
EE
100
AcDbEntity
  8
Defpoints
 62
     0
100
AcDbPoint
 10
55.00000000000004
 20
4.000000000000165
 30
0.0
  0
POINT
  5
13C
330
EE
100
AcDbEntity
  8
Defpoints
 62
     0
100
AcDbPoint
 10
55.00000000000004
 20
24.9784104402427
 30
0.0
  0
ENDBLK
  5
F0
330
EE
100
AcDbEntity
  8
0
100
AcDbBlockEnd
  0
BLOCK
  5
F9
330
F8
100
AcDbEntity
  8
0
100
AcDbBlockBegin
  2
_D_2
 70
     0
 10
0.0
 20
0.0
 30
0.0
  3
_D_2
  1

  0
LINE
  5
FB
330
F8
100
AcDbEntity
  8
치수문자_일반주서
 62
     0
370
    -2
100
AcDbLine
 10
10.00000000000003
 20
3.935136974689538
 30
0.0
 11
10.00000000000004
 21
17.21963478085684
 31
0.0
  0
LINE
  5
FC
330
F8
100
AcDbEntity
  8
치수문자_일반주서
 62
     0
370
    -2
100
AcDbLine
 10
55.00000000000004
 20
4.062500000000165
 30
0.0
 11
55.00000000000004
 21
17.21963478085684
 31
0.0
  0
LINE
  5
FD
330
F8
100
AcDbEntity
  8
치수문자_일반주서
 62
     0
370
    -2
100
AcDbLine
 10
13.30200000000004
 20
17.21963478085684
 30
0.0
 11
51.69800000000004
 21
17.21963478085684
 31
0.0
  0
SOLID
  5
FE
330
F8
100
AcDbEntity
  8
치수문자_일반주서
 62
     0
100
AcDbTrace
 10
13.30200000000004
 20
17.76996811419018
 30
0.0
 11
13.30200000000004
 21
16.66930144752351
 31
0.0
 12
10.00000000000004
 22
17.21963478085684
 32
0.0
 13
10.00000000000004
 23
17.21963478085684
 33
0.0
  0
SOLID
  5
FF
330
F8
100
AcDbEntity
  8
치수문자_일반주서
 62
     0
100
AcDbTrace
 10
51.69800000000004
 20
16.66930144752351
 30
0.0
 11
51.69800000000004
 21
17.76996811419018
 31
0.0
 12
55.00000000000004
 22
17.21963478085684
 32
0.0
 13
55.00000000000004
 23
17.21963478085684
 33
0.0
  0
MTEXT
  5
100
330
F8
100
AcDbEntity
  8
치수문자_일반주서
 62
     0
100
AcDbMText
 10
32.50000000000019
 20
21.59463478085684
 30
0.0
 40
3.5
 41
0.0
 71
     2
 72
     1
  1
\A1;45
  7
SLDTEXTSTYLE0
 73
     1
 44
1.0
  0
POINT
  5
13D
330
F8
100
AcDbEntity
  8
Defpoints
 62
     0
100
AcDbPoint
 10
10.00000000000003
 20
3.872636974689538
 30
0.0
  0
POINT
  5
13E
330
F8
100
AcDbEntity
  8
Defpoints
 62
     0
100
AcDbPoint
 10
55.00000000000004
 20
4.000000000000165
 30
0.0
  0
POINT
  5
13F
330
F8
100
AcDbEntity
  8
Defpoints
 62
     0
100
AcDbPoint
 10
55.00000000000004
 20
17.21963478085684
 30
0.0
  0
ENDBLK
  5
FA
330
F8
100
AcDbEntity
  8
0
100
AcDbBlockEnd
  0
BLOCK
  5
103
330
102
100
AcDbEntity
  8
0
100
AcDbBlockBegin
  2
_D_3
 70
     0
 10
0.0
 20
0.0
 30
0.0
  3
_D_3
  1

  0
LINE
  5
105
330
102
100
AcDbEntity
  8
치수문자_일반주서
 62
     0
370
    -2
100
AcDbLine
 10
-44.25249999999997
 20
3.999999999999997
 30
0.0
 11
-56.21907634643238
 21
3.999999999999954
 31
0.0
  0
LINE
  5
106
330
102
100
AcDbEntity
  8
치수문자_일반주서
 62
     0
370
    -2
100
AcDbLine
 10
-44.25249999999997
 20
-3.999999999999996
 30
0.0
 11
-56.21907634643235
 21
-4.000000000000043
 31
0.0
  0
LINE
  5
107
330
102
100
AcDbEntity
  8
치수문자_일반주서
 62
     0
370
    -2
100
AcDbLine
 10
-56.21907634643238
 20
3.999999999999954
 30
0.0
 11
-56.21907634643243
 21
16.72899999999995
 31
0.0
  0
LINE
  5
108
330
102
100
AcDbEntity
  8
치수문자_일반주서
 62
     0
370
    -2
100
AcDbLine
 10
-56.21907634643238
 20
3.999999999999954
 30
0.0
 11
-56.21907634643235
 21
-4.000000000000043
 31
0.0
  0
LINE
  5
109
330
102
100
AcDbEntity
  8
치수문자_일반주서
 62
     0
370
    -2
100
AcDbLine
 10
-56.2190763464324
 20
7.301999999999953
 30
0.0
 11
-56.21907634643241
 21
10.60399999999995
 31
0.0
  0
LINE
  5
10A
330
102
100
AcDbEntity
  8
치수문자_일반주서
 62
     0
370
    -2
100
AcDbLine
 10
-56.21907634643234
 20
-7.302000000000042
 30
0.0
 11
-56.21907634643232
 21
-10.60400000000004
 31
0.0
  0
SOLID
  5
10B
330
102
100
AcDbEntity
  8
치수문자_일반주서
 62
     0
100
AcDbTrace
 10
-56.76940967976573
 20
7.301999999999952
 30
0.0
 11
-55.66874301309906
 21
7.301999999999955
 31
0.0
 12
-56.21907634643238
 22
3.999999999999954
 32
0.0
 13
-56.21907634643238
 23
3.999999999999954
 33
0.0
  0
SOLID
  5
10C
330
102
100
AcDbEntity
  8
치수문자_일반주서
 62
     0
100
AcDbTrace
 10
-55.668743013099
 20
-7.30200000000004
 30
0.0
 11
-56.76940967976567
 21
-7.302000000000044
 31
0.0
 12
-56.21907634643235
 22
-4.000000000000043
 32
0.0
 13
-56.21907634643235
 23
-4.000000000000043
 33
0.0
  0
MTEXT
  5
10D
330
102
100
AcDbEntity
  8
치수문자_일반주서
 62
     0
100
AcDbMText
 10
-60.59407634643242
 20
13.66649999999994
 30
0.0
 40
3.5
 41
0.0
 71
     2
 72
     1
  1
\A1;%%c8
  7
SLDTEXTSTYLE0
 11
-3.552713678800504E-15
 21
1.0
 31
0.0
 73
     1
 44
1.0
  0
POINT
  5
140
330
102
100
AcDbEntity
  8
Defpoints
 62
     0
100
AcDbPoint
 10
-44.18999999999997
 20
3.999999999999998
 30
0.0
  0
POINT
  5
141
330
102
100
AcDbEntity
  8
Defpoints
 62
     0
100
AcDbPoint
 10
-44.18999999999997
 20
-3.999999999999996
 30
0.0
  0
POINT
  5
142
330
102
100
AcDbEntity
  8
Defpoints
 62
     0
100
AcDbPoint
 10
-56.21907634643232
 20
-4.000000000000041
 30
0.0
  0
ENDBLK
  5
104
330
102
100
AcDbEntity
  8
0
100
AcDbBlockEnd
  0
BLOCK
  5
10F
330
10E
100
AcDbEntity
  8
0
100
AcDbBlockBegin
  2
SW_DOWELSYMBOL_0
 70
     0
 10
0.0
 20
0.0
 30
0.0
  3
SW_DOWELSYMBOL_0
  1

  0
CIRCLE
  5
111
330
10E
100
AcDbEntity
  8
외형선
 62
     0
100
AcDbCircle
 10
0.0
 20
0.0
 30
0.0
 40
3.000000000000004
  0
HATCH
  5
112
330
10E
100
AcDbEntity
  8
0
  6
Continuous
 62
     0
370
    30
100
AcDbHatch
 10
0.0
 20
0.0
 30
0.0
210
0.0
220
0.0
230
1.0
  2
SOLID
 70
     1
 71
     0
 91
        1
 92
        0
 93
        3
 72
     2
 10
0.0000000000000104
 20
0.0
 40
3.000000000000004
 50
0.0
 51
90.0
 73
     1
 72
     1
 10
0.0000000000000104
 20
3.000000000000004
 11
0.0000000000000104
 21
0.0
 72
     1
 10
0.0000000000000104
 20
0.0
 11
3.000000000000015
 21
0.0
 97
        0
 75
     0
 76
     1
 98
        1
 10
0.0
 20
0.0
  0
HATCH
  5
113
330
10E
100
AcDbEntity
  8
0
  6
Continuous
 62
     0
370
    30
100
AcDbHatch
 10
0.0
 20
0.0
 30
0.0
210
0.0
220
0.0
230
1.0
  2
SOLID
 70
     1
 71
     0
 91
        1
 92
        0
 93
        3
 72
     2
 10
0.0000000000000104
 20
0.0
 40
3.000000000000004
 50
180.0
 51
270.0000000000008
 73
     1
 72
     1
 10
0.0000000000000104
 20
-3.000000000000004
 11
0.0000000000000104
 21
0.0
 72
     1
 10
0.0000000000000104
 20
0.0
 11
-2.999999999999994
 21
0.0
 97
        0
 75
     0
 76
     1
 98
        1
 10
0.0
 20
0.0
  0
ENDBLK
  5
110
330
10E
100
AcDbEntity
  8
0
100
AcDbBlockEnd
  0
ENDSEC
  0
SECTION
  2
ENTITIES
  0
SPLINE
  5
95
330
1F
100
AcDbEntity
  8
0
  6
Continuous
 62
     1
370
    15
100
AcDbSpline
210
0.0
220
0.0
230
1.0
 70
     8
 71
     3
 72
     9
 73
     5
 74
     0
 42
0.000000001
 43
0.00000001
 40
0.0
 40
0.0
 40
0.0
 40
0.0
 40
0.4911848142576457
 40
0.9999999999999999
 40
0.9999999999999999
 40
0.9999999999999999
 40
0.9999999999999999
 10
44.63794041841795
 20
1.024868342375701
 30
0.0
 10
44.45590135720091
 20
1.111490188357024
 30
0.0
 10
44.08528920484402
 20
1.287843046725087
 30
0.0
 10
43.71484731292176
 20
1.48158264173331
 30
0.0
 10
43.52636085287659
 20
1.580160289753067
 30
0.0
  0
SPLINE
  5
96
330
1F
100
AcDbEntity
  8
0
  6
Continuous
 62
     1
370
    15
100
AcDbSpline
210
0.0
220
0.0
230
1.0
 70
     8
 71
     3
 72
     9
 73
     5
 74
     0
 42
0.000000001
 43
0.00000001
 40
0.0
 40
0.0
 40
0.0
 40
0.0
 40
0.5051084484494256
 40
1.0
 40
1.0
 40
1.0
 40
1.0
 10
22.87241799184665
 20
1.024835601285975
 30
0.0
 10
22.68521219029454
 20
1.113956368397711
 30
0.0
 10
22.3145872242565
 20
1.290395244811909
 30
0.0
 10
21.94416095204953
 20
1.48420663081577
 30
0.0
 10
21.76084011946192
 20
1.580122248343388
 30
0.0
  0
LINE
  5
97
330
1F
100
AcDbEntity
  8
0
  6
Continuous
 62
     1
370
    15
100
AcDbLine
 10
11.7541075634454
 20
-4.0
 30
0.0
 11
13.69082390912118
 21
-4.0
 31
0.0
  0
LINE
  5
98
330
1F
100
AcDbEntity
  8
0
  6
Continuous
 62
     1
370
    15
100
AcDbLine
 10
35.4566038459474
 20
4.00000000000001
 30
0.0
 11
33.51899118875392
 21
4.00000000000001
 31
0.0
  0
LINE
  5
99
330
1F
100
AcDbEntity
  8
0
  6
Continuous
 62
     1
370
    15
100
AcDbLine
 10
33.5189911887539
 20
-4.0
 30
0.0
 11
35.45660384594737
 21
-4.0
 31
0.0
  0
LINE
  5
9A
330
1F
100
AcDbEntity
  8
0
  6
Continuous
 62
     1
370
    15
100
AcDbLine
 10
13.69082390912114
 20
4.00000000000001
 30
0.0
 11
11.7541075634454
 21
4.00000000000001
 31
0.0
  0
SPLINE
  5
9B
330
1F
100
AcDbEntity
  8
0
  6
Continuous
 62
     1
370
    15
100
AcDbSpline
210
0.0
220
0.0
230
1.0
 70
     8
 71
     3
 72
    21
 73
    17
 74
     0
 42
0.000000001
 43
0.00000001
 40
0.0
 40
0.0
 40
0.0
 40
0.0
 40
0.1083158345093017
 40
0.1898426460245667
 40
0.2453725996214028
 40
0.2871992248442878
 40
0.3301871851594326
 40
0.3742801684030347
 40
0.4200155753783749
 40
0.4679528309387538
 40
0.5680920786225161
 40
0.6658202616008024
 40
0.710562001915211
 40
0.7723130518084271
 40
0.8691069677297567
 40
0.9999999999999999
 40
0.9999999999999999
 40
0.9999999999999999
 40
0.9999999999999999
 10
15.5325344760624
 20
-3.328567870716479
 30
0.0
 10
15.75006259677137
 20
-3.307752985478849
 30
0.0
 10
16.13131907886584
 20
-3.271271219833864
 30
0.0
 10
16.62304388867067
 20
-3.232428360367249
 30
0.0
 10
16.98179127607386
 20
-3.20754210179503
 30
0.0
 10
17.26353906606222
 20
-3.190131937787001
 30
0.0
 10
17.52202759133754
 20
-3.175809822141693
 30
0.0
 10
17.78811008438816
 20
-3.162825130033707
 30
0.0
 10
18.06402716172177
 20
-3.151241001216195
 30
0.0
 10
18.45235057711429
 20
-3.137743106089238
 30
0.0
 10
18.94541405187207
 20
-3.12649928764011
 30
0.0
 10
19.43199144404526
 20
-3.123030842741817
 30
0.0
 10
19.841485159483
 20
-3.124759057027323
 30
0.0
 10
20.24864943242181
 20
-3.130079093225679
 30
0.0
 10
20.82883208973933
 20
-3.144165690400983
 30
0.0
 10
21.28598034158879
 20
-3.1659974869559
 30
0.0
 10
21.54878645040128
 20
-3.178548184629514
 30
0.0
  0
SPLINE
  5
9C
330
1F
100
AcDbEntity
  8
0
  6
Continuous
 62
     1
370
    15
100
AcDbSpline
210
0.0
220
0.0
230
1.0
 70
     8
 71
     3
 72
    10
 73
     6
 74
     0
 42
0.000000001
 43
0.00000001
 40
0.0
 40
0.0
 40
0.0
 40
0.0
 40
0.6123881930953508
 40
0.9909405532218508
 40
1.0
 40
1.0
 40
1.0
 40
1.0
 10
43.31435143940422
 20
3.178546716359854
 30
0.0
 10
42.65257537179065
 20
3.153997808471155
 30
0.0
 10
41.58171745855218
 20
3.114273808827629
 30
0.0
 10
40.50172765523359
 20
3.124192984618836
 30
0.0
 10
40.08279419592676
 20
3.142960042292251
 30
0.0
 10
40.07300268465035
 20
3.143398674854898
 30
0.0
  0
SPLINE
  5
9D
330
1F
100
AcDbEntity
  8
0
  6
Continuous
 62
     1
370
    15
100
AcDbSpline
210
0.0
220
0.0
230
1.0
 70
     8
 71
     3
 72
    12
 73
     8
 74
     0
 42
0.000000001
 43
0.00000001
 40
0.0
 40
0.0
 40
0.0
 40
0.0
 40
0.2162123776607671
 40
0.4814344192634682
 40
0.6710767364724931
 40
0.7769651775502164
 40
1.0
 40
1.0
 40
1.0
 40
1.0
 10
37.29809259192037
 20
-3.328571290632431
 30
0.0
 10
37.73183420884837
 20
-3.288852252330059
 30
0.0
 10
38.69763526850724
 20
-3.200410913560787
 30
0.0
 10
40.04274174407879
 20
-3.135983437826658
 30
0.0
 10
41.16778388201331
 20
-3.120607255860858
 30
0.0
 10
42.20661958774385
 20
-3.129922776170633
 30
0.0
 10
42.86673995742078
 20
-3.158898789927696
 30
0.0
 10
43.31435143940422
 20
-3.17854671635984
 30
0.0
  0
SPLINE
  5
9E
330
1F
100
AcDbEntity
  8
0
  6
Continuous
 62
     1
370
    15
100
AcDbSpline
210
0.0
220
0.0
230
1.0
 70
     8
 71
     3
 72
    14
 73
    10
 74
     0
 42
0.000000001
 43
0.00000001
 40
0.0
 40
0.0
 40
0.0
 40
0.0
 40
0.2181402835374157
 40
0.3785366648918228
 40
0.4815208296981023
 40
0.5684422086996401
 40
0.6569281429841829
 40
0.8334735393413302
 40
1.0
 40
1.0
 40
1.0
 40
1.0
 10
21.54878645040127
 20
3.178548184629524
 30
0.0
 10
21.31153902170411
 20
3.16708261738088
 30
0.0
 10
20.89984591781308
 20
3.147186532544948
 30
0.0
 10
20.37692559493315
 20
3.132980160677334
 30
0.0
 10
19.99650992117097
 20
3.126484311601728
 30
0.0
 10
19.69422596809973
 20
3.123855667456597
 30
0.0
 10
19.31193458567218
 20
3.123527529327501
 30
0.0
 10
18.84299303317424
 20
3.127917938014984
 30
0.0
 10
18.47035497738416
 20
3.13859925449163
 30
0.0
 10
18.28947713716367
 20
3.14378394624543
 30
0.0
  0
SPLINE
  5
9F
330
1F
100
AcDbEntity
  8
0
  6
Continuous
 62
     1
370
    15
100
AcDbSpline
210
0.0
220
0.0
230
1.0
 70
     8
 71
     3
 72
    13
 73
     9
 74
     0
 42
0.000000001
 43
0.00000001
 40
0.0
 40
0.0
 40
0.0
 40
0.0
 40
0.239562040807743
 40
0.4144453722415802
 40
0.5269577699392326
 40
0.6274375397069856
 40
0.7320023593892594
 40
1.0
 40
1.0
 40
1.0
 40
1.0
 10
46.5264136298439
 20
-3.008530212312789
 30
0.0
 10
46.76594074188796
 20
-2.972145396328238
 30
0.0
 10
47.18032568692487
 20
-2.909199202708352
 30
0.0
 10
47.70577675768664
 20
-2.842989926056238
 30
0.0
 10
48.08789165307562
 20
-2.799522739007513
 30
0.0
 10
48.40097891429478
 20
-2.767247794631938
 30
0.0
 10
48.87092217886781
 20
-2.72265118907238
 30
0.0
 10
49.24145901998335
 20
-2.701088574547251
 30
0.0
 10
49.50799955952196
 20
-2.685577806732404
 30
0.0
  0
SPLINE
  5
A0
330
1F
100
AcDbEntity
  8
0
  6
Continuous
 62
     1
370
    15
100
AcDbSpline
210
0.0
220
0.0
230
1.0
 70
     8
 71
     3
 72
    19
 73
    15
 74
     0
 42
0.000000001
 43
0.00000001
 40
0.0
 40
0.0
 40
0.0
 40
0.0
 40
0.0948243550999736
 40
0.1654336537150793
 40
0.2126699463133802
 40
0.2555922596044217
 40
0.3000095155920661
 40
0.4683021715035027
 40
0.5820582860871351
 40
0.7080107292419232
 40
0.7547048439661461
 40
0.8158725224913391
 40
0.8979337015195462
 40
1.0
 40
1.0
 40
1.0
 40
1.0
 10
31.74742608106644
 20
2.735810610463453
 30
0.0
 10
31.52524028959836
 20
2.718086390316421
 30
0.0
 10
31.13760773204088
 20
2.687164139433907
 30
0.0
 10
30.64105776453984
 20
2.661182675679413
 30
0.0
 10
30.26956094186141
 20
2.64673192156804
 30
0.0
 10
29.95820393708904
 20
2.638185358474157
 30
0.0
 10
29.36317541763648
 20
2.628487703374908
 30
0.0
 10
28.60613152062919
 20
2.636758308678413
 30
0.0
 10
27.65245375849287
 20
2.681922435850261
 30
0.0
 10
26.98574129970358
 20
2.733107092342686
 30
0.0
 10
26.44152950423144
 20
2.786564846754619
 30
0.0
 10
25.99978228379744
 20
2.835591631604272
 30
0.0
 10
25.42847616916605
 20
2.907163591119775
 30
0.0
 10
24.99890441009397
 20
2.972383419497594
 30
0.0
 10
24.76078243083554
 20
3.00853634224505
 30
0.0
  0
SPLINE
  5
A1
330
1F
100
AcDbEntity
  8
0
  6
Continuous
 62
     1
370
    15
100
AcDbSpline
210
0.0
220
0.0
230
1.0
 70
     8
 71
     3
 72
    13
 73
     9
 74
     0
 42
0.000000001
 43
0.00000001
 40
0.0
 40
0.0
 40
0.0
 40
0.0
 40
0.2327702900696272
 40
0.4038593456551885
 40
0.5154553349052845
 40
0.615685992945559
 40
0.7199318018286192
 40
1.0
 40
1.0
 40
1.0
 40
1.0
 10
24.76078243083555
 20
-3.00853634224504
 30
0.0
 10
24.99405234482357
 20
-2.973064542078724
 30
0.0
 10
25.39877854418547
 20
-2.91152052802051
 30
0.0
 10
25.91392613588107
 20
-2.84620615937953
 30
0.0
 10
26.2922403759036
 20
-2.802812006400695
 30
0.0
 10
26.60476997970539
 20
-2.770270363287573
 30
0.0
 10
27.08728658784987
 20
-2.724006361089629
 30
0.0
 10
27.47044049443318
 20
-2.701404545814864
 30
0.0
 10
27.74966327130146
 20
-2.684933510247042
 30
0.0
  0
SPLINE
  5
A2
330
1F
100
AcDbEntity
  8
0
  6
Continuous
 62
     1
370
    15
100
AcDbSpline
210
0.0
220
0.0
230
1.0
 70
     8
 71
     3
 72
    19
 73
    15
 74
     0
 42
0.000000001
 43
0.00000001
 40
0.0
 40
0.0
 40
0.0
 40
0.0
 40
0.0932870010997952
 40
0.1629896692532364
 40
0.2099475895214232
 40
0.2527662330740351
 40
0.29707056504907
 40
0.4657316741094311
 40
0.5825891886923943
 40
0.7086245520481114
 40
0.7552203871373268
 40
0.8162613106545124
 40
0.8981500036370467
 40
0.9999999999999999
 40
0.9999999999999999
 40
0.9999999999999999
 40
0.9999999999999999
 10
53.52990802168678
 20
2.737258321039902
 30
0.0
 10
53.31057247734733
 20
2.719625733646771
 30
0.0
 10
52.92735265673024
 20
2.688818337617276
 30
0.0
 10
52.43542117828344
 20
2.662566204449957
 30
0.0
 10
52.06555662583597
 20
2.647760953614031
 30
0.0
 10
51.75435306097045
 20
2.63887532628672
 30
0.0
 10
51.15802194076583
 20
2.628459958858861
 30
0.0
 10
50.38743849825124
 20
2.636187489511733
 30
0.0
 10
49.42797968232072
 20
2.681203189719317
 30
0.0
 10
48.7519937193638
 20
2.733037137690904
 30
0.0
 10
48.20707108937145
 20
2.786571243942076
 30
0.0
 10
47.76532840619561
 20
2.835596761064369
 30
0.0
 10
47.19406234972076
 20
2.907164990177318
 30
0.0
 10
46.76451836961154
 20
2.972380154476236
 30
0.0
 10
46.52641362984391
 20
3.008530212312804
 30
0.0
  0
LINE
  5
A3
330
1F
100
AcDbEntity
  8
0
  6
Continuous
 62
   131
370
    15
100
AcDbLine
 10
8.479889792802393
 20
4.000000000000005
 30
0.0
 11
-44.18999999999997
 21
4.000000000000002
 31
0.0
  0
LINE
  5
A4
330
1F
100
AcDbEntity
  8
0
  6
Continuous
 62
   131
370
    15
100
AcDbLine
 10
-44.18999999999997
 20
-3.999999999999999
 30
0.0
 11
8.479889792802393
 21
-3.999999999999996
 31
0.0
  0
LINE
  5
A5
330
1F
100
AcDbEntity
  8
0
  6
Continuous
 62
   131
370
    15
100
AcDbLine
 10
-44.18999999999997
 20
3.999999999999998
 30
0.0
 11
-44.99999999999997
 21
3.189999999999998
 31
0.0
  0
LINE
  5
A6
330
1F
100
AcDbEntity
  8
0
  6
Continuous
 62
   131
370
    15
100
AcDbLine
 10
-44.99999999999997
 20
-3.189999999999996
 30
0.0
 11
-44.18999999999997
 21
-3.999999999999996
 31
0.0
  0
SPLINE
  5
A7
330
1F
100
AcDbEntity
  8
0
  6
Continuous
 62
   131
370
    15
100
AcDbSpline
210
0.0
220
0.0
230
1.0
 70
     8
 71
     3
 72
     9
 73
     5
 74
     0
 42
0.000000001
 43
0.00000001
 40
0.0
 40
0.0
 40
0.0
 40
0.0
 40
0.5367565502518913
 40
1.0
 40
1.0
 40
1.0
 40
1.0
 10
9.802448175313938
 20
2.71940396062188
 30
0.0
 10
9.566335938029123
 20
2.702516236047621
 30
0.0
 10
9.126448921887429
 20
2.671053695783634
 30
0.0
 10
8.678319802777366
 20
2.654107285447072
 30
0.0
 10
8.470726923708241
 20
2.646256971861916
 30
0.0
  0
SPLINE
  5
A8
330
1F
100
AcDbEntity
  8
0
  6
Continuous
 62
     1
370
    15
100
AcDbSpline
210
0.0
220
0.0
230
1.0
 70
     8
 71
     3
 72
    28
 73
    24
 74
     0
 42
0.000000001
 43
0.00000001
 40
0.0
 40
0.0
 40
0.0
 40
0.0
 40
0.053342675057404
 40
0.1071261963141461
 40
0.1560525554851681
 40
0.2053179784299577
 40
0.254192705035214
 40
0.3034073046225764
 40
0.352281692665167
 40
0.4014935015175203
 40
0.4503680161485211
 40
0.4995813412565096
 40
0.5484557742024393
 40
0.5976688824667692
 40
0.6465433425877755
 40
0.6957552615506161
 40
0.7446298422514781
 40
0.7938439359552991
 40
0.8427182747788978
 40
0.8919304563969882
 40
0.9408039601946188
 40
0.9900155764992034
 40
1.0
 40
1.0
 40
1.0
 40
1.0
 10
10.00000000000003
 20
3.872636974689543
 30
0.0
 10
10.41833887139374
 20
3.920795409468286
 30
0.0
 10
11.25847394175782
 20
4.017510280492992
 30
0.0
 10
12.48192288334985
 20
3.996831336109928
 30
0.0
 10
13.67282190220474
 20
3.865566239025085
 30
0.0
 10
14.82603130006846
 20
3.629674428439335
 30
0.0
 10
15.98155018458505
 20
3.293666059474707
 30
0.0
 10
17.1331983642636
 20
2.866506391934458
 30
0.0
 10
18.28793479542269
 20
2.359449143756024
 30
0.0
 10
19.44063240363603
 20
1.789374033674805
 30
0.0
 10
20.59494006517895
 20
1.166913432748516
 30
0.0
 10
21.74681748407985
 20
0.5138217493870497
 30
0.0
 10
22.90228163508036
 20
-0.1532839064868226
 30
0.0
 10
24.05407633368566
 20
-0.8164640946887864
 30
0.0
 10
25.20843024419558
 20
-1.458552780750217
 30
0.0
 10
26.3612015326809
 20
-2.057273287267787
 30
0.0
 10
27.51582013094196
 20
-2.601668728676419
 30
0.0
 10
28.66747600481907
 20
-3.073396612337596
 30
0.0
 10
29.8227141109088
 20
-3.459339397091334
 30
0.0
 10
30.97493615245779
 20
-3.751999040448313
 30
0.0
 10
32.1291662645375
 20
-3.932105413992068
 30
0.0
 10
32.976536544379
 20
-4.010273430511167
 30
0.0
 10
33.44070178968695
 20
-3.993843765180046
 30
0.0
 10
33.5189911887539
 20
-3.991072621414659
 30
0.0
  0
SPLINE
  5
A9
330
1F
100
AcDbEntity
  8
0
  6
Continuous
 62
     1
370
    15
100
AcDbSpline
210
0.0
220
0.0
230
1.0
 70
     8
 71
     3
 72
    13
 73
     9
 74
     0
 42
0.000000001
 43
0.00000001
 40
0.0
 40
0.0
 40
0.0
 40
0.0
 40
0.196853220901834
 40
0.4072101247131237
 40
0.5541352452002254
 40
0.7015630354388008
 40
0.8505194008724273
 40
1.0
 40
1.0
 40
1.0
 40
1.0
 10
49.49854930354075
 20
2.681812311976509
 30
0.0
 10
49.85946574599441
 20
2.831048099612256
 30
0.0
 10
50.6060566773964
 20
3.13975691025
 30
0.0
 10
51.62247498275893
 20
3.465223758041028
 30
0.0
 10
52.54819571083248
 20
3.700632752232345
 30
0.0
 10
53.36092857237779
 20
3.855001221503688
 30
0.0
 10
54.17866266131946
 20
3.960871949402712
 30
0.0
 10
54.72590046154752
 20
3.984689544435517
 30
0.0
 10
55.00000000000004
 20
4.000000000000165
 30
0.0
  0
SPLINE
  5
AA
330
1F
100
AcDbEntity
  8
0
  6
Continuous
 62
     1
370
    15
100
AcDbSpline
210
0.0
220
0.0
230
1.0
 70
    24
 71
     3
 72
    10
 73
     6
 74
     0
 42
0.000000001
 43
0.00000001
 40
0.0
 40
0.0
 40
0.0
 40
0.0
 40
0.5
 40
0.5
 40
1.0
 40
1.0
 40
1.0
 40
1.0
 10
55.00000000000004
 20
2.80000000000001
 30
0.0
 10
55.00000000000004
 20
2.969729027229265
 30
0.0
 10
55.00000000000005
 20
3.16696987546848
 30
0.0
 10
55.00000000000002
 20
3.580780643843435
 30
0.0
 10
55.00000000000002
 20
3.796293743205903
 30
0.0
 10
55.00000000000004
 20
4.000000000000165
 30
0.0
  0
LINE
  5
AB
330
1F
100
AcDbEntity
  8
0
  6
Continuous
 62
     1
370
    15
100
AcDbLine
 10
55.00000000000004
 20
2.800000000000011
 30
0.0
 11
53.52482442477275
 21
2.717129685284549
 31
0.0
  0
SPLINE
  5
AC
330
1F
100
AcDbEntity
  8
0
  6
Continuous
 62
     1
370
    15
100
AcDbSpline
210
0.0
220
0.0
230
1.0
 70
     8
 71
     3
 72
    14
 73
    10
 74
     0
 42
0.000000001
 43
0.00000001
 40
0.0
 40
0.0
 40
0.0
 40
0.0
 40
0.093607307280046
 40
0.2394433688284033
 40
0.3851952643560387
 40
0.5309420380418459
 40
0.6767748306662922
 40
0.8384251347043411
 40
1.0
 40
1.0
 40
1.0
 40
1.0
 10
23.29237341884378
 20
-0.376405954675575
 30
0.0
 10
22.87761665240073
 20
-0.2102749095133377
 30
0.0
 10
21.81668711295366
 20
0.2146809863081552
 30
0.0
 10
20.11000371157495
 20
0.9022514924766906
 30
0.0
 10
18.17246786485399
 20
1.60887550046318
 30
0.0
 10
16.23492755307006
 20
2.192578625180882
 30
0.0
 10
14.22690601040807
 20
2.615866086115867
 30
0.0
 10
12.14817896734283
 20
2.843411206898283
 30
0.0
 10
10.71594823120165
 20
2.772709621765387
 30
0.0
 10
10.00000000000003
 20
2.737367079853861
 30
0.0
  0
SPLINE
  5
AD
330
1F
100
AcDbEntity
  8
0
  6
Continuous
 62
   131
370
    15
100
AcDbSpline
210
0.0
220
0.0
230
1.0
 70
    24
 71
     3
 72
    10
 73
     6
 74
     0
 42
0.000000001
 43
0.00000001
 40
0.0
 40
0.0
 40
0.0
 40
0.0
 40
0.5
 40
0.5
 40
1.0
 40
1.0
 40
1.0
 40
1.0
 10
10.00000000000003
 20
3.872636974689536
 30
0.0
 10
10.00000000000003
 20
3.666011597188973
 30
0.0
 10
10.00000000000003
 20
3.452762070015928
 30
0.0
 10
10.00000000000003
 20
3.060633066758129
 30
0.0
 10
10.00000000000004
 20
2.882688864167022
 30
0.0
 10
10.00000000000004
 20
2.737367079853859
 30
0.0
  0
SPLINE
  5
AE
330
1F
100
AcDbEntity
  8
0
  6
Continuous
 62
     1
370
    15
100
AcDbSpline
210
0.0
220
0.0
230
1.0
 70
     8
 71
     3
 72
     9
 73
     5
 74
     0
 42
0.000000001
 43
0.00000001
 40
0.0
 40
0.0
 40
0.0
 40
0.0
 40
0.7153744468942855
 40
0.9999999999999999
 40
0.9999999999999999
 40
0.9999999999999999
 40
0.9999999999999999
 10
10.00000000000003
 20
-3.872636974689534
 30
0.0
 10
10.41836134206786
 20
-3.927233338111093
 30
0.0
 10
11.00317583171602
 20
-4.003551920160791
 30
0.0
 10
11.58772884011129
 20
-3.988394802603984
 30
0.0
 10
11.7541075634454
 20
-3.984080699635889
 30
0.0
  0
SPLINE
  5
AF
330
1F
100
AcDbEntity
  8
0
  6
Continuous
 62
     1
370
    15
100
AcDbSpline
210
0.0
220
0.0
230
1.0
 70
     8
 71
     3
 72
    30
 73
    26
 74
     0
 42
0.000000001
 43
0.00000001
 40
0.0
 40
0.0
 40
0.0
 40
0.0
 40
0.0340975234173493
 40
0.0762671587716826
 40
0.1187282908049213
 40
0.1608972056842269
 40
0.2033578499550744
 40
0.2455269064266657
 40
0.2879889910675752
 40
0.3301578224410025
 40
0.3726177354170707
 40
0.4147866688127868
 40
0.4572480270545648
 40
0.4994168597630673
 40
0.5418777480832393
 40
0.5840466379298983
 40
0.626506736311329
 40
0.6686757432802867
 40
0.711137759577249
 40
0.7533065399853754
 40
0.7957667040021106
 40
0.8379356218070921
 40
0.8803963925853406
 40
0.9397865453032738
 40
1.0
 40
1.0
 40
1.0
 40
1.0
 10
27.74107510023524
 20
2.681435378412364
 30
0.0
 10
28.05078087007981
 20
2.81184875073059
 30
0.0
 10
28.74351092065069
 20
3.103549037898188
 30
0.0
 10
29.82271551974236
 20
3.458347220500293
 30
0.0
 10
30.97493329390593
 20
3.750776839629856
 30
0.0
 10
32.12917624049329
 20
3.937947002365149
 30
0.0
 10
33.28142878341247
 20
4.016137574038781
 30
0.0
 10
34.43661257578169
 20
3.983445107856708
 30
0.0
 10
35.58824170130824
 20
3.840610629100641
 30
0.0
 10
36.7428688208396
 20
3.591008668345664
 30
0.0
 10
37.89559672437682
 20
3.243611920823398
 30
0.0
 10
39.04991303700359
 20
2.804659274680883
 30
0.0
 10
40.2017096465276
 20
2.289071053917614
 30
0.0
 10
41.35715302373526
 20
1.710530440773883
 30
0.0
 10
42.50897705174758
 20
1.084591865157494
 30
0.0
 10
43.6632714555455
 20
0.4268596874612386
 30
0.0
 10
44.81597370953754
 20
-0.2393777102555125
 30
0.0
 10
45.97064973385802
 20
-0.901676144388734
 30
0.0
 10
47.12227224925719
 20
-1.538237242898544
 30
0.0
 10
48.27739055750778
 20
-2.132262766594699
 30
0.0
 10
49.42969992643606
 20
-2.666279878441506
 30
0.0
 10
50.5839260045359
 20
-3.129209021509063
 30
0.0
 10
51.89259926986561
 20
-3.551837476277735
 30
0.0
 10
53.36568279241785
 20
-3.893255870958483
 30
0.0
 10
54.45273332806489
 20
-3.962007046006468
 30
0.0
 10
54.99999999999986
 20
-3.999999999999826
 30
0.0
  0
SPLINE
  5
B0
330
1F
100
AcDbEntity
  8
0
  6
Continuous
 62
     1
370
    15
100
AcDbSpline
210
0.0
220
0.0
230
1.0
 70
     8
 71
     3
 72
    14
 73
    10
 74
     0
 42
0.000000001
 43
0.00000001
 40
0.0
 40
0.0
 40
0.0
 40
0.0
 40
0.1275512350519256
 40
0.2729525513080755
 40
0.4184375930124433
 40
0.5639819864594475
 40
0.7095465380293691
 40
0.8550919096357044
 40
0.9999999999999999
 40
0.9999999999999999
 40
0.9999999999999999
 40
0.9999999999999999
 10
45.06883206548526
 20
-0.3828891224707685
 30
0.0
 10
44.50244850732976
 20
-0.1542030522159943
 30
0.0
 10
43.29041918315617
 20
0.335172423444804
 30
0.0
 10
41.43253262507709
 20
1.072713902357043
 30
0.0
 10
39.4945545922281
 20
1.755374001240657
 30
0.0
 10
37.55578719570492
 20
2.303425313407801
 30
0.0
 10
35.61672202977492
 20
2.668046634153159
 30
0.0
 10
33.68050045010719
 20
2.840435718201421
 30
0.0
 10
32.39076316096109
 20
2.77034008661928
 30
0.0
 10
31.74730941668903
 20
2.735369168915175
 30
0.0
  0
SPLINE
  5
B1
330
1F
100
AcDbEntity
  8
0
  6
Continuous
 62
     1
370
    15
100
AcDbSpline
210
0.0
220
0.0
230
1.0
 70
     8
 71
     3
 72
    19
 73
    15
 74
     0
 42
0.000000001
 43
0.00000001
 40
0.0
 40
0.0
 40
0.0
 40
0.0
 40
0.0850150470364523
 40
0.170029912769769
 40
0.2550445999707988
 40
0.3400591114133213
 40
0.4250734498740043
 40
0.5100876181323568
 40
0.5951016189706884
 40
0.68011545517406
 40
0.7651291295302428
 40
0.8501426448296703
 40
0.9351560038653971
 40
0.9999999999999999
 40
0.9999999999999999
 40
0.9999999999999999
 40
0.9999999999999999
 10
55.00000000000004
 20
-3.795763476927594
 30
0.0
 10
54.44617116278661
 20
-3.673796556353584
 30
0.0
 10
53.33851466945539
 20
-3.429862975312287
 30
0.0
 10
51.67703258186992
 20
-2.809456503084107
 30
0.0
 10
50.01555462776941
 20
-2.043856777462668
 30
0.0
 10
48.3540808075042
 20
-1.157107995516416
 30
0.0
 10
46.69261103851208
 20
-0.2052464797933608
 30
0.0
 10
45.03114526050682
 20
0.7586227586059854
 30
0.0
 10
43.36968340659465
 20
1.679136015606537
 30
0.0
 10
41.70822541362543
 20
2.503040319744888
 30
0.0
 10
40.04677120967862
 20
3.185666824142114
 30
0.0
 10
38.38532075377469
 20
3.678583644093403
 30
0.0
 10
36.85526527626561
 20
3.964042684674625
 30
0.0
 10
35.87902688068815
 20
3.974645026992073
 30
0.0
 10
35.4566038459474
 20
3.979232711350102
 30
0.0
  0
SPLINE
  5
B2
330
1F
100
AcDbEntity
  8
0
  6
Continuous
 62
     1
370
    15
100
AcDbSpline
210
0.0
220
0.0
230
1.0
 70
     8
 71
     3
 72
    12
 73
     8
 74
     0
 42
0.000000001
 43
0.00000001
 40
0.0
 40
0.0
 40
0.0
 40
0.0
 40
0.1869585984908719
 40
0.390219274247178
 40
0.5934797356015667
 40
0.7967399787772705
 40
1.0
 40
1.0
 40
1.0
 40
1.0
 10
18.2895167281165
 20
-3.143771804169819
 30
0.0
 10
17.77291767550215
 20
-3.315149743101493
 30
0.0
 10
16.6946741017101
 20
-3.672849124096585
 30
0.0
 10
15.05478702738143
 20
-3.959602347383368
 30
0.0
 10
13.36985602376892
 20
-4.033549439760898
 30
0.0
 10
11.68492717105148
 20
-3.88032143034183
 30
0.0
 10
10.56164218591743
 20
-3.59041541869571
 30
0.0
 10
9.999999999997408
 20
-3.445462492014464
 30
0.0
  0
SPLINE
  5
B3
330
1F
100
AcDbEntity
  8
0
  6
Continuous
 62
   131
370
    15
100
AcDbSpline
210
0.0
220
0.0
230
1.0
 70
    24
 71
     3
 72
     8
 73
     4
 74
     0
 42
0.000000001
 43
0.00000001
 40
0.0
 40
0.0
 40
0.0
 40
0.0
 40
1.0
 40
1.0
 40
1.0
 40
1.0
 10
10.0000000000001
 20
-2.819220102597645
 30
0.0
 10
10.0000000000001
 20
-3.023342579411048
 30
0.0
 10
10.0000000000001
 20
-3.233411146359976
 30
0.0
 10
10.0000000000001
 20
-3.445462491998982
 30
0.0
  0
SPLINE
  5
B4
330
1F
100
AcDbEntity
  8
0
  6
Continuous
 62
     1
370
    15
100
AcDbSpline
210
0.0
220
0.0
230
1.0
 70
     8
 71
     3
 72
    14
 73
    10
 74
     0
 42
0.000000001
 43
0.00000001
 40
0.0
 40
0.0
 40
0.0
 40
0.0
 40
0.1402642802180597
 40
0.2804499305320013
 40
0.420584889048629
 40
0.560697339918495
 40
0.7476259023263007
 40
0.9345142464566054
 40
1.0
 40
1.0
 40
1.0
 40
1.0
 10
55.00000000000004
 20
-3.155889057472856
 30
0.0
 10
54.51507317323149
 20
-3.053979290534963
 30
0.0
 10
53.54549136188994
 20
-2.850216885638778
 30
0.0
 10
52.09161029047346
 20
-2.382278707494506
 30
0.0
 10
50.63825767094503
 20
-1.820121776201684
 30
0.0
 10
49.02362837134807
 20
-1.102580947386345
 30
0.0
 10
47.24614237356467
 20
-0.2462824882995993
 30
0.0
 10
45.72711850454191
 20
0.5181441451199352
 30
0.0
 10
44.85449822372008
 20
0.9157126546917692
 30
0.0
 10
44.62807167213018
 20
1.018873294687785
 30
0.0
  0
SPLINE
  5
B5
330
1F
100
AcDbEntity
  8
0
  6
Continuous
 62
     1
370
    15
100
AcDbSpline
210
0.0
220
0.0
230
1.0
 70
     8
 71
     3
 72
    11
 73
     7
 74
     0
 42
0.000000001
 43
0.00000001
 40
0.0
 40
0.0
 40
0.0
 40
0.0
 40
0.2246559592219506
 40
0.4829775961441499
 40
0.7414606852027706
 40
1.0
 40
1.0
 40
1.0
 40
1.0
 10
15.54211928391105
 20
-3.297683736051846
 30
0.0
 10
15.12698618202264
 20
-3.341603211442087
 30
0.0
 10
14.23451046793824
 20
-3.436023687628671
 30
0.0
 10
12.86512310291321
 20
-3.363376989918389
 30
0.0
 10
11.43274577623666
 20
-3.178181546874214
 30
0.0
 10
10.47761654857107
 20
-2.938882591874544
 30
0.0
 10
10.00000000000017
 20
-2.819220102597663
 30
0.0
  0
LINE
  5
B6
330
1F
100
AcDbEntity
  8
0
  6
Continuous
 62
     1
370
    15
100
AcDbLine
 10
55.00000000000004
 20
-3.795763476927597
 30
0.0
 11
55.00000000000004
 21
-3.155889057472856
 31
0.0
  0
SPLINE
  5
B7
330
1F
100
AcDbEntity
  8
0
  6
Continuous
 62
     1
370
    15
100
AcDbSpline
210
0.0
220
0.0
230
1.0
 70
     8
 71
     3
 72
    24
 73
    20
 74
     0
 42
0.000000001
 43
0.00000001
 40
0.0
 40
0.0
 40
0.0
 40
0.0
 40
0.0007902618305098
 40
0.0637794239969043
 40
0.1267684703826544
 40
0.1897574030591266
 40
0.2527462240995613
 40
0.3157349355790397
 40
0.3787235395744482
 40
0.4417120381644467
 40
0.5047004334294342
 40
0.567688727451514
 40
0.6306769223144618
 40
0.6936650201036899
 40
0.7566530229062144
 40
0.8205319885951085
 40
0.8844108892799403
 40
0.9482897237722653
 40
1.0
 40
1.0
 40
1.0
 40
1.0
 10
40.0676148400662
 20
-3.145586152591312
 30
0.0
 10
40.06066665339701
 20
-3.148411230767902
 30
0.0
 10
39.49990144055788
 20
-3.376413965928357
 30
0.0
 10
38.38532078899655
 20
-3.670436725310677
 30
0.0
 10
36.72387392152654
 20
-3.974659208293661
 30
0.0
 10
35.06243072772515
 20
-4.031043845850751
 30
0.0
 10
33.40099104622469
 20
-3.862184970248871
 30
0.0
 10
31.73955483584223
 20
-3.470828292963882
 30
0.0
 10
30.078122028979
 20
-2.881225947071364
 30
0.0
 10
28.41669254315806
 20
-2.126624035167373
 30
0.0
 10
26.75526638147984
 20
-1.250345462749407
 30
0.0
 10
25.09384321927027
 20
-0.3024926112040118
 30
0.0
 10
23.43242395703592
 20
0.6626340404119232
 30
0.0
 10
21.77100492201458
 20
1.589969768002103
 30
0.0
 10
20.10176518698346
 20
2.42975959218
 30
0.0
 10
18.42465357435366
 20
3.134227468451343
 30
0.0
 10
16.73972065213174
 20
3.65057865778988
 30
0.0
 10
15.16177640550772
 20
3.957128675972909
 30
0.0
 10
14.14547805516271
 20
3.974178944150362
 30
0.0
 10
13.69082390912115
 20
3.981806601043997
 30
0.0
  0
SPLINE
  5
B8
330
1F
100
AcDbEntity
  8
0
  6
Continuous
 62
     1
370
    15
100
AcDbSpline
210
0.0
220
0.0
230
1.0
 70
     8
 71
     3
 72
    15
 73
    11
 74
     0
 42
0.000000001
 43
0.00000001
 40
0.0
 40
0.0
 40
0.0
 40
0.0
 40
0.1167674267787042
 40
0.2510517382349458
 40
0.3852843042153868
 40
0.519441730214682
 40
0.6536467245593895
 40
0.7879161065612006
 40
0.9222152398529059
 40
1.0
 40
1.0
 40
1.0
 40
1.0
 10
37.30265929036414
 20
-3.313228548432166
 30
0.0
 10
36.74063917972246
 20
-3.356599521665538
 30
0.0
 10
35.53228741937242
 20
-3.449847771794532
 30
0.0
 10
33.67788339111746
 20
-3.268652485678538
 30
0.0
 10
31.73987156045911
 20
-2.850209500854753
 30
0.0
 10
29.80250570616827
 20
-2.203445575649829
 30
0.0
 10
27.86477964950135
 20
-1.38638513046132
 30
0.0
 10
25.92622810821721
 20
-0.464527358953253
 30
0.0
 10
24.25916693638973
 20
0.3702821044865275
 30
0.0
 10
23.23838656497936
 20
0.8448321146489124
 30
0.0
 10
22.86400096187872
 20
1.018880026160562
 30
0.0
  0
LINE
  5
B9
330
1F
100
AcDbEntity
  8
0
  6
Continuous
 62
   131
370
    15
100
AcDbLine
 10
10.00000000000003
 20
-3.87263697468953
 30
0.0
 11
10.00000000000003
 21
-3.445462492000058
 31
0.0
  0
LINE
  5
BA
330
1F
100
AcDbEntity
  8
0
  6
Continuous
 62
     6
370
    15
100
AcDbLine
 10
54.99999999999986
 20
-3.999999999999826
 30
0.0
 11
55.0000000000006
 21
-3.795763476927602
 31
0.0
  0
SPLINE
  5
BB
330
1F
100
AcDbEntity
  8
0
  6
Continuous
 62
     1
370
    15
100
AcDbSpline
210
0.0
220
0.0
230
1.0
 70
     8
 71
     3
 72
     8
 73
     4
 74
     0
 42
0.000000001
 43
0.00000001
 40
0.0
 40
0.0
 40
0.0
 40
0.0
 40
1.0
 40
1.0
 40
1.0
 40
1.0
 10
52.52471855126653
 20
1.119153604316216
 30
0.0
 10
52.34554341134248
 20
1.331446846975059
 30
0.0
 10
52.19000160100917
 20
1.534373798641803
 30
0.0
 10
52.06722270051495
 20
1.723135374418816
 30
0.0
  0
LINE
  5
BC
330
1F
100
AcDbEntity
  8
0
  6
Continuous
 62
     1
370
    15
100
AcDbLine
 10
52.06722270051493
 20
1.723135374418815
 30
0.0
 11
55.00000000000004
 21
0.0000000000000104
 31
0.0
  0
LINE
  5
BD
330
1F
100
AcDbEntity
  8
0
  6
Continuous
 62
     1
370
    15
100
AcDbLine
 10
55.00000000000004
 20
0.0000000000000104
 30
0.0
 11
55.00000000000004
 21
-1.068971784118569
 31
0.0
  0
SPLINE
  5
BE
330
1F
100
AcDbEntity
  8
0
  6
Continuous
 62
     1
370
    15
100
AcDbSpline
210
0.0
220
0.0
230
1.0
 70
     8
 71
     3
 72
    10
 73
     6
 74
     0
 42
0.000000001
 43
0.00000001
 40
0.0
 40
0.0
 40
0.0
 40
0.0
 40
0.5
 40
0.5
 40
1.0
 40
1.0
 40
1.0
 40
1.0
 10
55.00000000000004
 20
-1.068971784118569
 30
0.0
 10
54.5715170397644
 20
-0.7321110804045903
 30
0.0
 10
54.15019312186431
 20
-0.3814365541696998
 30
0.0
 10
53.3222262563415
 20
0.3482403539461745
 30
0.0
 10
52.91171971059941
 20
0.7310712194862673
 30
0.0
 10
52.5247185512687
 20
1.11915360431401
 30
0.0
  0
SPLINE
  5
BF
330
1F
100
AcDbEntity
  8
0
  6
Continuous
 62
   131
370
    15
100
AcDbSpline
210
0.0
220
0.0
230
1.0
 70
    24
 71
     3
 72
    14
 73
    10
 74
     0
 42
0.000000001
 43
0.00000001
 40
0.0
 40
0.0
 40
0.0
 40
0.0
 40
0.25
 40
0.25
 40
0.5
 40
0.5
 40
0.75
 40
0.75
 40
1.0
 40
1.0
 40
1.0
 40
1.0
 10
10.0
 20
0.6730462895878957
 30
0.0
 10
10.0
 20
0.3659819209555241
 30
0.0
 10
10.0
 20
0.0484800529123274
 30
0.0
 10
10.0
 20
-0.5862574660543071
 30
0.0
 10
10.0
 20
-0.9033217016817623
 30
0.0
 10
10.0
 20
-1.513681779048278
 30
0.0
 10
10.0
 20
-1.806801367325145
 30
0.0
 10
10.0
 20
-2.349131903634811
 30
0.0
 10
10.0
 20
-2.598244201490774
 30
0.0
 10
10.0
 20
-2.819220102597617
 30
0.0
  0
SPLINE
  5
C0
330
1F
100
AcDbEntity
  8
0
  6
Continuous
 62
     1
370
    15
100
AcDbSpline
210
0.0
220
0.0
230
1.0
 70
     8
 71
     3
 72
    13
 73
     9
 74
     0
 42
0.000000001
 43
0.00000001
 40
0.0
 40
0.0
 40
0.0
 40
0.0
 40
0.1812959185313656
 40
0.3625918395891133
 40
0.5731057099194559
 40
0.7835736579879002
 40
0.993940622095777
 40
1.0
 40
1.0
 40
1.0
 40
1.0
 10
52.52471855126647
 20
1.119153604316253
 30
0.0
 10
51.96813986018923
 20
1.35377755996969
 30
0.0
 10
50.85498247027877
 20
1.823025474546079
 30
0.0
 10
49.09569343120593
 20
2.433955198203631
 30
0.0
 10
47.24618960266807
 20
2.921952669593311
 30
0.0
 10
45.30767001017193
 20
3.17613643600688
 30
0.0
 10
43.99695404986036
 20
3.253348859882359
 30
0.0
 10
43.33249431650045
 20
3.177239735262701
 30
0.0
 10
43.31389116223959
 20
3.175108876589294
 30
0.0
  0
SPLINE
  5
C1
330
1F
100
AcDbEntity
  8
0
  6
Continuous
 62
     1
370
    15
100
AcDbSpline
210
0.0
220
0.0
230
1.0
 70
     8
 71
     3
 72
    16
 73
    12
 74
     0
 42
0.000000001
 43
0.00000001
 40
0.0
 40
0.0
 40
0.0
 40
0.0
 40
0.0533353745057485
 40
0.1845598590107437
 40
0.315744809742318
 40
0.4468560180741459
 40
0.5779627465673427
 40
0.7091448382621786
 40
0.8060484980496578
 40
0.9030135625527823
 40
1.0
 40
1.0
 40
1.0
 40
1.0
 10
24.77535314947305
 20
-2.978036385967415
 30
0.0
 10
24.51263854678214
 20
-3.026525149023097
 30
0.0
 10
23.60355015128444
 20
-3.194313963784257
 30
0.0
 10
22.0482795641698
 20
-3.229969098070954
 30
0.0
 10
20.10998181477003
 20
-3.076328939995612
 30
0.0
 10
18.17243458448412
 20
-2.669223029104419
 30
0.0
 10
16.23501080932645
 20
-2.058360271878876
 30
0.0
 10
14.46554582349728
 20
-1.353686976468616
 30
0.0
 10
12.86515212770346
 20
-0.6450701705110891
 30
0.0
 10
11.43276690582627
 20
0.0181387973608117
 30
0.0
 10
10.47762405335003
 20
0.4547277551948815
 30
0.0
 10
10.00000000000003
 20
0.6730462895878826
 30
0.0
  0
SPLINE
  5
C2
330
1F
100
AcDbEntity
  8
0
  6
Continuous
 62
     1
370
    15
100
AcDbSpline
210
0.0
220
0.0
230
1.0
 70
    24
 71
     3
 72
    10
 73
     6
 74
     0
 42
0.000000001
 43
0.00000001
 40
0.0
 40
0.0
 40
0.0
 40
0.0
 40
0.5
 40
0.5
 40
1.0
 40
1.0
 40
1.0
 40
1.0
 10
55.00000000000004
 20
-3.155889057472854
 30
0.0
 10
55.00000000000002
 20
-2.91396555601521
 30
0.0
 10
55.00000000000002
 20
-2.608285935625864
 30
0.0
 10
55.00000000000002
 20
-1.89761023660271
 30
0.0
 10
55.00000000000002
 20
-1.493229772205229
 30
0.0
 10
55.00000000000002
 20
-1.068971784118697
 30
0.0
  0
SPLINE
  5
C3
330
1F
100
AcDbEntity
  8
0
  6
Continuous
 62
     1
370
    15
100
AcDbSpline
210
0.0
220
0.0
230
1.0
 70
     8
 71
     3
 72
    21
 73
    17
 74
     0
 42
0.000000001
 43
0.00000001
 40
0.0
 40
0.0
 40
0.0
 40
0.0
 40
0.0493129441212961
 40
0.1268384071940036
 40
0.204334378843388
 40
0.2818738133594992
 40
0.35944405695449
 40
0.4370247640943761
 40
0.5145955145699119
 40
0.5921359592320546
 40
0.6696323900987542
 40
0.7471566725715348
 40
0.8247186713580276
 40
0.9022980996917045
 40
0.9798745464953706
 40
1.0
 40
1.0
 40
1.0
 40
1.0
 10
46.53997368262613
 20
-2.978785754789492
 30
0.0
 10
46.12910159153387
 20
-3.045430458596893
 30
0.0
 10
45.07229262335654
 20
-3.216848090001227
 30
0.0
 10
43.36991949932025
 20
-3.217148146618875
 30
0.0
 10
41.43254386356364
 20
-3.00312226324291
 30
0.0
 10
39.49455992133472
 20
-2.546066650022921
 30
0.0
 10
37.55578596564532
 20
-1.893558248721606
 30
0.0
 10
35.61671023431764
 20
-1.093073976478959
 30
0.0
 10
33.67792227939157
 20
-0.2077756485040742
 30
0.0
 10
31.73991723857056
 20
0.6934848614209005
 30
0.0
 10
29.80253901486022
 20
1.541490891448112
 30
0.0
 10
27.86481648977429
 20
2.267997559159385
 30
0.0
 10
25.92626818634304
 20
2.823362375480349
 30
0.0
 10
23.98723761772343
 20
3.139937479091008
 30
0.0
 10
22.52675836737323
 20
3.248644074957926
 30
0.0
 10
21.71273751869071
 20
3.170715728814916
 30
0.0
 10
21.54505870496995
 20
3.154663397160722
 30
0.0
  0
SPLINE
  5
C4
330
1F
100
AcDbEntity
  8
0
  6
Continuous
 62
     1
370
    15
100
AcDbSpline
210
0.0
220
0.0
230
1.0
 70
     8
 71
     3
 72
    10
 73
     6
 74
     0
 42
0.000000001
 43
0.00000001
 40
0.0
 40
0.0
 40
0.0
 40
0.0
 40
0.5
 40
0.5
 40
1.0
 40
1.0
 40
1.0
 40
1.0
 10
55.00000000000004
 20
2.800000000000011
 30
0.0
 10
54.50223746009667
 20
2.664946022532469
 30
0.0
 10
54.00821511501305
 20
2.510120649931901
 30
0.0
 10
53.02867820086088
 20
2.15549615084827
 30
0.0
 10
52.5430322198186
 20
1.956264825614537
 30
0.0
 10
52.06722270051289
 20
1.723135374420449
 30
0.0
  0
SPLINE
  5
C5
330
1F
100
AcDbEntity
  8
0
  6
Continuous
 62
   131
370
    15
100
AcDbSpline
210
0.0
220
0.0
230
1.0
 70
    24
 71
     3
 72
    14
 73
    10
 74
     0
 42
0.000000001
 43
0.00000001
 40
0.0
 40
0.0
 40
0.0
 40
0.0
 40
0.25
 40
0.25
 40
0.5
 40
0.5
 40
0.75
 40
0.75
 40
1.0
 40
1.0
 40
1.0
 40
1.0
 10
10.00000000000002
 20
2.73736707985386
 30
0.0
 10
10.00000000000002
 20
2.736435969429775
 30
0.0
 10
10.00000000000002
 20
2.692041852206424
 30
0.0
 10
10.00000000000002
 20
2.507621534355516
 30
0.0
 10
10.00000000000002
 20
2.367499025752114
 30
0.0
 10
10.00000000000002
 20
2.000609704661893
 30
0.0
 10
10.00000000000002
 20
1.774038386144343
 30
0.0
 10
10.00000000000002
 20
1.260220170351427
 30
0.0
 10
10.00000000000002
 20
0.9733396222213595
 30
0.0
 10
10.00000000000002
 20
0.6730462895878874
 30
0.0
  0
LINE
  5
C6
330
1F
100
AcDbEntity
  8
0
  6
Continuous
 62
     1
370
    15
100
AcDbLine
 10
55.00000000000004
 20
0.0000000000000104
 30
0.0
 11
55.00000000000004
 21
2.80000000000001
 31
0.0
  0
SPLINE
  5
C7
330
1F
100
AcDbEntity
  8
0
  6
Continuous
 62
   131
370
    15
100
AcDbSpline
210
0.0
220
0.0
230
1.0
 70
     8
 71
     3
 72
    10
 73
     6
 74
     0
 42
0.000000001
 43
0.00000001
 40
0.0
 40
0.0
 40
0.0
 40
0.0
 40
0.5
 40
0.5
 40
1.0
 40
1.0
 40
1.0
 40
1.0
 10
10.00000000000003
 20
-3.445462492015232
 30
0.0
 10
9.747311007384326
 20
-3.371224960571029
 30
0.0
 10
9.495839430810094
 20
-3.290222724267409
 30
0.0
 10
8.987944200638134
 20
-3.114808806130724
 30
0.0
 10
8.733139754369104
 20
-3.020551080986422
 30
0.0
 10
8.479774393330196
 20
-2.920606141787907
 30
0.0
  0
SPLINE
  5
C8
330
1F
100
AcDbEntity
  8
0
  6
Continuous
 62
   131
370
    15
100
AcDbSpline
210
0.0
220
0.0
230
1.0
 70
     8
 71
     3
 72
    10
 73
     6
 74
     0
 42
0.000000001
 43
0.00000001
 40
0.0
 40
0.0
 40
0.0
 40
0.0
 40
0.5
 40
0.5
 40
1.0
 40
1.0
 40
1.0
 40
1.0
 10
8.479889792802346
 20
-3.56188254767821
 30
0.0
 10
8.733236356702864
 20
-3.628436873799148
 30
0.0
 10
8.98802144047279
 20
-3.687951856045147
 30
0.0
 10
9.495877855515683
 20
-3.791797028981541
 30
0.0
 10
9.747330189269306
 20
-3.836055513726989
 30
0.0
 10
10.00000000000003
 20
-3.872636974689525
 30
0.0
  0
LINE
  5
C9
330
1F
100
AcDbEntity
  8
0
  6
Continuous
 62
   131
370
    15
100
AcDbLine
 10
8.479889792802393
 20
-3.999999999999996
 30
0.0
 11
8.479889792802346
 21
-3.561884437713709
 31
0.0
  0
SPLINE
  5
CA
330
1F
100
AcDbEntity
  8
0
  6
Continuous
 62
   131
370
    15
100
AcDbSpline
210
0.0
220
0.0
230
1.0
 70
     8
 71
     3
 72
    10
 73
     6
 74
     0
 42
0.000000001
 43
0.00000001
 40
0.0
 40
0.0
 40
0.0
 40
0.0
 40
0.4999999999999999
 40
0.4999999999999999
 40
1.0
 40
1.0
 40
1.0
 40
1.0
 10
8.479889792802346
 20
3.561882547678219
 30
0.0
 10
8.733236356702864
 20
3.628436873799157
 30
0.0
 10
8.98802144047279
 20
3.687951856045156
 30
0.0
 10
9.495877855515683
 20
3.791797028981549
 30
0.0
 10
9.747330189269302
 20
3.836055513726999
 30
0.0
 10
10.00000000000003
 20
3.872636974689534
 30
0.0
  0
LINE
  5
CB
330
1F
100
AcDbEntity
  8
0
  6
Continuous
 62
   131
370
    15
100
AcDbLine
 10
8.479889792802382
 20
-2.920489004370945
 30
0.0
 11
8.479889792802393
 21
4.000000000000005
 31
0.0
  0
LINE
  5
CC
330
1F
100
AcDbEntity
  8
0
  6
Continuous
 62
   131
370
    15
100
AcDbLine
 10
-44.18999999999997
 20
3.999999999999998
 30
0.0
 11
-44.18999999999997
 21
-3.999999999999999
 31
0.0
  0
LINE
  5
CD
330
1F
100
AcDbEntity
  8
0
  6
Continuous
 62
   131
370
    15
100
AcDbLine
 10
-44.99999999999997
 20
3.189999999999999
 30
0.0
 11
-44.99999999999997
 21
-3.189999999999999
 31
0.0
  0
SPLINE
  5
CE
330
1F
100
AcDbEntity
  8
0
  6
Continuous
 62
   131
370
    15
100
AcDbSpline
210
0.0
220
0.0
230
1.0
 70
     8
 71
     3
 72
    10
 73
     6
 74
     0
 42
0.000000001
 43
0.00000001
 40
0.0
 40
0.0
 40
0.0
 40
0.0
 40
0.5
 40
0.5
 40
1.0
 40
1.0
 40
1.0
 40
1.0
 10
10.00000000000016
 20
-2.819220102597661
 30
0.0
 10
9.747311007384429
 20
-2.749783898612046
 30
0.0
 10
9.495839430810173
 20
-2.674826408043435
 30
0.0
 10
8.987944200638172
 20
-2.513987214578295
 30
0.0
 10
8.733139754369125
 20
-2.428250281713907
 30
0.0
 10
8.479774393330196
 20
-2.337980035542606
 30
0.0
  0
SPLINE
  5
CF
330
1F
100
AcDbEntity
  8
0
  6
Continuous
 62
   131
370
    15
100
AcDbSpline
210
0.0
220
0.0
230
1.0
 70
     8
 71
     3
 72
    10
 73
     6
 74
     0
 42
0.000000001
 43
0.00000001
 40
0.0
 40
0.0
 40
0.0
 40
0.0
 40
0.5
 40
0.5
 40
1.0
 40
1.0
 40
1.0
 40
1.0
 10
10.00000000000003
 20
0.6730462895878826
 30
0.0
 10
9.747323184077805
 20
0.7873384066889184
 30
0.0
 10
9.495863822883308
 20
0.9001036076584696
 30
0.0
 10
8.987993232620314
 20
1.122304446281332
 30
0.0
 10
8.733201077693058
 20
1.231491652104271
 30
0.0
 10
8.479847649090015
 20
1.337787113651431
 30
0.0
  0
SPLINE
  5
D0
330
1F
100
AcDbEntity
  8
0
  6
Continuous
 62
   131
370
    15
100
AcDbSpline
210
0.0
220
0.0
230
1.0
 70
    24
 71
     3
 72
    14
 73
    10
 74
     0
 42
0.000000001
 43
0.00000001
 40
0.0
 40
0.0
 40
0.0
 40
0.0
 40
0.25
 40
0.25
 40
0.5
 40
0.5
 40
0.75
 40
0.75
 40
1.0
 40
1.0
 40
1.0
 40
1.0
 10
10.0
 20
0.6730462895878957
 30
0.0
 10
10.0
 20
0.3659819209555241
 30
0.0
 10
10.0
 20
0.0484800529123274
 30
0.0
 10
10.0
 20
-0.5862574660543071
 30
0.0
 10
10.0
 20
-0.9033217016817623
 30
0.0
 10
10.0
 20
-1.513681779048278
 30
0.0
 10
10.0
 20
-1.806801367325145
 30
0.0
 10
10.0
 20
-2.349131903634811
 30
0.0
 10
10.0
 20
-2.598244201490774
 30
0.0
 10
10.0
 20
-2.819220102597617
 30
0.0
  0
LINE
  5
D1
330
1F
100
AcDbEntity
  8
0
  6
Continuous
 62
   131
370
    15
100
AcDbLine
 10
10.00000000000003
 20
2.737367079853861
 30
0.0
 11
9.800270586195017
 21
2.711905425763205
 31
0.0
  0
SPLINE
  5
D2
330
1F
100
AcDbEntity
  8
0
  6
Continuous
 62
   131
370
    15
100
AcDbSpline
210
0.0
220
0.0
230
1.0
 70
    24
 71
     3
 72
    14
 73
    10
 74
     0
 42
0.000000001
 43
0.00000001
 40
0.0
 40
0.0
 40
0.0
 40
0.0
 40
0.25
 40
0.25
 40
0.5
 40
0.5
 40
0.75
 40
0.75
 40
1.0
 40
1.0
 40
1.0
 40
1.0
 10
10.00000000000002
 20
2.73736707985386
 30
0.0
 10
10.00000000000002
 20
2.736435969429775
 30
0.0
 10
10.00000000000002
 20
2.692041852206424
 30
0.0
 10
10.00000000000002
 20
2.507621534355516
 30
0.0
 10
10.00000000000002
 20
2.367499025752114
 30
0.0
 10
10.00000000000002
 20
2.000609704661893
 30
0.0
 10
10.00000000000002
 20
1.774038386144343
 30
0.0
 10
10.00000000000002
 20
1.260220170351427
 30
0.0
 10
10.00000000000002
 20
0.9733396222213595
 30
0.0
 10
10.00000000000002
 20
0.6730462895878874
 30
0.0
  0
SPLINE
  5
D3
330
1F
100
AcDbEntity
  8
0
  6
Continuous
 62
   131
370
    15
100
AcDbSpline
210
0.0
220
0.0
230
1.0
 70
    24
 71
     3
 72
     8
 73
     4
 74
     0
 42
0.000000001
 43
0.00000001
 40
0.0
 40
0.0
 40
0.0
 40
0.0
 40
1.0
 40
1.0
 40
1.0
 40
1.0
 10
10.0000000000001
 20
-2.819220102597645
 30
0.0
 10
10.0000000000001
 20
-3.023342579411038
 30
0.0
 10
10.0000000000001
 20
-3.233411146359956
 30
0.0
 10
10.0000000000001
 20
-3.445462491998952
 30
0.0
  0
SPLINE
  5
D4
330
1F
100
AcDbEntity
  8
0
  6
Continuous
 62
   131
370
    15
100
AcDbSpline
210
0.0
220
0.0
230
1.0
 70
    24
 71
     3
 72
    10
 73
     6
 74
     0
 42
0.000000001
 43
0.00000001
 40
0.0
 40
0.0
 40
0.0
 40
0.0
 40
0.5
 40
0.5
 40
1.0
 40
1.0
 40
1.0
 40
1.0
 10
10.00000000000003
 20
3.872636974689533
 30
0.0
 10
10.00000000000003
 20
3.666011597188971
 30
0.0
 10
10.00000000000003
 20
3.452762070015927
 30
0.0
 10
10.00000000000003
 20
3.060633066758128
 30
0.0
 10
10.00000000000004
 20
2.882688864167022
 30
0.0
 10
10.00000000000004
 20
2.737367079853859
 30
0.0
  0
LINE
  5
D5
330
1F
100
AcDbEntity
  8
중심선
 62
     1
100
AcDbLine
 10
-47.99999999999997
 20
0.0
 30
0.0
 11
58.00000000000003
 21
0.0000000000000108
 31
0.0
  0
CIRCLE
  5
D6
330
1F
100
AcDbEntity
  8
외형선
100
AcDbCircle
 10
0.0000000000000104
 20
0.0
 30
0.0
 40
3.000000000000005
  0
INSERT
  5
D7
330
1F
100
AcDbEntity
  8
0
  6
Continuous
 62
     7
100
AcDbBlockReference
 66
     1
  2
블럭10
 10
-22.93944368806589
 20
-52.04609937292004
 30
0.0
  0
ATTRIB
  5
D8
330
D7
100
AcDbEntity
  8
FORMAT
 62
     2
100
AcDbText
 10
-39.05870472750145
 20
-49.97073246008785
 30
0.0
 40
4.233333333333333
  1
SEME7008045E [ 2 FLUTE ]
 41
0.75
  7
SLDTEXTSTYLE0
 11
-39.05870472750145
 21
-52.08739912675452
 31
0.0
100
AcDbAttribute
  2
AUTOATTR0
 70
     0
 74
     1
  0
SEQEND
  5
D9
330
D7
100
AcDbEntity
  8
0
  6
Continuous
 62
     7
  0
HATCH
  5
DA
330
1F
100
AcDbEntity
  8
중심선
100
AcDbHatch
 10
0.0
 20
0.0
 30
0.0
210
0.0
220
0.0
230
1.0
  2
SOLID
 70
     1
 71
     0
 91
        1
 92
        0
 93
        4
 72
     1
 10
-17.22453438368504
 20
-35.7989250712761
 11
-20.67080962752232
 21
-35.7989250712761
 72
     1
 10
-20.67080962752232
 20
-35.7989250712761
 11
-22.79903948672635
 21
-38.3352506518487
 72
     1
 10
-22.79903948672635
 20
-38.3352506518487
 11
-19.35273115777591
 21
-38.33521122254621
 72
     1
 10
-19.35273115777591
 20
-38.33521122254621
 11
-17.22453438368504
 21
-35.7989250712761
 97
        0
 75
     0
 76
     1
 98
        1
 10
0.0
 20
0.0
  0
HATCH
  5
DB
330
1F
100
AcDbEntity
  8
중심선
100
AcDbHatch
 10
0.0
 20
0.0
 30
0.0
210
0.0
220
0.0
230
1.0
  2
SOLID
 70
     1
 71
     0
 91
        1
 92
        0
 93
        4
 72
     1
 10
-12.21177039264909
 20
-35.7989250712761
 11
-15.65804563648637
 21
-35.7989250712761
 72
     1
 10
-15.65804563648637
 20
-35.7989250712761
 11
-20.18918364484376
 21
-41.19892507127612
 72
     1
 10
-20.18918364484376
 20
-41.19892507127612
 11
-16.74290840100648
 21
-41.19892507127612
 72
     1
 10
-16.74290840100648
 20
-41.19892507127612
 11
-12.21177039264909
 21
-35.7989250712761
 97
        0
 75
     0
 76
     1
 98
        1
 10
0.0
 20
0.0
  0
HATCH
  5
DC
330
1F
100
AcDbEntity
  8
중심선
100
AcDbHatch
 10
0.0
 20
0.0
 30
0.0
210
0.0
220
0.0
230
1.0
  2
SOLID
 70
     1
 71
     0
 91
        1
 92
        0
 93
        4
 72
     1
 10
-7.199006401613195
 20
-35.79892507127613
 11
-10.64528164545031
 21
-35.7989250712761
 72
     1
 10
-10.64528164545031
 20
-35.7989250712761
 11
-17.69371854733956
 21
-44.19892507127612
 72
     1
 10
-17.69371854733956
 20
-44.19892507127612
 11
-14.24744330350228
 21
-44.19892507127612
 72
     1
 10
-14.24744330350228
 20
-44.19892507127612
 11
-7.199006401613195
 21
-35.79892507127613
 97
        0
 75
     0
 76
     1
 98
        1
 10
0.0
 20
0.0
  0
HATCH
  5
DD
330
1F
100
AcDbEntity
  8
중심선
100
AcDbHatch
 10
0.0
 20
0.0
 30
0.0
210
0.0
220
0.0
230
1.0
  2
SOLID
 70
     1
 71
     0
 91
        1
 92
        0
 93
        6
 72
     3
 10
-2.399115970600996
 20
-39.99892507132738
 11
3.960054785062284
 21
1.540850780301639E-10
 40
0.3939339440162633
 50
17.09539180608433
 51
320.0019657685079
 73
     0
 72
     1
 10
-0.7161163149004002
 20
-38.58681907591441
 11
1.589185558800638
 21
-36.65249236586649
 72
     3
 10
-2.399115970653842
 20
-39.99892507127625
 11
6.600054785286829
 21
-1.249000902703301E-13
 40
0.6363583540795982
 50
39.99873849337408
 51
368.4976242363725
 73
     1
 72
     1
 10
4.026216521246767
 20
-39.03892507120613
 11
-3.71904866381792
 21
-39.0389250712061
 72
     1
 10
-3.71904866381792
 20
-39.0389250712061
 11
-3.719073708263854
 21
-40.95892507120602
 72
     1
 10
-3.719073708263854
 20
-40.95892507120602
 11
0.7223060612081831
 21
-40.95892507120599
 97
        0
 75
     0
 76
     1
 98
        1
 10
0.0
 20
0.0
  0
DIMENSION
  5
DE
330
1F
100
AcDbEntity
  8
치수문자_일반주서
100
AcDbDimension
  2
_D
 10
67.6501087630681
 20
4.000000000000211
 30
0.0
 11
67.65010876306808
 21
13.66650000000021
 31
0.0
 70
   160
  1
%%c<>
 71
     2
 42
7.999999999999991
 52
-270.0
  3
SLDDIMSTYLE0
100
AcDbAlignedDimension
 13
54.99999999999986
 23
-3.999999999999826
 33
0.0
 14
55.00000000000004
 24
4.000000000000165
 34
0.0
 50
90.0000000000002
100
AcDbRotatedDimension
  0
DIMENSION
  5
EC
330
1F
100
AcDbEntity
  8
치수문자_일반주서
100
AcDbDimension
  2
_D_1
 10
55.00000000000004
 20
24.9784104402427
 30
0.0
 11
5.000000000000032
 21
24.9784104402427
 31
0.0
 70
   160
  1
<>
 71
     2
 42
100.0
  3
SLDDIMSTYLE1
100
AcDbAlignedDimension
 13
-44.99999999999997
 23
3.189999999999999
 33
0.0
 14
55.00000000000004
 24
4.000000000000165
 34
0.0
 50
-0.000000000000002
100
AcDbRotatedDimension
  0
DIMENSION
  5
F7
330
1F
100
AcDbEntity
  8
치수문자_일반주서
100
AcDbDimension
  2
_D_2
 10
55.00000000000004
 20
17.21963478085684
 30
0.0
 11
32.50000000000019
 21
17.21963478085684
 31
0.0
 70
   160
  1
<>
 71
     2
 42
45.00000000000001
  3
SLDDIMSTYLE1
100
AcDbAlignedDimension
 13
10.00000000000003
 23
3.872636974689538
 33
0.0
 14
55.00000000000004
 24
4.000000000000165
 34
0.0
 50
-0.0000000000005564
100
AcDbRotatedDimension
  0
DIMENSION
  5
101
330
1F
100
AcDbEntity
  8
치수문자_일반주서
100
AcDbDimension
  2
_D_3
 10
-56.21907634643235
 20
-4.000000000000043
 30
0.0
 11
-56.21907634643242
 21
13.66649999999995
 31
0.0
 70
   160
  1
%%c<>
 71
     2
 42
7.999999999999993
 52
-270.0
  3
SLDDIMSTYLE0
100
AcDbAlignedDimension
 13
-44.18999999999997
 23
3.999999999999998
 33
0.0
 14
-44.18999999999997
 24
-3.999999999999996
 34
0.0
 50
90.0000000000002
100
AcDbRotatedDimension
  0
INSERT
  5
114
330
1F
100
AcDbEntity
  8
외형선
100
AcDbBlockReference
  2
SW_DOWELSYMBOL_0
 10
0.0000000000000104
 20
0.0
 30
0.0
  0
ENDSEC
  0
SECTION
  2
OBJECTS
  0
DICTIONARY
  5
C
330
0
100
AcDbDictionary
281
     1
  3
ACAD_GROUP
350
D
  3
ACAD_IMAGE_VARS
350
138
  3
ACAD_LAYOUT
350
1A
  3
ACAD_MLINESTYLE
350
17
  3
ACAD_PLOTSETTINGS
350
19
  3
ACAD_PLOTSTYLENAME
350
E
  3
ACAD_SCALELIST
350
47
  3
APPDATA
350
136
  3
DWGPROPS
350
147
  0
DICTIONARY
  5
D
102
{ACAD_REACTORS
330
C
102
}
330
C
100
AcDbDictionary
281
     1
  0
RASTERVARIABLES
  5
138
102
{ACAD_REACTORS
330
C
102
}
330
C
100
AcDbRasterVariables
 90
        0
 70
     1
 71
     1
 72
     1
  0
DICTIONARY
  5
1A
102
{ACAD_REACTORS
330
C
102
}
330
C
100
AcDbDictionary
281
     1
  3
Layout1
350
1E
  3
Layout2
350
26
  3
Model
350
22
  0
DICTIONARY
  5
17
102
{ACAD_REACTORS
330
C
102
}
330
C
100
AcDbDictionary
281
     1
  3
Standard
350
18
  0
DICTIONARY
  5
19
102
{ACAD_REACTORS
330
C
102
}
330
C
100
AcDbDictionary
281
     1
  0
ACDBDICTIONARYWDFLT
  5
E
102
{ACAD_REACTORS
330
C
102
}
330
C
100
AcDbDictionary
281
     1
  3
Normal
350
F
100
AcDbDictionaryWithDefault
340
F
  0
DICTIONARY
  5
47
102
{ACAD_REACTORS
330
C
102
}
330
C
100
AcDbDictionary
281
     1
  3
A0
350
48
  3
A1
350
49
  3
A2
350
4A
  3
A3
350
4B
  3
A4
350
4C
  3
A5
350
4D
  3
A6
350
4E
  3
A7
350
4F
  3
A8
350
50
  3
A9
350
51
  3
B0
350
52
  3
B1
350
53
  3
B2
350
54
  3
B3
350
55
  3
B4
350
56
  3
B5
350
57
  3
B6
350
58
  3
B7
350
59
  3
B8
350
5A
  3
B9
350
5B
  3
C0
350
5C
  3
C1
350
5D
  3
C2
350
5E
  3
C3
350
5F
  3
C4
350
60
  3
C5
350
61
  3
C6
350
62
  3
C7
350
63
  3
C8
350
64
  3
C9
350
65
  3
D0
350
66
  3
D1
350
67
  3
D2
350
68
  0
DICTIONARY
  5
136
102
{ACAD_REACTORS
330
C
102
}
330
C
100
AcDbDictionary
281
     1
  0
XRECORD
  5
147
102
{ACAD_REACTORS
330
C
102
}
330
C
100
AcDbXrecord
280
     1
  1
DWGPROPS COOKIE
  2

  3

  4

  6

  7

  8
12014102
  9

300
=
301
=
302
=
303
=
304
=
305
=
306
=
307
=
308
=
309
=
 40
0.0
 41
2458262.169357986
 42
2458266.042184769
  1

 90
        0
  0
LAYOUT
  5
1E
102
{ACAD_REACTORS
330
1A
102
}
330
1A
100
AcDbPlotSettings
  1

  2
none_device
  4

  6

 40
0.0
 41
0.0
 42
0.0
 43
0.0
 44
0.0
 45
0.0
 46
0.0
 47
0.0
 48
0.0
 49
0.0
140
0.0
141
0.0
142
1.0
143
1.0
 70
   688
 72
     1
 73
     0
 74
     5
  7

 75
    16
147
1.0
148
0.0
149
0.0
100
AcDbLayout
  1
Layout1
 70
     1
 71
     1
 10
0.0
 20
0.0
 11
420.0
 21
297.0
 12
0.0
 22
0.0
 32
0.0
 14
1.000000000000000E+20
 24
1.000000000000000E+20
 34
1.000000000000000E+20
 15
-1.000000000000000E+20
 25
-1.000000000000000E+20
 35
-1.000000000000000E+20
146
0.0
 13
0.0
 23
0.0
 33
0.0
 16
1.0
 26
0.0
 36
0.0
 17
0.0
 27
1.0
 37
0.0
 76
     0
330
1B
  0
LAYOUT
  5
26
102
{ACAD_REACTORS
330
1A
102
}
330
1A
100
AcDbPlotSettings
  1

  2
none_device
  4

  6

 40
0.0
 41
0.0
 42
0.0
 43
0.0
 44
0.0
 45
0.0
 46
0.0
 47
0.0
 48
0.0
 49
0.0
140
0.0
141
0.0
142
1.0
143
1.0
 70
   688
 72
     1
 73
     0
 74
     5
  7

 75
    16
147
1.0
148
0.0
149
0.0
100
AcDbLayout
  1
Layout2
 70
     1
 71
     2
 10
0.0
 20
0.0
 11
0.0
 21
0.0
 12
0.0
 22
0.0
 32
0.0
 14
0.0
 24
0.0
 34
0.0
 15
0.0
 25
0.0
 35
0.0
146
0.0
 13
0.0
 23
0.0
 33
0.0
 16
1.0
 26
0.0
 36
0.0
 17
0.0
 27
1.0
 37
0.0
 76
     0
330
23
  0
LAYOUT
  5
22
102
{ACAD_REACTORS
330
1A
102
}
330
1A
100
AcDbPlotSettings
  1

  2
none_device
  4
ANSI_A_(11.00_x_8.50_Inches)
  6

 40
6.35
 41
19.05
 42
6.35000508
 43
19.05000254
 44
279.4
 45
215.9
 46
128.8936325014059
 47
114.1492743565853
 48
0.0
 49
0.0
140
0.0
141
0.0
142
0.0936760758284052
143
1.0
 70
  1696
 72
     0
 73
     0
 74
     0
  7

 75
     0
147
0.0235690232323232
148
0.0
149
0.0
100
AcDbLayout
  1
Model
 70
     1
 71
     0
 10
0.0
 20
0.0
 11
420.0
 21
297.0
 12
0.0
 22
0.0
 32
0.0
 14
-60.59407634643242
 24
-49.97073246008785
 34
0.0
 15
68.20044209640147
 25
29.3534104402427
 35
0.0
146
0.0
 13
0.0
 23
0.0
 33
0.0
 16
1.0
 26
0.0
 36
0.0
 17
0.0
 27
1.0
 37
0.0
 76
     0
330
1F
331
29
  0
MLINESTYLE
  5
18
102
{ACAD_REACTORS
330
17
102
}
330
17
100
AcDbMlineStyle
  2
Standard
 70
     0
  3

 62
   256
 51
90.0
 52
90.0
 71
     2
 49
0.5
 62
   256
  6
BYLAYER
 49
-0.5
 62
   256
  6
BYLAYER
  0
ACDBPLACEHOLDER
  5
F
102
{ACAD_REACTORS
330
E
102
}
330
E
  0
SCALE
  5
48
102
{ACAD_REACTORS
330
47
102
}
330
47
100
AcDbScale
 70
     0
300
1:1
140
1.0
141
1.0
290
     1
  0
SCALE
  5
49
102
{ACAD_REACTORS
330
47
102
}
330
47
100
AcDbScale
 70
     0
300
1:2
140
1.0
141
2.0
290
     0
  0
SCALE
  5
4A
102
{ACAD_REACTORS
330
47
102
}
330
47
100
AcDbScale
 70
     0
300
1:4
140
1.0
141
4.0
290
     0
  0
SCALE
  5
4B
102
{ACAD_REACTORS
330
47
102
}
330
47
100
AcDbScale
 70
     0
300
1:5
140
1.0
141
5.0
290
     0
  0
SCALE
  5
4C
102
{ACAD_REACTORS
330
47
102
}
330
47
100
AcDbScale
 70
     0
300
1:8
140
1.0
141
8.0
290
     0
  0
SCALE
  5
4D
102
{ACAD_REACTORS
330
47
102
}
330
47
100
AcDbScale
 70
     0
300
1:10
140
1.0
141
10.0
290
     0
  0
SCALE
  5
4E
102
{ACAD_REACTORS
330
47
102
}
330
47
100
AcDbScale
 70
     0
300
1:16
140
1.0
141
16.0
290
     0
  0
SCALE
  5
4F
102
{ACAD_REACTORS
330
47
102
}
330
47
100
AcDbScale
 70
     0
300
1:20
140
1.0
141
20.0
290
     0
  0
SCALE
  5
50
102
{ACAD_REACTORS
330
47
102
}
330
47
100
AcDbScale
 70
     0
300
1:30
140
1.0
141
30.0
290
     0
  0
SCALE
  5
51
102
{ACAD_REACTORS
330
47
102
}
330
47
100
AcDbScale
 70
     0
300
1:40
140
1.0
141
40.0
290
     0
  0
SCALE
  5
52
102
{ACAD_REACTORS
330
47
102
}
330
47
100
AcDbScale
 70
     0
300
1:50
140
1.0
141
50.0
290
     0
  0
SCALE
  5
53
102
{ACAD_REACTORS
330
47
102
}
330
47
100
AcDbScale
 70
     0
300
1:100
140
1.0
141
100.0
290
     0
  0
SCALE
  5
54
102
{ACAD_REACTORS
330
47
102
}
330
47
100
AcDbScale
 70
     0
300
2:1
140
2.0
141
1.0
290
     0
  0
SCALE
  5
55
102
{ACAD_REACTORS
330
47
102
}
330
47
100
AcDbScale
 70
     0
300
4:1
140
4.0
141
1.0
290
     0
  0
SCALE
  5
56
102
{ACAD_REACTORS
330
47
102
}
330
47
100
AcDbScale
 70
     0
300
8:1
140
8.0
141
1.0
290
     0
  0
SCALE
  5
57
102
{ACAD_REACTORS
330
47
102
}
330
47
100
AcDbScale
 70
     0
300
10:1
140
10.0
141
1.0
290
     0
  0
SCALE
  5
58
102
{ACAD_REACTORS
330
47
102
}
330
47
100
AcDbScale
 70
     0
300
100:1
140
100.0
141
1.0
290
     0
  0
SCALE
  5
59
102
{ACAD_REACTORS
330
47
102
}
330
47
100
AcDbScale
 70
     0
300
1/128" = 1'-0"
140
0.0078125
141
12.0
290
     0
  0
SCALE
  5
5A
102
{ACAD_REACTORS
330
47
102
}
330
47
100
AcDbScale
 70
     0
300
1/64" = 1'-0"
140
0.015625
141
12.0
290
     0
  0
SCALE
  5
5B
102
{ACAD_REACTORS
330
47
102
}
330
47
100
AcDbScale
 70
     0
300
1/32" = 1'-0"
140
0.03125
141
12.0
290
     0
  0
SCALE
  5
5C
102
{ACAD_REACTORS
330
47
102
}
330
47
100
AcDbScale
 70
     0
300
1/16" = 1'-0"
140
0.0625
141
12.0
290
     0
  0
SCALE
  5
5D
102
{ACAD_REACTORS
330
47
102
}
330
47
100
AcDbScale
 70
     0
300
3/32" = 1'-0"
140
0.09375
141
12.0
290
     0
  0
SCALE
  5
5E
102
{ACAD_REACTORS
330
47
102
}
330
47
100
AcDbScale
 70
     0
300
1/8" = 1'-0"
140
0.125
141
12.0
290
     0
  0
SCALE
  5
5F
102
{ACAD_REACTORS
330
47
102
}
330
47
100
AcDbScale
 70
     0
300
3/16" = 1'-0"
140
0.1875
141
12.0
290
     0
  0
SCALE
  5
60
102
{ACAD_REACTORS
330
47
102
}
330
47
100
AcDbScale
 70
     0
300
1/4" = 1'-0"
140
0.25
141
12.0
290
     0
  0
SCALE
  5
61
102
{ACAD_REACTORS
330
47
102
}
330
47
100
AcDbScale
 70
     0
300
3/8" = 1'-0"
140
0.375
141
12.0
290
     0
  0
SCALE
  5
62
102
{ACAD_REACTORS
330
47
102
}
330
47
100
AcDbScale
 70
     0
300
1/2" = 1'-0"
140
0.5
141
12.0
290
     0
  0
SCALE
  5
63
102
{ACAD_REACTORS
330
47
102
}
330
47
100
AcDbScale
 70
     0
300
3/4" = 1'-0"
140
0.75
141
12.0
290
     0
  0
SCALE
  5
64
102
{ACAD_REACTORS
330
47
102
}
330
47
100
AcDbScale
 70
     0
300
1" = 1'-0"
140
1.0
141
12.0
290
     0
  0
SCALE
  5
65
102
{ACAD_REACTORS
330
47
102
}
330
47
100
AcDbScale
 70
     0
300
1-1/2" = 1'-0"
140
1.5
141
12.0
290
     0
  0
SCALE
  5
66
102
{ACAD_REACTORS
330
47
102
}
330
47
100
AcDbScale
 70
     0
300
3" = 1'-0"
140
3.0
141
12.0
290
     0
  0
SCALE
  5
67
102
{ACAD_REACTORS
330
47
102
}
330
47
100
AcDbScale
 70
     0
300
6" = 1'-0"
140
6.0
141
12.0
290
     0
  0
SCALE
  5
68
102
{ACAD_REACTORS
330
47
102
}
330
47
100
AcDbScale
 70
     0
300
1'-0" = 1'-0"
140
12.0
141
12.0
290
     0
  0
ENDSEC
  0
EOF
