  0
SECTION
  2
HEADER
  9
$ACADVER
  1
AC1015
  9
$ACADMAINTVER
 70
     6
  9
$DWGCODEPAGE
  3
ANSI_949
  9
$INSBASE
 10
0.0
 20
0.0
 30
0.0
  9
$EXTMIN
 10
-105.0745453446364
 20
-49.97073246008785
 30
0.0
  9
$EXTMAX
 10
75.70010334324618
 20
29.35341044024269
 30
0.0
  9
$LIMMIN
 10
0.0
 20
0.0
  9
$LIMMAX
 10
420.0
 20
297.0
  9
$ORTHOMODE
 70
     0
  9
$REGENMODE
 70
     1
  9
$FILLMODE
 70
     1
  9
$QTEXTMODE
 70
     0
  9
$MIRRTEXT
 70
     1
  9
$LTSCALE
 40
1.0
  9
$ATTMODE
 70
     1
  9
$TEXTSIZE
 40
3.5
  9
$TRACEWID
 40
1.0
  9
$TEXTSTYLE
  7
Standard
  9
$CLAYER
  8
0
  9
$CELTYPE
  6
ByLayer
  9
$CECOLOR
 62
   256
  9
$CELTSCALE
 40
1.0
  9
$DISPSILH
 70
     0
  9
$DIMSCALE
 40
1.0
  9
$DIMASZ
 40
3.302
  9
$DIMEXO
 40
1.0
  9
$DIMDLI
 40
3.75
  9
$DIMRND
 40
0.0
  9
$DIMDLE
 40
0.0
  9
$DIMEXE
 40
1.0
  9
$DIMTP
 40
0.0
  9
$DIMTM
 40
0.0
  9
$DIMTXT
 40
3.5
  9
$DIMCEN
 40
2.5
  9
$DIMTSZ
 40
0.0
  9
$DIMTOL
 70
     0
  9
$DIMLIM
 70
     0
  9
$DIMTIH
 70
     1
  9
$DIMTOH
 70
     1
  9
$DIMSE1
 70
     0
  9
$DIMSE2
 70
     0
  9
$DIMTAD
 70
     1
  9
$DIMZIN
 70
     0
  9
$DIMBLK
  1

  9
$DIMASO
 70
     1
  9
$DIMSHO
 70
     1
  9
$DIMPOST
  1

  9
$DIMAPOST
  1

  9
$DIMALT
 70
     0
  9
$DIMALTD
 70
     3
  9
$DIMALTF
 40
0.0393700787401575
  9
$DIMLFAC
 40
1.0
  9
$DIMTOFL
 70
     1
  9
$DIMTVP
 40
0.0
  9
$DIMTIX
 70
     0
  9
$DIMSOXD
 70
     0
  9
$DIMSAH
 70
     0
  9
$DIMBLK1
  1

  9
$DIMBLK2
  1

  9
$DIMSTYLE
  2
ISO-25
  9
$DIMCLRD
 70
     0
  9
$DIMCLRE
 70
     0
  9
$DIMCLRT
 70
     0
  9
$DIMTFAC
 40
1.0
  9
$DIMGAP
 40
1.524
  9
$DIMJUST
 70
     0
  9
$DIMSD1
 70
     0
  9
$DIMSD2
 70
     0
  9
$DIMTOLJ
 70
     0
  9
$DIMTZIN
 70
     0
  9
$DIMALTZ
 70
     0
  9
$DIMALTTZ
 70
     0
  9
$DIMUPT
 70
     0
  9
$DIMDEC
 70
     2
  9
$DIMTDEC
 70
     2
  9
$DIMALTU
 70
     2
  9
$DIMALTTD
 70
     3
  9
$DIMTXSTY
  7
Standard
  9
$DIMAUNIT
 70
     0
  9
$DIMADEC
 70
     2
  9
$DIMALTRND
 40
0.0
  9
$DIMAZIN
 70
     0
  9
$DIMDSEP
 70
    44
  9
$DIMATFIT
 70
     3
  9
$DIMFRAC
 70
     0
  9
$DIMLDRBLK
  1

  9
$DIMLUNIT
 70
     2
  9
$DIMLWD
 70
    -2
  9
$DIMLWE
 70
    -2
  9
$DIMTMOVE
 70
     0
  9
$LUNITS
 70
     2
  9
$LUPREC
 70
     2
  9
$SKETCHINC
 40
1.0
  9
$FILLETRAD
 40
10.0
  9
$AUNITS
 70
     0
  9
$AUPREC
 70
     2
  9
$MENU
  1
.
  9
$ELEVATION
 40
0.0
  9
$PELEVATION
 40
0.0
  9
$THICKNESS
 40
0.0
  9
$LIMCHECK
 70
     0
  9
$CHAMFERA
 40
0.0
  9
$CHAMFERB
 40
0.0
  9
$CHAMFERC
 40
0.0
  9
$CHAMFERD
 40
0.0
  9
$SKPOLY
 70
     0
  9
$TDCREATE
 40
2458262.544545185
  9
$TDUCREATE
 40
2458262.169545185
  9
$TDUPDATE
 40
2458266.671047986
  9
$TDUUPDATE
 40
2458266.296047986
  9
$TDINDWG
 40
0.001403588
  9
$TDUSRTIMER
 40
2458266.294644444
  9
$USRTIMER
 70
     1
  9
$ANGBASE
 50
0.0
  9
$ANGDIR
 70
     0
  9
$PDMODE
 70
     0
  9
$PDSIZE
 40
-1.0
  9
$PLINEWID
 40
0.0
  9
$SPLFRAME
 70
     0
  9
$SPLINETYPE
 70
     6
  9
$SPLINESEGS
 70
     8
  9
$HANDSEED
  5
14A
  9
$SURFTAB1
 70
     6
  9
$SURFTAB2
 70
     6
  9
$SURFTYPE
 70
     6
  9
$SURFU
 70
     6
  9
$SURFV
 70
     6
  9
$UCSBASE
  2

  9
$UCSNAME
  2

  9
$UCSORG
 10
0.0
 20
0.0
 30
0.0
  9
$UCSXDIR
 10
1.0
 20
0.0
 30
0.0
  9
$UCSYDIR
 10
0.0
 20
1.0
 30
0.0
  9
$UCSORTHOREF
  2

  9
$UCSORTHOVIEW
 70
     0
  9
$UCSORGTOP
 10
0.0
 20
0.0
 30
0.0
  9
$UCSORGBOTTOM
 10
0.0
 20
0.0
 30
0.0
  9
$UCSORGLEFT
 10
0.0
 20
0.0
 30
0.0
  9
$UCSORGRIGHT
 10
0.0
 20
0.0
 30
0.0
  9
$UCSORGFRONT
 10
0.0
 20
0.0
 30
0.0
  9
$UCSORGBACK
 10
0.0
 20
0.0
 30
0.0
  9
$PUCSBASE
  2

  9
$PUCSNAME
  2

  9
$PUCSORG
 10
0.0
 20
0.0
 30
0.0
  9
$PUCSXDIR
 10
1.0
 20
0.0
 30
0.0
  9
$PUCSYDIR
 10
0.0
 20
1.0
 30
0.0
  9
$PUCSORTHOREF
  2

  9
$PUCSORTHOVIEW
 70
     0
  9
$PUCSORGTOP
 10
0.0
 20
0.0
 30
0.0
  9
$PUCSORGBOTTOM
 10
0.0
 20
0.0
 30
0.0
  9
$PUCSORGLEFT
 10
0.0
 20
0.0
 30
0.0
  9
$PUCSORGRIGHT
 10
0.0
 20
0.0
 30
0.0
  9
$PUCSORGFRONT
 10
0.0
 20
0.0
 30
0.0
  9
$PUCSORGBACK
 10
0.0
 20
0.0
 30
0.0
  9
$USERI1
 70
     0
  9
$USERI2
 70
     0
  9
$USERI3
 70
     0
  9
$USERI4
 70
     0
  9
$USERI5
 70
     0
  9
$USERR1
 40
0.0
  9
$USERR2
 40
0.0
  9
$USERR3
 40
0.0
  9
$USERR4
 40
0.0
  9
$USERR5
 40
0.0
  9
$WORLDVIEW
 70
     1
  9
$SHADEDGE
 70
     3
  9
$SHADEDIF
 70
    70
  9
$TILEMODE
 70
     1
  9
$MAXACTVP
 70
    64
  9
$PINSBASE
 10
0.0
 20
0.0
 30
0.0
  9
$PLIMCHECK
 70
     0
  9
$PEXTMIN
 10
1.000000000000000E+20
 20
1.000000000000000E+20
 30
1.000000000000000E+20
  9
$PEXTMAX
 10
-1.000000000000000E+20
 20
-1.000000000000000E+20
 30
-1.000000000000000E+20
  9
$PLIMMIN
 10
0.0
 20
0.0
  9
$PLIMMAX
 10
0.0
 20
0.0
  9
$UNITMODE
 70
     0
  9
$VISRETAIN
 70
     1
  9
$PLINEGEN
 70
     0
  9
$PSLTSCALE
 70
     1
  9
$TREEDEPTH
 70
  3020
  9
$CMLSTYLE
  2
Standard
  9
$CMLJUST
 70
     0
  9
$CMLSCALE
 40
20.0
  9
$PROXYGRAPHICS
 70
     1
  9
$MEASUREMENT
 70
     1
  9
$CELWEIGHT
370
    -1
  9
$ENDCAPS
280
     0
  9
$JOINSTYLE
280
     0
  9
$LWDISPLAY
290
     1
  9
$INSUNITS
 70
     4
  9
$HYPERLINKBASE
  1

  9
$STYLESHEET
  1

  9
$XEDIT
290
     1
  9
$CEPSNTYPE
380
     0
  9
$PSTYLEMODE
290
     1
  9
$FINGERPRINTGUID
  2
{A1F0B155-D322-4C88-ABC6-B34218962F94}
  9
$VERSIONGUID
  2
{FAEB1C32-E019-11D5-929B-00C0DF256EC4}
  9
$EXTNAMES
290
     1
  9
$PSVPSCALE
 40
0.0
  9
$OLESTARTUP
290
     0
  0
ENDSEC
  0
SECTION
  2
CLASSES
  0
CLASS
  1
ACDBDICTIONARYWDFLT
  2
AcDbDictionaryWithDefault
  3
ObjectDBX Classes
 90
        0
280
     0
281
     0
  0
CLASS
  1
VISUALSTYLE
  2
AcDbVisualStyle
  3
ObjectDBX Classes
 90
     4095
280
     0
281
     0
  0
CLASS
  1
MATERIAL
  2
AcDbMaterial
  3
ObjectDBX Classes
 90
     1153
280
     0
281
     0
  0
CLASS
  1
SCALE
  2
AcDbScale
  3
ObjectDBX Classes
 90
     1153
280
     0
281
     0
  0
CLASS
  1
SUN
  2
AcDbSun
  3
SCENEOE
 90
     1153
280
     0
281
     0
  0
CLASS
  1
ACDBPLACEHOLDER
  2
AcDbPlaceHolder
  3
ObjectDBX Classes
 90
        0
280
     0
281
     0
  0
CLASS
  1
LAYOUT
  2
AcDbLayout
  3
ObjectDBX Classes
 90
        0
280
     0
281
     0
  0
CLASS
  1
TABLESTYLE
  2
AcDbTableStyle
  3
ObjectDBX Classes
 90
     4095
280
     0
281
     0
  0
CLASS
  1
MLEADERSTYLE
  2
AcDbMLeaderStyle
  3
ACDB_MLEADERSTYLE_CLASS
 90
     4095
280
     0
281
     0
  0
CLASS
  1
RASTERVARIABLES
  2
AcDbRasterVariables
  3
ISM
 90
        0
280
     0
281
     0
  0
ENDSEC
  0
SECTION
  2
TABLES
  0
TABLE
  2
VPORT
  5
8
330
0
100
AcDbSymbolTable
 70
     1
  0
VPORT
  5
29
330
8
100
AcDbSymbolTableRecord
100
AcDbViewportTableRecord
  2
*Active
 70
     0
 10
0.0
 20
0.0
 11
1.0
 21
1.0
 12
-14.68722100069512
 22
-10.30866100992257
 13
0.0
 23
0.0
 14
10.0
 24
10.0
 15
10.0
 25
10.0
 16
0.0
 26
0.0
 36
1.0
 17
0.0
 27
0.0
 37
0.0
 40
159.9977238185085
 41
1.152454780361757
 42
50.0
 43
0.0
 44
0.0
 50
0.0
 51
0.0
 71
    16
 72
  2000
 73
     1
 74
     3
 75
     0
 76
     0
 77
     0
 78
     0
281
     0
 65
     1
110
0.0
120
0.0
130
0.0
111
1.0
121
0.0
131
0.0
112
0.0
122
1.0
132
0.0
 79
     0
146
0.0
  0
ENDTAB
  0
TABLE
  2
LTYPE
  5
5
330
0
100
AcDbSymbolTable
 70
     6
  0
LTYPE
  5
14
330
5
100
AcDbSymbolTableRecord
100
AcDbLinetypeTableRecord
  2
ByBlock
 70
     0
  3

 72
    65
 73
     0
 40
0.0
  0
LTYPE
  5
15
330
5
100
AcDbSymbolTableRecord
100
AcDbLinetypeTableRecord
  2
ByLayer
 70
     0
  3

 72
    65
 73
     0
 40
0.0
  0
LTYPE
  5
16
330
5
100
AcDbSymbolTableRecord
100
AcDbLinetypeTableRecord
  2
Continuous
 70
     0
  3
Solid line
 72
    65
 73
     0
 40
0.0
  0
LTYPE
  5
6A
330
5
100
AcDbSymbolTableRecord
100
AcDbLinetypeTableRecord
  2
HIDDEN
 70
     0
  3
Hidden __ __ __ __ __ __ __ __ __ __ __ __ __ __
 72
    65
 73
     2
 40
1.905
 49
1.27
 74
     0
 49
-0.635
 74
     0
  0
LTYPE
  5
6B
330
5
100
AcDbSymbolTableRecord
100
AcDbLinetypeTableRecord
  2
PHANTOM
 70
     0
  3
Phantom ______  __  __  ______  __  __  ______
 72
    65
 73
     6
 40
12.7
 49
6.35
 74
     0
 49
-1.27
 74
     0
 49
1.27
 74
     0
 49
-1.27
 74
     0
 49
1.27
 74
     0
 49
-1.27
 74
     0
  0
LTYPE
  5
6C
330
5
100
AcDbSymbolTableRecord
100
AcDbLinetypeTableRecord
  2
CENTER
 70
     0
  3
Center ____ _ ____ _ ____ _ ____ _ ____ _ ____
 72
    65
 73
     4
 40
10.16
 49
6.35
 74
     0
 49
-1.27
 74
     0
 49
1.27
 74
     0
 49
-1.27
 74
     0
  0
LTYPE
  5
6D
330
5
100
AcDbSymbolTableRecord
100
AcDbLinetypeTableRecord
  2
CENTERX2
 70
     0
  3
Center (2x) ________  __  ________  __  _____
 72
    65
 73
     4
 40
20.32
 49
12.7
 74
     0
 49
-2.54
 74
     0
 49
2.54
 74
     0
 49
-2.54
 74
     0
  0
LTYPE
  5
6E
330
5
100
AcDbSymbolTableRecord
100
AcDbLinetypeTableRecord
  2
DOT2
 70
     0
  3
Dot (.5x) ........................................
 72
    65
 73
     2
 40
0.635
 49
0.0
 74
     0
 49
-0.635
 74
     0
  0
ENDTAB
  0
TABLE
  2
LAYER
  5
2
330
0
100
AcDbSymbolTable
 70
    17
  0
LAYER
  5
10
330
2
100
AcDbSymbolTableRecord
100
AcDbLayerTableRecord
  2
0
 70
     0
 62
     7
  6
Continuous
370
    -3
390
F
  0
LAYER
  5
6F
330
2
100
AcDbSymbolTableRecord
100
AcDbLayerTableRecord
  2
FORMAT
 70
     0
 62
     2
  6
Continuous
370
    -3
390
F
  0
LAYER
  5
70
330
2
100
AcDbSymbolTableRecord
100
AcDbLayerTableRecord
  2
외형선
 70
     0
 62
   100
  6
Continuous
370
    30
390
F
  0
LAYER
  5
71
330
2
100
AcDbSymbolTableRecord
100
AcDbLayerTableRecord
  2
숨은선
 70
     0
 62
     2
  6
HIDDEN
370
    15
390
F
  0
LAYER
  5
72
330
2
100
AcDbSymbolTableRecord
100
AcDbLayerTableRecord
  2
중심선
 70
     0
 62
     1
  6
CENTERX2
370
    -3
390
F
  0
LAYER
  5
73
330
2
100
AcDbSymbolTableRecord
100
AcDbLayerTableRecord
  2
파단선
 70
     0
 62
     4
  6
Continuous
370
    -3
390
F
  0
LAYER
  5
74
330
2
100
AcDbSymbolTableRecord
100
AcDbLayerTableRecord
  2
해칭선
 70
     0
 62
     4
  6
Continuous
370
    -3
390
F
  0
LAYER
  5
75
330
2
100
AcDbSymbolTableRecord
100
AcDbLayerTableRecord
  2
가는실선
 70
     0
 62
     4
  6
Continuous
370
    -3
390
F
  0
LAYER
  5
76
330
2
100
AcDbSymbolTableRecord
100
AcDbLayerTableRecord
  2
치수_보조선
 70
     0
 62
     4
  6
Continuous
370
    -3
390
F
  0
LAYER
  5
77
330
2
100
AcDbSymbolTableRecord
100
AcDbLayerTableRecord
  2
치수문자_일반주서
 70
     0
 62
     7
  6
Continuous
370
    15
390
F
  0
LAYER
  5
78
330
2
100
AcDbSymbolTableRecord
100
AcDbLayerTableRecord
  2
개별주서
 70
     0
 62
   100
  6
Continuous
370
    30
390
F
  0
LAYER
  5
79
330
2
100
AcDbSymbolTableRecord
100
AcDbLayerTableRecord
  2
중간선
 70
     0
 62
     2
  6
Continuous
370
    15
390
F
  0
LAYER
  5
7A
330
2
100
AcDbSymbolTableRecord
100
AcDbLayerTableRecord
  2
윤곽선
 70
     0
 62
     3
  6
Continuous
370
    40
390
F
  0
LAYER
  5
7B
330
2
100
AcDbSymbolTableRecord
100
AcDbLayerTableRecord
  2
중심마크
 70
     0
 62
   100
  6
Continuous
370
    30
390
F
  0
LAYER
  5
7C
330
2
100
AcDbSymbolTableRecord
100
AcDbLayerTableRecord
  2
가상선
 70
     0
 62
     4
  6
PHANTOM
370
    -3
390
F
  0
LAYER
  5
7D
330
2
100
AcDbSymbolTableRecord
100
AcDbLayerTableRecord
  2
특수지정선
 70
     0
 62
     5
  6
CENTERX2
370
    60
390
F
  0
LAYER
  5
13A
330
2
100
AcDbSymbolTableRecord
100
AcDbLayerTableRecord
  2
Defpoints
 70
     0
 62
     7
  6
Continuous
290
     0
370
    -3
390
F
  0
ENDTAB
  0
TABLE
  2
STYLE
  5
3
330
0
100
AcDbSymbolTable
 70
     2
  0
STYLE
  5
11
330
3
100
AcDbSymbolTableRecord
100
AcDbTextStyleTableRecord
  2
Standard
 70
     0
 40
0.0
 41
1.0
 50
0.0
 71
     0
 42
3.5
  3
txt
  4

  0
STYLE
  5
93
330
3
100
AcDbSymbolTableRecord
100
AcDbTextStyleTableRecord
  2
SLDTEXTSTYLE0
 70
     0
 40
0.0
 41
0.75
 50
0.0
 71
     0
 42
3.5
  3
TXT
  4

  0
ENDTAB
  0
TABLE
  2
VIEW
  5
6
330
0
100
AcDbSymbolTable
 70
     0
  0
ENDTAB
  0
TABLE
  2
UCS
  5
7
330
0
100
AcDbSymbolTable
 70
     0
  0
ENDTAB
  0
TABLE
  2
APPID
  5
9
330
0
100
AcDbSymbolTable
 70
     1
  0
APPID
  5
12
330
9
100
AcDbSymbolTableRecord
100
AcDbRegAppTableRecord
  2
ACAD
 70
     0
  0
ENDTAB
  0
TABLE
  2
DIMSTYLE
  5
A
330
0
100
AcDbSymbolTable
 70
     3
100
AcDbDimStyleTable
  0
DIMSTYLE
105
27
330
A
100
AcDbSymbolTableRecord
100
AcDbDimStyleTableRecord
  2
ISO-25
 70
     0
 41
2.5
 42
0.625
 43
3.75
 44
1.25
 73
     0
 74
     0
 77
     1
 78
     8
140
2.5
141
2.5
143
0.03937007874016
147
0.625
171
     3
172
     1
178
     0
271
     2
272
     2
274
     3
278
    44
283
     0
284
     8
340
11
  0
DIMSTYLE
105
E0
102
{ACAD_REACTORS
330
DF
330
102
102
}
330
A
100
AcDbSymbolTableRecord
100
AcDbDimStyleTableRecord
  2
SLDDIMSTYLE0
 70
     0
 41
3.302
 44
0.0
 45
0.000000001
 73
     0
 74
     0
 77
     1
 78
    12
 79
     3
140
3.5
147
0.875
172
     1
173
     1
178
     0
271
     2
272
     2
276
     2
284
    12
289
     0
340
93
  0
DIMSTYLE
105
EE
102
{ACAD_REACTORS
330
ED
330
F8
102
}
330
A
100
AcDbSymbolTableRecord
100
AcDbDimStyleTableRecord
  2
SLDDIMSTYLE1
 70
     0
 41
3.302
 44
0.0
 45
0.000000001
 73
     0
 74
     0
 77
     1
 78
    12
 79
     3
140
3.5
147
0.875
173
     1
178
     0
271
     2
272
     2
276
     2
284
    12
340
93
  0
ENDTAB
  0
TABLE
  2
BLOCK_RECORD
  5
1
330
0
100
AcDbSymbolTable
 70
     7
  0
BLOCK_RECORD
  5
1F
330
1
100
AcDbSymbolTableRecord
100
AcDbBlockTableRecord
  2
*Model_Space
340
22
  0
BLOCK_RECORD
  5
1B
330
1
100
AcDbSymbolTableRecord
100
AcDbBlockTableRecord
  2
*Paper_Space
340
1E
  0
BLOCK_RECORD
  5
23
330
1
100
AcDbSymbolTableRecord
100
AcDbBlockTableRecord
  2
*Paper_Space0
340
26
  0
BLOCK_RECORD
  5
7E
330
1
100
AcDbSymbolTableRecord
100
AcDbBlockTableRecord
  2
블럭10
340
0
102
{BLKREFS
331
D8
102
}
  0
BLOCK_RECORD
  5
E1
330
1
100
AcDbSymbolTableRecord
100
AcDbBlockTableRecord
  2
_D
340
0
  0
BLOCK_RECORD
  5
EF
330
1
100
AcDbSymbolTableRecord
100
AcDbBlockTableRecord
  2
_D_1
340
0
  0
BLOCK_RECORD
  5
F9
330
1
100
AcDbSymbolTableRecord
100
AcDbBlockTableRecord
  2
_D_2
340
0
  0
BLOCK_RECORD
  5
103
330
1
100
AcDbSymbolTableRecord
100
AcDbBlockTableRecord
  2
_D_3
340
0
  0
BLOCK_RECORD
  5
10F
330
1
100
AcDbSymbolTableRecord
100
AcDbBlockTableRecord
  2
SW_DOWELSYMBOL_0
340
0
102
{BLKREFS
331
115
102
}
  0
ENDTAB
  0
ENDSEC
  0
SECTION
  2
BLOCKS
  0
BLOCK
  5
20
330
1F
100
AcDbEntity
  8
0
100
AcDbBlockBegin
  2
*Model_Space
 70
     0
 10
0.0
 20
0.0
 30
0.0
  3
*Model_Space
  1

  0
ENDBLK
  5
21
330
1F
100
AcDbEntity
  8
0
100
AcDbBlockEnd
  0
BLOCK
  5
1C
330
1B
100
AcDbEntity
 67
     1
  8
0
100
AcDbBlockBegin
  2
*Paper_Space
 70
     0
 10
0.0
 20
0.0
 30
0.0
  3
*Paper_Space
  1

  0
ENDBLK
  5
1D
330
1B
100
AcDbEntity
 67
     1
  8
0
100
AcDbBlockEnd
  0
BLOCK
  5
24
330
23
100
AcDbEntity
  8
0
100
AcDbBlockBegin
  2
*Paper_Space0
 70
     0
 10
0.0
 20
0.0
 30
0.0
  3
*Paper_Space0
  1

  0
ENDBLK
  5
25
330
23
100
AcDbEntity
  8
0
100
AcDbBlockEnd
  0
BLOCK
  5
7F
330
7E
100
AcDbEntity
  8
0
100
AcDbBlockBegin
  2
블럭10
 70
     2
 10
0.0
 20
0.0
 30
0.0
  3
블럭10
  1

  0
ELLIPSE
  5
81
330
7E
100
AcDbEntity
  8
중심선
100
AcDbEllipse
 10
20.54032771741204
 20
12.0471743016438
 30
0.0
 11
6.600054785286829
 21
-1.261213355974178E-13
 31
0.0
210
0.0
220
0.0
230
1.0
 40
0.636358354079598
 41
0.9219305317359503
 42
6.513795318482858
  0
ELLIPSE
  5
82
330
7E
100
AcDbEntity
  8
중심선
100
AcDbEllipse
 10
20.54032771746488
 20
12.04717430159265
 30
0.0
 11
3.960054785062283
 21
1.540847449632565E-10
 31
0.0
210
0.0
220
0.0
230
1.0
 40
0.3939339440162632
 41
1.131841032648279
 42
5.62031148352944
  0
LINE
  5
83
330
7E
100
AcDbEntity
  8
중심선
100
AcDbLine
 10
2.268634060543552
 20
16.24717430164393
 30
0.0
 11
5.714909304380834
 21
16.24717430164393
 31
0.0
  0
LINE
  5
84
330
7E
100
AcDbEntity
  8
중심선
100
AcDbLine
 10
5.245725140726316
 20
7.84717430164391
 30
0.0
 11
8.692000384563599
 21
7.84717430164391
 31
0.0
  0
LINE
  5
85
330
7E
100
AcDbEntity
  8
중심선
100
AcDbLine
 10
15.74043728645272
 20
16.24717430164393
 30
0.0
 11
8.692000384563599
 21
7.84717430164391
 31
0.0
  0
LINE
  5
86
330
7E
100
AcDbEntity
  8
중심선
100
AcDbLine
 10
0.1404042013395286
 20
13.71084872107135
 30
0.0
 11
3.58671253028996
 21
13.71088815037384
 31
0.0
  0
LINE
  5
87
330
7E
100
AcDbEntity
  8
중심선
100
AcDbLine
 10
2.750260043222114
 20
10.84717430164391
 30
0.0
 11
6.196535287059397
 21
10.84717430164391
 31
0.0
  0
LINE
  5
88
330
7E
100
AcDbEntity
  8
중심선
100
AcDbLine
 10
12.29416204261559
 20
16.24717430164393
 30
0.0
 11
5.245725140726316
 21
7.84717430164391
 31
0.0
  0
LINE
  5
89
330
7E
100
AcDbEntity
  8
중심선
100
AcDbLine
 10
10.72767329541681
 20
16.24717430164393
 30
0.0
 11
6.196535287059397
 21
10.84717430164391
 31
0.0
  0
LINE
  5
8A
330
7E
100
AcDbEntity
  8
중심선
100
AcDbLine
 10
7.28139805157953
 20
16.24717430164393
 30
0.0
 11
2.750260043222114
 21
10.84717430164391
 31
0.0
  0
LINE
  5
8B
330
7E
100
AcDbEntity
  8
중심선
100
AcDbLine
 10
5.714909304380834
 20
16.24717430164393
 30
0.0
 11
3.58671253028996
 21
13.71088815037384
 31
0.0
  0
LINE
  5
8C
330
7E
100
AcDbEntity
  8
중심선
100
AcDbLine
 10
2.268634060543552
 20
16.24717430164393
 30
0.0
 11
0.1404042013395286
 21
13.71084872107135
 31
0.0
  0
LINE
  5
8D
330
7E
100
AcDbEntity
  8
중심선
100
AcDbLine
 10
7.28139805157953
 20
16.24717430164393
 30
0.0
 11
10.72767329541681
 21
16.24717430164393
 31
0.0
  0
LINE
  5
8E
330
7E
100
AcDbEntity
  8
중심선
100
AcDbLine
 10
12.29416204261559
 20
16.24717430164393
 30
0.0
 11
15.74043728645272
 21
16.24717430164393
 31
0.0
  0
LINE
  5
8F
330
7E
100
AcDbEntity
  8
중심선
100
AcDbLine
 10
19.22036997980202
 20
11.08717430171403
 30
0.0
 11
23.66174974927406
 21
11.08717430171406
 31
0.0
  0
LINE
  5
90
330
7E
100
AcDbEntity
  8
중심선
100
AcDbLine
 10
19.22039502424796
 20
13.00717430171391
 30
0.0
 11
19.22036997980202
 21
11.08717430171403
 31
0.0
  0
LINE
  5
91
330
7E
100
AcDbEntity
  8
중심선
100
AcDbLine
 10
19.22039502424796
 20
13.00717430171391
 30
0.0
 11
26.96566020931264
 21
13.00717430171391
 31
0.0
  0
LINE
  5
92
330
7E
100
AcDbEntity
  8
중심선
100
AcDbLine
 10
22.22332737316547
 20
13.45928029700563
 30
0.0
 11
24.52862924686651
 21
15.39360700705356
 31
0.0
  0
ATTDEF
  5
94
330
7E
100
AcDbEntity
  8
FORMAT
 62
     2
100
AcDbText
 10
-20.85824753159254
 20
2.075366912832191
 30
0.0
 40
4.233333333333333
  1
SEME7008050150E [ 2 FLUTE ]
 41
0.75
  7
SLDTEXTSTYLE0
 11
-20.85824753159254
 21
-0.0412997538344756
 31
0.0
100
AcDbAttributeDefinition
  3

  2
AUTOATTR0
 70
     0
 74
     1
  0
ENDBLK
  5
80
330
7E
100
AcDbEntity
  8
0
100
AcDbBlockEnd
  0
BLOCK
  5
E2
330
E1
100
AcDbEntity
  8
0
100
AcDbBlockBegin
  2
_D
 70
     0
 10
0.0
 20
0.0
 30
0.0
  3
_D
  1

  0
LINE
  5
E4
330
E1
100
AcDbEntity
  8
치수문자_일반주서
 62
     0
370
    -2
100
AcDbLine
 10
60.06249999999971
 20
-3.937499999999805
 30
0.0
 11
75.14977000991284
 21
-3.937499999999748
 31
0.0
  0
LINE
  5
E5
330
E1
100
AcDbEntity
  8
치수문자_일반주서
 62
     0
370
    -2
100
AcDbLine
 10
60.06249999999971
 20
4.062500000000184
 30
0.0
 11
75.14977000991281
 21
4.062500000000242
 31
0.0
  0
LINE
  5
E6
330
E1
100
AcDbEntity
  8
치수문자_일반주서
 62
     0
370
    -2
100
AcDbLine
 10
75.14977000991284
 20
-3.937499999999748
 30
0.0
 11
75.14977000991277
 21
16.79150000000024
 31
0.0
  0
LINE
  5
E7
330
E1
100
AcDbEntity
  8
치수문자_일반주서
 62
     0
370
    -2
100
AcDbLine
 10
75.14977000991284
 20
-3.937499999999748
 30
0.0
 11
75.14977000991281
 21
4.062500000000242
 31
0.0
  0
LINE
  5
E8
330
E1
100
AcDbEntity
  8
치수문자_일반주서
 62
     0
370
    -2
100
AcDbLine
 10
75.14977000991286
 20
-7.239499999999747
 30
0.0
 11
75.14977000991287
 21
-10.54149999999975
 31
0.0
  0
LINE
  5
E9
330
E1
100
AcDbEntity
  8
치수문자_일반주서
 62
     0
370
    -2
100
AcDbLine
 10
75.1497700099128
 20
7.364500000000241
 30
0.0
 11
75.14977000991279
 21
10.66650000000024
 31
0.0
  0
SOLID
  5
EA
330
E1
100
AcDbEntity
  8
치수문자_일반주서
 62
     0
100
AcDbTrace
 10
75.70010334324618
 20
-7.239499999999746
 30
0.0
 11
74.59943667657953
 21
-7.239499999999749
 31
0.0
 12
75.14977000991284
 22
-3.937499999999748
 32
0.0
 13
75.14977000991284
 23
-3.937499999999748
 33
0.0
  0
SOLID
  5
EB
330
E1
100
AcDbEntity
  8
치수문자_일반주서
 62
     0
100
AcDbTrace
 10
74.59943667657947
 20
7.364500000000239
 30
0.0
 11
75.70010334324613
 21
7.364500000000243
 31
0.0
 12
75.14977000991281
 22
4.062500000000242
 32
0.0
 13
75.14977000991281
 23
4.062500000000242
 33
0.0
  0
MTEXT
  5
EC
330
E1
100
AcDbEntity
  8
치수문자_일반주서
 62
     0
100
AcDbMText
 10
70.77477000991279
 20
13.72900000000023
 30
0.0
 40
3.5
 41
0.0
 71
     2
 72
     1
  1
\A1;%%c8
  7
SLDTEXTSTYLE0
 11
-3.552713678800506E-15
 21
1.0
 31
0.0
 73
     1
 44
1.0
  0
POINT
  5
144
330
E1
100
AcDbEntity
  8
Defpoints
 62
     0
100
AcDbPoint
 10
59.99999999999971
 20
-3.937499999999806
 30
0.0
  0
POINT
  5
145
330
E1
100
AcDbEntity
  8
Defpoints
 62
     0
100
AcDbPoint
 10
59.99999999999971
 20
4.062500000000184
 30
0.0
  0
POINT
  5
146
330
E1
100
AcDbEntity
  8
Defpoints
 62
     0
100
AcDbPoint
 10
75.14977000991281
 20
4.062500000000241
 30
0.0
  0
ENDBLK
  5
E3
330
E1
100
AcDbEntity
  8
0
100
AcDbBlockEnd
  0
BLOCK
  5
F0
330
EF
100
AcDbEntity
  8
0
100
AcDbBlockBegin
  2
_D_1
 70
     0
 10
0.0
 20
0.0
 30
0.0
  3
_D_1
  1

  0
LINE
  5
F2
330
EF
100
AcDbEntity
  8
치수문자_일반주서
 62
     0
370
    -2
100
AcDbLine
 10
-90.0
 20
3.252499999999993
 30
0.0
 11
-90.0
 21
24.97841044024269
 31
0.0
  0
LINE
  5
F3
330
EF
100
AcDbEntity
  8
치수문자_일반주서
 62
     0
370
    -2
100
AcDbLine
 10
59.99999999999971
 20
4.062500000000184
 30
0.0
 11
59.99999999999972
 21
24.97841044024269
 31
0.0
  0
LINE
  5
F4
330
EF
100
AcDbEntity
  8
치수문자_일반주서
 62
     0
370
    -2
100
AcDbLine
 10
-86.69800000000001
 20
24.97841044024269
 30
0.0
 11
56.69799999999972
 21
24.97841044024269
 31
0.0
  0
SOLID
  5
F5
330
EF
100
AcDbEntity
  8
치수문자_일반주서
 62
     0
100
AcDbTrace
 10
-86.69800000000001
 20
25.52874377357602
 30
0.0
 11
-86.69800000000001
 21
24.42807710690936
 31
0.0
 12
-90.0
 22
24.97841044024269
 32
0.0
 13
-90.0
 23
24.97841044024269
 33
0.0
  0
SOLID
  5
F6
330
EF
100
AcDbEntity
  8
치수문자_일반주서
 62
     0
100
AcDbTrace
 10
56.69799999999972
 20
24.42807710690936
 30
0.0
 11
56.69799999999972
 21
25.52874377357602
 31
0.0
 12
59.99999999999972
 22
24.97841044024269
 32
0.0
 13
59.99999999999972
 23
24.97841044024269
 33
0.0
  0
MTEXT
  5
F7
330
EF
100
AcDbEntity
  8
치수문자_일반주서
 62
     0
100
AcDbMText
 10
-15.00000000000015
 20
29.35341044024269
 30
0.0
 40
3.5
 41
0.0
 71
     2
 72
     1
  1
\A1;150
  7
SLDTEXTSTYLE0
 73
     1
 44
1.0
  0
POINT
  5
13B
330
EF
100
AcDbEntity
  8
Defpoints
 62
     0
100
AcDbPoint
 10
-90.0
 20
3.189999999999993
 30
0.0
  0
POINT
  5
13C
330
EF
100
AcDbEntity
  8
Defpoints
 62
     0
100
AcDbPoint
 10
59.99999999999971
 20
4.000000000000184
 30
0.0
  0
POINT
  5
13D
330
EF
100
AcDbEntity
  8
Defpoints
 62
     0
100
AcDbPoint
 10
59.99999999999971
 20
24.97841044024269
 30
0.0
  0
ENDBLK
  5
F1
330
EF
100
AcDbEntity
  8
0
100
AcDbBlockEnd
  0
BLOCK
  5
FA
330
F9
100
AcDbEntity
  8
0
100
AcDbBlockBegin
  2
_D_2
 70
     0
 10
0.0
 20
0.0
 30
0.0
  3
_D_2
  1

  0
LINE
  5
FC
330
F9
100
AcDbEntity
  8
치수문자_일반주서
 62
     0
370
    -2
100
AcDbLine
 10
9.999999999999988
 20
2.817676151671661
 30
0.0
 11
9.999999999999986
 21
15.91903689838852
 31
0.0
  0
LINE
  5
FD
330
F9
100
AcDbEntity
  8
치수문자_일반주서
 62
     0
370
    -2
100
AcDbLine
 10
59.99999999999971
 20
4.062500000000184
 30
0.0
 11
59.99999999999971
 21
15.91903689838852
 31
0.0
  0
LINE
  5
FE
330
F9
100
AcDbEntity
  8
치수문자_일반주서
 62
     0
370
    -2
100
AcDbLine
 10
13.30199999999999
 20
15.91903689838852
 30
0.0
 11
56.69799999999971
 21
15.91903689838852
 31
0.0
  0
SOLID
  5
FF
330
F9
100
AcDbEntity
  8
치수문자_일반주서
 62
     0
100
AcDbTrace
 10
13.30199999999999
 20
16.46937023172185
 30
0.0
 11
13.30199999999999
 21
15.36870356505519
 31
0.0
 12
9.999999999999986
 22
15.91903689838852
 32
0.0
 13
9.999999999999986
 23
15.91903689838852
 33
0.0
  0
SOLID
  5
100
330
F9
100
AcDbEntity
  8
치수문자_일반주서
 62
     0
100
AcDbTrace
 10
56.69799999999971
 20
15.36870356505519
 30
0.0
 11
56.69799999999971
 21
16.46937023172185
 31
0.0
 12
59.99999999999971
 22
15.91903689838852
 32
0.0
 13
59.99999999999971
 23
15.91903689838852
 33
0.0
  0
MTEXT
  5
101
330
F9
100
AcDbEntity
  8
치수문자_일반주서
 62
     0
100
AcDbMText
 10
35.00000000000001
 20
20.29403689838852
 30
0.0
 40
3.5
 41
0.0
 71
     2
 72
     1
  1
\A1;50
  7
SLDTEXTSTYLE0
 73
     1
 44
1.0
  0
POINT
  5
13E
330
F9
100
AcDbEntity
  8
Defpoints
 62
     0
100
AcDbPoint
 10
9.999999999999988
 20
2.755176151671661
 30
0.0
  0
POINT
  5
13F
330
F9
100
AcDbEntity
  8
Defpoints
 62
     0
100
AcDbPoint
 10
59.99999999999971
 20
4.000000000000184
 30
0.0
  0
POINT
  5
140
330
F9
100
AcDbEntity
  8
Defpoints
 62
     0
100
AcDbPoint
 10
59.99999999999971
 20
15.91903689838852
 30
0.0
  0
ENDBLK
  5
FB
330
F9
100
AcDbEntity
  8
0
100
AcDbBlockEnd
  0
BLOCK
  5
104
330
103
100
AcDbEntity
  8
0
100
AcDbBlockBegin
  2
_D_3
 70
     0
 10
0.0
 20
0.0
 30
0.0
  3
_D_3
  1

  0
LINE
  5
106
330
103
100
AcDbEntity
  8
치수문자_일반주서
 62
     0
370
    -2
100
AcDbLine
 10
-89.2525
 20
3.999999999999992
 30
0.0
 11
-100.6995453446364
 21
3.99999999999995
 31
0.0
  0
LINE
  5
107
330
103
100
AcDbEntity
  8
치수문자_일반주서
 62
     0
370
    -2
100
AcDbLine
 10
-89.2525
 20
-3.999999999999996
 30
0.0
 11
-100.6995453446363
 21
-4.000000000000039
 31
0.0
  0
LINE
  5
108
330
103
100
AcDbEntity
  8
치수문자_일반주서
 62
     0
370
    -2
100
AcDbLine
 10
-100.6995453446364
 20
3.99999999999995
 30
0.0
 11
-100.6995453446364
 21
17.9214343794368
 31
0.0
  0
LINE
  5
109
330
103
100
AcDbEntity
  8
치수문자_일반주서
 62
     0
370
    -2
100
AcDbLine
 10
-100.6995453446364
 20
3.99999999999995
 30
0.0
 11
-100.6995453446363
 21
-4.000000000000039
 31
0.0
  0
LINE
  5
10A
330
103
100
AcDbEntity
  8
치수문자_일반주서
 62
     0
370
    -2
100
AcDbLine
 10
-100.6995453446364
 20
7.30199999999995
 30
0.0
 11
-100.6995453446364
 21
10.60399999999995
 31
0.0
  0
LINE
  5
10B
330
103
100
AcDbEntity
  8
치수문자_일반주서
 62
     0
370
    -2
100
AcDbLine
 10
-100.6995453446363
 20
-7.302000000000039
 30
0.0
 11
-100.6995453446363
 21
-10.60400000000004
 31
0.0
  0
SOLID
  5
10C
330
103
100
AcDbEntity
  8
치수문자_일반주서
 62
     0
100
AcDbTrace
 10
-101.2498786779697
 20
7.301999999999948
 30
0.0
 11
-100.149212011303
 21
7.301999999999952
 31
0.0
 12
-100.6995453446364
 22
3.99999999999995
 32
0.0
 13
-100.6995453446364
 23
3.99999999999995
 33
0.0
  0
SOLID
  5
10D
330
103
100
AcDbEntity
  8
치수문자_일반주서
 62
     0
100
AcDbTrace
 10
-100.149212011303
 20
-7.302000000000037
 30
0.0
 11
-101.2498786779696
 21
-7.30200000000004
 31
0.0
 12
-100.6995453446363
 22
-4.000000000000039
 32
0.0
 13
-100.6995453446363
 23
-4.000000000000039
 33
0.0
  0
MTEXT
  5
10E
330
103
100
AcDbEntity
  8
치수문자_일반주서
 62
     0
100
AcDbMText
 10
-105.0745453446364
 20
14.85893437943679
 30
0.0
 40
3.5
 41
0.0
 71
     2
 72
     1
  1
\A1;%%c8
  7
SLDTEXTSTYLE0
 11
-3.552713678800506E-15
 21
1.0
 31
0.0
 73
     1
 44
1.0
  0
POINT
  5
141
330
103
100
AcDbEntity
  8
Defpoints
 62
     0
100
AcDbPoint
 10
-89.19
 20
3.999999999999992
 30
0.0
  0
POINT
  5
142
330
103
100
AcDbEntity
  8
Defpoints
 62
     0
100
AcDbPoint
 10
-89.19
 20
-3.999999999999996
 30
0.0
  0
POINT
  5
143
330
103
100
AcDbEntity
  8
Defpoints
 62
     0
100
AcDbPoint
 10
-100.6995453446363
 20
-4.000000000000038
 30
0.0
  0
ENDBLK
  5
105
330
103
100
AcDbEntity
  8
0
100
AcDbBlockEnd
  0
BLOCK
  5
110
330
10F
100
AcDbEntity
  8
0
100
AcDbBlockBegin
  2
SW_DOWELSYMBOL_0
 70
     0
 10
0.0
 20
0.0
 30
0.0
  3
SW_DOWELSYMBOL_0
  1

  0
CIRCLE
  5
112
330
10F
100
AcDbEntity
  8
외형선
 62
     0
100
AcDbCircle
 10
0.0
 20
0.0
 30
0.0
 40
3.000000000000004
  0
HATCH
  5
113
330
10F
100
AcDbEntity
  8
0
  6
Continuous
 62
     0
370
    30
100
AcDbHatch
 10
0.0
 20
0.0
 30
0.0
210
0.0
220
0.0
230
1.0
  2
SOLID
 70
     1
 71
     0
 91
        1
 92
        0
 93
        3
 72
     2
 10
0.0000000000000104
 20
0.0
 40
3.000000000000004
 50
0.0
 51
90.0
 73
     1
 72
     1
 10
0.0000000000000104
 20
3.000000000000004
 11
0.0000000000000104
 21
0.0
 72
     1
 10
0.0000000000000104
 20
0.0
 11
3.000000000000015
 21
0.0
 97
        0
 75
     0
 76
     1
 98
        1
 10
0.0
 20
0.0
  0
HATCH
  5
114
330
10F
100
AcDbEntity
  8
0
  6
Continuous
 62
     0
370
    30
100
AcDbHatch
 10
0.0
 20
0.0
 30
0.0
210
0.0
220
0.0
230
1.0
  2
SOLID
 70
     1
 71
     0
 91
        1
 92
        0
 93
        3
 72
     2
 10
0.0000000000000104
 20
0.0
 40
3.000000000000004
 50
180.0
 51
270.0000000000008
 73
     1
 72
     1
 10
0.0000000000000104
 20
-3.000000000000004
 11
0.0000000000000104
 21
0.0
 72
     1
 10
0.0000000000000104
 20
0.0
 11
-2.999999999999994
 21
0.0
 97
        0
 75
     0
 76
     1
 98
        1
 10
0.0
 20
0.0
  0
ENDBLK
  5
111
330
10F
100
AcDbEntity
  8
0
100
AcDbBlockEnd
  0
ENDSEC
  0
SECTION
  2
ENTITIES
  0
SPLINE
  5
95
330
1F
100
AcDbEntity
  8
0
  6
Continuous
 62
     1
370
    15
100
AcDbSpline
210
0.0
220
0.0
230
1.0
 70
     8
 71
     3
 72
     9
 73
     5
 74
     0
 42
0.000000001
 43
0.00000001
 40
0.0
 40
0.0
 40
0.0
 40
0.0
 40
0.4429015911807159
 40
1.0
 40
1.0
 40
1.0
 40
1.0
 10
27.87210972413058
 20
1.024979901275355
 30
0.0
 10
27.70739852389318
 20
1.103244100130394
 30
0.0
 10
27.33550733289905
 20
1.279951974776762
 30
0.0
 10
26.96621152699027
 20
1.472851070406297
 30
0.0
 10
26.76047742113485
 20
1.580314849644189
 30
0.0
  0
SPLINE
  5
96
330
1F
100
AcDbEntity
  8
0
  6
Continuous
 62
     1
370
    15
100
AcDbSpline
210
0.0
220
0.0
230
1.0
 70
     8
 71
     3
 72
     9
 73
     5
 74
     0
 42
0.000000001
 43
0.00000001
 40
0.0
 40
0.0
 40
0.0
 40
0.0
 40
0.4430680766805958
 40
1.0
 40
1.0
 40
1.0
 40
1.0
 10
49.63791350974053
 20
1.024880938366718
 30
0.0
 10
49.47310304945158
 20
1.10319123545422
 30
0.0
 10
49.10112756991877
 20
1.27993675427876
 30
0.0
 10
48.73182025081029
 20
1.472841892697481
 30
0.0
 10
48.52614121528327
 20
1.580276922455215
 30
0.0
  0
LINE
  5
97
330
1F
100
AcDbEntity
  8
0
  6
Continuous
 62
     1
370
    15
100
AcDbLine
 10
16.75384642784212
 20
-4.0
 30
0.0
 11
18.6935389133892
 21
-4.0
 31
0.0
  0
LINE
  5
98
330
1F
100
AcDbEntity
  8
0
  6
Continuous
 62
     1
370
    15
100
AcDbLine
 10
40.45759936120049
 20
4.000000000000011
 30
0.0
 11
38.51968818846293
 21
4.000000000000011
 31
0.0
  0
LINE
  5
99
330
1F
100
AcDbEntity
  8
0
  6
Continuous
 62
     1
370
    15
100
AcDbLine
 10
38.51968818846291
 20
-4.0
 30
0.0
 11
40.45759936120054
 21
-4.0
 31
0.0
  0
LINE
  5
9A
330
1F
100
AcDbEntity
  8
0
  6
Continuous
 62
     1
370
    15
100
AcDbLine
 10
18.69353891338919
 20
4.000000000000011
 30
0.0
 11
16.75384642784217
 21
4.000000000000011
 31
0.0
  0
SPLINE
  5
9B
330
1F
100
AcDbEntity
  8
0
  6
Continuous
 62
     1
370
    15
100
AcDbSpline
210
0.0
220
0.0
230
1.0
 70
     8
 71
     3
 72
    18
 73
    14
 74
     0
 42
0.000000001
 43
0.00000001
 40
0.0
 40
0.0
 40
0.0
 40
0.0
 40
0.1221846164507799
 40
0.2111410998276225
 40
0.2905605741722784
 40
0.3750200762843808
 40
0.459511928545766
 40
0.5301363383291069
 40
0.6009144652303836
 40
0.6683233373623149
 40
0.7342865635794048
 40
0.8411741687167932
 40
1.0
 40
1.0
 40
1.0
 40
1.0
 10
20.53259327122463
 20
-3.328562000588446
 30
0.0
 10
20.7783244405823
 20
-3.30516821317971
 30
0.0
 10
21.20296013423368
 20
-3.264742583946722
 30
0.0
 10
21.78448032278424
 20
-3.220346979891235
 30
0.0
 10
22.29061382798604
 20
-3.187794230198214
 30
0.0
 10
22.78896518825801
 20
-3.162016185154094
 30
0.0
 10
23.26913320015638
 20
-3.143288071798986
 30
0.0
 10
23.7221095471165
 20
-3.13126558739091
 30
0.0
 10
24.14093074599553
 20
-3.124871017384326
 30
0.0
 10
24.55037101953597
 20
-3.123072147173239
 30
0.0
 10
25.03192043935729
 20
-3.126263303894495
 30
0.0
 10
25.69637416947057
 20
-3.138872873490774
 30
0.0
 10
26.22985315790669
 20
-3.163703272561949
 30
0.0
 10
26.54873143877906
 20
-3.178545234740071
 30
0.0
  0
SPLINE
  5
9C
330
1F
100
AcDbEntity
  8
0
  6
Continuous
 62
     1
370
    15
100
AcDbSpline
210
0.0
220
0.0
230
1.0
 70
     8
 71
     3
 72
    15
 73
    11
 74
     0
 42
0.000000001
 43
0.00000001
 40
0.0
 40
0.0
 40
0.0
 40
0.0
 40
0.2590176500749846
 40
0.4296970762988738
 40
0.5372432232652856
 40
0.6440408622969224
 40
0.752511995291675
 40
0.8612764285255448
 40
0.9698020131983457
 40
1.0
 40
1.0
 40
1.0
 40
1.0
 10
48.31446148521138
 20
3.178552616937806
 30
0.0
 10
48.03100411982447
 20
3.165131775489333
 30
0.0
 10
47.56076280180277
 20
3.142867283744425
 30
0.0
 10
46.97382094076668
 20
3.129389836628172
 30
0.0
 10
46.55308699363031
 20
3.124224621224216
 30
0.0
 10
46.20030980029533
 20
3.123341475095875
 30
0.0
 10
45.8460180152689
 20
3.125646446098012
 30
0.0
 10
45.48989108768441
 20
3.131696413533751
 30
0.0
 10
45.21935117869416
 20
3.137763800867489
 30
0.0
 10
45.06776146624543
 20
3.14352147394136
 30
0.0
 10
45.03476271854063
 20
3.144774830769223
 30
0.0
  0
SPLINE
  5
9D
330
1F
100
AcDbEntity
  8
0
  6
Continuous
 62
     1
370
    15
100
AcDbSpline
210
0.0
220
0.0
230
1.0
 70
     8
 71
     3
 72
    18
 73
    14
 74
     0
 42
0.000000001
 43
0.00000001
 40
0.0
 40
0.0
 40
0.0
 40
0.0
 40
0.1358985130497732
 40
0.2290837690446077
 40
0.3087109807402199
 40
0.3931090234560874
 40
0.4775537709280238
 40
0.5482743715097385
 40
0.6190532808943392
 40
0.6863772252031011
 40
0.7518937408543718
 40
0.8532761256947741
 40
1.0
 40
1.0
 40
1.0
 40
1.0
 10
42.2983815332808
 20
-3.328542441027407
 30
0.0
 10
42.57225954686721
 20
-3.302583749944391
 30
0.0
 10
43.03393500013611
 20
-3.258825252082212
 30
0.0
 10
43.6511023716444
 20
-3.213276115774089
 30
0.0
 10
44.16464666842762
 20
-3.181666389766117
 30
0.0
 10
44.66340594585767
 20
-3.157220020434658
 30
0.0
 10
45.14346853796051
 20
-3.139856935071509
 30
0.0
 10
45.59663675946667
 20
-3.12914685290432
 30
0.0
 10
46.01548962427884
 20
-3.123953766689733
 30
0.0
 10
46.4238317667631
 20
-3.123338821126801
 30
0.0
 10
46.89327327584638
 20
-3.127798542286451
 30
0.0
 10
47.52177024891489
 20
-3.141236370687662
 30
0.0
 10
48.01988739001583
 20
-3.164685427580958
 30
0.0
 10
48.31446148521139
 20
-3.178552616937792
 30
0.0
  0
SPLINE
  5
9E
330
1F
100
AcDbEntity
  8
0
  6
Continuous
 62
     1
370
    15
100
AcDbSpline
210
0.0
220
0.0
230
1.0
 70
     8
 71
     3
 72
    15
 73
    11
 74
     0
 42
0.000000001
 43
0.00000001
 40
0.0
 40
0.0
 40
0.0
 40
0.0
 40
0.261147262994246
 40
0.4332389550442083
 40
0.5416881537923675
 40
0.6493628129885023
 40
0.7587074052176384
 40
0.868358862099597
 40
0.9777811945002867
 40
1.0
 40
1.0
 40
1.0
 40
1.0
 10
26.54873143877905
 20
3.178545234740082
 30
0.0
 10
26.26529384866311
 20
3.165126187965315
 30
0.0
 10
25.79507561258387
 20
3.142864213109704
 30
0.0
 10
25.2081392116911
 20
3.129388300321831
 30
0.0
 10
24.78738899750841
 20
3.124223276054916
 30
0.0
 10
24.43463466094138
 20
3.123343741549867
 30
0.0
 10
24.08040030513748
 20
3.125639684600844
 30
0.0
 10
23.72431925100165
 20
3.131723272521004
 30
0.0
 10
23.46271146009275
 20
3.137495578796018
 30
0.0
 10
23.32004135016324
 20
3.142879015771184
 30
0.0
 10
23.29596104005877
 20
3.14378764920431
 30
0.0
  0
SPLINE
  5
9F
330
1F
100
AcDbEntity
  8
0
  6
Continuous
 62
     1
370
    15
100
AcDbSpline
210
0.0
220
0.0
230
1.0
 70
     8
 71
     3
 72
     9
 73
     5
 74
     0
 42
0.000000001
 43
0.00000001
 40
0.0
 40
0.0
 40
0.0
 40
0.0
 40
0.7986788139345721
 40
1.0
 40
1.0
 40
1.0
 40
1.0
 10
9.999999999999988
 20
-2.755176151671651
 30
0.0
 10
10.25986341474742
 20
-2.73195663220721
 30
0.0
 10
10.58523002046376
 20
-2.702884220294775
 30
0.0
 10
10.91284557858058
 20
-2.685233204674588
 30
0.0
 10
10.97880153131414
 20
-2.681679681274673
 30
0.0
  0
SPLINE
  5
A0
330
1F
100
AcDbEntity
  8
0
  6
Continuous
 62
     1
370
    15
100
AcDbSpline
210
0.0
220
0.0
230
1.0
 70
     8
 71
     3
 72
    13
 73
     9
 74
     0
 42
0.000000001
 43
0.00000001
 40
0.0
 40
0.0
 40
0.0
 40
0.0
 40
0.2665556434444438
 40
0.4558319497230384
 40
0.5873060543620302
 40
0.7216374163227125
 40
0.8609578344182792
 40
1.0
 40
1.0
 40
1.0
 40
1.0
 10
51.52631794149869
 20
-3.008545318760867
 30
0.0
 10
51.79278986067747
 20
-2.96825582606781
 30
0.0
 10
52.24847863505908
 20
-2.899357498610504
 30
0.0
 10
52.83296823591301
 20
-2.827699425204976
 30
0.0
 10
53.28062113191788
 20
-2.778848720616947
 30
0.0
 10
53.68223294715512
 20
-2.740518403416506
 30
0.0
 10
54.09279776200096
 20
-2.706900065448182
 30
0.0
 10
54.36952360428462
 20
-2.689357263999403
 30
0.0
 10
54.50774821721662
 20
-2.680594631207361
 30
0.0
  0
SPLINE
  5
A1
330
1F
100
AcDbEntity
  8
0
  6
Continuous
 62
     1
370
    15
100
AcDbSpline
210
0.0
220
0.0
230
1.0
 70
     8
 71
     3
 72
    21
 73
    17
 74
     0
 42
0.000000001
 43
0.00000001
 40
0.0
 40
0.0
 40
0.0
 40
0.0
 40
0.1203843747333927
 40
0.2071454239371625
 40
0.2612146084161496
 40
0.3084573735255087
 40
0.3570828718059186
 40
0.4073156050459872
 40
0.4596102336303944
 40
0.5132188758618151
 40
0.5849982520931309
 40
0.6571325309108501
 40
0.7287253051886461
 40
0.7964686762486904
 40
0.8781867946355196
 40
1.0
 40
1.0
 40
1.0
 40
1.0
 10
36.74719650269486
 20
2.735790817146796
 30
0.0
 10
36.46609513900398
 20
2.713882962943591
 30
0.0
 10
35.98240395167161
 20
2.676186112695983
 30
0.0
 10
35.3732323730532
 20
2.649588540338651
 30
0.0
 10
34.93046507847191
 20
2.637235037870296
 30
0.0
 10
34.57974377742416
 20
2.632252735896169
 30
0.0
 10
34.24235995545965
 20
2.631772357102628
 30
0.0
 10
33.89588500989295
 20
2.635557634386292
 30
0.0
 10
33.53360048689139
 20
2.644109189271472
 30
0.0
 10
33.11974204016968
 20
2.65959752976261
 30
0.0
 10
32.65983861602207
 20
2.68410191995078
 30
0.0
 10
32.15772150545822
 20
2.71971283804917
 30
0.0
 10
31.66483052596417
 20
2.763370058391906
 30
0.0
 10
31.1523086862747
 20
2.817742949504348
 30
0.0
 10
30.52186181428098
 20
2.893866282797503
 30
0.0
 10
30.04575418524087
 20
2.965600211964701
 30
0.0
 10
29.7608044520847
 20
3.008532865691859
 30
0.0
  0
SPLINE
  5
A2
330
1F
100
AcDbEntity
  8
0
  6
Continuous
 62
     1
370
    15
100
AcDbSpline
210
0.0
220
0.0
230
1.0
 70
     8
 71
     3
 72
    13
 73
     9
 74
     0
 42
0.000000001
 43
0.00000001
 40
0.0
 40
0.0
 40
0.0
 40
0.0
 40
0.2850444959298395
 40
0.4762659632101015
 40
0.6347863387196454
 40
0.8023143681740208
 40
0.9711095253438627
 40
1.0
 40
1.0
 40
1.0
 40
1.0
 10
29.7608044520847
 20
-3.008532865691846
 30
0.0
 10
30.04575428157592
 20
-2.965593764337658
 30
0.0
 10
30.52186207157723
 20
-2.893849062167153
 30
0.0
 10
31.15230808273783
 20
-2.817783343739965
 30
0.0
 10
31.66483242640017
 20
-2.763242863743548
 30
0.0
 10
32.15771387921457
 20
-2.720223256383429
 30
0.0
 10
32.52138168109198
 20
-2.692677110005892
 30
0.0
 10
32.71811297610203
 20
-2.682440472082736
 30
0.0
 10
32.74686398061389
 20
-2.680944453754285
 30
0.0
  0
SPLINE
  5
A3
330
1F
100
AcDbEntity
  8
0
  6
Continuous
 62
     1
370
    15
100
AcDbSpline
210
0.0
220
0.0
230
1.0
 70
     8
 71
     3
 72
    22
 73
    18
 74
     0
 42
0.000000001
 43
0.00000001
 40
0.0
 40
0.0
 40
0.0
 40
0.0
 40
0.1189386829407456
 40
0.2043847543021303
 40
0.2580668189235005
 40
0.3070202742509761
 40
0.3583591017192729
 40
0.4104126501311703
 40
0.4623308174428903
 40
0.5139639355762647
 40
0.5731164143954718
 40
0.6325739829115637
 40
0.6920309554525459
 40
0.7493587772367871
 40
0.8054672237676341
 40
0.8862435830328282
 40
1.0
 40
1.0
 40
1.0
 40
1.0
 10
58.51295393172933
 20
2.735805048108768
 30
0.0
 10
58.23477520687078
 20
2.714093302954312
 30
0.0
 10
57.75675166628204
 20
2.676783744876603
 30
0.0
 10
57.15518507220514
 20
2.650239873934591
 30
0.0
 10
56.71941160886735
 20
2.63785083341109
 30
0.0
 10
56.36221406941633
 20
2.632499774285195
 30
0.0
 10
56.00738664936468
 20
2.6317526870009
 30
0.0
 10
55.64558520572088
 20
2.635789330913612
 30
0.0
 10
55.28307393797201
 20
2.644645034491559
 30
0.0
 10
54.90436563872816
 20
2.658995088517449
 30
0.0
 10
54.50789345235406
 20
2.679573184040533
 30
0.0
 10
54.09307005124816
 20
2.707150491499957
 30
0.0
 10
53.68223446918005
 20
2.740448127055854
 30
0.0
 10
53.28062074511188
 20
2.77886658058546
 30
0.0
 10
52.83296838807993
 20
2.827692399211323
 30
0.0
 10
52.24847857052463
 20
2.899360478355579
 30
0.0
 10
51.79278983686473
 20
2.968256925571566
 30
0.0
 10
51.52631794149869
 20
3.008545318760882
 30
0.0
  0
SPLINE
  5
A4
330
1F
100
AcDbEntity
  8
0
  6
Continuous
 62
     1
370
    15
100
AcDbSpline
210
0.0
220
0.0
230
1.0
 70
     8
 71
     3
 72
    10
 73
     6
 74
     0
 42
0.000000001
 43
0.00000001
 40
0.0
 40
0.0
 40
0.0
 40
0.0
 40
0.235020532373489
 40
0.5387767967591207
 40
0.9999999999999999
 40
0.9999999999999999
 40
0.9999999999999999
 40
0.9999999999999999
 10
14.98148293555599
 20
2.735780366849408
 30
0.0
 10
14.59078358285812
 20
2.707098909538773
 30
0.0
 10
13.69511823984928
 20
2.641347617342523
 30
0.0
 10
12.03682931993104
 20
2.611523048866034
 30
0.0
 10
10.7661318685018
 20
2.701142552002012
 30
0.0
 10
9.999999999999988
 20
2.755176151671661
 30
0.0
  0
LINE
  5
A5
330
1F
100
AcDbEntity
  8
0
  6
Continuous
 62
   131
370
    15
100
AcDbLine
 10
8.479890380589497
 20
4.000000000000005
 30
0.0
 11
-89.19
 21
3.999999999999999
 31
0.0
  0
LINE
  5
A6
330
1F
100
AcDbEntity
  8
0
  6
Continuous
 62
   131
370
    15
100
AcDbLine
 10
-89.19
 20
-4.000000000000001
 30
0.0
 11
8.479890380589497
 21
-3.999999999999996
 31
0.0
  0
LINE
  5
A7
330
1F
100
AcDbEntity
  8
0
  6
Continuous
 62
   131
370
    15
100
AcDbLine
 10
-89.19
 20
3.999999999999992
 30
0.0
 11
-90.0
 21
3.189999999999992
 31
0.0
  0
LINE
  5
A8
330
1F
100
AcDbEntity
  8
0
  6
Continuous
 62
   131
370
    15
100
AcDbLine
 10
-90.0
 20
-3.189999999999996
 30
0.0
 11
-89.19
 21
-3.999999999999996
 31
0.0
  0
SPLINE
  5
A9
330
1F
100
AcDbEntity
  8
0
  6
Continuous
 62
   131
370
    15
100
AcDbSpline
210
0.0
220
0.0
230
1.0
 70
     8
 71
     3
 72
     9
 73
     5
 74
     0
 42
0.000000001
 43
0.00000001
 40
0.0
 40
0.0
 40
0.0
 40
0.0
 40
0.5127686486487362
 40
1.0
 40
1.0
 40
1.0
 40
1.0
 10
8.470724347202438
 20
-2.935727734746041
 30
0.0
 10
8.734085238432016
 20
-2.90013477513355
 30
0.0
 10
9.247690919909601
 20
-2.830721483766601
 30
0.0
 10
9.753536281094924
 20
-2.779925531928769
 30
0.0
 10
10.00000000000002
 20
-2.755176151671649
 30
0.0
  0
SPLINE
  5
AA
330
1F
100
AcDbEntity
  8
0
  6
Continuous
 62
   131
370
    15
100
AcDbSpline
210
0.0
220
0.0
230
1.0
 70
     8
 71
     3
 72
     9
 73
     5
 74
     0
 42
0.000000001
 43
0.00000001
 40
0.0
 40
0.0
 40
0.0
 40
0.0
 40
0.4872313513512638
 40
1.0
 40
1.0
 40
1.0
 40
1.0
 10
10.00000000000002
 20
2.755176151671659
 30
0.0
 10
9.753536281094924
 20
2.779925531928779
 30
0.0
 10
9.247690919909601
 20
2.830721483766609
 30
0.0
 10
8.734085238432016
 20
2.900134775133559
 30
0.0
 10
8.470724347202438
 20
2.93572773474605
 30
0.0
  0
SPLINE
  5
AB
330
1F
100
AcDbEntity
  8
0
  6
Continuous
 62
     1
370
    15
100
AcDbSpline
210
0.0
220
0.0
230
1.0
 70
     8
 71
     3
 72
    32
 73
    28
 74
     0
 42
0.000000001
 43
0.00000001
 40
0.0
 40
0.0
 40
0.0
 40
0.0
 40
0.0084022737016545
 40
0.0543604287390418
 40
0.0962084941536591
 40
0.1383466415217744
 40
0.1801578900328817
 40
0.2222598897307639
 40
0.2640708851064191
 40
0.3061706228221273
 40
0.3479794062480324
 40
0.3900781553020281
 40
0.4318868513822533
 40
0.473985253685119
 40
0.5169774843241954
 40
0.5602839288882822
 40
0.6023950853829318
 40
0.6448033171469377
 40
0.6867009165713179
 40
0.7288892024951217
 40
0.7706973158655757
 40
0.8127950916700408
 40
0.8546032062899185
 40
0.8967013983277868
 40
0.9385094530430291
 40
0.9806061686258006
 40
1.0
 40
1.0
 40
1.0
 40
1.0
 10
11.02265899120545
 20
2.701217651498465
 30
0.0
 10
11.09969680302374
 20
2.735908825861229
 30
0.0
 10
11.59811052153131
 20
2.960351301646016
 30
0.0
 10
12.47994478058402
 20
3.274834992082075
 30
0.0
 10
13.67046603522564
 20
3.628559870256236
 30
0.0
 10
14.82368443109663
 20
3.863327362402538
 30
0.0
 10
15.97940618705673
 20
3.993462661583639
 30
0.0
 10
17.1312673975252
 20
4.012569587473702
 30
0.0
 10
18.28616823338444
 20
3.920455673901591
 30
0.0
 10
19.43908771476047
 20
3.720724854683938
 30
0.0
 10
20.5935831102833
 20
3.416932986836637
 30
0.0
 10
21.74557278111799
 20
3.019210871699876
 30
0.0
 10
22.90119405227384
 20
2.538303707579701
 30
0.0
 10
24.06398966623469
 20
1.981908841193987
 30
0.0
 10
25.24046654209141
 20
1.361826804010653
 30
0.0
 10
26.41795402388052
 20
0.7035813642662806
 30
0.0
 10
27.58961112513217
 20
0.0277067626925417
 30
0.0
 10
28.74784248998575
 20
-0.6424869372805928
 30
0.0
 10
29.90739755101696
 20
-1.293926061146162
 30
0.0
 10
31.06172370717786
 20
-1.906131333973006
 30
0.0
 10
32.21696093423858
 20
-2.467725301757195
 30
0.0
 10
33.36910409563534
 20
-2.958892463081348
 30
0.0
 10
34.52464114747678
 20
-3.368099575759777
 30
0.0
 10
35.67649103703673
 20
-3.686095029135108
 30
0.0
 10
36.83104428116043
 20
-3.896140242862525
 30
0.0
 10
37.77849657740973
 20
-3.998590350066404
 30
0.0
 10
38.34197098994676
 20
-3.989249470749804
 30
0.0
 10
38.51968818846292
 20
-3.986303401031484
 30
0.0
  0
SPLINE
  5
AC
330
1F
100
AcDbEntity
  8
0
  6
Continuous
 62
     1
370
    15
100
AcDbSpline
210
0.0
220
0.0
230
1.0
 70
     8
 71
     3
 72
    13
 73
     9
 74
     0
 42
0.000000001
 43
0.00000001
 40
0.0
 40
0.0
 40
0.0
 40
0.0
 40
0.1551539163561793
 40
0.3677737717212867
 40
0.5242939760663581
 40
0.6814200132622108
 40
0.840392307482707
 40
1.0
 40
1.0
 40
1.0
 40
1.0
 10
54.50774821721662
 20
2.680594631207377
 30
0.0
 10
54.79171557281189
 20
2.801256598723064
 30
0.0
 10
55.46482617076318
 20
3.087271337756033
 30
0.0
 10
56.4255031104366
 20
3.40594925239536
 30
0.0
 10
57.38833093910095
 20
3.665583662111521
 30
0.0
 10
58.25394025481364
 20
3.838428899356015
 30
0.0
 10
59.124515512919
 20
3.957438399895371
 30
0.0
 10
59.70778406705204
 20
3.983541619879195
 30
0.0
 10
59.99999999999971
 20
4.000000000000184
 30
0.0
  0
SPLINE
  5
AD
330
1F
100
AcDbEntity
  8
0
  6
Continuous
 62
     1
370
    15
100
AcDbSpline
210
0.0
220
0.0
230
1.0
 70
    24
 71
     3
 72
    10
 73
     6
 74
     0
 42
0.000000001
 43
0.00000001
 40
0.0
 40
0.0
 40
0.0
 40
0.0
 40
0.5
 40
0.5
 40
1.0
 40
1.0
 40
1.0
 40
1.0
 10
60.00000000000001
 20
2.80000000000001
 30
0.0
 10
60.00000000000002
 20
2.969729027229267
 30
0.0
 10
60.00000000000002
 20
3.166969875468481
 30
0.0
 10
60.00000000000002
 20
3.580780643843438
 30
0.0
 10
60.00000000000001
 20
3.796293743205908
 30
0.0
 10
59.99999999999971
 20
4.000000000000184
 30
0.0
  0
LINE
  5
AE
330
1F
100
AcDbEntity
  8
0
  6
Continuous
 62
     1
370
    15
100
AcDbLine
 10
60.00000000000001
 20
2.800000000000012
 30
0.0
 11
58.50578699401861
 21
2.707177715082506
 31
0.0
  0
SPLINE
  5
AF
330
1F
100
AcDbEntity
  8
0
  6
Continuous
 62
     1
370
    15
100
AcDbSpline
210
0.0
220
0.0
230
1.0
 70
     8
 71
     3
 72
    14
 73
    10
 74
     0
 42
0.000000001
 43
0.00000001
 40
0.0
 40
0.0
 40
0.0
 40
0.0
 40
0.035759663225047
 40
0.1972881569529348
 40
0.3588055218581406
 40
0.5201176308176635
 40
0.6815574669433139
 40
0.8431088674454815
 40
1.0
 40
1.0
 40
1.0
 40
1.0
 10
28.27725785516631
 20
-0.3683820084784075
 30
0.0
 10
28.11877889355562
 20
-0.3062916678777347
 30
0.0
 10
27.24444117803462
 20
0.036264378710162
 30
0.0
 10
25.65397350489603
 20
0.6927982189198547
 30
0.0
 10
23.5070517246216
 20
1.49762885014032
 30
0.0
 10
21.3610069027863
 20
2.166175999810839
 30
0.0
 10
19.21448281393555
 20
2.621296460851565
 30
0.0
 10
17.08733532330922
 20
2.845103427574235
 30
0.0
 10
15.67598272606742
 20
2.769365715452122
 30
0.0
 10
14.98063369310514
 20
2.732051053626432
 30
0.0
  0
SPLINE
  5
B0
330
1F
100
AcDbEntity
  8
0
  6
Continuous
 62
     1
370
    15
100
AcDbSpline
210
0.0
220
0.0
230
1.0
 70
     8
 71
     3
 72
    13
 73
     9
 74
     0
 42
0.000000001
 43
0.00000001
 40
0.0
 40
0.0
 40
0.0
 40
0.0
 40
0.1855870185011766
 40
0.3727044394146631
 40
0.5430877384011412
 40
0.7146520984408301
 40
0.8848854983718472
 40
0.9999999999999999
 40
0.9999999999999999
 40
0.9999999999999999
 40
0.9999999999999999
 10
9.999999999999998
 20
-2.245635386388459
 30
0.0
 10
10.4179431681736
 20
-2.438003946705025
 30
0.0
 10
11.25727598066956
 20
-2.82432739223921
 30
0.0
 10
12.47995613476886
 20
-3.2781471660399
 30
0.0
 10
13.67046369886734
 20
-3.628359626811631
 30
0.0
 10
14.82368275183352
 20
-3.860887546003211
 30
0.0
 10
15.85262455198514
 20
-3.987724304299638
 30
0.0
 10
16.49478663528742
 20
-3.987689126819402
 30
0.0
 10
16.75384642784212
 20
-3.987674935587983
 30
0.0
  0
SPLINE
  5
B1
330
1F
100
AcDbEntity
  8
0
  6
Continuous
 62
     1
370
    15
100
AcDbSpline
210
0.0
220
0.0
230
1.0
 70
     8
 71
     3
 72
    30
 73
    26
 74
     0
 42
0.000000001
 43
0.00000001
 40
0.0
 40
0.0
 40
0.0
 40
0.0
 40
0.0229359625074757
 40
0.0651202535810307
 40
0.1075972320992517
 40
0.1497814627291682
 40
0.192256951507607
 40
0.2344412752000805
 40
0.2769185151574625
 40
0.3191026674452702
 40
0.3615786899731085
 40
0.4037629644102765
 40
0.4462389076442588
 40
0.488415388322742
 40
0.5308851359108295
 40
0.5730613233951272
 40
0.6155286877846932
 40
0.6578509402522364
 40
0.7001730080263984
 40
0.7436995381661012
 40
0.7872264015266831
 40
0.8297813397985649
 40
0.8726354643981025
 40
0.9358212597510284
 40
1.0
 40
1.0
 40
1.0
 40
1.0
 10
32.74686398061389
 20
2.680944453754297
 30
0.0
 10
32.95518510713776
 20
2.771518342925651
 30
0.0
 10
33.54665470781833
 20
3.028677580465228
 30
0.0
 10
34.52465961334908
 20
3.36606243165063
 30
0.0
 10
35.67648109447227
 20
3.685678970995893
 30
0.0
 10
36.83106556861335
 20
3.899808675614206
 30
0.0
 10
37.98400455870932
 20
4.006483112854927
 30
0.0
 10
39.13861794644415
 20
4.002546294865704
 30
0.0
 10
40.2904450732477
 20
3.887690684984884
 30
0.0
 10
41.4459530660803
 20
3.665469899895021
 30
0.0
 10
42.59813301736931
 20
3.342252655424527
 30
0.0
 10
43.75252489922516
 20
2.925105275652709
 30
0.0
 10
44.90507107089506
 20
2.429088217967479
 30
0.0
 10
46.06005142504258
 20
1.864727460960085
 30
0.0
 10
47.21159760632768
 20
1.248964333505614
 30
0.0
 10
48.36636635777619
 20
0.5981909677040937
 30
0.0
 10
49.5200957832205
 20
-0.067898847816453
 30
0.0
 10
50.67479547782877
 20
-0.7333764379423819
 30
0.0
 10
51.8386449169552
 20
-1.384929162212393
 30
0.0
 10
53.01349123213977
 20
-2.002668348632908
 30
0.0
 10
54.19176410406836
 20
-2.561874208289337
 30
0.0
 10
55.36229315236076
 20
-3.047467132176737
 30
0.0
 10
56.7127678234565
 20
-3.502825832595743
 30
0.0
 10
58.2594518532997
 20
-3.882015628052486
 30
0.0
 10
59.41680966402129
 20
-3.958220017966143
 30
0.0
 10
59.99999999999983
 20
-3.999999999999807
 30
0.0
  0
SPLINE
  5
B2
330
1F
100
AcDbEntity
  8
0
  6
Continuous
 62
     1
370
    15
100
AcDbSpline
210
0.0
220
0.0
230
1.0
 70
     8
 71
     3
 72
    14
 73
    10
 74
     0
 42
0.000000001
 43
0.00000001
 40
0.0
 40
0.0
 40
0.0
 40
0.0
 40
0.058367175981536
 40
0.2198599054977776
 40
0.3811989275675909
 40
0.542490214885473
 40
0.7039719904164891
 40
0.8654225418179643
 40
1.0
 40
1.0
 40
1.0
 40
1.0
 10
50.04377048378516
 20
-0.3681612325681628
 30
0.0
 10
49.78498693490087
 20
-0.265947639871498
 30
0.0
 10
48.81019030228536
 20
0.1190747713204729
 30
0.0
 10
47.11987266247971
 20
0.8103057037259795
 30
0.0
 10
44.97354322776126
 20
1.601110234346702
 30
0.0
 10
42.82737542399858
 20
2.24420271388821
 30
0.0
 10
40.68027751111486
 20
2.664983959865706
 30
0.0
 10
38.65169200278151
 20
2.848983420856665
 30
0.0
 10
37.33935662542189
 20
2.758262874636952
 30
0.0
 10
36.74275510918057
 20
2.71702035663228
 30
0.0
  0
SPLINE
  5
B3
330
1F
100
AcDbEntity
  8
0
  6
Continuous
 62
     1
370
    15
100
AcDbSpline
210
0.0
220
0.0
230
1.0
 70
     8
 71
     3
 72
    22
 73
    18
 74
     0
 42
0.000000001
 43
0.00000001
 40
0.0
 40
0.0
 40
0.0
 40
0.0
 40
0.0605471066786891
 40
0.1303735741624842
 40
0.200196010911767
 40
0.2700368565654592
 40
0.3398919197553857
 40
0.4097567213384102
 40
0.4796267552182029
 40
0.5494975007910854
 40
0.6193644354787087
 40
0.6892230472725577
 40
0.7590688472151683
 40
0.8288973817435848
 40
0.8987183519953533
 40
0.9705774038015783
 40
0.9999999999999999
 40
0.9999999999999999
 40
0.9999999999999999
 40
0.9999999999999999
 10
45.03420478518075
 20
-3.144946323371164
 30
0.0
 10
44.50258865428632
 20
-3.322561496880505
 30
0.0
 10
43.35788168364702
 20
-3.705012885000309
 30
0.0
 10
41.60024561053383
 20
-3.988702555812067
 30
0.0
 10
39.76104501317006
 20
-4.027784025835779
 30
0.0
 10
37.92145661673801
 20
-3.778635887294278
 30
0.0
 10
36.08143175777902
 20
-3.266108773565489
 30
0.0
 10
34.24109657194528
 20
-2.524102090634246
 30
0.0
 10
32.40059686746618
 20
-1.605184065539388
 30
0.0
 10
30.56007451203259
 20
-0.5736385205447292
 30
0.0
 10
28.71967247417235
 20
0.4980136584989036
 30
0.0
 10
26.87953364584056
 20
1.535029201257931
 30
0.0
 10
25.03979806068065
 20
2.463096245921246
 30
0.0
 10
23.20048890112642
 20
3.223114704119582
 30
0.0
 10
21.34359989268142
 20
3.744885360972785
 30
0.0
 10
19.84124853544715
 20
4.003168804012593
 30
0.0
 10
18.95189775222222
 20
3.972776573393284
 30
0.0
 10
18.69353891338919
 20
3.963947547141262
 30
0.0
  0
SPLINE
  5
B4
330
1F
100
AcDbEntity
  8
0
  6
Continuous
 62
     1
370
    15
100
AcDbSpline
210
0.0
220
0.0
230
1.0
 70
     8
 71
     3
 72
    17
 73
    13
 74
     0
 42
0.000000001
 43
0.00000001
 40
0.0
 40
0.0
 40
0.0
 40
0.0
 40
0.0005969717047421
 40
0.1119091516268935
 40
0.2232208191854234
 40
0.3345324776555406
 40
0.4458446303162499
 40
0.5571577802400937
 40
0.6684724300830733
 40
0.7797890818749439
 40
0.8911082368100617
 40
1.0
 40
1.0
 40
1.0
 40
1.0
 10
42.29849520496587
 20
-3.328059458121514
 30
0.0
 10
42.295617491771
 20
-3.328503964361134
 30
0.0
 10
41.75615734700084
 20
-3.411831726420026
 30
0.0
 10
40.68011944001089
 20
-3.415882939513229
 30
0.0
 10
39.07038035166433
 20
-3.318528045018772
 30
0.0
 10
37.4606417267515
 20
-3.021310577921341
 30
0.0
 10
35.8508948127739
 20
-2.567425516363484
 30
0.0
 10
34.24113134688426
 20
-1.974069629212561
 30
0.0
 10
32.63134300385295
 20
-1.274710752507671
 30
0.0
 10
31.02152126120561
 20
-0.5078353609826879
 30
0.0
 10
29.42337436536703
 20
0.284686634991689
 30
0.0
 10
28.36182992866171
 20
0.7907402783105223
 30
0.0
 10
27.83690842884914
 20
1.040977977507554
 30
0.0
  0
SPLINE
  5
B5
330
1F
100
AcDbEntity
  8
0
  6
Continuous
 62
     1
370
    15
100
AcDbSpline
210
0.0
220
0.0
230
1.0
 70
     8
 71
     3
 72
    18
 73
    14
 74
     0
 42
0.000000001
 43
0.00000001
 40
0.0
 40
0.0
 40
0.0
 40
0.0
 40
0.0941148603755544
 40
0.1882542440539534
 40
0.2824121602594697
 40
0.3765825670516882
 40
0.4707593879114862
 40
0.5649365285335433
 40
0.659107893725311
 40
0.7532674043113058
 40
0.8474090139415021
 40
0.9415267257036164
 40
1.0
 40
1.0
 40
1.0
 40
1.0
 10
60.00000000000002
 20
-3.795763476927594
 30
0.0
 10
59.38697642455013
 20
-3.658168363205802
 30
0.0
 10
58.1607695394412
 20
-3.382942282905078
 30
0.0
 10
56.32113105472779
 20
-2.66167245585361
 30
0.0
 10
54.48106689808198
 20
-1.772836902224871
 30
0.0
 10
52.64070779856813
 20
-0.7544987061710897
 30
0.0
 10
50.80019897446928
 20
0.3153454079494341
 30
0.0
 10
48.9596826529725
 20
1.363671136601375
 30
0.0
 10
47.119301110233
 20
2.315395972930579
 30
0.0
 10
45.27919954622363
 20
3.107904435715116
 30
0.0
 10
43.43950909897202
 20
3.670652955855458
 30
0.0
 10
41.8323891372326
 20
3.975976334608707
 30
0.0
 10
40.83847132663237
 20
3.969399399158433
 30
0.0
 10
40.45759936120049
 20
3.966879099889471
 30
0.0
  0
SPLINE
  5
B6
330
1F
100
AcDbEntity
  8
0
  6
Continuous
 62
     1
370
    15
100
AcDbSpline
210
0.0
220
0.0
230
1.0
 70
     8
 71
     3
 72
    15
 73
    11
 74
     0
 42
0.000000001
 43
0.00000001
 40
0.0
 40
0.0
 40
0.0
 40
0.0
 40
0.0072654584836844
 40
0.1455845375152339
 40
0.2879411651885036
 40
0.4303436380339011
 40
0.5727714189824729
 40
0.7152038482362598
 40
0.8576202434250617
 40
1.0
 40
1.0
 40
1.0
 40
1.0
 10
23.29703641661725
 20
-3.143350638332099
 30
0.0
 10
23.26483701378255
 20
-3.156520366493668
 30
0.0
 10
22.61962856885324
 20
-3.420414075047514
 30
0.0
 10
21.3436102094952
 20
-3.740870453171085
 30
0.0
 10
19.46842155331709
 20
-4.028867652953966
 30
0.0
 10
17.57493765083982
 20
-3.996306549858093
 30
0.0
 10
15.68103973359158
 20
-3.674095149781389
 30
0.0
 10
13.78707333671012
 20
-3.075649071068298
 30
0.0
 10
11.89335082903844
 20
-2.256067659409851
 30
0.0
 10
10.63106281250055
 20
-1.581388284733633
 30
0.0
 10
9.999999999997298
 20
-1.2440919956594
 30
0.0
  0
SPLINE
  5
B7
330
1F
100
AcDbEntity
  8
0
  6
Continuous
 62
   131
370
    15
100
AcDbSpline
210
0.0
220
0.0
230
1.0
 70
    24
 71
     3
 72
     8
 73
     4
 74
     0
 42
0.000000001
 43
0.00000001
 40
0.0
 40
0.0
 40
0.0
 40
0.0
 40
1.0
 40
1.0
 40
1.0
 40
1.0
 10
10.00000000000005
 20
-0.8607948653109223
 30
0.0
 10
10.00000000000005
 20
-0.9742388485897547
 30
0.0
 10
10.00000000000005
 20
-1.102762162759166
 30
0.0
 10
10.00000000000005
 20
-1.24409199565253
 30
0.0
  0
SPLINE
  5
B8
330
1F
100
AcDbEntity
  8
0
  6
Continuous
 62
     1
370
    15
100
AcDbSpline
210
0.0
220
0.0
230
1.0
 70
     8
 71
     3
 72
    14
 73
    10
 74
     0
 42
0.000000001
 43
0.00000001
 40
0.0
 40
0.0
 40
0.0
 40
0.0
 40
0.1549296913405346
 40
0.3098510506534022
 40
0.4647647589981757
 40
0.6196715006007164
 40
0.7745719625747846
 40
0.929466834641115
 40
1.0
 40
1.0
 40
1.0
 40
1.0
 10
60.00000000000001
 20
-3.155889057472855
 30
0.0
 10
59.46320346075742
 20
-3.041420585393469
 30
0.0
 10
58.38963925087436
 20
-2.812489797281792
 30
0.0
 10
56.77935042330756
 20
-2.272353315686791
 30
0.0
 10
55.16915193451509
 20
-1.622468745824107
 30
0.0
 10
53.55903674996592
 20
-0.8812477140553591
 30
0.0
 10
51.94899684136399
 20
-0.0967401646113186
 30
0.0
 10
50.63128948754999
 20
0.5595736763991601
 30
0.0
 10
49.85026355592769
 20
0.9194375355208144
 30
0.0
 10
49.60589186279717
 20
1.032033720857941
 30
0.0
  0
SPLINE
  5
B9
330
1F
100
AcDbEntity
  8
0
  6
Continuous
 62
     1
370
    15
100
AcDbSpline
210
0.0
220
0.0
230
1.0
 70
     8
 71
     3
 72
    14
 73
    10
 74
     0
 42
0.000000001
 43
0.00000001
 40
0.0
 40
0.0
 40
0.0
 40
0.0
 40
0.0748072236459419
 40
0.2275999456703633
 40
0.3803932737952929
 40
0.5331783721950932
 40
0.6859559008297113
 40
0.8387265343807233
 40
1.0
 40
1.0
 40
1.0
 40
1.0
 10
20.53960554790072
 20
-3.305502866759951
 30
0.0
 10
20.27679378222016
 20
-3.336384042863497
 30
0.0
 10
19.47719261170311
 20
-3.43033959502608
 30
0.0
 10
18.1407838719406
 20
-3.391259037501845
 30
0.0
 10
16.53042149929971
 20
-3.197257253136223
 30
0.0
 10
14.92013072727741
 20
-2.822092616134452
 30
0.0
 10
13.30992340188792
 20
-2.296834077937981
 30
0.0
 10
11.66993349392402
 20
-1.63887592997488
 30
0.0
 10
10.56660216636024
 20
-1.124794850008823
 30
0.0
 10
10.00000000000002
 20
-0.8607948653109088
 30
0.0
  0
LINE
  5
BA
330
1F
100
AcDbEntity
  8
0
  6
Continuous
 62
     1
370
    15
100
AcDbLine
 10
59.99999999999971
 20
-3.795763476927597
 30
0.0
 11
60.00000000000001
 21
-3.155889057472855
 31
0.0
  0
LINE
  5
BB
330
1F
100
AcDbEntity
  8
0
  6
Continuous
 62
   131
370
    15
100
AcDbLine
 10
9.999999999999998
 20
-2.245635386388456
 30
0.0
 11
9.999999999999998
 21
-1.244091995650449
 31
0.0
  0
LINE
  5
BC
330
1F
100
AcDbEntity
  8
0
  6
Continuous
 62
     1
370
    15
100
AcDbLine
 10
59.99999999999983
 20
-3.999999999999807
 30
0.0
 11
59.99999999999995
 21
-3.795763476927583
 31
0.0
  0
SPLINE
  5
BD
330
1F
100
AcDbEntity
  8
0
  6
Continuous
 62
     1
370
    15
100
AcDbSpline
210
0.0
220
0.0
230
1.0
 70
     8
 71
     3
 72
     8
 73
     4
 74
     0
 42
0.000000001
 43
0.00000001
 40
0.0
 40
0.0
 40
0.0
 40
0.0
 40
1.0
 40
1.0
 40
1.0
 40
1.0
 10
57.52471855126645
 20
1.119153604316255
 30
0.0
 10
57.3455434113424
 20
1.331446846975084
 30
0.0
 10
57.19000160100912
 20
1.534373798641816
 30
0.0
 10
57.0672227005149
 20
1.723135374418817
 30
0.0
  0
LINE
  5
BE
330
1F
100
AcDbEntity
  8
0
  6
Continuous
 62
     1
370
    15
100
AcDbLine
 10
57.06722270051489
 20
1.72313537441882
 30
0.0
 11
60.00000000000001
 21
0.0000000000000111
 31
0.0
  0
LINE
  5
BF
330
1F
100
AcDbEntity
  8
0
  6
Continuous
 62
     1
370
    15
100
AcDbLine
 10
60.00000000000001
 20
0.0000000000000111
 30
0.0
 11
60.00000000000001
 21
-1.068971784118568
 31
0.0
  0
SPLINE
  5
C0
330
1F
100
AcDbEntity
  8
0
  6
Continuous
 62
     1
370
    15
100
AcDbSpline
210
0.0
220
0.0
230
1.0
 70
     8
 71
     3
 72
    10
 73
     6
 74
     0
 42
0.000000001
 43
0.00000001
 40
0.0
 40
0.0
 40
0.0
 40
0.0
 40
0.5
 40
0.5
 40
1.0
 40
1.0
 40
1.0
 40
1.0
 10
60.00000000000001
 20
-1.068971784118569
 30
0.0
 10
59.57151703976611
 20
-0.7321110804059818
 30
0.0
 10
59.15019312186778
 20
-0.3814365541725905
 30
0.0
 10
58.32222625634824
 20
0.3482403539400285
 30
0.0
 10
57.91171971060778
 20
0.7310712194783435
 30
0.0
 10
57.52471855127824
 20
1.119153604304421
 30
0.0
  0
SPLINE
  5
C1
330
1F
100
AcDbEntity
  8
0
  6
Continuous
 62
     1
370
    15
100
AcDbSpline
210
0.0
220
0.0
230
1.0
 70
     8
 71
     3
 72
    12
 73
     8
 74
     0
 42
0.000000001
 43
0.00000001
 40
0.0
 40
0.0
 40
0.0
 40
0.0
 40
0.2152066830532727
 40
0.4303358324010888
 40
0.6630574550434873
 40
0.8960288071409558
 40
1.0
 40
1.0
 40
1.0
 40
1.0
 10
57.52471855126645
 20
1.119153604316254
 30
0.0
 10
56.86362912128676
 20
1.395999284879202
 30
0.0
 10
55.54168843568343
 20
1.949590905276096
 30
0.0
 10
53.50496112249985
 20
2.618800970466129
 30
0.0
 10
51.41383348287405
 20
3.064237546338559
 30
0.0
 10
49.66373312705748
 20
3.249400044502099
 30
0.0
 10
48.62856057185428
 20
3.166315379490931
 30
0.0
 10
48.30913482111297
 20
3.14067773930922
 30
0.0
  0
SPLINE
  5
C2
330
1F
100
AcDbEntity
  8
0
  6
Continuous
 62
     1
370
    15
100
AcDbSpline
210
0.0
220
0.0
230
1.0
 70
     8
 71
     3
 72
    16
 73
    12
 74
     0
 42
0.000000001
 43
0.00000001
 40
0.0
 40
0.0
 40
0.0
 40
0.0
 40
0.0993877622546461
 40
0.208051948925967
 40
0.3167088407056189
 40
0.4252312418265771
 40
0.5338373394812216
 40
0.6425165339564022
 40
0.7511212198592573
 40
0.875493242415677
 40
1.0
 40
1.0
 40
1.0
 40
1.0
 10
29.76600948111695
 20
-2.996196988157622
 30
0.0
 10
29.11130028442324
 20
-3.080716729657596
 30
0.0
 10
27.74077416267718
 20
-3.257644920240402
 30
0.0
 10
25.65397469953324
 20
-3.15017661621216
 30
0.0
 10
23.50699387890023
 20
-2.7651893625908
 30
0.0
 10
21.36102428139321
 20
-2.109284501206596
 30
0.0
 10
19.21449935412872
 20
-1.255127780480037
 30
0.0
 10
17.06712237506139
 20
-0.2799698230349256
 30
0.0
 10
14.81638424543765
 20
0.7655290657058706
 30
0.0
 10
12.46076373808049
 20
1.801919923285678
 30
0.0
 10
10.82055056571333
 20
2.315240070861278
 30
0.0
 10
9.999999999999998
 20
2.572039092221001
 30
0.0
  0
SPLINE
  5
C3
330
1F
100
AcDbEntity
  8
0
  6
Continuous
 62
     1
370
    15
100
AcDbSpline
210
0.0
220
0.0
230
1.0
 70
    24
 71
     3
 72
    10
 73
     6
 74
     0
 42
0.000000001
 43
0.00000001
 40
0.0
 40
0.0
 40
0.0
 40
0.0
 40
0.5
 40
0.5
 40
1.0
 40
1.0
 40
1.0
 40
1.0
 10
60.00000000000001
 20
-3.155889057472853
 30
0.0
 10
59.99999999999999
 20
-2.91396555601521
 30
0.0
 10
59.99999999999999
 20
-2.608285935625864
 30
0.0
 10
59.99999999999999
 20
-1.897610236602709
 30
0.0
 10
60.00000000000001
 20
-1.493229772205229
 30
0.0
 10
60.00000000000001
 20
-1.068971784118697
 30
0.0
  0
SPLINE
  5
C4
330
1F
100
AcDbEntity
  8
0
  6
Continuous
 62
   131
370
    15
100
AcDbSpline
210
0.0
220
0.0
230
1.0
 70
    24
 71
     3
 72
    14
 73
    10
 74
     0
 42
0.000000001
 43
0.00000001
 40
0.0
 40
0.0
 40
0.0
 40
0.0
 40
0.2499999999999998
 40
0.2499999999999998
 40
0.4999999999999999
 40
0.4999999999999999
 40
0.75
 40
0.75
 40
1.0
 40
1.0
 40
1.0
 40
1.0
 10
9.999999999999998
 20
2.572039092221001
 30
0.0
 10
9.999999999999998
 20
2.361077362825728
 30
0.0
 10
9.999999999999998
 20
2.121172407718237
 30
0.0
 10
9.999999999999998
 20
1.594783934659763
 30
0.0
 10
9.999999999999998
 20
1.308392102308769
 30
0.0
 10
9.999999999999998
 20
0.7084193154119698
 30
0.0
 10
9.999999999999998
 20
0.3950116147941865
 30
0.0
 10
9.999999999999998
 20
-0.2356362709772862
 30
0.0
 10
9.999999999999998
 20
-0.5527026723131896
 30
0.0
 10
9.999999999999998
 20
-0.860794865310899
 30
0.0
  0
SPLINE
  5
C5
330
1F
100
AcDbEntity
  8
0
  6
Continuous
 62
     1
370
    15
100
AcDbSpline
210
0.0
220
0.0
230
1.0
 70
     8
 71
     3
 72
    20
 73
    16
 74
     0
 42
0.000000001
 43
0.00000001
 40
0.0
 40
0.0
 40
0.0
 40
0.0
 40
0.0046293506300039
 40
0.0905578151766915
 40
0.1765232989010704
 40
0.2624090878434252
 40
0.3482701294715088
 40
0.4342299344474301
 40
0.5201735491681746
 40
0.6060122583619977
 40
0.691931762642279
 40
0.777898691372506
 40
0.8637962974950594
 40
0.9496476740514204
 40
1.0
 40
1.0
 40
1.0
 40
1.0
 10
51.5301786508782
 20
-3.000899988153752
 30
0.0
 10
51.49162609901222
 20
-3.009312956503555
 30
0.0
 10
50.73747391968859
 20
-3.173884641346555
 30
0.0
 10
49.26711201231531
 20
-3.23133379282565
 30
0.0
 10
47.11985223490976
 20
-3.122769055414558
 30
0.0
 10
44.97352460939658
 20
-2.685888570869818
 30
0.0
 10
42.82741112085106
 20
-2.001080754083793
 30
0.0
 10
40.68026953260765
 20
-1.124188479925425
 30
0.0
 10
38.53337215438512
 20
-0.1409779090281122
 30
0.0
 10
36.38744528401786
 20
0.8572665193081352
 30
0.0
 10
34.24080999627859
 20
1.771845085417328
 30
0.0
 10
32.09350154345332
 20
2.521289485703334
 30
0.0
 10
29.94706419293378
 20
3.017464275545988
 30
0.0
 10
28.09754633517417
 20
3.240916203014553
 30
0.0
 10
26.96301011332807
 20
3.168127902639589
 30
0.0
 10
26.54359025474682
 20
3.14121923453205
 30
0.0
  0
SPLINE
  5
C6
330
1F
100
AcDbEntity
  8
0
  6
Continuous
 62
   131
370
    15
100
AcDbSpline
210
0.0
220
0.0
230
1.0
 70
    24
 71
     3
 72
    11
 73
     7
 74
     0
 42
0.000000001
 43
0.00000001
 40
0.0
 40
0.0
 40
0.0
 40
0.0
 40
0.1066807219113546
 40
0.4958507549268035
 40
0.896306745263953
 40
1.0
 40
1.0
 40
1.0
 40
1.0
 10
9.999999999999998
 20
-2.348318642223208
 30
0.0
 10
9.999999999999998
 20
-2.379434947094064
 30
0.0
 10
9.999999999999995
 20
-2.524063170303572
 30
0.0
 10
9.999999999999998
 20
-2.663490003164812
 30
0.0
 10
9.999999999999995
 20
-2.764005184975249
 30
0.0
 10
9.999999999999998
 20
-2.746968326256806
 30
0.0
 10
9.999999999999998
 20
-2.743464190629792
 30
0.0
  0
SPLINE
  5
C7
330
1F
100
AcDbEntity
  8
0
  6
Continuous
 62
     1
370
    15
100
AcDbSpline
210
0.0
220
0.0
230
1.0
 70
     8
 71
     3
 72
    10
 73
     6
 74
     0
 42
0.000000001
 43
0.00000001
 40
0.0
 40
0.0
 40
0.0
 40
0.0
 40
0.5
 40
0.5
 40
1.0
 40
1.0
 40
1.0
 40
1.0
 10
60.00000000000001
 20
2.800000000000012
 30
0.0
 10
59.50223746009663
 20
2.664946022532469
 30
0.0
 10
59.00821511501304
 20
2.510120649931901
 30
0.0
 10
58.02867820086085
 20
2.155496150848272
 30
0.0
 10
57.54303221981856
 20
1.956264825614537
 30
0.0
 10
57.06722270051288
 20
1.723135374420449
 30
0.0
  0
SPLINE
  5
C8
330
1F
100
AcDbEntity
  8
0
  6
Continuous
 62
   131
370
    15
100
AcDbSpline
210
0.0
220
0.0
230
1.0
 70
    24
 71
     3
 72
     9
 73
     5
 74
     0
 42
0.000000001
 43
0.00000001
 40
0.0
 40
0.0
 40
0.0
 40
0.0
 40
0.4153865096725333
 40
1.0
 40
1.0
 40
1.0
 40
1.0
 10
9.999999999999998
 20
2.743460649341354
 30
0.0
 10
9.999999999999998
 20
2.742827885533136
 30
0.0
 10
9.999999999999998
 20
2.741304572200893
 30
0.0
 10
9.999999999999995
 20
2.634486423161335
 30
0.0
 10
9.999999999999995
 20
2.572039092221
 30
0.0
  0
LINE
  5
C9
330
1F
100
AcDbEntity
  8
0
  6
Continuous
 62
     1
370
    15
100
AcDbLine
 10
60.00000000000001
 20
0.0000000000000111
 30
0.0
 11
60.00000000000001
 21
2.80000000000001
 31
0.0
  0
SPLINE
  5
CA
330
1F
100
AcDbEntity
  8
0
  6
Continuous
 62
   131
370
    15
100
AcDbSpline
210
0.0
220
0.0
230
1.0
 70
     8
 71
     3
 72
    10
 73
     6
 74
     0
 42
0.000000001
 43
0.00000001
 40
0.0
 40
0.0
 40
0.0
 40
0.0
 40
0.5
 40
0.5
 40
1.0
 40
1.0
 40
1.0
 40
1.0
 10
9.999999999999998
 20
-1.244091995660882
 30
0.0
 10
9.747189140346952
 20
-1.105173327986753
 30
0.0
 10
9.495872423482524
 20
-0.9640415450229224
 30
0.0
 10
8.98806484485296
 20
-0.6775142005549135
 30
0.0
 10
8.733234945565915
 20
-0.5324237366081174
 30
0.0
 10
8.479775583016469
 20
-0.3868163709397635
 30
0.0
  0
SPLINE
  5
CB
330
1F
100
AcDbEntity
  8
0
  6
Continuous
 62
   131
370
    15
100
AcDbSpline
210
0.0
220
0.0
230
1.0
 70
     8
 71
     3
 72
    10
 73
     6
 74
     0
 42
0.000000001
 43
0.00000001
 40
0.0
 40
0.0
 40
0.0
 40
0.0
 40
0.5000000000000001
 40
0.5000000000000001
 40
1.0
 40
1.0
 40
1.0
 40
1.0
 10
8.479890380589497
 20
-1.471378493160493
 30
0.0
 10
8.73333102328878
 20
-1.607404310494443
 30
0.0
 10
8.98814165049968
 20
-1.740713746562077
 30
0.0
 10
9.495910616574543
 20
-1.999485339842428
 30
0.0
 10
9.747208224306593
 20
-2.124684638391047
 30
0.0
 10
9.999999999999998
 20
-2.245635386388451
 30
0.0
  0
LINE
  5
CC
330
1F
100
AcDbEntity
  8
0
  6
Continuous
 62
   131
370
    15
100
AcDbLine
 10
8.479890380589497
 20
-3.999999999999996
 30
0.0
 11
8.479890380589497
 21
-1.471382355499294
 31
0.0
  0
LINE
  5
CD
330
1F
100
AcDbEntity
  8
0
  6
Continuous
 62
   131
370
    15
100
AcDbLine
 10
8.479890380589497
 20
-0.3866457452935728
 30
0.0
 11
8.479890380589497
 21
4.000000000000005
 31
0.0
  0
LINE
  5
CE
330
1F
100
AcDbEntity
  8
0
  6
Continuous
 62
   131
370
    15
100
AcDbLine
 10
-89.19
 20
3.999999999999992
 30
0.0
 11
-89.19
 21
-4.000000000000001
 31
0.0
  0
LINE
  5
CF
330
1F
100
AcDbEntity
  8
0
  6
Continuous
 62
   131
370
    15
100
AcDbLine
 10
-90.0
 20
3.189999999999993
 30
0.0
 11
-90.0
 21
-3.189999999999996
 31
0.0
  0
SPLINE
  5
D0
330
1F
100
AcDbEntity
  8
0
  6
Continuous
 62
   131
370
    15
100
AcDbSpline
210
0.0
220
0.0
230
1.0
 70
    24
 71
     3
 72
     8
 73
     4
 74
     0
 42
0.000000001
 43
0.00000001
 40
0.0
 40
0.0
 40
0.0
 40
0.0
 40
1.0
 40
1.0
 40
1.0
 40
1.0
 10
10.00000000000005
 20
-0.8607948653109223
 30
0.0
 10
10.00000000000005
 20
-0.9742388485897435
 30
0.0
 10
10.00000000000005
 20
-1.102762162759141
 30
0.0
 10
10.00000000000005
 20
-1.244091995652488
 30
0.0
  0
SPLINE
  5
D1
330
1F
100
AcDbEntity
  8
0
  6
Continuous
 62
   131
370
    15
100
AcDbSpline
210
0.0
220
0.0
230
1.0
 70
     8
 71
     3
 72
    10
 73
     6
 74
     0
 42
0.000000001
 43
0.00000001
 40
0.0
 40
0.0
 40
0.0
 40
0.0
 40
0.5000000000000001
 40
0.5000000000000001
 40
1.0
 40
1.0
 40
1.0
 40
1.0
 10
10.00000000000002
 20
-0.8607948653109088
 30
0.0
 10
9.747189140346968
 20
-0.7405996147422503
 30
0.0
 10
9.495872423482535
 20
-0.618920300446307
 30
0.0
 10
8.988064844852968
 20
-0.372737267730024
 30
0.0
 10
8.733234945565918
 20
-0.2484980377920358
 30
0.0
 10
8.479775583016469
 20
-0.1242320108713155
 30
0.0
  0
SPLINE
  5
D2
330
1F
100
AcDbEntity
  8
0
  6
Continuous
 62
   131
370
    15
100
AcDbSpline
210
0.0
220
0.0
230
1.0
 70
     8
 71
     3
 72
    10
 73
     6
 74
     0
 42
0.000000001
 43
0.00000001
 40
0.0
 40
0.0
 40
0.0
 40
0.0
 40
0.5
 40
0.5
 40
1.0
 40
1.0
 40
1.0
 40
1.0
 10
9.999999999999998
 20
2.572039092220998
 30
0.0
 10
9.74720125514346
 20
2.641606084102892
 30
0.0
 10
9.495896669059844
 20
2.705898685509038
 30
0.0
 10
8.98811360228368
 20
2.823806930138995
 30
0.0
 10
8.733295937206924
 20
2.877262209744528
 30
0.0
 10
8.479848458292329
 20
2.924746850592568
 30
0.0
  0
SPLINE
  5
D3
330
1F
100
AcDbEntity
  8
0
  6
Continuous
 62
   131
370
    15
100
AcDbSpline
210
0.0
220
0.0
230
1.0
 70
    24
 71
     3
 72
    14
 73
    10
 74
     0
 42
0.000000001
 43
0.00000001
 40
0.0
 40
0.0
 40
0.0
 40
0.0
 40
0.2499999999999998
 40
0.2499999999999998
 40
0.4999999999999999
 40
0.4999999999999999
 40
0.75
 40
0.75
 40
1.0
 40
1.0
 40
1.0
 40
1.0
 10
9.999999999999998
 20
2.572039092221001
 30
0.0
 10
9.999999999999998
 20
2.361077362825728
 30
0.0
 10
9.999999999999998
 20
2.121172407718237
 30
0.0
 10
9.999999999999998
 20
1.594783934659763
 30
0.0
 10
9.999999999999998
 20
1.308392102308769
 30
0.0
 10
9.999999999999998
 20
0.7084193154119698
 30
0.0
 10
9.999999999999998
 20
0.3950116147941865
 30
0.0
 10
9.999999999999998
 20
-0.2356362709772862
 30
0.0
 10
9.999999999999998
 20
-0.5527026723131896
 30
0.0
 10
9.999999999999998
 20
-0.860794865310899
 30
0.0
  0
SPLINE
  5
D4
330
1F
100
AcDbEntity
  8
0
  6
Continuous
 62
   131
370
    15
100
AcDbSpline
210
0.0
220
0.0
230
1.0
 70
    24
 71
     3
 72
    11
 73
     7
 74
     0
 42
0.000000001
 43
0.00000001
 40
0.0
 40
0.0
 40
0.0
 40
0.0
 40
0.1063097425277371
 40
0.4940834683940105
 40
0.8931026585800654
 40
1.0
 40
1.0
 40
1.0
 40
1.0
 10
9.999999999999998
 20
-2.348308642223207
 30
0.0
 10
9.999999999999998
 20
-2.379427519241459
 30
0.0
 10
9.999999999999998
 20
-2.524055117090198
 30
0.0
 10
9.999999999999998
 20
-2.66358971629162
 30
0.0
 10
9.999999999999998
 20
-2.764154686337274
 30
0.0
 10
9.999999999999998
 20
-2.746862157985323
 30
0.0
 10
9.999999999999998
 20
-2.743208343192229
 30
0.0
  0
SPLINE
  5
D5
330
1F
100
AcDbEntity
  8
0
  6
Continuous
 62
   131
370
    15
100
AcDbSpline
210
0.0
220
0.0
230
1.0
 70
    24
 71
     3
 72
    10
 73
     6
 74
     0
 42
0.000000001
 43
0.00000001
 40
0.0
 40
0.0
 40
0.0
 40
0.0
 40
0.1253413701843866
 40
0.704836686285015
 40
1.0
 40
1.0
 40
1.0
 40
1.0
 10
9.999999999999998
 20
2.751525222008624
 30
0.0
 10
9.999999999999995
 20
2.752153095401255
 30
0.0
 10
9.999999999999998
 20
2.75568383868911
 30
0.0
 10
9.999999999999998
 20
2.699751719717022
 30
0.0
 10
9.999999999999998
 20
2.604262869987729
 30
0.0
 10
9.999999999999998
 20
2.572039092221
 30
0.0
  0
LINE
  5
D6
330
1F
100
AcDbEntity
  8
중심선
100
AcDbLine
 10
-93.0
 20
0.0
 30
0.0
 11
63.0
 21
0.0000000000000113
 31
0.0
  0
CIRCLE
  5
D7
330
1F
100
AcDbEntity
  8
외형선
100
AcDbCircle
 10
0.0000000000000104
 20
0.0
 30
0.0
 40
3.000000000000005
  0
INSERT
  5
D8
330
1F
100
AcDbEntity
  8
0
  6
Continuous
 62
     7
100
AcDbBlockReference
 66
     1
  2
블럭10
 10
-22.93944368806589
 20
-52.04609937292004
 30
0.0
  0
ATTRIB
  5
D9
330
D8
100
AcDbEntity
  8
FORMAT
 62
     2
100
AcDbText
 10
-43.79769121965843
 20
-49.97073246008785
 30
0.0
 40
4.233333333333333
  1
SEME7008050150E [ 2 FLUTE ]
 41
0.75
  7
SLDTEXTSTYLE0
 11
-43.79769121965843
 21
-52.08739912675452
 31
0.0
100
AcDbAttribute
  2
AUTOATTR0
 70
     0
 74
     1
  0
SEQEND
  5
DA
330
D8
100
AcDbEntity
  8
0
  6
Continuous
 62
     7
  0
HATCH
  5
DB
330
1F
100
AcDbEntity
  8
중심선
100
AcDbHatch
 10
0.0
 20
0.0
 30
0.0
210
0.0
220
0.0
230
1.0
  2
SOLID
 70
     1
 71
     0
 91
        1
 92
        0
 93
        4
 72
     1
 10
-17.22453438368504
 20
-35.7989250712761
 11
-20.67080962752232
 21
-35.7989250712761
 72
     1
 10
-20.67080962752232
 20
-35.7989250712761
 11
-22.79903948672635
 21
-38.3352506518487
 72
     1
 10
-22.79903948672635
 20
-38.3352506518487
 11
-19.35273115777591
 21
-38.33521122254621
 72
     1
 10
-19.35273115777591
 20
-38.33521122254621
 11
-17.22453438368504
 21
-35.7989250712761
 97
        0
 75
     0
 76
     1
 98
        1
 10
0.0
 20
0.0
  0
HATCH
  5
DC
330
1F
100
AcDbEntity
  8
중심선
100
AcDbHatch
 10
0.0
 20
0.0
 30
0.0
210
0.0
220
0.0
230
1.0
  2
SOLID
 70
     1
 71
     0
 91
        1
 92
        0
 93
        4
 72
     1
 10
-12.21177039264909
 20
-35.7989250712761
 11
-15.65804563648637
 21
-35.7989250712761
 72
     1
 10
-15.65804563648637
 20
-35.7989250712761
 11
-20.18918364484376
 21
-41.19892507127612
 72
     1
 10
-20.18918364484376
 20
-41.19892507127612
 11
-16.74290840100648
 21
-41.19892507127612
 72
     1
 10
-16.74290840100648
 20
-41.19892507127612
 11
-12.21177039264909
 21
-35.7989250712761
 97
        0
 75
     0
 76
     1
 98
        1
 10
0.0
 20
0.0
  0
HATCH
  5
DD
330
1F
100
AcDbEntity
  8
중심선
100
AcDbHatch
 10
0.0
 20
0.0
 30
0.0
210
0.0
220
0.0
230
1.0
  2
SOLID
 70
     1
 71
     0
 91
        1
 92
        0
 93
        4
 72
     1
 10
-7.199006401613195
 20
-35.79892507127613
 11
-10.64528164545031
 21
-35.7989250712761
 72
     1
 10
-10.64528164545031
 20
-35.7989250712761
 11
-17.69371854733956
 21
-44.19892507127612
 72
     1
 10
-17.69371854733956
 20
-44.19892507127612
 11
-14.24744330350228
 21
-44.19892507127612
 72
     1
 10
-14.24744330350228
 20
-44.19892507127612
 11
-7.199006401613195
 21
-35.79892507127613
 97
        0
 75
     0
 76
     1
 98
        1
 10
0.0
 20
0.0
  0
HATCH
  5
DE
330
1F
100
AcDbEntity
  8
중심선
100
AcDbHatch
 10
0.0
 20
0.0
 30
0.0
210
0.0
220
0.0
230
1.0
  2
SOLID
 70
     1
 71
     0
 91
        1
 92
        0
 93
        6
 72
     3
 10
-2.399115970600996
 20
-39.99892507132738
 11
3.960054785062284
 21
1.540850780301639E-10
 40
0.3939339440162633
 50
17.09539180608433
 51
320.0019657685079
 73
     0
 72
     1
 10
-0.7161163149004002
 20
-38.58681907591441
 11
1.589185558800638
 21
-36.65249236586649
 72
     3
 10
-2.399115970653842
 20
-39.99892507127625
 11
6.600054785286829
 21
-1.249000902703301E-13
 40
0.6363583540795982
 50
39.99873849337408
 51
368.4976242363725
 73
     1
 72
     1
 10
4.026216521246767
 20
-39.03892507120613
 11
-3.71904866381792
 21
-39.0389250712061
 72
     1
 10
-3.71904866381792
 20
-39.0389250712061
 11
-3.719073708263854
 21
-40.95892507120602
 72
     1
 10
-3.719073708263854
 20
-40.95892507120602
 11
0.7223060612081831
 21
-40.95892507120599
 97
        0
 75
     0
 76
     1
 98
        1
 10
0.0
 20
0.0
  0
DIMENSION
  5
DF
330
1F
100
AcDbEntity
  8
치수문자_일반주서
100
AcDbDimension
  2
_D
 10
75.14977000991281
 20
4.062500000000242
 30
0.0
 11
75.14977000991279
 21
13.72900000000024
 31
0.0
 70
   160
  1
%%c<>
 71
     2
 42
7.999999999999989
 52
-270.0
  3
SLDDIMSTYLE0
100
AcDbAlignedDimension
 13
59.99999999999971
 23
-3.937499999999806
 33
0.0
 14
59.99999999999971
 24
4.062500000000184
 34
0.0
 50
90.0000000000002
100
AcDbRotatedDimension
  0
DIMENSION
  5
ED
330
1F
100
AcDbEntity
  8
치수문자_일반주서
100
AcDbDimension
  2
_D_1
 10
59.99999999999972
 20
24.97841044024269
 30
0.0
 11
-15.00000000000015
 21
24.97841044024269
 31
0.0
 70
   160
  1
<>
 71
     2
 42
149.9999999999997
  3
SLDDIMSTYLE1
100
AcDbAlignedDimension
 13
-90.0
 23
3.189999999999993
 33
0.0
 14
59.99999999999971
 24
4.000000000000184
 34
0.0
 50
-0.0000000000000027
100
AcDbRotatedDimension
  0
DIMENSION
  5
F8
330
1F
100
AcDbEntity
  8
치수문자_일반주서
100
AcDbDimension
  2
_D_2
 10
59.99999999999971
 20
15.91903689838852
 30
0.0
 11
35.00000000000001
 21
15.91903689838852
 31
0.0
 70
   160
  1
<>
 71
     2
 42
49.99999999999972
  3
SLDDIMSTYLE1
100
AcDbAlignedDimension
 13
9.999999999999988
 23
2.755176151671661
 33
0.0
 14
59.99999999999971
 24
4.000000000000184
 34
0.0
 50
-0.000000000000002
100
AcDbRotatedDimension
  0
DIMENSION
  5
102
330
1F
100
AcDbEntity
  8
치수문자_일반주서
100
AcDbDimension
  2
_D_3
 10
-100.6995453446363
 20
-4.000000000000039
 30
0.0
 11
-100.6995453446364
 21
14.8589343794368
 31
0.0
 70
   160
  1
%%c<>
 71
     2
 42
7.999999999999988
 52
-270.0
  3
SLDDIMSTYLE0
100
AcDbAlignedDimension
 13
-89.19
 23
3.999999999999992
 33
0.0
 14
-89.19
 24
-3.999999999999996
 34
0.0
 50
90.0000000000002
100
AcDbRotatedDimension
  0
INSERT
  5
115
330
1F
100
AcDbEntity
  8
외형선
100
AcDbBlockReference
  2
SW_DOWELSYMBOL_0
 10
0.0000000000000104
 20
0.0
 30
0.0
  0
ENDSEC
  0
SECTION
  2
OBJECTS
  0
DICTIONARY
  5
C
330
0
100
AcDbDictionary
281
     1
  3
ACAD_GROUP
350
D
  3
ACAD_IMAGE_VARS
350
139
  3
ACAD_LAYOUT
350
1A
  3
ACAD_MLINESTYLE
350
17
  3
ACAD_PLOTSETTINGS
350
19
  3
ACAD_PLOTSTYLENAME
350
E
  3
ACAD_SCALELIST
350
47
  3
APPDATA
350
137
  3
DWGPROPS
350
149
  0
DICTIONARY
  5
D
102
{ACAD_REACTORS
330
C
102
}
330
C
100
AcDbDictionary
281
     1
  0
RASTERVARIABLES
  5
139
102
{ACAD_REACTORS
330
C
102
}
330
C
100
AcDbRasterVariables
 90
        0
 70
     1
 71
     1
 72
     1
  0
DICTIONARY
  5
1A
102
{ACAD_REACTORS
330
C
102
}
330
C
100
AcDbDictionary
281
     1
  3
Layout1
350
1E
  3
Layout2
350
26
  3
Model
350
22
  0
DICTIONARY
  5
17
102
{ACAD_REACTORS
330
C
102
}
330
C
100
AcDbDictionary
281
     1
  3
Standard
350
18
  0
DICTIONARY
  5
19
102
{ACAD_REACTORS
330
C
102
}
330
C
100
AcDbDictionary
281
     1
  0
ACDBDICTIONARYWDFLT
  5
E
102
{ACAD_REACTORS
330
C
102
}
330
C
100
AcDbDictionary
281
     1
  3
Normal
350
F
100
AcDbDictionaryWithDefault
340
F
  0
DICTIONARY
  5
47
102
{ACAD_REACTORS
330
C
102
}
330
C
100
AcDbDictionary
281
     1
  3
A0
350
48
  3
A1
350
49
  3
A2
350
4A
  3
A3
350
4B
  3
A4
350
4C
  3
A5
350
4D
  3
A6
350
4E
  3
A7
350
4F
  3
A8
350
50
  3
A9
350
51
  3
B0
350
52
  3
B1
350
53
  3
B2
350
54
  3
B3
350
55
  3
B4
350
56
  3
B5
350
57
  3
B6
350
58
  3
B7
350
59
  3
B8
350
5A
  3
B9
350
5B
  3
C0
350
5C
  3
C1
350
5D
  3
C2
350
5E
  3
C3
350
5F
  3
C4
350
60
  3
C5
350
61
  3
C6
350
62
  3
C7
350
63
  3
C8
350
64
  3
C9
350
65
  3
D0
350
66
  3
D1
350
67
  3
D2
350
68
  0
DICTIONARY
  5
137
102
{ACAD_REACTORS
330
C
102
}
330
C
100
AcDbDictionary
281
     1
  0
XRECORD
  5
149
102
{ACAD_REACTORS
330
C
102
}
330
C
100
AcDbXrecord
280
     1
  1
DWGPROPS COOKIE
  2

  3

  4

  6

  7

  8
12014102
  9

300
=
301
=
302
=
303
=
304
=
305
=
306
=
307
=
308
=
309
=
 40
0.0
 41
2458262.169545185
 42
2458266.296047986
  1

 90
        0
  0
LAYOUT
  5
1E
102
{ACAD_REACTORS
330
1A
102
}
330
1A
100
AcDbPlotSettings
  1

  2
none_device
  4

  6

 40
0.0
 41
0.0
 42
0.0
 43
0.0
 44
0.0
 45
0.0
 46
0.0
 47
0.0
 48
0.0
 49
0.0
140
0.0
141
0.0
142
1.0
143
1.0
 70
   688
 72
     1
 73
     0
 74
     5
  7

 75
    16
147
1.0
148
0.0
149
0.0
100
AcDbLayout
  1
Layout1
 70
     1
 71
     1
 10
0.0
 20
0.0
 11
420.0
 21
297.0
 12
0.0
 22
0.0
 32
0.0
 14
1.000000000000000E+20
 24
1.000000000000000E+20
 34
1.000000000000000E+20
 15
-1.000000000000000E+20
 25
-1.000000000000000E+20
 35
-1.000000000000000E+20
146
0.0
 13
0.0
 23
0.0
 33
0.0
 16
1.0
 26
0.0
 36
0.0
 17
0.0
 27
1.0
 37
0.0
 76
     0
330
1B
  0
LAYOUT
  5
26
102
{ACAD_REACTORS
330
1A
102
}
330
1A
100
AcDbPlotSettings
  1

  2
none_device
  4

  6

 40
0.0
 41
0.0
 42
0.0
 43
0.0
 44
0.0
 45
0.0
 46
0.0
 47
0.0
 48
0.0
 49
0.0
140
0.0
141
0.0
142
1.0
143
1.0
 70
   688
 72
     1
 73
     0
 74
     5
  7

 75
    16
147
1.0
148
0.0
149
0.0
100
AcDbLayout
  1
Layout2
 70
     1
 71
     2
 10
0.0
 20
0.0
 11
0.0
 21
0.0
 12
0.0
 22
0.0
 32
0.0
 14
0.0
 24
0.0
 34
0.0
 15
0.0
 25
0.0
 35
0.0
146
0.0
 13
0.0
 23
0.0
 33
0.0
 16
1.0
 26
0.0
 36
0.0
 17
0.0
 27
1.0
 37
0.0
 76
     0
330
23
  0
LAYOUT
  5
22
102
{ACAD_REACTORS
330
1A
102
}
330
1A
100
AcDbPlotSettings
  1

  2
none_device
  4
ANSI_A_(11.00_x_8.50_Inches)
  6

 40
6.35
 41
19.05
 42
6.35000508
 43
19.05000254
 44
279.4
 45
215.9
 46
163.5094552587119
 47
106.5555834064293
 48
0.0
 49
0.0
140
0.0
141
0.0
142
0.0655031024811894
143
1.0
 70
  1696
 72
     0
 73
     0
 74
     0
  7

 75
     0
147
0.0235690232323232
148
0.0
149
0.0
100
AcDbLayout
  1
Model
 70
     1
 71
     0
 10
0.0
 20
0.0
 11
420.0
 21
297.0
 12
0.0
 22
0.0
 32
0.0
 14
-105.0745453446364
 24
-49.97073246008785
 34
0.0
 15
75.70010334324618
 25
29.35341044024269
 35
0.0
146
0.0
 13
0.0
 23
0.0
 33
0.0
 16
1.0
 26
0.0
 36
0.0
 17
0.0
 27
1.0
 37
0.0
 76
     0
330
1F
331
29
  0
MLINESTYLE
  5
18
102
{ACAD_REACTORS
330
17
102
}
330
17
100
AcDbMlineStyle
  2
Standard
 70
     0
  3

 62
   256
 51
90.0
 52
90.0
 71
     2
 49
0.5
 62
   256
  6
BYLAYER
 49
-0.5
 62
   256
  6
BYLAYER
  0
ACDBPLACEHOLDER
  5
F
102
{ACAD_REACTORS
330
E
102
}
330
E
  0
SCALE
  5
48
102
{ACAD_REACTORS
330
47
102
}
330
47
100
AcDbScale
 70
     0
300
1:1
140
1.0
141
1.0
290
     1
  0
SCALE
  5
49
102
{ACAD_REACTORS
330
47
102
}
330
47
100
AcDbScale
 70
     0
300
1:2
140
1.0
141
2.0
290
     0
  0
SCALE
  5
4A
102
{ACAD_REACTORS
330
47
102
}
330
47
100
AcDbScale
 70
     0
300
1:4
140
1.0
141
4.0
290
     0
  0
SCALE
  5
4B
102
{ACAD_REACTORS
330
47
102
}
330
47
100
AcDbScale
 70
     0
300
1:5
140
1.0
141
5.0
290
     0
  0
SCALE
  5
4C
102
{ACAD_REACTORS
330
47
102
}
330
47
100
AcDbScale
 70
     0
300
1:8
140
1.0
141
8.0
290
     0
  0
SCALE
  5
4D
102
{ACAD_REACTORS
330
47
102
}
330
47
100
AcDbScale
 70
     0
300
1:10
140
1.0
141
10.0
290
     0
  0
SCALE
  5
4E
102
{ACAD_REACTORS
330
47
102
}
330
47
100
AcDbScale
 70
     0
300
1:16
140
1.0
141
16.0
290
     0
  0
SCALE
  5
4F
102
{ACAD_REACTORS
330
47
102
}
330
47
100
AcDbScale
 70
     0
300
1:20
140
1.0
141
20.0
290
     0
  0
SCALE
  5
50
102
{ACAD_REACTORS
330
47
102
}
330
47
100
AcDbScale
 70
     0
300
1:30
140
1.0
141
30.0
290
     0
  0
SCALE
  5
51
102
{ACAD_REACTORS
330
47
102
}
330
47
100
AcDbScale
 70
     0
300
1:40
140
1.0
141
40.0
290
     0
  0
SCALE
  5
52
102
{ACAD_REACTORS
330
47
102
}
330
47
100
AcDbScale
 70
     0
300
1:50
140
1.0
141
50.0
290
     0
  0
SCALE
  5
53
102
{ACAD_REACTORS
330
47
102
}
330
47
100
AcDbScale
 70
     0
300
1:100
140
1.0
141
100.0
290
     0
  0
SCALE
  5
54
102
{ACAD_REACTORS
330
47
102
}
330
47
100
AcDbScale
 70
     0
300
2:1
140
2.0
141
1.0
290
     0
  0
SCALE
  5
55
102
{ACAD_REACTORS
330
47
102
}
330
47
100
AcDbScale
 70
     0
300
4:1
140
4.0
141
1.0
290
     0
  0
SCALE
  5
56
102
{ACAD_REACTORS
330
47
102
}
330
47
100
AcDbScale
 70
     0
300
8:1
140
8.0
141
1.0
290
     0
  0
SCALE
  5
57
102
{ACAD_REACTORS
330
47
102
}
330
47
100
AcDbScale
 70
     0
300
10:1
140
10.0
141
1.0
290
     0
  0
SCALE
  5
58
102
{ACAD_REACTORS
330
47
102
}
330
47
100
AcDbScale
 70
     0
300
100:1
140
100.0
141
1.0
290
     0
  0
SCALE
  5
59
102
{ACAD_REACTORS
330
47
102
}
330
47
100
AcDbScale
 70
     0
300
1/128" = 1'-0"
140
0.0078125
141
12.0
290
     0
  0
SCALE
  5
5A
102
{ACAD_REACTORS
330
47
102
}
330
47
100
AcDbScale
 70
     0
300
1/64" = 1'-0"
140
0.015625
141
12.0
290
     0
  0
SCALE
  5
5B
102
{ACAD_REACTORS
330
47
102
}
330
47
100
AcDbScale
 70
     0
300
1/32" = 1'-0"
140
0.03125
141
12.0
290
     0
  0
SCALE
  5
5C
102
{ACAD_REACTORS
330
47
102
}
330
47
100
AcDbScale
 70
     0
300
1/16" = 1'-0"
140
0.0625
141
12.0
290
     0
  0
SCALE
  5
5D
102
{ACAD_REACTORS
330
47
102
}
330
47
100
AcDbScale
 70
     0
300
3/32" = 1'-0"
140
0.09375
141
12.0
290
     0
  0
SCALE
  5
5E
102
{ACAD_REACTORS
330
47
102
}
330
47
100
AcDbScale
 70
     0
300
1/8" = 1'-0"
140
0.125
141
12.0
290
     0
  0
SCALE
  5
5F
102
{ACAD_REACTORS
330
47
102
}
330
47
100
AcDbScale
 70
     0
300
3/16" = 1'-0"
140
0.1875
141
12.0
290
     0
  0
SCALE
  5
60
102
{ACAD_REACTORS
330
47
102
}
330
47
100
AcDbScale
 70
     0
300
1/4" = 1'-0"
140
0.25
141
12.0
290
     0
  0
SCALE
  5
61
102
{ACAD_REACTORS
330
47
102
}
330
47
100
AcDbScale
 70
     0
300
3/8" = 1'-0"
140
0.375
141
12.0
290
     0
  0
SCALE
  5
62
102
{ACAD_REACTORS
330
47
102
}
330
47
100
AcDbScale
 70
     0
300
1/2" = 1'-0"
140
0.5
141
12.0
290
     0
  0
SCALE
  5
63
102
{ACAD_REACTORS
330
47
102
}
330
47
100
AcDbScale
 70
     0
300
3/4" = 1'-0"
140
0.75
141
12.0
290
     0
  0
SCALE
  5
64
102
{ACAD_REACTORS
330
47
102
}
330
47
100
AcDbScale
 70
     0
300
1" = 1'-0"
140
1.0
141
12.0
290
     0
  0
SCALE
  5
65
102
{ACAD_REACTORS
330
47
102
}
330
47
100
AcDbScale
 70
     0
300
1-1/2" = 1'-0"
140
1.5
141
12.0
290
     0
  0
SCALE
  5
66
102
{ACAD_REACTORS
330
47
102
}
330
47
100
AcDbScale
 70
     0
300
3" = 1'-0"
140
3.0
141
12.0
290
     0
  0
SCALE
  5
67
102
{ACAD_REACTORS
330
47
102
}
330
47
100
AcDbScale
 70
     0
300
6" = 1'-0"
140
6.0
141
12.0
290
     0
  0
SCALE
  5
68
102
{ACAD_REACTORS
330
47
102
}
330
47
100
AcDbScale
 70
     0
300
1'-0" = 1'-0"
140
12.0
141
12.0
290
     0
  0
ENDSEC
  0
EOF
