  0
SECTION
  2
HEADER
  9
$ACADVER
  1
AC1015
  9
$ACADMAINTVER
 70
     6
  9
$DWGCODEPAGE
  3
ANSI_949
  9
$INSBASE
 10
0.0
 20
0.0
 30
0.0
  9
$EXTMIN
 10
-56.26380680086915
 20
-49.97073246008785
 30
0.0
  9
$EXTMAX
 10
56.36137161923754
 20
30.1634104402427
 30
0.0
  9
$LIMMIN
 10
0.0
 20
0.0
  9
$LIMMAX
 10
420.0
 20
297.0
  9
$ORTHOMODE
 70
     0
  9
$REGENMODE
 70
     1
  9
$FILLMODE
 70
     1
  9
$QTEXTMODE
 70
     0
  9
$MIRRTEXT
 70
     1
  9
$LTSCALE
 40
1.0
  9
$ATTMODE
 70
     1
  9
$TEXTSIZE
 40
3.5
  9
$TRACEWID
 40
1.0
  9
$TEXTSTYLE
  7
Standard
  9
$CLAYER
  8
0
  9
$CELTYPE
  6
ByLayer
  9
$CECOLOR
 62
   256
  9
$CELTSCALE
 40
1.0
  9
$DISPSILH
 70
     0
  9
$DIMSCALE
 40
1.0
  9
$DIMASZ
 40
3.302
  9
$DIMEXO
 40
1.0
  9
$DIMDLI
 40
3.75
  9
$DIMRND
 40
0.0
  9
$DIMDLE
 40
0.0
  9
$DIMEXE
 40
1.0
  9
$DIMTP
 40
0.0
  9
$DIMTM
 40
0.0
  9
$DIMTXT
 40
3.5
  9
$DIMCEN
 40
2.5
  9
$DIMTSZ
 40
0.0
  9
$DIMTOL
 70
     0
  9
$DIMLIM
 70
     0
  9
$DIMTIH
 70
     1
  9
$DIMTOH
 70
     1
  9
$DIMSE1
 70
     0
  9
$DIMSE2
 70
     0
  9
$DIMTAD
 70
     1
  9
$DIMZIN
 70
     0
  9
$DIMBLK
  1

  9
$DIMASO
 70
     1
  9
$DIMSHO
 70
     1
  9
$DIMPOST
  1

  9
$DIMAPOST
  1

  9
$DIMALT
 70
     0
  9
$DIMALTD
 70
     3
  9
$DIMALTF
 40
0.0393700787401575
  9
$DIMLFAC
 40
1.0
  9
$DIMTOFL
 70
     1
  9
$DIMTVP
 40
0.0
  9
$DIMTIX
 70
     0
  9
$DIMSOXD
 70
     0
  9
$DIMSAH
 70
     0
  9
$DIMBLK1
  1

  9
$DIMBLK2
  1

  9
$DIMSTYLE
  2
ISO-25
  9
$DIMCLRD
 70
     0
  9
$DIMCLRE
 70
     0
  9
$DIMCLRT
 70
     0
  9
$DIMTFAC
 40
1.0
  9
$DIMGAP
 40
1.524
  9
$DIMJUST
 70
     0
  9
$DIMSD1
 70
     0
  9
$DIMSD2
 70
     0
  9
$DIMTOLJ
 70
     0
  9
$DIMTZIN
 70
     0
  9
$DIMALTZ
 70
     0
  9
$DIMALTTZ
 70
     0
  9
$DIMUPT
 70
     0
  9
$DIMDEC
 70
     2
  9
$DIMTDEC
 70
     2
  9
$DIMALTU
 70
     2
  9
$DIMALTTD
 70
     3
  9
$DIMTXSTY
  7
Standard
  9
$DIMAUNIT
 70
     0
  9
$DIMADEC
 70
     2
  9
$DIMALTRND
 40
0.0
  9
$DIMAZIN
 70
     0
  9
$DIMDSEP
 70
    44
  9
$DIMATFIT
 70
     3
  9
$DIMFRAC
 70
     0
  9
$DIMLDRBLK
  1

  9
$DIMLUNIT
 70
     2
  9
$DIMLWD
 70
    -2
  9
$DIMLWE
 70
    -2
  9
$DIMTMOVE
 70
     0
  9
$LUNITS
 70
     2
  9
$LUPREC
 70
     2
  9
$SKETCHINC
 40
1.0
  9
$FILLETRAD
 40
10.0
  9
$AUNITS
 70
     0
  9
$AUPREC
 70
     2
  9
$MENU
  1
.
  9
$ELEVATION
 40
0.0
  9
$PELEVATION
 40
0.0
  9
$THICKNESS
 40
0.0
  9
$LIMCHECK
 70
     0
  9
$CHAMFERA
 40
0.0
  9
$CHAMFERB
 40
0.0
  9
$CHAMFERC
 40
0.0
  9
$CHAMFERD
 40
0.0
  9
$SKPOLY
 70
     0
  9
$TDCREATE
 40
2458262.545109109
  9
$TDUCREATE
 40
2458262.170109109
  9
$TDUPDATE
 40
2458266.420132199
  9
$TDUUPDATE
 40
2458266.045132199
  9
$TDINDWG
 40
0.0012634838
  9
$TDUSRTIMER
 40
2458266.04386875
  9
$USRTIMER
 70
     1
  9
$ANGBASE
 50
0.0
  9
$ANGDIR
 70
     0
  9
$PDMODE
 70
     0
  9
$PDSIZE
 40
-1.0
  9
$PLINEWID
 40
0.0
  9
$SPLFRAME
 70
     0
  9
$SPLINETYPE
 70
     6
  9
$SPLINESEGS
 70
     8
  9
$HANDSEED
  5
13D
  9
$SURFTAB1
 70
     6
  9
$SURFTAB2
 70
     6
  9
$SURFTYPE
 70
     6
  9
$SURFU
 70
     6
  9
$SURFV
 70
     6
  9
$UCSBASE
  2

  9
$UCSNAME
  2

  9
$UCSORG
 10
0.0
 20
0.0
 30
0.0
  9
$UCSXDIR
 10
1.0
 20
0.0
 30
0.0
  9
$UCSYDIR
 10
0.0
 20
1.0
 30
0.0
  9
$UCSORTHOREF
  2

  9
$UCSORTHOVIEW
 70
     0
  9
$UCSORGTOP
 10
0.0
 20
0.0
 30
0.0
  9
$UCSORGBOTTOM
 10
0.0
 20
0.0
 30
0.0
  9
$UCSORGLEFT
 10
0.0
 20
0.0
 30
0.0
  9
$UCSORGRIGHT
 10
0.0
 20
0.0
 30
0.0
  9
$UCSORGFRONT
 10
0.0
 20
0.0
 30
0.0
  9
$UCSORGBACK
 10
0.0
 20
0.0
 30
0.0
  9
$PUCSBASE
  2

  9
$PUCSNAME
  2

  9
$PUCSORG
 10
0.0
 20
0.0
 30
0.0
  9
$PUCSXDIR
 10
1.0
 20
0.0
 30
0.0
  9
$PUCSYDIR
 10
0.0
 20
1.0
 30
0.0
  9
$PUCSORTHOREF
  2

  9
$PUCSORTHOVIEW
 70
     0
  9
$PUCSORGTOP
 10
0.0
 20
0.0
 30
0.0
  9
$PUCSORGBOTTOM
 10
0.0
 20
0.0
 30
0.0
  9
$PUCSORGLEFT
 10
0.0
 20
0.0
 30
0.0
  9
$PUCSORGRIGHT
 10
0.0
 20
0.0
 30
0.0
  9
$PUCSORGFRONT
 10
0.0
 20
0.0
 30
0.0
  9
$PUCSORGBACK
 10
0.0
 20
0.0
 30
0.0
  9
$USERI1
 70
     0
  9
$USERI2
 70
     0
  9
$USERI3
 70
     0
  9
$USERI4
 70
     0
  9
$USERI5
 70
     0
  9
$USERR1
 40
0.0
  9
$USERR2
 40
0.0
  9
$USERR3
 40
0.0
  9
$USERR4
 40
0.0
  9
$USERR5
 40
0.0
  9
$WORLDVIEW
 70
     1
  9
$SHADEDGE
 70
     3
  9
$SHADEDIF
 70
    70
  9
$TILEMODE
 70
     1
  9
$MAXACTVP
 70
    64
  9
$PINSBASE
 10
0.0
 20
0.0
 30
0.0
  9
$PLIMCHECK
 70
     0
  9
$PEXTMIN
 10
1.000000000000000E+20
 20
1.000000000000000E+20
 30
1.000000000000000E+20
  9
$PEXTMAX
 10
-1.000000000000000E+20
 20
-1.000000000000000E+20
 30
-1.000000000000000E+20
  9
$PLIMMIN
 10
0.0
 20
0.0
  9
$PLIMMAX
 10
0.0
 20
0.0
  9
$UNITMODE
 70
     0
  9
$VISRETAIN
 70
     1
  9
$PLINEGEN
 70
     0
  9
$PSLTSCALE
 70
     1
  9
$TREEDEPTH
 70
  3020
  9
$CMLSTYLE
  2
Standard
  9
$CMLJUST
 70
     0
  9
$CMLSCALE
 40
20.0
  9
$PROXYGRAPHICS
 70
     1
  9
$MEASUREMENT
 70
     1
  9
$CELWEIGHT
370
    -1
  9
$ENDCAPS
280
     0
  9
$JOINSTYLE
280
     0
  9
$LWDISPLAY
290
     1
  9
$INSUNITS
 70
     4
  9
$HYPERLINKBASE
  1

  9
$STYLESHEET
  1

  9
$XEDIT
290
     1
  9
$CEPSNTYPE
380
     0
  9
$PSTYLEMODE
290
     1
  9
$FINGERPRINTGUID
  2
{6F5D4501-5470-402D-8067-98F3BAE557A0}
  9
$VERSIONGUID
  2
{FAEB1C32-E019-11D5-929B-00C0DF256EC4}
  9
$EXTNAMES
290
     1
  9
$PSVPSCALE
 40
0.0
  9
$OLESTARTUP
290
     0
  0
ENDSEC
  0
SECTION
  2
CLASSES
  0
CLASS
  1
ACDBDICTIONARYWDFLT
  2
AcDbDictionaryWithDefault
  3
ObjectDBX Classes
 90
        0
280
     0
281
     0
  0
CLASS
  1
VISUALSTYLE
  2
AcDbVisualStyle
  3
ObjectDBX Classes
 90
     4095
280
     0
281
     0
  0
CLASS
  1
MATERIAL
  2
AcDbMaterial
  3
ObjectDBX Classes
 90
     1153
280
     0
281
     0
  0
CLASS
  1
SCALE
  2
AcDbScale
  3
ObjectDBX Classes
 90
     1153
280
     0
281
     0
  0
CLASS
  1
SUN
  2
AcDbSun
  3
SCENEOE
 90
     1153
280
     0
281
     0
  0
CLASS
  1
ACDBPLACEHOLDER
  2
AcDbPlaceHolder
  3
ObjectDBX Classes
 90
        0
280
     0
281
     0
  0
CLASS
  1
LAYOUT
  2
AcDbLayout
  3
ObjectDBX Classes
 90
        0
280
     0
281
     0
  0
CLASS
  1
TABLESTYLE
  2
AcDbTableStyle
  3
ObjectDBX Classes
 90
     4095
280
     0
281
     0
  0
CLASS
  1
MLEADERSTYLE
  2
AcDbMLeaderStyle
  3
ACDB_MLEADERSTYLE_CLASS
 90
     4095
280
     0
281
     0
  0
CLASS
  1
RASTERVARIABLES
  2
AcDbRasterVariables
  3
ISM
 90
        0
280
     0
281
     0
  0
ENDSEC
  0
SECTION
  2
TABLES
  0
TABLE
  2
VPORT
  5
8
330
0
100
AcDbSymbolTable
 70
     1
  0
VPORT
  5
29
330
8
100
AcDbSymbolTableRecord
100
AcDbViewportTableRecord
  2
*Active
 70
     0
 10
0.0
 20
0.0
 11
1.0
 21
1.0
 12
0.0487824091841844
 22
-9.90366100992258
 13
0.0
 23
0.0
 14
10.0
 24
10.0
 15
10.0
 25
10.0
 16
0.0
 26
0.0
 36
1.0
 17
0.0
 27
0.0
 37
0.0
 40
99.6808585864415
 41
1.152454780361757
 42
50.0
 43
0.0
 44
0.0
 50
0.0
 51
0.0
 71
    16
 72
  2000
 73
     1
 74
     3
 75
     0
 76
     0
 77
     0
 78
     0
281
     0
 65
     1
110
0.0
120
0.0
130
0.0
111
1.0
121
0.0
131
0.0
112
0.0
122
1.0
132
0.0
 79
     0
146
0.0
  0
ENDTAB
  0
TABLE
  2
LTYPE
  5
5
330
0
100
AcDbSymbolTable
 70
     6
  0
LTYPE
  5
14
330
5
100
AcDbSymbolTableRecord
100
AcDbLinetypeTableRecord
  2
ByBlock
 70
     0
  3

 72
    65
 73
     0
 40
0.0
  0
LTYPE
  5
15
330
5
100
AcDbSymbolTableRecord
100
AcDbLinetypeTableRecord
  2
ByLayer
 70
     0
  3

 72
    65
 73
     0
 40
0.0
  0
LTYPE
  5
16
330
5
100
AcDbSymbolTableRecord
100
AcDbLinetypeTableRecord
  2
Continuous
 70
     0
  3
Solid line
 72
    65
 73
     0
 40
0.0
  0
LTYPE
  5
6A
330
5
100
AcDbSymbolTableRecord
100
AcDbLinetypeTableRecord
  2
HIDDEN
 70
     0
  3
Hidden __ __ __ __ __ __ __ __ __ __ __ __ __ __
 72
    65
 73
     2
 40
1.905
 49
1.27
 74
     0
 49
-0.635
 74
     0
  0
LTYPE
  5
6B
330
5
100
AcDbSymbolTableRecord
100
AcDbLinetypeTableRecord
  2
PHANTOM
 70
     0
  3
Phantom ______  __  __  ______  __  __  ______
 72
    65
 73
     6
 40
12.7
 49
6.35
 74
     0
 49
-1.27
 74
     0
 49
1.27
 74
     0
 49
-1.27
 74
     0
 49
1.27
 74
     0
 49
-1.27
 74
     0
  0
LTYPE
  5
6C
330
5
100
AcDbSymbolTableRecord
100
AcDbLinetypeTableRecord
  2
CENTER
 70
     0
  3
Center ____ _ ____ _ ____ _ ____ _ ____ _ ____
 72
    65
 73
     4
 40
10.16
 49
6.35
 74
     0
 49
-1.27
 74
     0
 49
1.27
 74
     0
 49
-1.27
 74
     0
  0
LTYPE
  5
6D
330
5
100
AcDbSymbolTableRecord
100
AcDbLinetypeTableRecord
  2
CENTERX2
 70
     0
  3
Center (2x) ________  __  ________  __  _____
 72
    65
 73
     4
 40
20.32
 49
12.7
 74
     0
 49
-2.54
 74
     0
 49
2.54
 74
     0
 49
-2.54
 74
     0
  0
LTYPE
  5
6E
330
5
100
AcDbSymbolTableRecord
100
AcDbLinetypeTableRecord
  2
DOT2
 70
     0
  3
Dot (.5x) ........................................
 72
    65
 73
     2
 40
0.635
 49
0.0
 74
     0
 49
-0.635
 74
     0
  0
ENDTAB
  0
TABLE
  2
LAYER
  5
2
330
0
100
AcDbSymbolTable
 70
    17
  0
LAYER
  5
10
330
2
100
AcDbSymbolTableRecord
100
AcDbLayerTableRecord
  2
0
 70
     0
 62
     7
  6
Continuous
370
    -3
390
F
  0
LAYER
  5
6F
330
2
100
AcDbSymbolTableRecord
100
AcDbLayerTableRecord
  2
FORMAT
 70
     0
 62
     2
  6
Continuous
370
    -3
390
F
  0
LAYER
  5
70
330
2
100
AcDbSymbolTableRecord
100
AcDbLayerTableRecord
  2
외형선
 70
     0
 62
   100
  6
Continuous
370
    30
390
F
  0
LAYER
  5
71
330
2
100
AcDbSymbolTableRecord
100
AcDbLayerTableRecord
  2
숨은선
 70
     0
 62
     2
  6
HIDDEN
370
    15
390
F
  0
LAYER
  5
72
330
2
100
AcDbSymbolTableRecord
100
AcDbLayerTableRecord
  2
중심선
 70
     0
 62
     1
  6
CENTERX2
370
    -3
390
F
  0
LAYER
  5
73
330
2
100
AcDbSymbolTableRecord
100
AcDbLayerTableRecord
  2
파단선
 70
     0
 62
     4
  6
Continuous
370
    -3
390
F
  0
LAYER
  5
74
330
2
100
AcDbSymbolTableRecord
100
AcDbLayerTableRecord
  2
해칭선
 70
     0
 62
     4
  6
Continuous
370
    -3
390
F
  0
LAYER
  5
75
330
2
100
AcDbSymbolTableRecord
100
AcDbLayerTableRecord
  2
가는실선
 70
     0
 62
     4
  6
Continuous
370
    -3
390
F
  0
LAYER
  5
76
330
2
100
AcDbSymbolTableRecord
100
AcDbLayerTableRecord
  2
치수_보조선
 70
     0
 62
     4
  6
Continuous
370
    -3
390
F
  0
LAYER
  5
77
330
2
100
AcDbSymbolTableRecord
100
AcDbLayerTableRecord
  2
치수문자_일반주서
 70
     0
 62
     7
  6
Continuous
370
    15
390
F
  0
LAYER
  5
78
330
2
100
AcDbSymbolTableRecord
100
AcDbLayerTableRecord
  2
개별주서
 70
     0
 62
   100
  6
Continuous
370
    30
390
F
  0
LAYER
  5
79
330
2
100
AcDbSymbolTableRecord
100
AcDbLayerTableRecord
  2
중간선
 70
     0
 62
     2
  6
Continuous
370
    15
390
F
  0
LAYER
  5
7A
330
2
100
AcDbSymbolTableRecord
100
AcDbLayerTableRecord
  2
윤곽선
 70
     0
 62
     3
  6
Continuous
370
    40
390
F
  0
LAYER
  5
7B
330
2
100
AcDbSymbolTableRecord
100
AcDbLayerTableRecord
  2
중심마크
 70
     0
 62
   100
  6
Continuous
370
    30
390
F
  0
LAYER
  5
7C
330
2
100
AcDbSymbolTableRecord
100
AcDbLayerTableRecord
  2
가상선
 70
     0
 62
     4
  6
PHANTOM
370
    -3
390
F
  0
LAYER
  5
7D
330
2
100
AcDbSymbolTableRecord
100
AcDbLayerTableRecord
  2
특수지정선
 70
     0
 62
     5
  6
CENTERX2
370
    60
390
F
  0
LAYER
  5
12E
330
2
100
AcDbSymbolTableRecord
100
AcDbLayerTableRecord
  2
Defpoints
 70
     0
 62
     7
  6
Continuous
290
     0
370
    -3
390
F
  0
ENDTAB
  0
TABLE
  2
STYLE
  5
3
330
0
100
AcDbSymbolTable
 70
     2
  0
STYLE
  5
11
330
3
100
AcDbSymbolTableRecord
100
AcDbTextStyleTableRecord
  2
Standard
 70
     0
 40
0.0
 41
1.0
 50
0.0
 71
     0
 42
3.5
  3
txt
  4

  0
STYLE
  5
93
330
3
100
AcDbSymbolTableRecord
100
AcDbTextStyleTableRecord
  2
SLDTEXTSTYLE0
 70
     0
 40
0.0
 41
0.75
 50
0.0
 71
     0
 42
3.5
  3
TXT
  4

  0
ENDTAB
  0
TABLE
  2
VIEW
  5
6
330
0
100
AcDbSymbolTable
 70
     0
  0
ENDTAB
  0
TABLE
  2
UCS
  5
7
330
0
100
AcDbSymbolTable
 70
     0
  0
ENDTAB
  0
TABLE
  2
APPID
  5
9
330
0
100
AcDbSymbolTable
 70
     1
  0
APPID
  5
12
330
9
100
AcDbSymbolTableRecord
100
AcDbRegAppTableRecord
  2
ACAD
 70
     0
  0
ENDTAB
  0
TABLE
  2
DIMSTYLE
  5
A
330
0
100
AcDbSymbolTable
 70
     3
100
AcDbDimStyleTable
  0
DIMSTYLE
105
27
330
A
100
AcDbSymbolTableRecord
100
AcDbDimStyleTableRecord
  2
ISO-25
 70
     0
 41
2.5
 42
0.625
 43
3.75
 44
1.25
 73
     0
 74
     0
 77
     1
 78
     8
140
2.5
141
2.5
143
0.03937007874016
147
0.625
171
     3
172
     1
178
     0
271
     2
272
     2
274
     3
278
    44
283
     0
284
     8
340
11
  0
DIMSTYLE
105
D4
102
{ACAD_REACTORS
330
D3
330
F6
102
}
330
A
100
AcDbSymbolTableRecord
100
AcDbDimStyleTableRecord
  2
SLDDIMSTYLE0
 70
     0
 41
3.302
 44
0.0
 45
0.000000001
 73
     0
 74
     0
 77
     1
 78
    12
 79
     3
140
3.5
147
0.875
172
     1
173
     1
178
     0
271
     2
272
     2
276
     2
284
    12
289
     0
340
93
  0
DIMSTYLE
105
E2
102
{ACAD_REACTORS
330
E1
330
EC
102
}
330
A
100
AcDbSymbolTableRecord
100
AcDbDimStyleTableRecord
  2
SLDDIMSTYLE1
 70
     0
 41
3.302
 44
0.0
 45
0.000000001
 73
     0
 74
     0
 77
     1
 78
    12
 79
     3
140
3.5
147
0.875
173
     1
178
     0
271
     2
272
     2
276
     2
284
    12
340
93
  0
ENDTAB
  0
TABLE
  2
BLOCK_RECORD
  5
1
330
0
100
AcDbSymbolTable
 70
     7
  0
BLOCK_RECORD
  5
1F
330
1
100
AcDbSymbolTableRecord
100
AcDbBlockTableRecord
  2
*Model_Space
340
22
  0
BLOCK_RECORD
  5
1B
330
1
100
AcDbSymbolTableRecord
100
AcDbBlockTableRecord
  2
*Paper_Space
340
1E
  0
BLOCK_RECORD
  5
23
330
1
100
AcDbSymbolTableRecord
100
AcDbBlockTableRecord
  2
*Paper_Space0
340
26
  0
BLOCK_RECORD
  5
7E
330
1
100
AcDbSymbolTableRecord
100
AcDbBlockTableRecord
  2
블럭10
340
0
102
{BLKREFS
331
CC
102
}
  0
BLOCK_RECORD
  5
D5
330
1
100
AcDbSymbolTableRecord
100
AcDbBlockTableRecord
  2
_D
340
0
  0
BLOCK_RECORD
  5
E3
330
1
100
AcDbSymbolTableRecord
100
AcDbBlockTableRecord
  2
_D_1
340
0
  0
BLOCK_RECORD
  5
ED
330
1
100
AcDbSymbolTableRecord
100
AcDbBlockTableRecord
  2
_D_2
340
0
  0
BLOCK_RECORD
  5
F7
330
1
100
AcDbSymbolTableRecord
100
AcDbBlockTableRecord
  2
_D_3
340
0
  0
BLOCK_RECORD
  5
103
330
1
100
AcDbSymbolTableRecord
100
AcDbBlockTableRecord
  2
SW_DOWELSYMBOL_0
340
0
102
{BLKREFS
331
109
102
}
  0
ENDTAB
  0
ENDSEC
  0
SECTION
  2
BLOCKS
  0
BLOCK
  5
20
330
1F
100
AcDbEntity
  8
0
100
AcDbBlockBegin
  2
*Model_Space
 70
     0
 10
0.0
 20
0.0
 30
0.0
  3
*Model_Space
  1

  0
ENDBLK
  5
21
330
1F
100
AcDbEntity
  8
0
100
AcDbBlockEnd
  0
BLOCK
  5
1C
330
1B
100
AcDbEntity
 67
     1
  8
0
100
AcDbBlockBegin
  2
*Paper_Space
 70
     0
 10
0.0
 20
0.0
 30
0.0
  3
*Paper_Space
  1

  0
ENDBLK
  5
1D
330
1B
100
AcDbEntity
 67
     1
  8
0
100
AcDbBlockEnd
  0
BLOCK
  5
24
330
23
100
AcDbEntity
  8
0
100
AcDbBlockBegin
  2
*Paper_Space0
 70
     0
 10
0.0
 20
0.0
 30
0.0
  3
*Paper_Space0
  1

  0
ENDBLK
  5
25
330
23
100
AcDbEntity
  8
0
100
AcDbBlockEnd
  0
BLOCK
  5
7F
330
7E
100
AcDbEntity
  8
0
100
AcDbBlockBegin
  2
블럭10
 70
     2
 10
0.0
 20
0.0
 30
0.0
  3
블럭10
  1

  0
ELLIPSE
  5
81
330
7E
100
AcDbEntity
  8
중심선
100
AcDbEllipse
 10
20.54032771741204
 20
12.0471743016438
 30
0.0
 11
6.600054785286829
 21
-1.261213355974178E-13
 31
0.0
210
0.0
220
0.0
230
1.0
 40
0.636358354079598
 41
0.9219305317359503
 42
6.513795318482858
  0
ELLIPSE
  5
82
330
7E
100
AcDbEntity
  8
중심선
100
AcDbEllipse
 10
20.54032771746488
 20
12.04717430159265
 30
0.0
 11
3.960054785062283
 21
1.540847449632565E-10
 31
0.0
210
0.0
220
0.0
230
1.0
 40
0.3939339440162632
 41
1.131841032648279
 42
5.62031148352944
  0
LINE
  5
83
330
7E
100
AcDbEntity
  8
중심선
100
AcDbLine
 10
2.268634060543552
 20
16.24717430164393
 30
0.0
 11
5.714909304380834
 21
16.24717430164393
 31
0.0
  0
LINE
  5
84
330
7E
100
AcDbEntity
  8
중심선
100
AcDbLine
 10
5.245725140726316
 20
7.84717430164391
 30
0.0
 11
8.692000384563599
 21
7.84717430164391
 31
0.0
  0
LINE
  5
85
330
7E
100
AcDbEntity
  8
중심선
100
AcDbLine
 10
15.74043728645272
 20
16.24717430164393
 30
0.0
 11
8.692000384563599
 21
7.84717430164391
 31
0.0
  0
LINE
  5
86
330
7E
100
AcDbEntity
  8
중심선
100
AcDbLine
 10
0.1404042013395286
 20
13.71084872107135
 30
0.0
 11
3.58671253028996
 21
13.71088815037384
 31
0.0
  0
LINE
  5
87
330
7E
100
AcDbEntity
  8
중심선
100
AcDbLine
 10
2.750260043222114
 20
10.84717430164391
 30
0.0
 11
6.196535287059397
 21
10.84717430164391
 31
0.0
  0
LINE
  5
88
330
7E
100
AcDbEntity
  8
중심선
100
AcDbLine
 10
12.29416204261559
 20
16.24717430164393
 30
0.0
 11
5.245725140726316
 21
7.84717430164391
 31
0.0
  0
LINE
  5
89
330
7E
100
AcDbEntity
  8
중심선
100
AcDbLine
 10
10.72767329541681
 20
16.24717430164393
 30
0.0
 11
6.196535287059397
 21
10.84717430164391
 31
0.0
  0
LINE
  5
8A
330
7E
100
AcDbEntity
  8
중심선
100
AcDbLine
 10
7.28139805157953
 20
16.24717430164393
 30
0.0
 11
2.750260043222114
 21
10.84717430164391
 31
0.0
  0
LINE
  5
8B
330
7E
100
AcDbEntity
  8
중심선
100
AcDbLine
 10
5.714909304380834
 20
16.24717430164393
 30
0.0
 11
3.58671253028996
 21
13.71088815037384
 31
0.0
  0
LINE
  5
8C
330
7E
100
AcDbEntity
  8
중심선
100
AcDbLine
 10
2.268634060543552
 20
16.24717430164393
 30
0.0
 11
0.1404042013395286
 21
13.71084872107135
 31
0.0
  0
LINE
  5
8D
330
7E
100
AcDbEntity
  8
중심선
100
AcDbLine
 10
7.28139805157953
 20
16.24717430164393
 30
0.0
 11
10.72767329541681
 21
16.24717430164393
 31
0.0
  0
LINE
  5
8E
330
7E
100
AcDbEntity
  8
중심선
100
AcDbLine
 10
12.29416204261559
 20
16.24717430164393
 30
0.0
 11
15.74043728645272
 21
16.24717430164393
 31
0.0
  0
LINE
  5
8F
330
7E
100
AcDbEntity
  8
중심선
100
AcDbLine
 10
19.22036997980202
 20
11.08717430171403
 30
0.0
 11
23.66174974927406
 21
11.08717430171406
 31
0.0
  0
LINE
  5
90
330
7E
100
AcDbEntity
  8
중심선
100
AcDbLine
 10
19.22039502424796
 20
13.00717430171391
 30
0.0
 11
19.22036997980202
 21
11.08717430171403
 31
0.0
  0
LINE
  5
91
330
7E
100
AcDbEntity
  8
중심선
100
AcDbLine
 10
19.22039502424796
 20
13.00717430171391
 30
0.0
 11
26.96566020931264
 21
13.00717430171391
 31
0.0
  0
LINE
  5
92
330
7E
100
AcDbEntity
  8
중심선
100
AcDbLine
 10
22.22332737316547
 20
13.45928029700563
 30
0.0
 11
24.52862924686651
 21
15.39360700705356
 31
0.0
  0
ATTDEF
  5
94
330
7E
100
AcDbEntity
  8
FORMAT
 62
     2
100
AcDbText
 10
-16.11926103943555
 20
2.075366912832191
 30
0.0
 40
4.233333333333333
  1
SEME7010030E [ 2 FLUTE ]
 41
0.75
  7
SLDTEXTSTYLE0
 11
-16.11926103943555
 21
-0.0412997538344756
 31
0.0
100
AcDbAttributeDefinition
  3

  2
AUTOATTR0
 70
     0
 74
     1
  0
ENDBLK
  5
80
330
7E
100
AcDbEntity
  8
0
100
AcDbBlockEnd
  0
BLOCK
  5
D6
330
D5
100
AcDbEntity
  8
0
100
AcDbBlockBegin
  2
_D
 70
     0
 10
0.0
 20
0.0
 30
0.0
  3
_D
  1

  0
LINE
  5
D8
330
D5
100
AcDbEntity
  8
치수문자_일반주서
 62
     0
370
    -2
100
AcDbLine
 10
40.06250000000001
 20
-4.99999999999988
 30
0.0
 11
55.81103828590417
 21
-4.999999999999824
 31
0.0
  0
LINE
  5
D9
330
D5
100
AcDbEntity
  8
치수문자_일반주서
 62
     0
370
    -2
100
AcDbLine
 10
40.06249999999986
 20
5.000000000000113
 30
0.0
 11
55.81103828590414
 21
5.000000000000171
 31
0.0
  0
LINE
  5
DA
330
D5
100
AcDbEntity
  8
치수문자_일반주서
 62
     0
370
    -2
100
AcDbLine
 10
55.81103828590417
 20
-4.999999999999824
 30
0.0
 11
55.81103828590409
 21
19.04150000000017
 31
0.0
  0
LINE
  5
DB
330
D5
100
AcDbEntity
  8
치수문자_일반주서
 62
     0
370
    -2
100
AcDbLine
 10
55.81103828590417
 20
-4.999999999999824
 30
0.0
 11
55.81103828590414
 21
5.000000000000171
 31
0.0
  0
LINE
  5
DC
330
D5
100
AcDbEntity
  8
치수문자_일반주서
 62
     0
370
    -2
100
AcDbLine
 10
55.81103828590419
 20
-8.301999999999824
 30
0.0
 11
55.8110382859042
 21
-11.60399999999982
 31
0.0
  0
LINE
  5
DD
330
D5
100
AcDbEntity
  8
치수문자_일반주서
 62
     0
370
    -2
100
AcDbLine
 10
55.81103828590413
 20
8.30200000000017
 30
0.0
 11
55.81103828590411
 21
11.60400000000017
 31
0.0
  0
SOLID
  5
DE
330
D5
100
AcDbEntity
  8
치수문자_일반주서
 62
     0
100
AcDbTrace
 10
56.36137161923752
 20
-8.301999999999822
 30
0.0
 11
55.26070495257085
 21
-8.301999999999826
 31
0.0
 12
55.81103828590417
 22
-4.999999999999824
 32
0.0
 13
55.81103828590417
 23
-4.999999999999824
 33
0.0
  0
SOLID
  5
DF
330
D5
100
AcDbEntity
  8
치수문자_일반주서
 62
     0
100
AcDbTrace
 10
55.26070495257079
 20
8.302000000000168
 30
0.0
 11
56.36137161923746
 21
8.302000000000172
 31
0.0
 12
55.81103828590414
 22
5.000000000000171
 32
0.0
 13
55.81103828590414
 23
5.000000000000171
 33
0.0
  0
MTEXT
  5
E0
330
D5
100
AcDbEntity
  8
치수문자_일반주서
 62
     0
100
AcDbMText
 10
51.4360382859041
 20
15.32275000000016
 30
0.0
 40
3.5
 41
0.0
 71
     2
 72
     1
  1
\A1;%%c10
  7
SLDTEXTSTYLE0
 11
-3.552713678800503E-15
 21
1.0
 31
0.0
 73
     1
 44
1.0
  0
POINT
  5
138
330
D5
100
AcDbEntity
  8
Defpoints
 62
     0
100
AcDbPoint
 10
40.00000000000001
 20
-4.99999999999988
 30
0.0
  0
POINT
  5
139
330
D5
100
AcDbEntity
  8
Defpoints
 62
     0
100
AcDbPoint
 10
39.99999999999986
 20
5.000000000000113
 30
0.0
  0
POINT
  5
13A
330
D5
100
AcDbEntity
  8
Defpoints
 62
     0
100
AcDbPoint
 10
55.81103828590414
 20
5.000000000000172
 30
0.0
  0
ENDBLK
  5
D7
330
D5
100
AcDbEntity
  8
0
100
AcDbBlockEnd
  0
BLOCK
  5
E4
330
E3
100
AcDbEntity
  8
0
100
AcDbBlockBegin
  2
_D_1
 70
     0
 10
0.0
 20
0.0
 30
0.0
  3
_D_1
  1

  0
LINE
  5
E6
330
E3
100
AcDbEntity
  8
치수문자_일반주서
 62
     0
370
    -2
100
AcDbLine
 10
-39.99999999999999
 20
4.062499999999998
 30
0.0
 11
-39.99999999999999
 21
25.7884104402427
 31
0.0
  0
LINE
  5
E7
330
E3
100
AcDbEntity
  8
치수문자_일반주서
 62
     0
370
    -2
100
AcDbLine
 10
39.99999999999986
 20
5.062500000000113
 30
0.0
 11
39.99999999999986
 21
25.7884104402427
 31
0.0
  0
LINE
  5
E8
330
E3
100
AcDbEntity
  8
치수문자_일반주서
 62
     0
370
    -2
100
AcDbLine
 10
-36.69799999999999
 20
25.7884104402427
 30
0.0
 11
36.69799999999987
 21
25.7884104402427
 31
0.0
  0
SOLID
  5
E9
330
E3
100
AcDbEntity
  8
치수문자_일반주서
 62
     0
100
AcDbTrace
 10
-36.69799999999999
 20
26.33874377357603
 30
0.0
 11
-36.69799999999999
 21
25.23807710690936
 31
0.0
 12
-39.99999999999999
 22
25.7884104402427
 32
0.0
 13
-39.99999999999999
 23
25.7884104402427
 33
0.0
  0
SOLID
  5
EA
330
E3
100
AcDbEntity
  8
치수문자_일반주서
 62
     0
100
AcDbTrace
 10
36.69799999999987
 20
25.23807710690936
 30
0.0
 11
36.69799999999987
 21
26.33874377357603
 31
0.0
 12
39.99999999999986
 22
25.7884104402427
 32
0.0
 13
39.99999999999986
 23
25.7884104402427
 33
0.0
  0
MTEXT
  5
EB
330
E3
100
AcDbEntity
  8
치수문자_일반주서
 62
     0
100
AcDbMText
 10
-0.0000000000000595
 20
30.1634104402427
 30
0.0
 40
3.5
 41
0.0
 71
     2
 72
     1
  1
\A1;80
  7
SLDTEXTSTYLE0
 73
     1
 44
1.0
  0
POINT
  5
12F
330
E3
100
AcDbEntity
  8
Defpoints
 62
     0
100
AcDbPoint
 10
-39.99999999999999
 20
3.999999999999999
 30
0.0
  0
POINT
  5
130
330
E3
100
AcDbEntity
  8
Defpoints
 62
     0
100
AcDbPoint
 10
39.99999999999986
 20
5.000000000000113
 30
0.0
  0
POINT
  5
131
330
E3
100
AcDbEntity
  8
Defpoints
 62
     0
100
AcDbPoint
 10
39.99999999999986
 20
25.7884104402427
 30
0.0
  0
ENDBLK
  5
E5
330
E3
100
AcDbEntity
  8
0
100
AcDbBlockEnd
  0
BLOCK
  5
EE
330
ED
100
AcDbEntity
  8
0
100
AcDbBlockBegin
  2
_D_2
 70
     0
 10
0.0
 20
0.0
 30
0.0
  3
_D_2
  1

  0
LINE
  5
F0
330
ED
100
AcDbEntity
  8
치수문자_일반주서
 62
     0
370
    -2
100
AcDbLine
 10
10.0
 20
4.73551498800906
 30
0.0
 11
10.0
 21
16.69856209795246
 31
0.0
  0
LINE
  5
F1
330
ED
100
AcDbEntity
  8
치수문자_일반주서
 62
     0
370
    -2
100
AcDbLine
 10
39.99999999999986
 20
5.062500000000113
 30
0.0
 11
39.99999999999986
 21
16.69856209795246
 31
0.0
  0
LINE
  5
F2
330
ED
100
AcDbEntity
  8
치수문자_일반주서
 62
     0
370
    -2
100
AcDbLine
 10
13.302
 20
16.69856209795246
 30
0.0
 11
36.69799999999987
 21
16.69856209795246
 31
0.0
  0
SOLID
  5
F3
330
ED
100
AcDbEntity
  8
치수문자_일반주서
 62
     0
100
AcDbTrace
 10
13.302
 20
17.2488954312858
 30
0.0
 11
13.302
 21
16.14822876461913
 31
0.0
 12
10.0
 22
16.69856209795246
 32
0.0
 13
10.0
 23
16.69856209795246
 33
0.0
  0
SOLID
  5
F4
330
ED
100
AcDbEntity
  8
치수문자_일반주서
 62
     0
100
AcDbTrace
 10
36.69799999999987
 20
16.14822876461913
 30
0.0
 11
36.69799999999987
 21
17.2488954312858
 31
0.0
 12
39.99999999999986
 22
16.69856209795246
 32
0.0
 13
39.99999999999986
 23
16.69856209795246
 33
0.0
  0
MTEXT
  5
F5
330
ED
100
AcDbEntity
  8
치수문자_일반주서
 62
     0
100
AcDbMText
 10
25.0
 20
21.07356209795246
 30
0.0
 40
3.5
 41
0.0
 71
     2
 72
     1
  1
\A1;30
  7
SLDTEXTSTYLE0
 73
     1
 44
1.0
  0
POINT
  5
132
330
ED
100
AcDbEntity
  8
Defpoints
 62
     0
100
AcDbPoint
 10
10.0
 20
4.67301498800906
 30
0.0
  0
POINT
  5
133
330
ED
100
AcDbEntity
  8
Defpoints
 62
     0
100
AcDbPoint
 10
39.99999999999986
 20
5.000000000000113
 30
0.0
  0
POINT
  5
134
330
ED
100
AcDbEntity
  8
Defpoints
 62
     0
100
AcDbPoint
 10
39.99999999999986
 20
16.69856209795246
 30
0.0
  0
ENDBLK
  5
EF
330
ED
100
AcDbEntity
  8
0
100
AcDbBlockEnd
  0
BLOCK
  5
F8
330
F7
100
AcDbEntity
  8
0
100
AcDbBlockBegin
  2
_D_3
 70
     0
 10
0.0
 20
0.0
 30
0.0
  3
_D_3
  1

  0
LINE
  5
FA
330
F7
100
AcDbEntity
  8
치수문자_일반주서
 62
     0
370
    -2
100
AcDbLine
 10
-39.06249999999999
 20
4.999999999999999
 30
0.0
 11
-51.88880680086911
 21
4.999999999999952
 31
0.0
  0
LINE
  5
FB
330
F7
100
AcDbEntity
  8
치수문자_일반주서
 62
     0
370
    -2
100
AcDbLine
 10
-39.06249999999999
 20
-4.999999999999994
 30
0.0
 11
-51.88880680086907
 21
-5.000000000000043
 31
0.0
  0
LINE
  5
FC
330
F7
100
AcDbEntity
  8
치수문자_일반주서
 62
     0
370
    -2
100
AcDbLine
 10
-51.88880680086911
 20
4.999999999999952
 30
0.0
 11
-51.88880680086915
 21
19.04149999999995
 31
0.0
  0
LINE
  5
FD
330
F7
100
AcDbEntity
  8
치수문자_일반주서
 62
     0
370
    -2
100
AcDbLine
 10
-51.88880680086911
 20
4.999999999999952
 30
0.0
 11
-51.88880680086907
 21
-5.000000000000043
 31
0.0
  0
LINE
  5
FE
330
F7
100
AcDbEntity
  8
치수문자_일반주서
 62
     0
370
    -2
100
AcDbLine
 10
-51.88880680086912
 20
8.301999999999952
 30
0.0
 11
-51.88880680086913
 21
11.60399999999995
 31
0.0
  0
LINE
  5
FF
330
F7
100
AcDbEntity
  8
치수문자_일반주서
 62
     0
370
    -2
100
AcDbLine
 10
-51.88880680086906
 20
-8.302000000000042
 30
0.0
 11
-51.88880680086904
 21
-11.60400000000004
 31
0.0
  0
SOLID
  5
100
330
F7
100
AcDbEntity
  8
치수문자_일반주서
 62
     0
100
AcDbTrace
 10
-52.43914013420245
 20
8.30199999999995
 30
0.0
 11
-51.33847346753578
 21
8.301999999999953
 31
0.0
 12
-51.88880680086911
 22
4.999999999999952
 32
0.0
 13
-51.88880680086911
 23
4.999999999999952
 33
0.0
  0
SOLID
  5
101
330
F7
100
AcDbEntity
  8
치수문자_일반주서
 62
     0
100
AcDbTrace
 10
-51.33847346753572
 20
-8.30200000000004
 30
0.0
 11
-52.43914013420239
 21
-8.302000000000044
 31
0.0
 12
-51.88880680086907
 22
-5.000000000000043
 32
0.0
 13
-51.88880680086907
 23
-5.000000000000043
 33
0.0
  0
MTEXT
  5
102
330
F7
100
AcDbEntity
  8
치수문자_일반주서
 62
     0
100
AcDbMText
 10
-56.26380680086914
 20
15.32274999999994
 30
0.0
 40
3.5
 41
0.0
 71
     2
 72
     1
  1
\A1;%%c10
  7
SLDTEXTSTYLE0
 11
-3.552713678800503E-15
 21
1.0
 31
0.0
 73
     1
 44
1.0
  0
POINT
  5
135
330
F7
100
AcDbEntity
  8
Defpoints
 62
     0
100
AcDbPoint
 10
-38.99999999999999
 20
4.999999999999999
 30
0.0
  0
POINT
  5
136
330
F7
100
AcDbEntity
  8
Defpoints
 62
     0
100
AcDbPoint
 10
-38.99999999999999
 20
-4.999999999999994
 30
0.0
  0
POINT
  5
137
330
F7
100
AcDbEntity
  8
Defpoints
 62
     0
100
AcDbPoint
 10
-51.88880680086906
 20
-5.000000000000042
 30
0.0
  0
ENDBLK
  5
F9
330
F7
100
AcDbEntity
  8
0
100
AcDbBlockEnd
  0
BLOCK
  5
104
330
103
100
AcDbEntity
  8
0
100
AcDbBlockBegin
  2
SW_DOWELSYMBOL_0
 70
     0
 10
0.0
 20
0.0
 30
0.0
  3
SW_DOWELSYMBOL_0
  1

  0
CIRCLE
  5
106
330
103
100
AcDbEntity
  8
외형선
 62
     0
100
AcDbCircle
 10
0.0
 20
0.0
 30
0.0
 40
3.000000000000004
  0
HATCH
  5
107
330
103
100
AcDbEntity
  8
0
  6
Continuous
 62
     0
370
    30
100
AcDbHatch
 10
0.0
 20
0.0
 30
0.0
210
0.0
220
0.0
230
1.0
  2
SOLID
 70
     1
 71
     0
 91
        1
 92
        0
 93
        3
 72
     2
 10
0.0000000000000104
 20
0.0
 40
3.000000000000004
 50
0.0
 51
90.0
 73
     1
 72
     1
 10
0.0000000000000104
 20
3.000000000000004
 11
0.0000000000000104
 21
0.0
 72
     1
 10
0.0000000000000104
 20
0.0
 11
3.000000000000015
 21
0.0
 97
        0
 75
     0
 76
     1
 98
        1
 10
0.0
 20
0.0
  0
HATCH
  5
108
330
103
100
AcDbEntity
  8
0
  6
Continuous
 62
     0
370
    30
100
AcDbHatch
 10
0.0
 20
0.0
 30
0.0
210
0.0
220
0.0
230
1.0
  2
SOLID
 70
     1
 71
     0
 91
        1
 92
        0
 93
        3
 72
     2
 10
0.0000000000000104
 20
0.0
 40
3.000000000000004
 50
180.0
 51
270.0000000000008
 73
     1
 72
     1
 10
0.0000000000000104
 20
-3.000000000000004
 11
0.0000000000000104
 21
0.0
 72
     1
 10
0.0000000000000104
 20
0.0
 11
-2.999999999999994
 21
0.0
 97
        0
 75
     0
 76
     1
 98
        1
 10
0.0
 20
0.0
  0
ENDBLK
  5
105
330
103
100
AcDbEntity
  8
0
100
AcDbBlockEnd
  0
ENDSEC
  0
SECTION
  2
ENTITIES
  0
SPLINE
  5
95
330
1F
100
AcDbEntity
  8
0
  6
Continuous
 62
     1
370
    15
100
AcDbSpline
210
0.0
220
0.0
230
1.0
 70
     8
 71
     3
 72
     9
 73
     5
 74
     0
 42
0.000000001
 43
0.00000001
 40
0.0
 40
0.0
 40
0.0
 40
0.0
 40
0.5189441717253158
 40
1.0
 40
1.0
 40
1.0
 40
1.0
 10
27.04549969878187
 20
1.281249512432303
 30
0.0
 10
26.80619020497218
 20
1.395584205867482
 30
0.0
 10
26.34504330931656
 20
1.61590596621225
 30
0.0
 10
25.88237123638204
 20
1.858327192568897
 30
0.0
 10
25.65980013911697
 20
1.974945336405258
 30
0.0
  0
LINE
  5
96
330
1F
100
AcDbEntity
  8
0
  6
Continuous
 62
     1
370
    15
100
AcDbLine
 10
15.57182462415803
 20
5.000000000000007
 30
0.0
 11
13.14829688907855
 21
5.000000000000007
 31
0.0
  0
LINE
  5
97
330
1F
100
AcDbEntity
  8
0
  6
Continuous
 62
     1
370
    15
100
AcDbLine
 10
24.27698881275757
 20
1.410402081960998
 30
0.0
 11
24.22794470606689
 21
1.437401606712448
 31
0.0
  0
SPLINE
  5
98
330
1F
100
AcDbEntity
  8
0
  6
Continuous
 62
     1
370
    15
100
AcDbSpline
210
0.0
220
0.0
230
1.0
 70
     8
 71
     3
 72
    17
 73
    13
 74
     0
 42
0.000000001
 43
0.00000001
 40
0.0
 40
0.0
 40
0.0
 40
0.0
 40
0.1517708123946844
 40
0.2657089593520839
 40
0.3631554135337119
 40
0.4548993471071703
 40
0.5348994552724425
 40
0.6379732206732287
 40
0.7741317295627632
 40
0.8984343654272142
 40
0.9881981489405893
 40
1.0
 40
1.0
 40
1.0
 40
1.0
 10
25.39325234102036
 20
3.973193122700453
 30
0.0
 10
25.19152514682136
 20
3.963033798256303
 30
0.0
 10
24.83835629967671
 20
3.945247614712951
 30
0.0
 10
24.34031988421794
 20
3.927669671565771
 30
0.0
 10
23.92360444338475
 20
3.916503891368355
 30
0.0
 10
23.55789609479466
 20
3.909675294697519
 30
0.0
 10
23.18470218400034
 20
3.905458937383876
 30
0.0
 10
22.75089531731382
 20
3.903998123684171
 30
0.0
 10
22.25729867856996
 20
3.907373893842863
 30
0.0
 10
21.7816078980908
 20
3.916363971284054
 30
0.0
 10
21.47477772720679
 20
3.924161963525428
 30
0.0
 10
21.33681292924847
 20
3.92902070109429
 30
0.0
 10
21.32078152252517
 20
3.929585282779478
 30
0.0
  0
SPLINE
  5
99
330
1F
100
AcDbEntity
  8
0
  6
Continuous
 62
     1
370
    15
100
AcDbSpline
210
0.0
220
0.0
230
1.0
 70
     8
 71
     3
 72
    27
 73
    23
 74
     0
 42
0.000000001
 43
0.00000001
 40
0.0
 40
0.0
 40
0.0
 40
0.0
 40
0.0724069471679215
 40
0.1245853525358539
 40
0.1590685477709649
 40
0.1947371870864621
 40
0.2360565484755888
 40
0.2777035123043911
 40
0.3116760750308701
 40
0.3639217721040632
 40
0.4254068693489802
 40
0.5000090045861304
 40
0.5520000836147871
 40
0.5919701471421054
 40
0.6358973424444206
 40
0.686576136467012
 40
0.7429088073505796
 40
0.7842802951428948
 40
0.8156573253906405
 40
0.8510901380318249
 40
0.912277753287993
 40
0.9999999999999999
 40
0.9999999999999999
 40
0.9999999999999999
 40
0.9999999999999999
 10
17.87359281726141
 20
-4.160696860554054
 30
0.0
 10
18.05432423404353
 20
-4.143123464266611
 30
0.0
 10
18.3652956001182
 20
-4.11288620310097
 30
0.0
 10
18.7626806175749
 20
-4.078473676855489
 30
0.0
 10
19.0713309051762
 20
-4.053669208038906
 30
0.0
 10
19.35198264978929
 20
-4.032589697627889
 30
0.0
 10
19.64973002827341
 20
-4.011919692288951
 30
0.0
 10
19.94272149068318
 20
-3.993381827217304
 30
0.0
 10
20.26317548906368
 20
-3.97490974316859
 30
0.0
 10
20.63335784444959
 20
-3.955922257040146
 30
0.0
 10
21.10546524480415
 20
-3.935937759438097
 30
0.0
 10
21.57694846175897
 20
-3.921068802773392
 30
0.0
 10
21.99447406658087
 20
-3.912054818249632
 30
0.0
 10
22.33518133065141
 20
-3.907178266374694
 30
0.0
 10
22.6723481811249
 20
-3.9046077840741
 30
0.0
 10
23.05063271954467
 20
-3.904610352889712
 30
0.0
 10
23.42260495419049
 20
-3.907779342681678
 30
0.0
 10
23.7462338337938
 20
-3.913058853821783
 30
0.0
 10
24.01531667807192
 20
-3.918975943875348
 30
0.0
 10
24.33409525930102
 20
-3.92768913747421
 30
0.0
 10
24.7972907417261
 20
-3.94366987067241
 30
0.0
 10
25.17232251566505
 20
-3.962248513312526
 30
0.0
 10
25.39325234102036
 20
-3.973193122700442
 30
0.0
  0
SPLINE
  5
9A
330
1F
100
AcDbEntity
  8
0
  6
Continuous
 62
     1
370
    15
100
AcDbSpline
210
0.0
220
0.0
230
1.0
 70
     8
 71
     3
 72
    30
 73
    26
 74
     0
 42
0.000000001
 43
0.00000001
 40
0.0
 40
0.0
 40
0.0
 40
0.0
 40
0.0717441677538782
 40
0.1251067421430682
 40
0.16299080440181
 40
0.1877464187745474
 40
0.21734144602117
 40
0.2534133577405275
 40
0.2878522897728062
 40
0.315952930303446
 40
0.3395831456890346
 40
0.3819634317223135
 40
0.4332138581294374
 40
0.4810061471647797
 40
0.5222849819776378
 40
0.5668798106396186
 40
0.63508613582004
 40
0.7008027397659614
 40
0.7516816656896709
 40
0.7924200744061551
 40
0.8194931132355883
 40
0.8534534078876942
 40
0.8978165306190514
 40
0.9466767655717291
 40
0.9999999999999999
 40
0.9999999999999999
 40
0.9999999999999999
 40
0.9999999999999999
 10
38.14172407803329
 20
3.41976117452095
 30
0.0
 10
37.93099506395379
 20
3.402646458608791
 30
0.0
 10
37.56352797566102
 20
3.372801992953828
 30
0.0
 10
37.09132000032912
 20
3.344140765010327
 30
0.0
 10
36.76693083654477
 20
3.327766280634525
 30
0.0
 10
36.53641029135772
 20
3.315407311988365
 30
0.0
 10
36.26388224379079
 20
3.305477626564738
 30
0.0
 10
35.96283154069252
 20
3.298616227946489
 30
0.0
 10
35.66524253844068
 20
3.293607500078381
 30
0.0
 10
35.40638453663573
 20
3.290950117516464
 30
0.0
 10
35.13096326456835
 20
3.289930770888922
 30
0.0
 10
34.78775465563141
 20
3.291577815663969
 30
0.0
 10
34.37397599196646
 20
3.298556018980538
 30
0.0
 10
33.96368102307803
 20
3.31078747536799
 30
0.0
 10
33.572577390235
 20
3.326858612066791
 30
0.0
 10
33.12181320636709
 20
3.350258369864613
 30
0.0
 10
32.59947875852284
 20
3.384720068082051
 30
0.0
 10
32.05928176068978
 20
3.429640184968428
 30
0.0
 10
31.59818509548519
 20
3.474248881247886
 30
0.0
 10
31.25392177097039
 20
3.511401699094082
 30
0.0
 10
30.9734008470196
 20
3.543058228745198
 30
0.0
 10
30.65511976873425
 20
3.582359974526386
 30
0.0
 10
30.27543242986933
 20
3.6321551853558
 30
0.0
 10
29.83580309794433
 20
3.693840157407668
 30
0.0
 10
29.55448650784588
 20
3.737751072912088
 30
0.0
 10
29.40768477393275
 20
3.760665464599777
 30
0.0
  0
SPLINE
  5
9B
330
1F
100
AcDbEntity
  8
0
  6
Continuous
 62
     1
370
    15
100
AcDbSpline
210
0.0
220
0.0
230
1.0
 70
     8
 71
     3
 72
    17
 73
    13
 74
     0
 42
0.000000001
 43
0.00000001
 40
0.0
 40
0.0
 40
0.0
 40
0.0
 40
0.1322079438645703
 40
0.2529946902940984
 40
0.3598260347456023
 40
0.438935085257492
 40
0.5074584330911309
 40
0.589727500369485
 40
0.6823329723712921
 40
0.7962378259840058
 40
0.9306351841765981
 40
0.9999999999999999
 40
0.9999999999999999
 40
0.9999999999999999
 40
0.9999999999999999
 10
29.40768477393275
 20
-3.760665464599766
 30
0.0
 10
29.56319801169304
 20
-3.736402166575074
 30
0.0
 10
29.86078998895046
 20
-3.68997163154188
 30
0.0
 10
30.32268090421776
 20
-3.625828876999518
 30
0.0
 10
30.71437600261787
 20
-3.574690329052094
 30
0.0
 10
31.03800745861901
 20
-3.535557710863245
 30
0.0
 10
31.30767003822798
 20
-3.505491422736111
 30
0.0
 10
31.61036528532097
 20
-3.473264304186093
 30
0.0
 10
31.97080660118715
 20
-3.438170105938104
 30
0.0
 10
32.39600011114003
 20
-3.401241660302255
 30
0.0
 10
32.79229692325622
 20
-3.371363201080769
 30
0.0
 10
33.04650486424921
 20
-3.356434057763404
 30
0.0
 10
33.13304245196871
 20
-3.351351871721707
 30
0.0
  0
SPLINE
  5
9C
330
1F
100
AcDbEntity
  8
0
  6
Continuous
 62
     1
370
    15
100
AcDbSpline
210
0.0
220
0.0
230
1.0
 70
     8
 71
     3
 72
     9
 73
     5
 74
     0
 42
0.000000001
 43
0.00000001
 40
0.0
 40
0.0
 40
0.0
 40
0.0
 40
0.498258075651771
 40
0.9999999999999999
 40
0.9999999999999999
 40
0.9999999999999999
 40
0.9999999999999999
 10
10.93475175715185
 20
3.419762740449702
 30
0.0
 10
10.77929857890138
 20
3.406850736229606
 30
0.0
 10
10.46730528497007
 20
3.380936446324311
 30
0.0
 10
10.15612979110289
 20
3.361327503869373
 30
0.0
 10
9.999999999999957
 20
3.351488875347598
 30
0.0
  0
LINE
  5
9D
330
1F
100
AcDbEntity
  8
0
  6
Continuous
 62
     1
370
    15
100
AcDbLine
 10
13.14829688907855
 20
-4.999999999999996
 30
0.0
 11
15.57182462415805
 21
-4.999999999999996
 31
0.0
  0
LINE
  5
9E
330
1F
100
AcDbEntity
  8
0
  6
Continuous
 62
   131
370
    15
100
AcDbLine
 10
8.480110163293226
 20
5.000000000000005
 30
0.0
 11
-38.99999999999999
 21
5.000000000000003
 31
0.0
  0
LINE
  5
9F
330
1F
100
AcDbEntity
  8
0
  6
Continuous
 62
   131
370
    15
100
AcDbLine
 10
-38.99999999999999
 20
-4.999999999999997
 30
0.0
 11
8.480110163293226
 21
-4.999999999999995
 31
0.0
  0
LINE
  5
A0
330
1F
100
AcDbEntity
  8
0
  6
Continuous
 62
   131
370
    15
100
AcDbLine
 10
-38.99999999999999
 20
4.999999999999999
 30
0.0
 11
-39.99999999999999
 21
3.999999999999998
 31
0.0
  0
LINE
  5
A1
330
1F
100
AcDbEntity
  8
0
  6
Continuous
 62
   131
370
    15
100
AcDbLine
 10
-39.99999999999999
 20
-3.999999999999995
 30
0.0
 11
-38.99999999999999
 21
-4.999999999999994
 31
0.0
  0
SPLINE
  5
A2
330
1F
100
AcDbEntity
  8
0
  6
Continuous
 62
   131
370
    15
100
AcDbSpline
210
0.0
220
0.0
230
1.0
 70
     8
 71
     3
 72
     9
 73
     5
 74
     0
 42
0.000000001
 43
0.00000001
 40
0.0
 40
0.0
 40
0.0
 40
0.0
 40
0.4697728046002972
 40
1.0
 40
1.0
 40
1.0
 40
1.0
 10
10.00000000000001
 20
3.351488875347601
 30
0.0
 10
9.760843138506695
 20
3.338509702555259
 30
0.0
 10
9.251752660830373
 20
3.310881085774461
 30
0.0
 10
8.74750420393495
 20
3.300088425286618
 30
0.0
 10
8.480137958850662
 20
3.294365863185246
 30
0.0
  0
SPLINE
  5
A3
330
1F
100
AcDbEntity
  8
0
  6
Continuous
 62
     1
370
    15
100
AcDbSpline
210
0.0
220
0.0
230
1.0
 70
     8
 71
     3
 72
    23
 73
    19
 74
     0
 42
0.000000001
 43
0.00000001
 40
0.0
 40
0.0
 40
0.0
 40
0.0
 40
0.0642291125658545
 40
0.1284008693230069
 40
0.1925513017924586
 40
0.2567166293186532
 40
0.3209329400140885
 40
0.3851730434932213
 40
0.4456788980784674
 40
0.5061554350765194
 40
0.5666714575246257
 40
0.6272618269273889
 40
0.6877802361051528
 40
0.755294751267538
 40
0.8228099537919643
 40
0.8903431270807102
 40
0.9579114572439981
 40
1.0
 40
1.0
 40
1.0
 40
1.0
 10
40.00000000000001
 20
-4.744704346159492
 30
0.0
 10
39.47691404660092
 20
-4.634495129967018
 30
0.0
 10
38.43120924913494
 20
-4.414175113058618
 30
0.0
 10
36.86346177919309
 20
-3.89762502005445
 30
0.0
 10
35.29630278412235
 20
-3.264862700458989
 30
0.0
 10
33.72872793226255
 20
-2.522289682728357
 30
0.0
 10
32.16012884779195
 20
-1.698124449049223
 30
0.0
 10
30.62107098599576
 20
-0.8353272622591658
 30
0.0
 10
29.11308549786626
 20
0.03614749466356
 30
0.0
 10
27.63552451734226
 20
0.8893089605329578
 30
0.0
 10
26.15713349435573
 20
1.716721256189692
 30
0.0
 10
24.6777050676674
 20
2.493320653525563
 30
0.0
 10
23.14205156948078
 20
3.225791067444685
 30
0.0
 10
21.54978469874036
 20
3.878611004577245
 30
0.0
 10
19.90048483795873
 20
4.416558190311147
 30
0.0
 10
18.25064284134478
 20
4.787098663423915
 30
0.0
 10
16.80766986045159
 20
4.984412148757974
 30
0.0
 10
15.91460219563239
 20
4.980273786728387
 30
0.0
 10
15.57182462415803
 20
4.978685399036991
 30
0.0
  0
SPLINE
  5
A4
330
1F
100
AcDbEntity
  8
0
  6
Continuous
 62
     1
370
    15
100
AcDbSpline
210
0.0
220
0.0
230
1.0
 70
     8
 71
     3
 72
    16
 73
    12
 74
     0
 42
0.000000001
 43
0.00000001
 40
0.0
 40
0.0
 40
0.0
 40
0.0
 40
0.1214127330952906
 40
0.2427161011987778
 40
0.3639764306888308
 40
0.4852604167902081
 40
0.6066345518962367
 40
0.7280766291791908
 40
0.8494049916531236
 40
0.9706709647445833
 40
1.0
 40
1.0
 40
1.0
 40
1.0
 10
40.00000000000001
 20
-3.944861321841072
 30
0.0
 10
39.47424494709696
 20
-3.836321232938393
 30
0.0
 10
38.42320842586132
 20
-3.619338824828443
 30
0.0
 10
36.84737850751569
 20
-3.139219600935788
 30
0.0
 10
35.27216409081473
 20
-2.564863136296543
 30
0.0
 10
33.69660830947423
 20
-1.903159888305877
 30
0.0
 10
32.12007302998468
 20
-1.179529188135252
 30
0.0
 10
30.54310704761453
 20
-0.4161326561354998
 30
0.0
 10
28.96697117891242
 20
0.3576656644124521
 30
0.0
 10
27.78972811694187
 20
0.937568870369112
 30
0.0
 10
27.13773818732716
 20
1.235524419086479
 30
0.0
 10
27.0107603024573
 20
1.293552562839758
 30
0.0
  0
LINE
  5
A5
330
1F
100
AcDbEntity
  8
0
  6
Continuous
 62
     1
370
    15
100
AcDbLine
 10
39.99999999999986
 20
-4.744704346159494
 30
0.0
 11
40.00000000000001
 21
-3.944861321841072
 31
0.0
  0
SPLINE
  5
A6
330
1F
100
AcDbEntity
  8
0
  6
Continuous
 62
     1
370
    15
100
AcDbSpline
210
0.0
220
0.0
230
1.0
 70
     8
 71
     3
 72
    60
 73
    56
 74
     0
 42
0.000000001
 43
0.00000001
 40
0.0
 40
0.0
 40
0.0
 40
0.0
 40
0.0624999999999997
 40
0.0624999999999997
 40
0.1249999999999995
 40
0.1249999999999995
 40
0.1562499999999995
 40
0.1562499999999995
 40
0.1874999999999995
 40
0.1874999999999995
 40
0.2187499999999995
 40
0.2187499999999995
 40
0.2499999999999995
 40
0.2499999999999995
 40
0.2812499999999996
 40
0.2812499999999996
 40
0.3124999999999996
 40
0.3124999999999996
 40
0.3437499999999996
 40
0.3437499999999996
 40
0.3749999999999996
 40
0.3749999999999996
 40
0.4062499999999997
 40
0.4062499999999997
 40
0.4374999999999997
 40
0.4374999999999997
 40
0.4687499999999997
 40
0.4687499999999997
 40
0.4999999999999997
 40
0.4999999999999997
 40
0.5312499999999997
 40
0.5312499999999997
 40
0.5624999999999997
 40
0.5624999999999997
 40
0.5937499999999996
 40
0.5937499999999996
 40
0.6249999999999996
 40
0.6249999999999996
 40
0.6562499999999996
 40
0.6562499999999996
 40
0.6874999999999996
 40
0.6874999999999996
 40
0.7187499999999996
 40
0.7187499999999996
 40
0.7499999999999994
 40
0.7499999999999994
 40
0.7812499999999994
 40
0.7812499999999994
 40
0.8124999999999996
 40
0.8124999999999996
 40
0.8749999999999998
 40
0.8749999999999998
 40
0.9374999999999999
 40
0.9374999999999999
 40
1.0
 40
1.0
 40
1.0
 40
1.0
 10
40.00000000000001
 20
-4.99999999999988
 30
0.0
 10
39.37892205116989
 20
-4.980972351783256
 30
0.0
 10
38.74646595146029
 20
-4.926759386381621
 30
0.0
 10
37.50271571412024
 20
-4.743178232795667
 30
0.0
 10
36.87188090148796
 20
-4.612929797480232
 30
0.0
 10
35.93795810292892
 20
-4.366103908688671
 30
0.0
 10
35.6263609113652
 20
-4.275137179998383
 30
0.0
 10
34.99956521800555
 20
-4.076479804299066
 30
0.0
 10
34.68566733526131
 20
-3.968903720061598
 30
0.0
 10
34.06236937404558
 20
-3.739230748220225
 30
0.0
 10
33.75143572075101
 20
-3.616976501859944
 30
0.0
 10
33.12481596816345
 20
-3.35818137741231
 30
0.0
 10
32.81080410797535
 20
-3.221844774444375
 30
0.0
 10
32.18688091407971
 20
-2.937740307544693
 30
0.0
 10
31.87645881164423
 20
-2.789924784349751
 30
0.0
 10
31.25007356140874
 20
-2.483094652441072
 30
0.0
 10
30.93597722271578
 20
-2.324361011728021
 30
0.0
 10
30.31148651938443
 20
-1.999070153604082
 30
0.0
 10
30.00142382180625
 20
-1.832594123637535
 30
0.0
 10
29.37533156242261
 20
-1.492075760009611
 30
0.0
 10
29.0611802707115
 20
-1.318357340396684
 30
0.0
 10
28.43617995725486
 20
-0.9670602634401071
 30
0.0
 10
28.12632440707286
 20
-0.7896813094366405
 30
0.0
 10
27.50058353578033
 20
-0.4313930310608823
 30
0.0
 10
27.18640683381174
 20
-0.250803849421173
 30
0.0
 10
26.56095496781042
 20
0.110094464679939
 30
0.0
 10
26.25115424330902
 20
0.2901184144405021
 30
0.0
 10
25.6258230479656
 20
0.6494327477929467
 30
0.0
 10
25.31165048648896
 20
0.8284568787613062
 30
0.0
 10
24.68580526589476
 20
1.182094693879022
 30
0.0
 10
24.37590702835045
 20
1.356384447832661
 30
0.0
 10
23.75104366938371
 20
1.699939895556814
 30
0.0
 10
23.43690479784663
 20
1.869036436720494
 30
0.0
 10
22.81072454299191
 20
2.198885067930754
 30
0.0
 10
22.500576483931
 20
2.359324728567641
 30
0.0
 10
21.87623897637191
 20
2.671081356176167
 30
0.0
 10
21.56216333363059
 20
2.822352672568067
 30
0.0
 10
20.93570646915786
 20
3.112990960941182
 30
0.0
 10
20.62515635759438
 20
3.252100574254437
 30
0.0
 10
20.00140255320606
 20
3.517514263595374
 30
0.0
 10
19.68741965824261
 20
3.643897431996599
 30
0.0
 10
19.06074469496595
 20
3.88173451486945
 30
0.0
 10
18.74964042458937
 20
3.99301395829947
 30
0.0
 10
18.12652799410192
 20
4.199716712258568
 30
0.0
 10
17.81266733675489
 20
4.295314148187113
 30
0.0
 10
17.18583285346495
 20
4.46922657124233
 30
0.0
 10
16.87402248974672
 20
4.547455105067153
 30
0.0
 10
16.25160890520991
 20
4.685832947565616
 30
0.0
 10
15.93789993692406
 20
4.746188337269424
 30
0.0
 10
14.99749687476106
 20
4.898968191191296
 30
0.0
 10
14.37659983433731
 20
4.962952515788345
 30
0.0
 10
13.12264462180211
 20
5.013012249128093
 30
0.0
 10
12.5017747810497
 20
4.998925785550682
 30
0.0
 10
11.24785245186149
 20
4.892997891061516
 30
0.0
 10
10.62688605488338
 20
4.801494588309998
 30
0.0
 10
10.0
 20
4.67301498800906
 30
0.0
  0
LINE
  5
A7
330
1F
100
AcDbEntity
  8
0
  6
Continuous
 62
   131
370
    15
100
AcDbLine
 10
40.00000000000001
 20
-4.99999999999988
 30
0.0
 11
39.99999999999984
 21
-4.744704346159486
 31
0.0
  0
SPLINE
  5
A8
330
1F
100
AcDbEntity
  8
0
  6
Continuous
 62
     1
370
    15
100
AcDbSpline
210
0.0
220
0.0
230
1.0
 70
     8
 71
     3
 72
    16
 73
    12
 74
     0
 42
0.000000001
 43
0.00000001
 40
0.0
 40
0.0
 40
0.0
 40
0.0
 40
0.0820799224146116
 40
0.2004085700946287
 40
0.3187378059780143
 40
0.437067609585469
 40
0.555397960411346
 40
0.6737288379245898
 40
0.8010528761178409
 40
0.9283930599028012
 40
1.0
 40
1.0
 40
1.0
 40
1.0
 10
27.5769081734543
 20
-0.4733148987366635
 30
0.0
 10
27.12140697855221
 20
-0.2905911459925956
 30
0.0
 10
26.00924287725584
 20
0.1555521364630937
 30
0.0
 10
24.24041156744344
 20
0.8706228300183015
 30
0.0
 10
22.27041037102808
 20
1.619149769951733
 30
0.0
 10
20.30040160114368
 20
2.285210842801566
 30
0.0
 10
18.33037200510404
 20
2.832696622870155
 30
0.0
 10
16.31046907808854
 20
3.246822020140556
 30
0.0
 10
14.24040209916271
 20
3.479913327225333
 30
0.0
 10
12.42965576203363
 20
3.537083290968917
 30
0.0
 10
11.32551985057094
 20
3.431789877687799
 30
0.0
 10
10.92810875696747
 20
3.393891671419099
 30
0.0
  0
SPLINE
  5
A9
330
1F
100
AcDbEntity
  8
0
  6
Continuous
 62
   131
370
    15
100
AcDbSpline
210
0.0
220
0.0
230
1.0
 70
    24
 71
     3
 72
    11
 73
     7
 74
     0
 42
0.000000001
 43
0.00000001
 40
0.0
 40
0.0
 40
0.0
 40
0.0
 40
0.190771248385886
 40
0.4117251632689832
 40
0.6390867566521719
 40
0.9999999999999999
 40
0.9999999999999999
 40
0.9999999999999999
 40
0.9999999999999999
 10
10.00000000000001
 20
4.67301498800906
 30
0.0
 10
10.00000000000001
 20
4.577836302622803
 30
0.0
 10
10.00000000000001
 20
4.372420339200911
 30
0.0
 10
10.00000000000001
 20
4.065975176116261
 30
0.0
 10
10.00000000000001
 20
3.69801538082283
 30
0.0
 10
10.00000000000001
 20
3.483249911565698
 30
0.0
 10
10.00000000000001
 20
3.351488875347601
 30
0.0
  0
SPLINE
  5
AA
330
1F
100
AcDbEntity
  8
0
  6
Continuous
 62
     1
370
    15
100
AcDbSpline
210
0.0
220
0.0
230
1.0
 70
     8
 71
     3
 72
     8
 73
     4
 74
     0
 42
0.000000001
 43
0.00000001
 40
0.0
 40
0.0
 40
0.0
 40
0.0
 40
1.0
 40
1.0
 40
1.0
 40
1.0
 10
36.90623807966205
 20
1.398590784794592
 30
0.0
 10
36.68214042923193
 20
1.664076176022835
 30
0.0
 10
36.48755699161192
 20
1.917882404497379
 30
0.0
 10
36.3339800193678
 20
2.15394762945778
 30
0.0
  0
LINE
  5
AB
330
1F
100
AcDbEntity
  8
0
  6
Continuous
 62
     1
370
    15
100
AcDbLine
 10
36.3339800193678
 20
2.15394762945778
 30
0.0
 11
40.00000000000001
 21
0.0000000000000086
 31
0.0
  0
LINE
  5
AC
330
1F
100
AcDbEntity
  8
0
  6
Continuous
 62
     1
370
    15
100
AcDbLine
 10
40.00000000000001
 20
0.0000000000000086
 30
0.0
 11
40.00000000000001
 21
-1.336214730148215
 31
0.0
  0
SPLINE
  5
AD
330
1F
100
AcDbEntity
  8
0
  6
Continuous
 62
     1
370
    15
100
AcDbSpline
210
0.0
220
0.0
230
1.0
 70
     8
 71
     3
 72
    12
 73
     8
 74
     0
 42
0.000000001
 43
0.00000001
 40
0.0
 40
0.0
 40
0.0
 40
0.0
 40
0.4999999999999991
 40
0.4999999999999991
 40
0.7499999999999996
 40
0.7499999999999996
 40
1.0
 40
1.0
 40
1.0
 40
1.0
 10
40.00000000000001
 20
-1.336214730148215
 30
0.0
 10
39.46446038354472
 20
-0.9151902182568152
 30
0.0
 10
38.93786580922738
 20
-0.476902540714837
 30
0.0
 10
38.16173639957111
 20
0.2070893295748679
 30
0.0
 10
37.90536026588216
 20
0.4395904021070481
 30
0.0
 10
37.39784408881666
 20
0.9146977532766359
 30
0.0
 10
37.14808896088134
 20
1.156071134681417
 30
0.0
 10
36.90623807966203
 20
1.3985907847946
 30
0.0
  0
SPLINE
  5
AE
330
1F
100
AcDbEntity
  8
0
  6
Continuous
 62
     1
370
    15
100
AcDbSpline
210
0.0
220
0.0
230
1.0
 70
     8
 71
     3
 72
    14
 73
    10
 74
     0
 42
0.000000001
 43
0.00000001
 40
0.0
 40
0.0
 40
0.0
 40
0.0
 40
0.1384902871736519
 40
0.2770121210434957
 40
0.4156299677564255
 40
0.5866832156930328
 40
0.7577373780270672
 40
0.928792426043459
 40
1.0
 40
1.0
 40
1.0
 40
1.0
 10
36.90623807966202
 20
1.398590784794605
 30
0.0
 10
36.37470035405394
 20
1.624115531880567
 30
0.0
 10
35.31150382388351
 20
2.075216398324331
 30
0.0
 10
33.71625203552919
 20
2.669240791646335
 30
0.0
 10
31.99582668440949
 20
3.214908363731547
 30
0.0
 10
30.15034211481217
 20
3.663671034193724
 30
0.0
 10
28.18038795871291
 20
3.94167329761897
 30
0.0
 10
26.59371301975452
 20
4.039046679833904
 30
0.0
 10
25.6636961064777
 20
3.968751321781121
 30
0.0
 10
25.39033883991434
 20
3.948089604069239
 30
0.0
  0
SPLINE
  5
AF
330
1F
100
AcDbEntity
  8
0
  6
Continuous
 62
     1
370
    15
100
AcDbSpline
210
0.0
220
0.0
230
1.0
 70
    24
 71
     3
 72
    10
 73
     6
 74
     0
 42
0.000000001
 43
0.00000001
 40
0.0
 40
0.0
 40
0.0
 40
0.0
 40
0.5
 40
0.5
 40
1.0
 40
1.0
 40
1.0
 40
1.0
 10
40.00000000000001
 20
-3.944861321841071
 30
0.0
 10
40.00000000000001
 20
-3.642456945019016
 30
0.0
 10
40.00000000000001
 20
-3.260357419532335
 30
0.0
 10
40.00000000000001
 20
-2.372012795753391
 30
0.0
 10
40.00000000000002
 20
-1.86653721525654
 30
0.0
 10
40.00000000000001
 20
-1.336214730148375
 30
0.0
  0
SPLINE
  5
B0
330
1F
100
AcDbEntity
  8
0
  6
Continuous
 62
     1
370
    15
100
AcDbSpline
210
0.0
220
0.0
230
1.0
 70
     8
 71
     3
 72
    12
 73
     8
 74
     0
 42
0.000000001
 43
0.00000001
 40
0.0
 40
0.0
 40
0.0
 40
0.0
 40
0.1922752633184101
 40
0.3943323697358418
 40
0.5963508716352812
 40
0.7982075757326292
 40
1.0
 40
1.0
 40
1.0
 40
1.0
 10
17.87441596762793
 20
-4.158008610616669
 30
0.0
 10
17.36976760339215
 20
-4.197296575084468
 30
0.0
 10
16.33479731174903
 20
-4.277871246330806
 30
0.0
 10
14.76925864575115
 20
-4.222498619341977
 30
0.0
 10
13.17866317439988
 20
-4.033290403745072
 30
0.0
 10
11.58900926963313
 20
-3.71332480506936
 30
0.0
 10
10.52961352141855
 20
-3.397893120045176
 30
0.0
 10
10.00000000000001
 20
-3.240202393275518
 30
0.0
  0
SPLINE
  5
B1
330
1F
100
AcDbEntity
  8
0
  6
Continuous
 62
     1
370
    15
100
AcDbSpline
210
0.0
220
0.0
230
1.0
 70
     8
 71
     3
 72
    18
 73
    14
 74
     0
 42
0.000000001
 43
0.00000001
 40
0.0
 40
0.0
 40
0.0
 40
0.0
 40
0.0636495231969643
 40
0.1651060296764918
 40
0.2665630444179415
 40
0.3680205503421488
 40
0.4694785303472976
 40
0.5709369673096988
 40
0.6723958440845705
 40
0.7543486615686137
 40
0.8362856207657763
 40
0.9181560303258606
 40
1.0
 40
1.0
 40
1.0
 40
1.0
 10
29.4162685537754
 20
-3.736486815717404
 30
0.0
 10
29.0043086079399
 20
-3.803094898089448
 30
0.0
 10
27.93568990309647
 20
-3.975875391523485
 30
0.0
 10
26.21040765088431
 20
-4.028621615096523
 30
0.0
 10
24.24041863921829
 20
-3.911543796129381
 30
0.0
 10
22.27041940591712
 20
-3.584817590420893
 30
0.0
 10
20.30040738586956
 20
-3.075542556435315
 30
0.0
 10
18.33039418321025
 20
-2.407268801949661
 30
0.0
 10
16.48659252178165
 20
-1.665699074278107
 30
0.0
 10
14.76923873245309
 20
-0.9099219156162347
 30
0.0
 10
13.17864072959525
 20
-0.1800383458258796
 30
0.0
 10
11.58899990789797
 20
0.5591236099360476
 30
0.0
 10
10.52960960542516
 20
1.031665961752166
 30
0.0
 10
10.0
 20
1.267898979845546
 30
0.0
  0
SPLINE
  5
B2
330
1F
100
AcDbEntity
  8
0
  6
Continuous
 62
   131
370
    15
100
AcDbSpline
210
0.0
220
0.0
230
1.0
 70
    24
 71
     3
 72
    14
 73
    10
 74
     0
 42
0.000000001
 43
0.00000001
 40
0.0
 40
0.0
 40
0.0
 40
0.0
 40
0.25
 40
0.25
 40
0.5
 40
0.5
 40
0.75
 40
0.75
 40
1.0
 40
1.0
 40
1.0
 40
1.0
 10
9.999999999999996
 20
1.267898979845549
 30
0.0
 10
9.999999999999996
 20
0.8904987461070295
 30
0.0
 10
9.999999999999996
 20
0.4957221456514961
 30
0.0
 10
9.999999999999996
 20
-0.3032719303233447
 30
0.0
 10
9.999999999999996
 20
-0.707284174520744
 30
0.0
 10
9.999999999999996
 20
-1.495186583406652
 30
0.0
 10
9.999999999999996
 20
-1.878849225797119
 30
0.0
 10
9.999999999999996
 20
-2.59931028878928
 30
0.0
 10
9.999999999999996
 20
-2.935965318244802
 30
0.0
 10
9.999999999999996
 20
-3.240202393275514
 30
0.0
  0
LINE
  5
B3
330
1F
100
AcDbEntity
  8
0
  6
Continuous
 62
     1
370
    15
100
AcDbLine
 10
40.00000000000001
 20
3.500000000000008
 30
0.0
 11
38.14061646596971
 21
3.414893137346281
 31
0.0
  0
SPLINE
  5
B4
330
1F
100
AcDbEntity
  8
0
  6
Continuous
 62
     1
370
    15
100
AcDbSpline
210
0.0
220
0.0
230
1.0
 70
     8
 71
     3
 72
    10
 73
     6
 74
     0
 42
0.000000001
 43
0.00000001
 40
0.0
 40
0.0
 40
0.0
 40
0.0
 40
0.5
 40
0.5
 40
1.0
 40
1.0
 40
1.0
 40
1.0
 10
40.00000000000001
 20
3.500000000000008
 30
0.0
 10
39.37778486821061
 20
3.331216419726823
 30
0.0
 10
38.76026279451121
 20
3.137623633046193
 30
0.0
 10
37.53581778859245
 20
2.694407155383058
 30
0.0
 10
36.92880705278058
 20
2.445160530077927
 30
0.0
 10
36.3339800193678
 20
2.15394762945778
 30
0.0
  0
SPLINE
  5
B5
330
1F
100
AcDbEntity
  8
0
  6
Continuous
 62
   131
370
    15
100
AcDbSpline
210
0.0
220
0.0
230
1.0
 70
    24
 71
     3
 72
    13
 73
     9
 74
     0
 42
0.000000001
 43
0.00000001
 40
0.0
 40
0.0
 40
0.0
 40
0.0
 40
0.059832183855469
 40
0.2508028337053161
 40
0.4363914024878095
 40
0.6273620523376596
 40
0.8110735519384848
 40
1.0
 40
1.0
 40
1.0
 40
1.0
 10
10.0
 20
3.334908541668906
 30
0.0
 10
10.0
 20
3.339081381839549
 30
0.0
 10
10.00000000000001
 20
3.356572973687924
 30
0.0
 10
10.0
 20
3.22813592829799
 30
0.0
 10
10.00000000000001
 20
2.949582009984687
 30
0.0
 10
10.00000000000001
 20
2.518240829130935
 30
0.0
 10
10.00000000000001
 20
1.962887050955142
 30
0.0
 10
10.00000000000001
 20
1.5017129978276
 30
0.0
 10
10.00000000000001
 20
1.267898979845543
 30
0.0
  0
LINE
  5
B6
330
1F
100
AcDbEntity
  8
0
  6
Continuous
 62
     1
370
    15
100
AcDbLine
 10
40.00000000000001
 20
0.0000000000000086
 30
0.0
 11
40.00000000000001
 21
3.500000000000008
 31
0.0
  0
SPLINE
  5
B7
330
1F
100
AcDbEntity
  8
0
  6
Continuous
 62
     1
370
    15
100
AcDbSpline
210
0.0
220
0.0
230
1.0
 70
     8
 71
     3
 72
    14
 73
    10
 74
     0
 42
0.000000001
 43
0.00000001
 40
0.0
 40
0.0
 40
0.0
 40
0.0
 40
0.1252819898000252
 40
0.2710399866173973
 40
0.4168738631152
 40
0.5627555202172592
 40
0.7085503378544417
 40
0.8542860933041432
 40
0.9999999999999999
 40
0.9999999999999999
 40
0.9999999999999999
 40
0.9999999999999999
 10
21.31850437551067
 20
-3.930321281648326
 30
0.0
 10
20.84587796319774
 20
-4.091843379293879
 30
0.0
 10
19.82337938480831
 20
-4.44128664128345
 30
0.0
 10
18.25064104541213
 20
-4.789502718875108
 30
0.0
 10
16.60000043883056
 20
-4.995519163166148
 30
0.0
 10
14.94902671800621
 20
-5.017650043034325
 30
0.0
 10
13.29873852362008
 20
-4.856405504769153
 30
0.0
 10
11.64919326624964
 20
-4.52952857814404
 30
0.0
 10
10.54970361404467
 20
-4.17655674650073
 30
0.0
 10
9.999999999996772
 20
-4.000084061084983
 30
0.0
  0
SPLINE
  5
B8
330
1F
100
AcDbEntity
  8
0
  6
Continuous
 62
   131
370
    15
100
AcDbSpline
210
0.0
220
0.0
230
1.0
 70
    24
 71
     3
 72
     8
 73
     4
 74
     0
 42
0.000000001
 43
0.00000001
 40
0.0
 40
0.0
 40
0.0
 40
0.0
 40
1.0
 40
1.0
 40
1.0
 40
1.0
 10
10.00000000000001
 20
-3.240202393275518
 30
0.0
 10
10.00000000000001
 20
-3.485483965842123
 30
0.0
 10
10.00000000000001
 20
-3.740370229503979
 30
0.0
 10
10.00000000000001
 20
-4.000084061076201
 30
0.0
  0
SPLINE
  5
B9
330
1F
100
AcDbEntity
  8
0
  6
Continuous
 62
     1
370
    15
100
AcDbSpline
210
0.0
220
0.0
230
1.0
 70
     8
 71
     3
 72
    10
 73
     6
 74
     0
 42
0.000000001
 43
0.00000001
 40
0.0
 40
0.0
 40
0.0
 40
0.0
 40
0.4977161144989076
 40
0.9956221109820801
 40
0.9999999999999999
 40
0.9999999999999999
 40
0.9999999999999999
 40
0.9999999999999999
 10
10.00000000000001
 20
-4.673014988009051
 30
0.0
 10
10.52230126659481
 20
-4.761872663712405
 30
0.0
 10
11.56710306116656
 20
-4.939621914909152
 30
0.0
 10
12.61647056380893
 20
-5.026722194422304
 30
0.0
 10
13.14370156188805
 20
-4.999524927075053
 30
0.0
 10
13.14829688907856
 20
-4.999287876631123
 30
0.0
  0
SPLINE
  5
BA
330
1F
100
AcDbEntity
  8
0
  6
Continuous
 62
     1
370
    15
100
AcDbSpline
210
0.0
220
0.0
230
1.0
 70
     8
 71
     3
 72
    12
 73
     8
 74
     0
 42
0.000000001
 43
0.00000001
 40
0.0
 40
0.0
 40
0.0
 40
0.0
 40
0.0389896139007319
 40
0.2791520515957034
 40
0.5193337209925134
 40
0.759596042459311
 40
1.0
 40
1.0
 40
1.0
 40
1.0
 10
33.13278566625363
 20
3.351236031240939
 30
0.0
 10
33.22203252264032
 20
3.391900519861318
 30
0.0
 10
33.86100892087391
 20
3.68304409092539
 30
0.0
 10
35.04968463089767
 20
4.109160371182491
 30
0.0
 10
36.69910618302204
 20
4.588273479079687
 30
0.0
 10
38.34916332368427
 20
4.903669863284676
 30
0.0
 10
39.44961301947581
 20
4.965066641343311
 30
0.0
 10
39.99999999999986
 20
5.000000000000113
 30
0.0
  0
LINE
  5
BB
330
1F
100
AcDbEntity
  8
0
  6
Continuous
 62
   131
370
    15
100
AcDbLine
 10
10.00000000000001
 20
-4.673014988009048
 30
0.0
 11
10.00000000000001
 21
-4.000084061067726
 31
0.0
  0
SPLINE
  5
BC
330
1F
100
AcDbEntity
  8
0
  6
Continuous
 62
     1
370
    15
100
AcDbSpline
210
0.0
220
0.0
230
1.0
 70
    24
 71
     3
 72
    10
 73
     6
 74
     0
 42
0.000000001
 43
0.00000001
 40
0.0
 40
0.0
 40
0.0
 40
0.0
 40
0.5
 40
0.5
 40
1.0
 40
1.0
 40
1.0
 40
1.0
 10
40.00000000000001
 20
3.500000000000009
 30
0.0
 10
40.00000000000001
 20
3.712161284036577
 30
0.0
 10
40.00000000000001
 20
3.958712344335594
 30
0.0
 10
39.99999999999999
 20
4.475975804804285
 30
0.0
 10
40.00000000000001
 20
4.745367179007373
 30
0.0
 10
39.99999999999986
 20
5.000000000000113
 30
0.0
  0
SPLINE
  5
BD
330
1F
100
AcDbEntity
  8
0
  6
Continuous
 62
   131
370
    15
100
AcDbSpline
210
0.0
220
0.0
230
1.0
 70
     8
 71
     3
 72
    10
 73
     6
 74
     0
 42
0.000000001
 43
0.00000001
 40
0.0
 40
0.0
 40
0.0
 40
0.0
 40
0.5
 40
0.5
 40
1.0
 40
1.0
 40
1.0
 40
1.0
 10
10.00000000000001
 20
4.673014988009058
 30
0.0
 10
9.745790201779064
 20
4.62091497236254
 30
0.0
 10
9.491345919288502
 20
4.562772042325572
 30
0.0
 10
8.984924894435364
 20
4.435118348511191
 30
0.0
 10
8.733604040021326
 20
4.36569062091456
 30
0.0
 10
8.480110163293226
 20
4.290551509839368
 30
0.0
  0
LINE
  5
BE
330
1F
100
AcDbEntity
  8
0
  6
Continuous
 62
   131
370
    15
100
AcDbLine
 10
8.480110163293226
 20
-3.414519301012605
 30
0.0
 11
8.480110163293226
 21
5.000000000000005
 31
0.0
  0
SPLINE
  5
BF
330
1F
100
AcDbEntity
  8
0
  6
Continuous
 62
   131
370
    15
100
AcDbSpline
210
0.0
220
0.0
230
1.0
 70
     8
 71
     3
 72
    10
 73
     6
 74
     0
 42
0.000000001
 43
0.00000001
 40
0.0
 40
0.0
 40
0.0
 40
0.0
 40
0.5
 40
0.5
 40
1.0
 40
1.0
 40
1.0
 40
1.0
 10
10.00000000000001
 20
-4.0000840610861
 30
0.0
 10
9.745809482202807
 20
-3.912209111560545
 30
0.0
 10
9.491384515388305
 20
-3.819149109207637
 30
0.0
 10
8.985001526178326
 20
-3.623772817088324
 30
0.0
 10
8.73369985171809
 20
-3.521563966547537
 30
0.0
 10
8.480225519970725
 20
-3.414675835521672
 30
0.0
  0
SPLINE
  5
C0
330
1F
100
AcDbEntity
  8
0
  6
Continuous
 62
   131
370
    15
100
AcDbSpline
210
0.0
220
0.0
230
1.0
 70
     8
 71
     3
 72
    10
 73
     6
 74
     0
 42
0.000000001
 43
0.00000001
 40
0.0
 40
0.0
 40
0.0
 40
0.0
 40
0.5
 40
0.5
 40
1.0
 40
1.0
 40
1.0
 40
1.0
 10
10.00000000000001
 20
-4.673014988009047
 30
0.0
 10
9.745790201779064
 20
-4.620914972362529
 30
0.0
 10
9.491345919288502
 20
-4.562772042325562
 30
0.0
 10
8.984924894435364
 20
-4.43511834851118
 30
0.0
 10
8.73360404002133
 20
-4.365690620914549
 30
0.0
 10
8.480110163293226
 20
-4.290551509839357
 30
0.0
  0
LINE
  5
C1
330
1F
100
AcDbEntity
  8
0
  6
Continuous
 62
   131
370
    15
100
AcDbLine
 10
8.480110163293226
 20
-4.999999999999995
 30
0.0
 11
8.480110163293226
 21
-4.290553219983621
 31
0.0
  0
LINE
  5
C2
330
1F
100
AcDbEntity
  8
0
  6
Continuous
 62
   131
370
    15
100
AcDbLine
 10
-38.99999999999999
 20
4.999999999999999
 30
0.0
 11
-38.99999999999999
 21
-4.999999999999997
 31
0.0
  0
LINE
  5
C3
330
1F
100
AcDbEntity
  8
0
  6
Continuous
 62
   131
370
    15
100
AcDbLine
 10
-39.99999999999999
 20
3.999999999999999
 30
0.0
 11
-39.99999999999999
 21
-3.999999999999995
 31
0.0
  0
SPLINE
  5
C4
330
1F
100
AcDbEntity
  8
0
  6
Continuous
 62
   131
370
    15
100
AcDbSpline
210
0.0
220
0.0
230
1.0
 70
     8
 71
     3
 72
    10
 73
     6
 74
     0
 42
0.000000001
 43
0.00000001
 40
0.0
 40
0.0
 40
0.0
 40
0.0
 40
0.5
 40
0.5
 40
1.0
 40
1.0
 40
1.0
 40
1.0
 10
10.0
 20
-3.240202393275517
 30
0.0
 10
9.7458094822028
 20
-3.159641549718373
 30
0.0
 10
9.491384515388297
 20
-3.074877794847819
 30
0.0
 10
8.98500152617832
 20
-2.897954907597234
 30
0.0
 10
8.73369985171809
 20
-2.805890677937746
 30
0.0
 10
8.480225519970725
 20
-2.710081349529546
 30
0.0
  0
SPLINE
  5
C5
330
1F
100
AcDbEntity
  8
0
  6
Continuous
 62
   131
370
    15
100
AcDbSpline
210
0.0
220
0.0
230
1.0
 70
     8
 71
     3
 72
    10
 73
     6
 74
     0
 42
0.000000001
 43
0.00000001
 40
0.0
 40
0.0
 40
0.0
 40
0.0
 40
0.5
 40
0.5
 40
1.0
 40
1.0
 40
1.0
 40
1.0
 10
9.999999999999996
 20
1.267898979845549
 30
0.0
 10
9.745797242942535
 20
1.37903326660336
 30
0.0
 10
9.49136001448981
 20
1.488566051836596
 30
0.0
 10
8.984952880149867
 20
1.703177936698977
 30
0.0
 10
8.733639030237086
 20
1.808174465224921
 30
0.0
 10
8.480152291285862
 20
1.911016664285392
 30
0.0
  0
SPLINE
  5
C6
330
1F
100
AcDbEntity
  8
0
  6
Continuous
 62
   131
370
    15
100
AcDbSpline
210
0.0
220
0.0
230
1.0
 70
    24
 71
     3
 72
    14
 73
    10
 74
     0
 42
0.000000001
 43
0.00000001
 40
0.0
 40
0.0
 40
0.0
 40
0.0
 40
0.25
 40
0.25
 40
0.5
 40
0.5
 40
0.75
 40
0.75
 40
1.0
 40
1.0
 40
1.0
 40
1.0
 10
9.999999999999996
 20
1.267898979845549
 30
0.0
 10
9.999999999999996
 20
0.8904987461070295
 30
0.0
 10
9.999999999999996
 20
0.4957221456514961
 30
0.0
 10
9.999999999999996
 20
-0.3032719303233447
 30
0.0
 10
9.999999999999996
 20
-0.707284174520744
 30
0.0
 10
9.999999999999996
 20
-1.495186583406652
 30
0.0
 10
9.999999999999996
 20
-1.878849225797119
 30
0.0
 10
9.999999999999996
 20
-2.59931028878928
 30
0.0
 10
9.999999999999996
 20
-2.935965318244802
 30
0.0
 10
9.999999999999996
 20
-3.240202393275514
 30
0.0
  0
SPLINE
  5
C7
330
1F
100
AcDbEntity
  8
0
  6
Continuous
 62
   131
370
    15
100
AcDbSpline
210
0.0
220
0.0
230
1.0
 70
    24
 71
     3
 72
    13
 73
     9
 74
     0
 42
0.000000001
 43
0.00000001
 40
0.0
 40
0.0
 40
0.0
 40
0.0
 40
0.0591617295277471
 40
0.2502685647441437
 40
0.4359894808129188
 40
0.6270963160293184
 40
0.8109388243371474
 40
1.0
 40
1.0
 40
1.0
 40
1.0
 10
10.0
 20
3.334995748803225
 30
0.0
 10
10.0
 20
3.33910388045976
 30
0.0
 10
10.00000000000002
 20
3.356482280680105
 30
0.0
 10
10.00000000000001
 20
3.228092291915207
 30
0.0
 10
10.00000000000001
 20
2.949593944905337
 30
0.0
 10
10.00000000000001
 20
2.518237747404022
 30
0.0
 10
10.00000000000001
 20
1.962887834095211
 30
0.0
 10
10.00000000000001
 20
1.50171326129849
 30
0.0
 10
10.00000000000001
 20
1.267898979845543
 30
0.0
  0
SPLINE
  5
C8
330
1F
100
AcDbEntity
  8
0
  6
Continuous
 62
   131
370
    15
100
AcDbSpline
210
0.0
220
0.0
230
1.0
 70
    24
 71
     3
 72
     8
 73
     4
 74
     0
 42
0.000000001
 43
0.00000001
 40
0.0
 40
0.0
 40
0.0
 40
0.0
 40
1.0
 40
1.0
 40
1.0
 40
1.0
 10
10.00000000000001
 20
-3.240202393275518
 30
0.0
 10
10.00000000000001
 20
-3.485483965842127
 30
0.0
 10
10.00000000000001
 20
-3.740370229503985
 30
0.0
 10
10.00000000000001
 20
-4.00008406107621
 30
0.0
  0
SPLINE
  5
C9
330
1F
100
AcDbEntity
  8
0
  6
Continuous
 62
   131
370
    15
100
AcDbSpline
210
0.0
220
0.0
230
1.0
 70
    24
 71
     3
 72
    11
 73
     7
 74
     0
 42
0.000000001
 43
0.00000001
 40
0.0
 40
0.0
 40
0.0
 40
0.0
 40
0.1907712483858831
 40
0.4117251632689796
 40
0.6390867566521682
 40
1.0
 40
1.0
 40
1.0
 40
1.0
 10
10.00000000000001
 20
4.673014988009059
 30
0.0
 10
10.00000000000001
 20
4.577836302622805
 30
0.0
 10
10.00000000000001
 20
4.372420339200914
 30
0.0
 10
10.00000000000001
 20
4.065975176116265
 30
0.0
 10
10.00000000000001
 20
3.698015380822834
 30
0.0
 10
10.00000000000001
 20
3.483249911565699
 30
0.0
 10
10.00000000000001
 20
3.351488875347601
 30
0.0
  0
LINE
  5
CA
330
1F
100
AcDbEntity
  8
중심선
 62
     1
100
AcDbLine
 10
-43.0
 20
-0.0000000000000004
 30
0.0
 11
43.0
 21
0.000000000000009
 31
0.0
  0
CIRCLE
  5
CB
330
1F
100
AcDbEntity
  8
외형선
100
AcDbCircle
 10
0.0000000000000104
 20
0.0
 30
0.0
 40
3.000000000000005
  0
INSERT
  5
CC
330
1F
100
AcDbEntity
  8
0
  6
Continuous
 62
     7
100
AcDbBlockReference
 66
     1
  2
블럭10
 10
-22.93944368806589
 20
-52.04609937292004
 30
0.0
  0
ATTRIB
  5
CD
330
CC
100
AcDbEntity
  8
FORMAT
 62
     2
100
AcDbText
 10
-39.05870472750145
 20
-49.97073246008785
 30
0.0
 40
4.233333333333333
  1
SEME7010030E [ 2 FLUTE ]
 41
0.75
  7
SLDTEXTSTYLE0
 11
-39.05870472750145
 21
-52.08739912675452
 31
0.0
100
AcDbAttribute
  2
AUTOATTR0
 70
     0
 74
     1
  0
SEQEND
  5
CE
330
CC
100
AcDbEntity
  8
0
  6
Continuous
 62
     7
  0
HATCH
  5
CF
330
1F
100
AcDbEntity
  8
중심선
100
AcDbHatch
 10
0.0
 20
0.0
 30
0.0
210
0.0
220
0.0
230
1.0
  2
SOLID
 70
     1
 71
     0
 91
        1
 92
        0
 93
        4
 72
     1
 10
-17.22453438368504
 20
-35.7989250712761
 11
-20.67080962752232
 21
-35.7989250712761
 72
     1
 10
-20.67080962752232
 20
-35.7989250712761
 11
-22.79903948672635
 21
-38.3352506518487
 72
     1
 10
-22.79903948672635
 20
-38.3352506518487
 11
-19.35273115777591
 21
-38.33521122254621
 72
     1
 10
-19.35273115777591
 20
-38.33521122254621
 11
-17.22453438368504
 21
-35.7989250712761
 97
        0
 75
     0
 76
     1
 98
        1
 10
0.0
 20
0.0
  0
HATCH
  5
D0
330
1F
100
AcDbEntity
  8
중심선
100
AcDbHatch
 10
0.0
 20
0.0
 30
0.0
210
0.0
220
0.0
230
1.0
  2
SOLID
 70
     1
 71
     0
 91
        1
 92
        0
 93
        4
 72
     1
 10
-12.21177039264909
 20
-35.7989250712761
 11
-15.65804563648637
 21
-35.7989250712761
 72
     1
 10
-15.65804563648637
 20
-35.7989250712761
 11
-20.18918364484376
 21
-41.19892507127612
 72
     1
 10
-20.18918364484376
 20
-41.19892507127612
 11
-16.74290840100648
 21
-41.19892507127612
 72
     1
 10
-16.74290840100648
 20
-41.19892507127612
 11
-12.21177039264909
 21
-35.7989250712761
 97
        0
 75
     0
 76
     1
 98
        1
 10
0.0
 20
0.0
  0
HATCH
  5
D1
330
1F
100
AcDbEntity
  8
중심선
100
AcDbHatch
 10
0.0
 20
0.0
 30
0.0
210
0.0
220
0.0
230
1.0
  2
SOLID
 70
     1
 71
     0
 91
        1
 92
        0
 93
        4
 72
     1
 10
-7.199006401613195
 20
-35.79892507127613
 11
-10.64528164545031
 21
-35.7989250712761
 72
     1
 10
-10.64528164545031
 20
-35.7989250712761
 11
-17.69371854733956
 21
-44.19892507127612
 72
     1
 10
-17.69371854733956
 20
-44.19892507127612
 11
-14.24744330350228
 21
-44.19892507127612
 72
     1
 10
-14.24744330350228
 20
-44.19892507127612
 11
-7.199006401613195
 21
-35.79892507127613
 97
        0
 75
     0
 76
     1
 98
        1
 10
0.0
 20
0.0
  0
HATCH
  5
D2
330
1F
100
AcDbEntity
  8
중심선
100
AcDbHatch
 10
0.0
 20
0.0
 30
0.0
210
0.0
220
0.0
230
1.0
  2
SOLID
 70
     1
 71
     0
 91
        1
 92
        0
 93
        6
 72
     3
 10
-2.399115970600996
 20
-39.99892507132738
 11
3.960054785062284
 21
1.540850780301639E-10
 40
0.3939339440162633
 50
17.09539180608433
 51
320.0019657685079
 73
     0
 72
     1
 10
-0.7161163149004002
 20
-38.58681907591441
 11
1.589185558800638
 21
-36.65249236586649
 72
     3
 10
-2.399115970653842
 20
-39.99892507127625
 11
6.600054785286829
 21
-1.249000902703301E-13
 40
0.6363583540795982
 50
39.99873849337408
 51
368.4976242363725
 73
     1
 72
     1
 10
4.026216521246767
 20
-39.03892507120613
 11
-3.71904866381792
 21
-39.0389250712061
 72
     1
 10
-3.71904866381792
 20
-39.0389250712061
 11
-3.719073708263854
 21
-40.95892507120602
 72
     1
 10
-3.719073708263854
 20
-40.95892507120602
 11
0.7223060612081831
 21
-40.95892507120599
 97
        0
 75
     0
 76
     1
 98
        1
 10
0.0
 20
0.0
  0
DIMENSION
  5
D3
330
1F
100
AcDbEntity
  8
치수문자_일반주서
100
AcDbDimension
  2
_D
 10
55.81103828590414
 20
5.000000000000171
 30
0.0
 11
55.8110382859041
 21
15.32275000000017
 31
0.0
 70
   160
  1
%%c<>
 71
     2
 42
9.999999999999993
 52
-270.0
  3
SLDDIMSTYLE0
100
AcDbAlignedDimension
 13
40.00000000000001
 23
-4.99999999999988
 33
0.0
 14
39.99999999999986
 24
5.000000000000113
 34
0.0
 50
90.0000000000002
100
AcDbRotatedDimension
  0
DIMENSION
  5
E1
330
1F
100
AcDbEntity
  8
치수문자_일반주서
100
AcDbDimension
  2
_D_1
 10
39.99999999999986
 20
25.7884104402427
 30
0.0
 11
-0.0000000000000595
 21
25.7884104402427
 31
0.0
 70
   160
  1
<>
 71
     2
 42
79.99999999999986
  3
SLDDIMSTYLE1
100
AcDbAlignedDimension
 13
-39.99999999999999
 23
3.999999999999999
 33
0.0
 14
39.99999999999986
 24
5.000000000000113
 34
0.0
 50
-0.0000000000000051
100
AcDbRotatedDimension
  0
DIMENSION
  5
EC
330
1F
100
AcDbEntity
  8
치수문자_일반주서
100
AcDbDimension
  2
_D_2
 10
39.99999999999986
 20
16.69856209795246
 30
0.0
 11
25.0
 21
16.69856209795246
 31
0.0
 70
   160
  1
<>
 71
     2
 42
29.99999999999986
  3
SLDDIMSTYLE1
100
AcDbAlignedDimension
 13
10.0
 23
4.67301498800906
 33
0.0
 14
39.99999999999986
 24
5.000000000000113
 34
0.0
 50
0.0000000000000271
100
AcDbRotatedDimension
  0
DIMENSION
  5
F6
330
1F
100
AcDbEntity
  8
치수문자_일반주서
100
AcDbDimension
  2
_D_3
 10
-51.88880680086907
 20
-5.000000000000043
 30
0.0
 11
-51.88880680086914
 21
15.32274999999995
 31
0.0
 70
   160
  1
%%c<>
 71
     2
 42
9.999999999999993
 52
-270.0
  3
SLDDIMSTYLE0
100
AcDbAlignedDimension
 13
-38.99999999999999
 23
4.999999999999999
 33
0.0
 14
-38.99999999999999
 24
-4.999999999999994
 34
0.0
 50
90.0000000000002
100
AcDbRotatedDimension
  0
INSERT
  5
109
330
1F
100
AcDbEntity
  8
외형선
100
AcDbBlockReference
  2
SW_DOWELSYMBOL_0
 10
0.0000000000000104
 20
0.0
 30
0.0
  0
ENDSEC
  0
SECTION
  2
OBJECTS
  0
DICTIONARY
  5
C
330
0
100
AcDbDictionary
281
     1
  3
ACAD_GROUP
350
D
  3
ACAD_IMAGE_VARS
350
12D
  3
ACAD_LAYOUT
350
1A
  3
ACAD_MLINESTYLE
350
17
  3
ACAD_PLOTSETTINGS
350
19
  3
ACAD_PLOTSTYLENAME
350
E
  3
ACAD_SCALELIST
350
47
  3
APPDATA
350
12B
  3
DWGPROPS
350
13C
  0
DICTIONARY
  5
D
102
{ACAD_REACTORS
330
C
102
}
330
C
100
AcDbDictionary
281
     1
  0
RASTERVARIABLES
  5
12D
102
{ACAD_REACTORS
330
C
102
}
330
C
100
AcDbRasterVariables
 90
        0
 70
     1
 71
     1
 72
     1
  0
DICTIONARY
  5
1A
102
{ACAD_REACTORS
330
C
102
}
330
C
100
AcDbDictionary
281
     1
  3
Layout1
350
1E
  3
Layout2
350
26
  3
Model
350
22
  0
DICTIONARY
  5
17
102
{ACAD_REACTORS
330
C
102
}
330
C
100
AcDbDictionary
281
     1
  3
Standard
350
18
  0
DICTIONARY
  5
19
102
{ACAD_REACTORS
330
C
102
}
330
C
100
AcDbDictionary
281
     1
  0
ACDBDICTIONARYWDFLT
  5
E
102
{ACAD_REACTORS
330
C
102
}
330
C
100
AcDbDictionary
281
     1
  3
Normal
350
F
100
AcDbDictionaryWithDefault
340
F
  0
DICTIONARY
  5
47
102
{ACAD_REACTORS
330
C
102
}
330
C
100
AcDbDictionary
281
     1
  3
A0
350
48
  3
A1
350
49
  3
A2
350
4A
  3
A3
350
4B
  3
A4
350
4C
  3
A5
350
4D
  3
A6
350
4E
  3
A7
350
4F
  3
A8
350
50
  3
A9
350
51
  3
B0
350
52
  3
B1
350
53
  3
B2
350
54
  3
B3
350
55
  3
B4
350
56
  3
B5
350
57
  3
B6
350
58
  3
B7
350
59
  3
B8
350
5A
  3
B9
350
5B
  3
C0
350
5C
  3
C1
350
5D
  3
C2
350
5E
  3
C3
350
5F
  3
C4
350
60
  3
C5
350
61
  3
C6
350
62
  3
C7
350
63
  3
C8
350
64
  3
C9
350
65
  3
D0
350
66
  3
D1
350
67
  3
D2
350
68
  0
DICTIONARY
  5
12B
102
{ACAD_REACTORS
330
C
102
}
330
C
100
AcDbDictionary
281
     1
  0
XRECORD
  5
13C
102
{ACAD_REACTORS
330
C
102
}
330
C
100
AcDbXrecord
280
     1
  1
DWGPROPS COOKIE
  2

  3

  4

  6

  7

  8
12014102
  9

300
=
301
=
302
=
303
=
304
=
305
=
306
=
307
=
308
=
309
=
 40
0.0
 41
2458262.170109109
 42
2458266.045132199
  1

 90
        0
  0
LAYOUT
  5
1E
102
{ACAD_REACTORS
330
1A
102
}
330
1A
100
AcDbPlotSettings
  1

  2
none_device
  4

  6

 40
0.0
 41
0.0
 42
0.0
 43
0.0
 44
0.0
 45
0.0
 46
0.0
 47
0.0
 48
0.0
 49
0.0
140
0.0
141
0.0
142
1.0
143
1.0
 70
   688
 72
     1
 73
     0
 74
     5
  7

 75
    16
147
1.0
148
0.0
149
0.0
100
AcDbLayout
  1
Layout1
 70
     1
 71
     1
 10
0.0
 20
0.0
 11
420.0
 21
297.0
 12
0.0
 22
0.0
 32
0.0
 14
1.000000000000000E+20
 24
1.000000000000000E+20
 34
1.000000000000000E+20
 15
-1.000000000000000E+20
 25
-1.000000000000000E+20
 35
-1.000000000000000E+20
146
0.0
 13
0.0
 23
0.0
 33
0.0
 16
1.0
 26
0.0
 36
0.0
 17
0.0
 27
1.0
 37
0.0
 76
     0
330
1B
  0
LAYOUT
  5
26
102
{ACAD_REACTORS
330
1A
102
}
330
1A
100
AcDbPlotSettings
  1

  2
none_device
  4

  6

 40
0.0
 41
0.0
 42
0.0
 43
0.0
 44
0.0
 45
0.0
 46
0.0
 47
0.0
 48
0.0
 49
0.0
140
0.0
141
0.0
142
1.0
143
1.0
 70
   688
 72
     1
 73
     0
 74
     5
  7

 75
    16
147
1.0
148
0.0
149
0.0
100
AcDbLayout
  1
Layout2
 70
     1
 71
     2
 10
0.0
 20
0.0
 11
0.0
 21
0.0
 12
0.0
 22
0.0
 32
0.0
 14
0.0
 24
0.0
 34
0.0
 15
0.0
 25
0.0
 35
0.0
146
0.0
 13
0.0
 23
0.0
 33
0.0
 16
1.0
 26
0.0
 36
0.0
 17
0.0
 27
1.0
 37
0.0
 76
     0
330
23
  0
LAYOUT
  5
22
102
{ACAD_REACTORS
330
1A
102
}
330
1A
100
AcDbPlotSettings
  1

  2
none_device
  4
ANSI_A_(11.00_x_8.50_Inches)
  6

 40
6.35
 41
19.05
 42
6.35000508
 43
19.05000254
 44
279.4
 45
215.9
 46
141.349420550456
 47
115.8280193553981
 48
0.0
 49
0.0
140
0.0
141
0.0
142
0.1038684736282271
143
1.0
 70
  1696
 72
     0
 73
     0
 74
     0
  7

 75
     0
147
0.0235690232323232
148
0.0
149
0.0
100
AcDbLayout
  1
Model
 70
     1
 71
     0
 10
0.0
 20
0.0
 11
420.0
 21
297.0
 12
0.0
 22
0.0
 32
0.0
 14
-56.26380680086915
 24
-49.97073246008785
 34
0.0
 15
56.36137161923754
 25
30.1634104402427
 35
0.0
146
0.0
 13
0.0
 23
0.0
 33
0.0
 16
1.0
 26
0.0
 36
0.0
 17
0.0
 27
1.0
 37
0.0
 76
     0
330
1F
331
29
  0
MLINESTYLE
  5
18
102
{ACAD_REACTORS
330
17
102
}
330
17
100
AcDbMlineStyle
  2
Standard
 70
     0
  3

 62
   256
 51
90.0
 52
90.0
 71
     2
 49
0.5
 62
   256
  6
BYLAYER
 49
-0.5
 62
   256
  6
BYLAYER
  0
ACDBPLACEHOLDER
  5
F
102
{ACAD_REACTORS
330
E
102
}
330
E
  0
SCALE
  5
48
102
{ACAD_REACTORS
330
47
102
}
330
47
100
AcDbScale
 70
     0
300
1:1
140
1.0
141
1.0
290
     1
  0
SCALE
  5
49
102
{ACAD_REACTORS
330
47
102
}
330
47
100
AcDbScale
 70
     0
300
1:2
140
1.0
141
2.0
290
     0
  0
SCALE
  5
4A
102
{ACAD_REACTORS
330
47
102
}
330
47
100
AcDbScale
 70
     0
300
1:4
140
1.0
141
4.0
290
     0
  0
SCALE
  5
4B
102
{ACAD_REACTORS
330
47
102
}
330
47
100
AcDbScale
 70
     0
300
1:5
140
1.0
141
5.0
290
     0
  0
SCALE
  5
4C
102
{ACAD_REACTORS
330
47
102
}
330
47
100
AcDbScale
 70
     0
300
1:8
140
1.0
141
8.0
290
     0
  0
SCALE
  5
4D
102
{ACAD_REACTORS
330
47
102
}
330
47
100
AcDbScale
 70
     0
300
1:10
140
1.0
141
10.0
290
     0
  0
SCALE
  5
4E
102
{ACAD_REACTORS
330
47
102
}
330
47
100
AcDbScale
 70
     0
300
1:16
140
1.0
141
16.0
290
     0
  0
SCALE
  5
4F
102
{ACAD_REACTORS
330
47
102
}
330
47
100
AcDbScale
 70
     0
300
1:20
140
1.0
141
20.0
290
     0
  0
SCALE
  5
50
102
{ACAD_REACTORS
330
47
102
}
330
47
100
AcDbScale
 70
     0
300
1:30
140
1.0
141
30.0
290
     0
  0
SCALE
  5
51
102
{ACAD_REACTORS
330
47
102
}
330
47
100
AcDbScale
 70
     0
300
1:40
140
1.0
141
40.0
290
     0
  0
SCALE
  5
52
102
{ACAD_REACTORS
330
47
102
}
330
47
100
AcDbScale
 70
     0
300
1:50
140
1.0
141
50.0
290
     0
  0
SCALE
  5
53
102
{ACAD_REACTORS
330
47
102
}
330
47
100
AcDbScale
 70
     0
300
1:100
140
1.0
141
100.0
290
     0
  0
SCALE
  5
54
102
{ACAD_REACTORS
330
47
102
}
330
47
100
AcDbScale
 70
     0
300
2:1
140
2.0
141
1.0
290
     0
  0
SCALE
  5
55
102
{ACAD_REACTORS
330
47
102
}
330
47
100
AcDbScale
 70
     0
300
4:1
140
4.0
141
1.0
290
     0
  0
SCALE
  5
56
102
{ACAD_REACTORS
330
47
102
}
330
47
100
AcDbScale
 70
     0
300
8:1
140
8.0
141
1.0
290
     0
  0
SCALE
  5
57
102
{ACAD_REACTORS
330
47
102
}
330
47
100
AcDbScale
 70
     0
300
10:1
140
10.0
141
1.0
290
     0
  0
SCALE
  5
58
102
{ACAD_REACTORS
330
47
102
}
330
47
100
AcDbScale
 70
     0
300
100:1
140
100.0
141
1.0
290
     0
  0
SCALE
  5
59
102
{ACAD_REACTORS
330
47
102
}
330
47
100
AcDbScale
 70
     0
300
1/128" = 1'-0"
140
0.0078125
141
12.0
290
     0
  0
SCALE
  5
5A
102
{ACAD_REACTORS
330
47
102
}
330
47
100
AcDbScale
 70
     0
300
1/64" = 1'-0"
140
0.015625
141
12.0
290
     0
  0
SCALE
  5
5B
102
{ACAD_REACTORS
330
47
102
}
330
47
100
AcDbScale
 70
     0
300
1/32" = 1'-0"
140
0.03125
141
12.0
290
     0
  0
SCALE
  5
5C
102
{ACAD_REACTORS
330
47
102
}
330
47
100
AcDbScale
 70
     0
300
1/16" = 1'-0"
140
0.0625
141
12.0
290
     0
  0
SCALE
  5
5D
102
{ACAD_REACTORS
330
47
102
}
330
47
100
AcDbScale
 70
     0
300
3/32" = 1'-0"
140
0.09375
141
12.0
290
     0
  0
SCALE
  5
5E
102
{ACAD_REACTORS
330
47
102
}
330
47
100
AcDbScale
 70
     0
300
1/8" = 1'-0"
140
0.125
141
12.0
290
     0
  0
SCALE
  5
5F
102
{ACAD_REACTORS
330
47
102
}
330
47
100
AcDbScale
 70
     0
300
3/16" = 1'-0"
140
0.1875
141
12.0
290
     0
  0
SCALE
  5
60
102
{ACAD_REACTORS
330
47
102
}
330
47
100
AcDbScale
 70
     0
300
1/4" = 1'-0"
140
0.25
141
12.0
290
     0
  0
SCALE
  5
61
102
{ACAD_REACTORS
330
47
102
}
330
47
100
AcDbScale
 70
     0
300
3/8" = 1'-0"
140
0.375
141
12.0
290
     0
  0
SCALE
  5
62
102
{ACAD_REACTORS
330
47
102
}
330
47
100
AcDbScale
 70
     0
300
1/2" = 1'-0"
140
0.5
141
12.0
290
     0
  0
SCALE
  5
63
102
{ACAD_REACTORS
330
47
102
}
330
47
100
AcDbScale
 70
     0
300
3/4" = 1'-0"
140
0.75
141
12.0
290
     0
  0
SCALE
  5
64
102
{ACAD_REACTORS
330
47
102
}
330
47
100
AcDbScale
 70
     0
300
1" = 1'-0"
140
1.0
141
12.0
290
     0
  0
SCALE
  5
65
102
{ACAD_REACTORS
330
47
102
}
330
47
100
AcDbScale
 70
     0
300
1-1/2" = 1'-0"
140
1.5
141
12.0
290
     0
  0
SCALE
  5
66
102
{ACAD_REACTORS
330
47
102
}
330
47
100
AcDbScale
 70
     0
300
3" = 1'-0"
140
3.0
141
12.0
290
     0
  0
SCALE
  5
67
102
{ACAD_REACTORS
330
47
102
}
330
47
100
AcDbScale
 70
     0
300
6" = 1'-0"
140
6.0
141
12.0
290
     0
  0
SCALE
  5
68
102
{ACAD_REACTORS
330
47
102
}
330
47
100
AcDbScale
 70
     0
300
1'-0" = 1'-0"
140
12.0
141
12.0
290
     0
  0
ENDSEC
  0
EOF
