  0
SECTION
  2
HEADER
  9
$ACADVER
  1
AC1015
  9
$ACADMAINTVER
 70
     6
  9
$DWGCODEPAGE
  3
ANSI_949
  9
$INSBASE
 10
0.0
 20
0.0
 30
0.0
  9
$EXTMIN
 10
-60.3265134226785
 20
-49.97073246008785
 30
0.0
  9
$EXTMAX
 10
56.78303997372426
 20
30.1634104402427
 30
0.0
  9
$LIMMIN
 10
0.0
 20
0.0
  9
$LIMMAX
 10
420.0
 20
297.0
  9
$ORTHOMODE
 70
     0
  9
$REGENMODE
 70
     1
  9
$FILLMODE
 70
     1
  9
$QTEXTMODE
 70
     0
  9
$MIRRTEXT
 70
     1
  9
$LTSCALE
 40
1.0
  9
$ATTMODE
 70
     1
  9
$TEXTSIZE
 40
3.5
  9
$TRACEWID
 40
1.0
  9
$TEXTSTYLE
  7
Standard
  9
$CLAYER
  8
0
  9
$CELTYPE
  6
ByLayer
  9
$CECOLOR
 62
   256
  9
$CELTSCALE
 40
1.0
  9
$DISPSILH
 70
     0
  9
$DIMSCALE
 40
1.0
  9
$DIMASZ
 40
3.302
  9
$DIMEXO
 40
1.0
  9
$DIMDLI
 40
3.75
  9
$DIMRND
 40
0.0
  9
$DIMDLE
 40
0.0
  9
$DIMEXE
 40
1.0
  9
$DIMTP
 40
0.0
  9
$DIMTM
 40
0.0
  9
$DIMTXT
 40
3.5
  9
$DIMCEN
 40
2.5
  9
$DIMTSZ
 40
0.0
  9
$DIMTOL
 70
     0
  9
$DIMLIM
 70
     0
  9
$DIMTIH
 70
     1
  9
$DIMTOH
 70
     1
  9
$DIMSE1
 70
     0
  9
$DIMSE2
 70
     0
  9
$DIMTAD
 70
     1
  9
$DIMZIN
 70
     0
  9
$DIMBLK
  1

  9
$DIMASO
 70
     1
  9
$DIMSHO
 70
     1
  9
$DIMPOST
  1

  9
$DIMAPOST
  1

  9
$DIMALT
 70
     0
  9
$DIMALTD
 70
     3
  9
$DIMALTF
 40
0.0393700787401575
  9
$DIMLFAC
 40
1.0
  9
$DIMTOFL
 70
     1
  9
$DIMTVP
 40
0.0
  9
$DIMTIX
 70
     0
  9
$DIMSOXD
 70
     0
  9
$DIMSAH
 70
     0
  9
$DIMBLK1
  1

  9
$DIMBLK2
  1

  9
$DIMSTYLE
  2
ISO-25
  9
$DIMCLRD
 70
     0
  9
$DIMCLRE
 70
     0
  9
$DIMCLRT
 70
     0
  9
$DIMTFAC
 40
1.0
  9
$DIMGAP
 40
1.524
  9
$DIMJUST
 70
     0
  9
$DIMSD1
 70
     0
  9
$DIMSD2
 70
     0
  9
$DIMTOLJ
 70
     0
  9
$DIMTZIN
 70
     0
  9
$DIMALTZ
 70
     0
  9
$DIMALTTZ
 70
     0
  9
$DIMUPT
 70
     0
  9
$DIMDEC
 70
     2
  9
$DIMTDEC
 70
     2
  9
$DIMALTU
 70
     2
  9
$DIMALTTD
 70
     3
  9
$DIMTXSTY
  7
Standard
  9
$DIMAUNIT
 70
     0
  9
$DIMADEC
 70
     2
  9
$DIMALTRND
 40
0.0
  9
$DIMAZIN
 70
     0
  9
$DIMDSEP
 70
    44
  9
$DIMATFIT
 70
     3
  9
$DIMFRAC
 70
     0
  9
$DIMLDRBLK
  1

  9
$DIMLUNIT
 70
     2
  9
$DIMLWD
 70
    -2
  9
$DIMLWE
 70
    -2
  9
$DIMTMOVE
 70
     0
  9
$LUNITS
 70
     2
  9
$LUPREC
 70
     2
  9
$SKETCHINC
 40
1.0
  9
$FILLETRAD
 40
10.0
  9
$AUNITS
 70
     0
  9
$AUPREC
 70
     2
  9
$MENU
  1
.
  9
$ELEVATION
 40
0.0
  9
$PELEVATION
 40
0.0
  9
$THICKNESS
 40
0.0
  9
$LIMCHECK
 70
     0
  9
$CHAMFERA
 40
0.0
  9
$CHAMFERB
 40
0.0
  9
$CHAMFERC
 40
0.0
  9
$CHAMFERD
 40
0.0
  9
$SKPOLY
 70
     0
  9
$TDCREATE
 40
2458262.545296308
  9
$TDUCREATE
 40
2458262.170296308
  9
$TDUPDATE
 40
2458266.479758761
  9
$TDUUPDATE
 40
2458266.104758761
  9
$TDINDWG
 40
0.0016627546
  9
$TDUSRTIMER
 40
2458266.103096042
  9
$USRTIMER
 70
     1
  9
$ANGBASE
 50
0.0
  9
$ANGDIR
 70
     0
  9
$PDMODE
 70
     0
  9
$PDSIZE
 40
-1.0
  9
$PLINEWID
 40
0.0
  9
$SPLFRAME
 70
     0
  9
$SPLINETYPE
 70
     6
  9
$SPLINESEGS
 70
     8
  9
$HANDSEED
  5
13D
  9
$SURFTAB1
 70
     6
  9
$SURFTAB2
 70
     6
  9
$SURFTYPE
 70
     6
  9
$SURFU
 70
     6
  9
$SURFV
 70
     6
  9
$UCSBASE
  2

  9
$UCSNAME
  2

  9
$UCSORG
 10
0.0
 20
0.0
 30
0.0
  9
$UCSXDIR
 10
1.0
 20
0.0
 30
0.0
  9
$UCSYDIR
 10
0.0
 20
1.0
 30
0.0
  9
$UCSORTHOREF
  2

  9
$UCSORTHOVIEW
 70
     0
  9
$UCSORGTOP
 10
0.0
 20
0.0
 30
0.0
  9
$UCSORGBOTTOM
 10
0.0
 20
0.0
 30
0.0
  9
$UCSORGLEFT
 10
0.0
 20
0.0
 30
0.0
  9
$UCSORGRIGHT
 10
0.0
 20
0.0
 30
0.0
  9
$UCSORGFRONT
 10
0.0
 20
0.0
 30
0.0
  9
$UCSORGBACK
 10
0.0
 20
0.0
 30
0.0
  9
$PUCSBASE
  2

  9
$PUCSNAME
  2

  9
$PUCSORG
 10
0.0
 20
0.0
 30
0.0
  9
$PUCSXDIR
 10
1.0
 20
0.0
 30
0.0
  9
$PUCSYDIR
 10
0.0
 20
1.0
 30
0.0
  9
$PUCSORTHOREF
  2

  9
$PUCSORTHOVIEW
 70
     0
  9
$PUCSORGTOP
 10
0.0
 20
0.0
 30
0.0
  9
$PUCSORGBOTTOM
 10
0.0
 20
0.0
 30
0.0
  9
$PUCSORGLEFT
 10
0.0
 20
0.0
 30
0.0
  9
$PUCSORGRIGHT
 10
0.0
 20
0.0
 30
0.0
  9
$PUCSORGFRONT
 10
0.0
 20
0.0
 30
0.0
  9
$PUCSORGBACK
 10
0.0
 20
0.0
 30
0.0
  9
$USERI1
 70
     0
  9
$USERI2
 70
     0
  9
$USERI3
 70
     0
  9
$USERI4
 70
     0
  9
$USERI5
 70
     0
  9
$USERR1
 40
0.0
  9
$USERR2
 40
0.0
  9
$USERR3
 40
0.0
  9
$USERR4
 40
0.0
  9
$USERR5
 40
0.0
  9
$WORLDVIEW
 70
     1
  9
$SHADEDGE
 70
     3
  9
$SHADEDIF
 70
    70
  9
$TILEMODE
 70
     1
  9
$MAXACTVP
 70
    64
  9
$PINSBASE
 10
0.0
 20
0.0
 30
0.0
  9
$PLIMCHECK
 70
     0
  9
$PEXTMIN
 10
1.000000000000000E+20
 20
1.000000000000000E+20
 30
1.000000000000000E+20
  9
$PEXTMAX
 10
-1.000000000000000E+20
 20
-1.000000000000000E+20
 30
-1.000000000000000E+20
  9
$PLIMMIN
 10
0.0
 20
0.0
  9
$PLIMMAX
 10
0.0
 20
0.0
  9
$UNITMODE
 70
     0
  9
$VISRETAIN
 70
     1
  9
$PLINEGEN
 70
     0
  9
$PSLTSCALE
 70
     1
  9
$TREEDEPTH
 70
  3020
  9
$CMLSTYLE
  2
Standard
  9
$CMLJUST
 70
     0
  9
$CMLSCALE
 40
20.0
  9
$PROXYGRAPHICS
 70
     1
  9
$MEASUREMENT
 70
     1
  9
$CELWEIGHT
370
    -1
  9
$ENDCAPS
280
     0
  9
$JOINSTYLE
280
     0
  9
$LWDISPLAY
290
     1
  9
$INSUNITS
 70
     4
  9
$HYPERLINKBASE
  1

  9
$STYLESHEET
  1

  9
$XEDIT
290
     1
  9
$CEPSNTYPE
380
     0
  9
$PSTYLEMODE
290
     1
  9
$FINGERPRINTGUID
  2
{2207CCF8-11DD-4704-B619-994827D36FDA}
  9
$VERSIONGUID
  2
{FAEB1C32-E019-11D5-929B-00C0DF256EC4}
  9
$EXTNAMES
290
     1
  9
$PSVPSCALE
 40
0.0
  9
$OLESTARTUP
290
     0
  0
ENDSEC
  0
SECTION
  2
CLASSES
  0
CLASS
  1
ACDBDICTIONARYWDFLT
  2
AcDbDictionaryWithDefault
  3
ObjectDBX Classes
 90
        0
280
     0
281
     0
  0
CLASS
  1
VISUALSTYLE
  2
AcDbVisualStyle
  3
ObjectDBX Classes
 90
     4095
280
     0
281
     0
  0
CLASS
  1
MATERIAL
  2
AcDbMaterial
  3
ObjectDBX Classes
 90
     1153
280
     0
281
     0
  0
CLASS
  1
SCALE
  2
AcDbScale
  3
ObjectDBX Classes
 90
     1153
280
     0
281
     0
  0
CLASS
  1
SUN
  2
AcDbSun
  3
SCENEOE
 90
     1153
280
     0
281
     0
  0
CLASS
  1
ACDBPLACEHOLDER
  2
AcDbPlaceHolder
  3
ObjectDBX Classes
 90
        0
280
     0
281
     0
  0
CLASS
  1
LAYOUT
  2
AcDbLayout
  3
ObjectDBX Classes
 90
        0
280
     0
281
     0
  0
CLASS
  1
TABLESTYLE
  2
AcDbTableStyle
  3
ObjectDBX Classes
 90
     4095
280
     0
281
     0
  0
CLASS
  1
MLEADERSTYLE
  2
AcDbMLeaderStyle
  3
ACDB_MLEADERSTYLE_CLASS
 90
     4095
280
     0
281
     0
  0
CLASS
  1
RASTERVARIABLES
  2
AcDbRasterVariables
  3
ISM
 90
        0
280
     0
281
     0
  0
ENDSEC
  0
SECTION
  2
TABLES
  0
TABLE
  2
VPORT
  5
8
330
0
100
AcDbSymbolTable
 70
     1
  0
VPORT
  5
29
330
8
100
AcDbSymbolTableRecord
100
AcDbViewportTableRecord
  2
*Active
 70
     0
 10
0.0
 20
0.0
 11
1.0
 21
1.0
 12
-1.771736724477115
 22
-9.903661009922573
 13
0.0
 23
0.0
 14
10.0
 24
10.0
 15
10.0
 25
10.0
 16
0.0
 26
0.0
 36
1.0
 17
0.0
 27
0.0
 37
0.0
 40
103.6498320800359
 41
1.152454780361757
 42
50.0
 43
0.0
 44
0.0
 50
0.0
 51
0.0
 71
    16
 72
  2000
 73
     1
 74
     3
 75
     0
 76
     0
 77
     0
 78
     0
281
     0
 65
     1
110
0.0
120
0.0
130
0.0
111
1.0
121
0.0
131
0.0
112
0.0
122
1.0
132
0.0
 79
     0
146
0.0
  0
ENDTAB
  0
TABLE
  2
LTYPE
  5
5
330
0
100
AcDbSymbolTable
 70
     6
  0
LTYPE
  5
14
330
5
100
AcDbSymbolTableRecord
100
AcDbLinetypeTableRecord
  2
ByBlock
 70
     0
  3

 72
    65
 73
     0
 40
0.0
  0
LTYPE
  5
15
330
5
100
AcDbSymbolTableRecord
100
AcDbLinetypeTableRecord
  2
ByLayer
 70
     0
  3

 72
    65
 73
     0
 40
0.0
  0
LTYPE
  5
16
330
5
100
AcDbSymbolTableRecord
100
AcDbLinetypeTableRecord
  2
Continuous
 70
     0
  3
Solid line
 72
    65
 73
     0
 40
0.0
  0
LTYPE
  5
6A
330
5
100
AcDbSymbolTableRecord
100
AcDbLinetypeTableRecord
  2
HIDDEN
 70
     0
  3
Hidden __ __ __ __ __ __ __ __ __ __ __ __ __ __
 72
    65
 73
     2
 40
1.905
 49
1.27
 74
     0
 49
-0.635
 74
     0
  0
LTYPE
  5
6B
330
5
100
AcDbSymbolTableRecord
100
AcDbLinetypeTableRecord
  2
PHANTOM
 70
     0
  3
Phantom ______  __  __  ______  __  __  ______
 72
    65
 73
     6
 40
12.7
 49
6.35
 74
     0
 49
-1.27
 74
     0
 49
1.27
 74
     0
 49
-1.27
 74
     0
 49
1.27
 74
     0
 49
-1.27
 74
     0
  0
LTYPE
  5
6C
330
5
100
AcDbSymbolTableRecord
100
AcDbLinetypeTableRecord
  2
CENTER
 70
     0
  3
Center ____ _ ____ _ ____ _ ____ _ ____ _ ____
 72
    65
 73
     4
 40
10.16
 49
6.35
 74
     0
 49
-1.27
 74
     0
 49
1.27
 74
     0
 49
-1.27
 74
     0
  0
LTYPE
  5
6D
330
5
100
AcDbSymbolTableRecord
100
AcDbLinetypeTableRecord
  2
CENTERX2
 70
     0
  3
Center (2x) ________  __  ________  __  _____
 72
    65
 73
     4
 40
20.32
 49
12.7
 74
     0
 49
-2.54
 74
     0
 49
2.54
 74
     0
 49
-2.54
 74
     0
  0
LTYPE
  5
6E
330
5
100
AcDbSymbolTableRecord
100
AcDbLinetypeTableRecord
  2
DOT2
 70
     0
  3
Dot (.5x) ........................................
 72
    65
 73
     2
 40
0.635
 49
0.0
 74
     0
 49
-0.635
 74
     0
  0
ENDTAB
  0
TABLE
  2
LAYER
  5
2
330
0
100
AcDbSymbolTable
 70
    17
  0
LAYER
  5
10
330
2
100
AcDbSymbolTableRecord
100
AcDbLayerTableRecord
  2
0
 70
     0
 62
     7
  6
Continuous
370
    -3
390
F
  0
LAYER
  5
6F
330
2
100
AcDbSymbolTableRecord
100
AcDbLayerTableRecord
  2
FORMAT
 70
     0
 62
     2
  6
Continuous
370
    -3
390
F
  0
LAYER
  5
70
330
2
100
AcDbSymbolTableRecord
100
AcDbLayerTableRecord
  2
외형선
 70
     0
 62
   100
  6
Continuous
370
    30
390
F
  0
LAYER
  5
71
330
2
100
AcDbSymbolTableRecord
100
AcDbLayerTableRecord
  2
숨은선
 70
     0
 62
     2
  6
HIDDEN
370
    15
390
F
  0
LAYER
  5
72
330
2
100
AcDbSymbolTableRecord
100
AcDbLayerTableRecord
  2
중심선
 70
     0
 62
     1
  6
CENTERX2
370
    -3
390
F
  0
LAYER
  5
73
330
2
100
AcDbSymbolTableRecord
100
AcDbLayerTableRecord
  2
파단선
 70
     0
 62
     4
  6
Continuous
370
    -3
390
F
  0
LAYER
  5
74
330
2
100
AcDbSymbolTableRecord
100
AcDbLayerTableRecord
  2
해칭선
 70
     0
 62
     4
  6
Continuous
370
    -3
390
F
  0
LAYER
  5
75
330
2
100
AcDbSymbolTableRecord
100
AcDbLayerTableRecord
  2
가는실선
 70
     0
 62
     4
  6
Continuous
370
    -3
390
F
  0
LAYER
  5
76
330
2
100
AcDbSymbolTableRecord
100
AcDbLayerTableRecord
  2
치수_보조선
 70
     0
 62
     4
  6
Continuous
370
    -3
390
F
  0
LAYER
  5
77
330
2
100
AcDbSymbolTableRecord
100
AcDbLayerTableRecord
  2
치수문자_일반주서
 70
     0
 62
     7
  6
Continuous
370
    15
390
F
  0
LAYER
  5
78
330
2
100
AcDbSymbolTableRecord
100
AcDbLayerTableRecord
  2
개별주서
 70
     0
 62
   100
  6
Continuous
370
    30
390
F
  0
LAYER
  5
79
330
2
100
AcDbSymbolTableRecord
100
AcDbLayerTableRecord
  2
중간선
 70
     0
 62
     2
  6
Continuous
370
    15
390
F
  0
LAYER
  5
7A
330
2
100
AcDbSymbolTableRecord
100
AcDbLayerTableRecord
  2
윤곽선
 70
     0
 62
     3
  6
Continuous
370
    40
390
F
  0
LAYER
  5
7B
330
2
100
AcDbSymbolTableRecord
100
AcDbLayerTableRecord
  2
중심마크
 70
     0
 62
   100
  6
Continuous
370
    30
390
F
  0
LAYER
  5
7C
330
2
100
AcDbSymbolTableRecord
100
AcDbLayerTableRecord
  2
가상선
 70
     0
 62
     4
  6
PHANTOM
370
    -3
390
F
  0
LAYER
  5
7D
330
2
100
AcDbSymbolTableRecord
100
AcDbLayerTableRecord
  2
특수지정선
 70
     0
 62
     5
  6
CENTERX2
370
    60
390
F
  0
LAYER
  5
12E
330
2
100
AcDbSymbolTableRecord
100
AcDbLayerTableRecord
  2
Defpoints
 70
     0
 62
     7
  6
Continuous
290
     0
370
    -3
390
F
  0
ENDTAB
  0
TABLE
  2
STYLE
  5
3
330
0
100
AcDbSymbolTable
 70
     2
  0
STYLE
  5
11
330
3
100
AcDbSymbolTableRecord
100
AcDbTextStyleTableRecord
  2
Standard
 70
     0
 40
0.0
 41
1.0
 50
0.0
 71
     0
 42
3.5
  3
txt
  4

  0
STYLE
  5
93
330
3
100
AcDbSymbolTableRecord
100
AcDbTextStyleTableRecord
  2
SLDTEXTSTYLE0
 70
     0
 40
0.0
 41
0.75
 50
0.0
 71
     0
 42
3.5
  3
TXT
  4

  0
ENDTAB
  0
TABLE
  2
VIEW
  5
6
330
0
100
AcDbSymbolTable
 70
     0
  0
ENDTAB
  0
TABLE
  2
UCS
  5
7
330
0
100
AcDbSymbolTable
 70
     0
  0
ENDTAB
  0
TABLE
  2
APPID
  5
9
330
0
100
AcDbSymbolTable
 70
     1
  0
APPID
  5
12
330
9
100
AcDbSymbolTableRecord
100
AcDbRegAppTableRecord
  2
ACAD
 70
     0
  0
ENDTAB
  0
TABLE
  2
DIMSTYLE
  5
A
330
0
100
AcDbSymbolTable
 70
     3
100
AcDbDimStyleTable
  0
DIMSTYLE
105
27
330
A
100
AcDbSymbolTableRecord
100
AcDbDimStyleTableRecord
  2
ISO-25
 70
     0
 41
2.5
 42
0.625
 43
3.75
 44
1.25
 73
     0
 74
     0
 77
     1
 78
     8
140
2.5
141
2.5
143
0.03937007874016
147
0.625
171
     3
172
     1
178
     0
271
     2
272
     2
274
     3
278
    44
283
     0
284
     8
340
11
  0
DIMSTYLE
105
D4
102
{ACAD_REACTORS
330
D3
330
F6
102
}
330
A
100
AcDbSymbolTableRecord
100
AcDbDimStyleTableRecord
  2
SLDDIMSTYLE0
 70
     0
 41
3.302
 44
0.0
 45
0.000000001
 73
     0
 74
     0
 77
     1
 78
    12
 79
     3
140
3.5
147
0.875
172
     1
173
     1
178
     0
271
     2
272
     2
276
     2
284
    12
289
     0
340
93
  0
DIMSTYLE
105
E2
102
{ACAD_REACTORS
330
E1
330
EC
102
}
330
A
100
AcDbSymbolTableRecord
100
AcDbDimStyleTableRecord
  2
SLDDIMSTYLE1
 70
     0
 41
3.302
 44
0.0
 45
0.000000001
 73
     0
 74
     0
 77
     1
 78
    12
 79
     3
140
3.5
147
0.875
173
     1
178
     0
271
     2
272
     2
276
     2
284
    12
340
93
  0
ENDTAB
  0
TABLE
  2
BLOCK_RECORD
  5
1
330
0
100
AcDbSymbolTable
 70
     7
  0
BLOCK_RECORD
  5
1F
330
1
100
AcDbSymbolTableRecord
100
AcDbBlockTableRecord
  2
*Model_Space
340
22
  0
BLOCK_RECORD
  5
1B
330
1
100
AcDbSymbolTableRecord
100
AcDbBlockTableRecord
  2
*Paper_Space
340
1E
  0
BLOCK_RECORD
  5
23
330
1
100
AcDbSymbolTableRecord
100
AcDbBlockTableRecord
  2
*Paper_Space0
340
26
  0
BLOCK_RECORD
  5
7E
330
1
100
AcDbSymbolTableRecord
100
AcDbBlockTableRecord
  2
블럭10
340
0
102
{BLKREFS
331
CC
102
}
  0
BLOCK_RECORD
  5
D5
330
1
100
AcDbSymbolTableRecord
100
AcDbBlockTableRecord
  2
_D
340
0
  0
BLOCK_RECORD
  5
E3
330
1
100
AcDbSymbolTableRecord
100
AcDbBlockTableRecord
  2
_D_1
340
0
  0
BLOCK_RECORD
  5
ED
330
1
100
AcDbSymbolTableRecord
100
AcDbBlockTableRecord
  2
_D_2
340
0
  0
BLOCK_RECORD
  5
F7
330
1
100
AcDbSymbolTableRecord
100
AcDbBlockTableRecord
  2
_D_3
340
0
  0
BLOCK_RECORD
  5
103
330
1
100
AcDbSymbolTableRecord
100
AcDbBlockTableRecord
  2
SW_DOWELSYMBOL_0
340
0
102
{BLKREFS
331
109
102
}
  0
ENDTAB
  0
ENDSEC
  0
SECTION
  2
BLOCKS
  0
BLOCK
  5
20
330
1F
100
AcDbEntity
  8
0
100
AcDbBlockBegin
  2
*Model_Space
 70
     0
 10
0.0
 20
0.0
 30
0.0
  3
*Model_Space
  1

  0
ENDBLK
  5
21
330
1F
100
AcDbEntity
  8
0
100
AcDbBlockEnd
  0
BLOCK
  5
1C
330
1B
100
AcDbEntity
 67
     1
  8
0
100
AcDbBlockBegin
  2
*Paper_Space
 70
     0
 10
0.0
 20
0.0
 30
0.0
  3
*Paper_Space
  1

  0
ENDBLK
  5
1D
330
1B
100
AcDbEntity
 67
     1
  8
0
100
AcDbBlockEnd
  0
BLOCK
  5
24
330
23
100
AcDbEntity
  8
0
100
AcDbBlockBegin
  2
*Paper_Space0
 70
     0
 10
0.0
 20
0.0
 30
0.0
  3
*Paper_Space0
  1

  0
ENDBLK
  5
25
330
23
100
AcDbEntity
  8
0
100
AcDbBlockEnd
  0
BLOCK
  5
7F
330
7E
100
AcDbEntity
  8
0
100
AcDbBlockBegin
  2
블럭10
 70
     2
 10
0.0
 20
0.0
 30
0.0
  3
블럭10
  1

  0
ELLIPSE
  5
81
330
7E
100
AcDbEntity
  8
중심선
100
AcDbEllipse
 10
20.54032771741204
 20
12.0471743016438
 30
0.0
 11
6.600054785286829
 21
-1.261213355974178E-13
 31
0.0
210
0.0
220
0.0
230
1.0
 40
0.636358354079598
 41
0.9219305317359503
 42
6.513795318482858
  0
ELLIPSE
  5
82
330
7E
100
AcDbEntity
  8
중심선
100
AcDbEllipse
 10
20.54032771746488
 20
12.04717430159265
 30
0.0
 11
3.960054785062283
 21
1.540847449632565E-10
 31
0.0
210
0.0
220
0.0
230
1.0
 40
0.3939339440162632
 41
1.131841032648279
 42
5.62031148352944
  0
LINE
  5
83
330
7E
100
AcDbEntity
  8
중심선
100
AcDbLine
 10
2.268634060543552
 20
16.24717430164393
 30
0.0
 11
5.714909304380834
 21
16.24717430164393
 31
0.0
  0
LINE
  5
84
330
7E
100
AcDbEntity
  8
중심선
100
AcDbLine
 10
5.245725140726316
 20
7.84717430164391
 30
0.0
 11
8.692000384563599
 21
7.84717430164391
 31
0.0
  0
LINE
  5
85
330
7E
100
AcDbEntity
  8
중심선
100
AcDbLine
 10
15.74043728645272
 20
16.24717430164393
 30
0.0
 11
8.692000384563599
 21
7.84717430164391
 31
0.0
  0
LINE
  5
86
330
7E
100
AcDbEntity
  8
중심선
100
AcDbLine
 10
0.1404042013395286
 20
13.71084872107135
 30
0.0
 11
3.58671253028996
 21
13.71088815037384
 31
0.0
  0
LINE
  5
87
330
7E
100
AcDbEntity
  8
중심선
100
AcDbLine
 10
2.750260043222114
 20
10.84717430164391
 30
0.0
 11
6.196535287059397
 21
10.84717430164391
 31
0.0
  0
LINE
  5
88
330
7E
100
AcDbEntity
  8
중심선
100
AcDbLine
 10
12.29416204261559
 20
16.24717430164393
 30
0.0
 11
5.245725140726316
 21
7.84717430164391
 31
0.0
  0
LINE
  5
89
330
7E
100
AcDbEntity
  8
중심선
100
AcDbLine
 10
10.72767329541681
 20
16.24717430164393
 30
0.0
 11
6.196535287059397
 21
10.84717430164391
 31
0.0
  0
LINE
  5
8A
330
7E
100
AcDbEntity
  8
중심선
100
AcDbLine
 10
7.28139805157953
 20
16.24717430164393
 30
0.0
 11
2.750260043222114
 21
10.84717430164391
 31
0.0
  0
LINE
  5
8B
330
7E
100
AcDbEntity
  8
중심선
100
AcDbLine
 10
5.714909304380834
 20
16.24717430164393
 30
0.0
 11
3.58671253028996
 21
13.71088815037384
 31
0.0
  0
LINE
  5
8C
330
7E
100
AcDbEntity
  8
중심선
100
AcDbLine
 10
2.268634060543552
 20
16.24717430164393
 30
0.0
 11
0.1404042013395286
 21
13.71084872107135
 31
0.0
  0
LINE
  5
8D
330
7E
100
AcDbEntity
  8
중심선
100
AcDbLine
 10
7.28139805157953
 20
16.24717430164393
 30
0.0
 11
10.72767329541681
 21
16.24717430164393
 31
0.0
  0
LINE
  5
8E
330
7E
100
AcDbEntity
  8
중심선
100
AcDbLine
 10
12.29416204261559
 20
16.24717430164393
 30
0.0
 11
15.74043728645272
 21
16.24717430164393
 31
0.0
  0
LINE
  5
8F
330
7E
100
AcDbEntity
  8
중심선
100
AcDbLine
 10
19.22036997980202
 20
11.08717430171403
 30
0.0
 11
23.66174974927406
 21
11.08717430171406
 31
0.0
  0
LINE
  5
90
330
7E
100
AcDbEntity
  8
중심선
100
AcDbLine
 10
19.22039502424796
 20
13.00717430171391
 30
0.0
 11
19.22036997980202
 21
11.08717430171403
 31
0.0
  0
LINE
  5
91
330
7E
100
AcDbEntity
  8
중심선
100
AcDbLine
 10
19.22039502424796
 20
13.00717430171391
 30
0.0
 11
26.96566020931264
 21
13.00717430171391
 31
0.0
  0
LINE
  5
92
330
7E
100
AcDbEntity
  8
중심선
100
AcDbLine
 10
22.22332737316547
 20
13.45928029700563
 30
0.0
 11
24.52862924686651
 21
15.39360700705356
 31
0.0
  0
ATTDEF
  5
94
330
7E
100
AcDbEntity
  8
FORMAT
 62
     2
100
AcDbText
 10
-16.11926103943555
 20
2.075366912832191
 30
0.0
 40
4.233333333333333
  1
SEME7010035E [ 2 FLUTE ]
 41
0.75
  7
SLDTEXTSTYLE0
 11
-16.11926103943555
 21
-0.0412997538344756
 31
0.0
100
AcDbAttributeDefinition
  3

  2
AUTOATTR0
 70
     0
 74
     1
  0
ENDBLK
  5
80
330
7E
100
AcDbEntity
  8
0
100
AcDbBlockEnd
  0
BLOCK
  5
D6
330
D5
100
AcDbEntity
  8
0
100
AcDbBlockBegin
  2
_D
 70
     0
 10
0.0
 20
0.0
 30
0.0
  3
_D
  1

  0
LINE
  5
D8
330
D5
100
AcDbEntity
  8
치수문자_일반주서
 62
     0
370
    -2
100
AcDbLine
 10
45.06249999999972
 20
-4.999999999999864
 30
0.0
 11
56.23270664039091
 21
-4.999999999999822
 31
0.0
  0
LINE
  5
D9
330
D5
100
AcDbEntity
  8
치수문자_일반주서
 62
     0
370
    -2
100
AcDbLine
 10
45.06250000000001
 20
5.000000000000132
 30
0.0
 11
56.23270664039087
 21
5.000000000000172
 31
0.0
  0
LINE
  5
DA
330
D5
100
AcDbEntity
  8
치수문자_일반주서
 62
     0
370
    -2
100
AcDbLine
 10
56.23270664039091
 20
-4.999999999999822
 30
0.0
 11
56.23270664039082
 21
19.04150000000017
 31
0.0
  0
LINE
  5
DB
330
D5
100
AcDbEntity
  8
치수문자_일반주서
 62
     0
370
    -2
100
AcDbLine
 10
56.23270664039091
 20
-4.999999999999822
 30
0.0
 11
56.23270664039087
 21
5.000000000000172
 31
0.0
  0
LINE
  5
DC
330
D5
100
AcDbEntity
  8
치수문자_일반주서
 62
     0
370
    -2
100
AcDbLine
 10
56.23270664039092
 20
-8.301999999999822
 30
0.0
 11
56.23270664039094
 21
-11.60399999999982
 31
0.0
  0
LINE
  5
DD
330
D5
100
AcDbEntity
  8
치수문자_일반주서
 62
     0
370
    -2
100
AcDbLine
 10
56.23270664039086
 20
8.302000000000172
 30
0.0
 11
56.23270664039084
 21
11.60400000000017
 31
0.0
  0
SOLID
  5
DE
330
D5
100
AcDbEntity
  8
치수문자_일반주서
 62
     0
100
AcDbTrace
 10
56.78303997372426
 20
-8.30199999999982
 30
0.0
 11
55.68237330705759
 21
-8.301999999999824
 31
0.0
 12
56.23270664039091
 22
-4.999999999999822
 32
0.0
 13
56.23270664039091
 23
-4.999999999999822
 33
0.0
  0
SOLID
  5
DF
330
D5
100
AcDbEntity
  8
치수문자_일반주서
 62
     0
100
AcDbTrace
 10
55.68237330705752
 20
8.30200000000017
 30
0.0
 11
56.78303997372419
 21
8.302000000000174
 31
0.0
 12
56.23270664039087
 22
5.000000000000172
 32
0.0
 13
56.23270664039087
 23
5.000000000000172
 33
0.0
  0
MTEXT
  5
E0
330
D5
100
AcDbEntity
  8
치수문자_일반주서
 62
     0
100
AcDbMText
 10
51.85770664039084
 20
15.32275000000016
 30
0.0
 40
3.5
 41
0.0
 71
     2
 72
     1
  1
\A1;%%c10
  7
SLDTEXTSTYLE0
 11
-3.552713678800503E-15
 21
1.0
 31
0.0
 73
     1
 44
1.0
  0
POINT
  5
138
330
D5
100
AcDbEntity
  8
Defpoints
 62
     0
100
AcDbPoint
 10
44.99999999999972
 20
-4.999999999999864
 30
0.0
  0
POINT
  5
139
330
D5
100
AcDbEntity
  8
Defpoints
 62
     0
100
AcDbPoint
 10
45.00000000000001
 20
5.000000000000132
 30
0.0
  0
POINT
  5
13A
330
D5
100
AcDbEntity
  8
Defpoints
 62
     0
100
AcDbPoint
 10
56.23270664039087
 20
5.000000000000174
 30
0.0
  0
ENDBLK
  5
D7
330
D5
100
AcDbEntity
  8
0
100
AcDbBlockEnd
  0
BLOCK
  5
E4
330
E3
100
AcDbEntity
  8
0
100
AcDbBlockBegin
  2
_D_1
 70
     0
 10
0.0
 20
0.0
 30
0.0
  3
_D_1
  1

  0
LINE
  5
E6
330
E3
100
AcDbEntity
  8
치수문자_일반주서
 62
     0
370
    -2
100
AcDbLine
 10
-44.99999999999999
 20
4.062499999999998
 30
0.0
 11
-44.99999999999999
 21
25.7884104402427
 31
0.0
  0
LINE
  5
E7
330
E3
100
AcDbEntity
  8
치수문자_일반주서
 62
     0
370
    -2
100
AcDbLine
 10
45.00000000000001
 20
5.062500000000132
 30
0.0
 11
45.00000000000001
 21
25.7884104402427
 31
0.0
  0
LINE
  5
E8
330
E3
100
AcDbEntity
  8
치수문자_일반주서
 62
     0
370
    -2
100
AcDbLine
 10
-41.69799999999999
 20
25.7884104402427
 30
0.0
 11
41.69800000000001
 21
25.7884104402427
 31
0.0
  0
SOLID
  5
E9
330
E3
100
AcDbEntity
  8
치수문자_일반주서
 62
     0
100
AcDbTrace
 10
-41.69799999999999
 20
26.33874377357603
 30
0.0
 11
-41.69799999999999
 21
25.23807710690936
 31
0.0
 12
-44.99999999999999
 22
25.7884104402427
 32
0.0
 13
-44.99999999999999
 23
25.7884104402427
 33
0.0
  0
SOLID
  5
EA
330
E3
100
AcDbEntity
  8
치수문자_일반주서
 62
     0
100
AcDbTrace
 10
41.69800000000001
 20
25.23807710690936
 30
0.0
 11
41.69800000000001
 21
26.33874377357603
 31
0.0
 12
45.00000000000001
 22
25.7884104402427
 32
0.0
 13
45.00000000000001
 23
25.7884104402427
 33
0.0
  0
MTEXT
  5
EB
330
E3
100
AcDbEntity
  8
치수문자_일반주서
 62
     0
100
AcDbMText
 10
0.0000000000000151
 20
30.1634104402427
 30
0.0
 40
3.5
 41
0.0
 71
     2
 72
     1
  1
\A1;90
  7
SLDTEXTSTYLE0
 73
     1
 44
1.0
  0
POINT
  5
12F
330
E3
100
AcDbEntity
  8
Defpoints
 62
     0
100
AcDbPoint
 10
-44.99999999999999
 20
3.999999999999999
 30
0.0
  0
POINT
  5
130
330
E3
100
AcDbEntity
  8
Defpoints
 62
     0
100
AcDbPoint
 10
45.00000000000001
 20
5.000000000000132
 30
0.0
  0
POINT
  5
131
330
E3
100
AcDbEntity
  8
Defpoints
 62
     0
100
AcDbPoint
 10
45.00000000000001
 20
25.7884104402427
 30
0.0
  0
ENDBLK
  5
E5
330
E3
100
AcDbEntity
  8
0
100
AcDbBlockEnd
  0
BLOCK
  5
EE
330
ED
100
AcDbEntity
  8
0
100
AcDbBlockBegin
  2
_D_2
 70
     0
 10
0.0
 20
0.0
 30
0.0
  3
_D_2
  1

  0
LINE
  5
F0
330
ED
100
AcDbEntity
  8
치수문자_일반주서
 62
     0
370
    -2
100
AcDbLine
 10
9.999999999999995
 20
3.480343746310038
 30
0.0
 11
9.999999999999993
 21
16.47997839951543
 31
0.0
  0
LINE
  5
F1
330
ED
100
AcDbEntity
  8
치수문자_일반주서
 62
     0
370
    -2
100
AcDbLine
 10
45.00000000000001
 20
5.062500000000132
 30
0.0
 11
45.00000000000001
 21
16.47997839951543
 31
0.0
  0
LINE
  5
F2
330
ED
100
AcDbEntity
  8
치수문자_일반주서
 62
     0
370
    -2
100
AcDbLine
 10
13.30199999999999
 20
16.47997839951543
 30
0.0
 11
41.69800000000001
 21
16.47997839951543
 31
0.0
  0
SOLID
  5
F3
330
ED
100
AcDbEntity
  8
치수문자_일반주서
 62
     0
100
AcDbTrace
 10
13.30199999999999
 20
17.03031173284876
 30
0.0
 11
13.30199999999999
 21
15.9296450661821
 31
0.0
 12
9.999999999999993
 22
16.47997839951543
 32
0.0
 13
9.999999999999993
 23
16.47997839951543
 33
0.0
  0
SOLID
  5
F4
330
ED
100
AcDbEntity
  8
치수문자_일반주서
 62
     0
100
AcDbTrace
 10
41.69800000000001
 20
15.9296450661821
 30
0.0
 11
41.69800000000001
 21
17.03031173284876
 31
0.0
 12
45.00000000000001
 22
16.47997839951543
 32
0.0
 13
45.00000000000001
 23
16.47997839951543
 33
0.0
  0
MTEXT
  5
F5
330
ED
100
AcDbEntity
  8
치수문자_일반주서
 62
     0
100
AcDbMText
 10
27.50000000000001
 20
20.85497839951543
 30
0.0
 40
3.5
 41
0.0
 71
     2
 72
     1
  1
\A1;35
  7
SLDTEXTSTYLE0
 73
     1
 44
1.0
  0
POINT
  5
132
330
ED
100
AcDbEntity
  8
Defpoints
 62
     0
100
AcDbPoint
 10
9.999999999999995
 20
3.417843746310038
 30
0.0
  0
POINT
  5
133
330
ED
100
AcDbEntity
  8
Defpoints
 62
     0
100
AcDbPoint
 10
45.00000000000001
 20
5.000000000000132
 30
0.0
  0
POINT
  5
134
330
ED
100
AcDbEntity
  8
Defpoints
 62
     0
100
AcDbPoint
 10
45.00000000000001
 20
16.47997839951543
 30
0.0
  0
ENDBLK
  5
EF
330
ED
100
AcDbEntity
  8
0
100
AcDbBlockEnd
  0
BLOCK
  5
F8
330
F7
100
AcDbEntity
  8
0
100
AcDbBlockBegin
  2
_D_3
 70
     0
 10
0.0
 20
0.0
 30
0.0
  3
_D_3
  1

  0
LINE
  5
FA
330
F7
100
AcDbEntity
  8
치수문자_일반주서
 62
     0
370
    -2
100
AcDbLine
 10
-44.06249999999999
 20
4.999999999999999
 30
0.0
 11
-55.95151342267845
 21
4.999999999999954
 31
0.0
  0
LINE
  5
FB
330
F7
100
AcDbEntity
  8
치수문자_일반주서
 62
     0
370
    -2
100
AcDbLine
 10
-44.06249999999999
 20
-4.999999999999996
 30
0.0
 11
-55.95151342267841
 21
-5.000000000000041
 31
0.0
  0
LINE
  5
FC
330
F7
100
AcDbEntity
  8
치수문자_일반주서
 62
     0
370
    -2
100
AcDbLine
 10
-55.95151342267845
 20
4.999999999999954
 30
0.0
 11
-55.9515134226785
 21
19.04149999999996
 31
0.0
  0
LINE
  5
FD
330
F7
100
AcDbEntity
  8
치수문자_일반주서
 62
     0
370
    -2
100
AcDbLine
 10
-55.95151342267845
 20
4.999999999999954
 30
0.0
 11
-55.95151342267841
 21
-5.000000000000041
 31
0.0
  0
LINE
  5
FE
330
F7
100
AcDbEntity
  8
치수문자_일반주서
 62
     0
370
    -2
100
AcDbLine
 10
-55.95151342267846
 20
8.301999999999953
 30
0.0
 11
-55.95151342267847
 21
11.60399999999995
 31
0.0
  0
LINE
  5
FF
330
F7
100
AcDbEntity
  8
치수문자_일반주서
 62
     0
370
    -2
100
AcDbLine
 10
-55.9515134226784
 20
-8.30200000000004
 30
0.0
 11
-55.95151342267838
 21
-11.60400000000004
 31
0.0
  0
SOLID
  5
100
330
F7
100
AcDbEntity
  8
치수문자_일반주서
 62
     0
100
AcDbTrace
 10
-56.50184675601179
 20
8.301999999999952
 30
0.0
 11
-55.40118008934513
 21
8.301999999999955
 31
0.0
 12
-55.95151342267845
 22
4.999999999999954
 32
0.0
 13
-55.95151342267845
 23
4.999999999999954
 33
0.0
  0
SOLID
  5
101
330
F7
100
AcDbEntity
  8
치수문자_일반주서
 62
     0
100
AcDbTrace
 10
-55.40118008934506
 20
-8.302000000000039
 30
0.0
 11
-56.50184675601173
 21
-8.302000000000042
 31
0.0
 12
-55.95151342267841
 22
-5.000000000000041
 32
0.0
 13
-55.95151342267841
 23
-5.000000000000041
 33
0.0
  0
MTEXT
  5
102
330
F7
100
AcDbEntity
  8
치수문자_일반주서
 62
     0
100
AcDbMText
 10
-60.32651342267848
 20
15.32274999999994
 30
0.0
 40
3.5
 41
0.0
 71
     2
 72
     1
  1
\A1;%%c10
  7
SLDTEXTSTYLE0
 11
-3.552713678800503E-15
 21
1.0
 31
0.0
 73
     1
 44
1.0
  0
POINT
  5
135
330
F7
100
AcDbEntity
  8
Defpoints
 62
     0
100
AcDbPoint
 10
-43.99999999999999
 20
4.999999999999999
 30
0.0
  0
POINT
  5
136
330
F7
100
AcDbEntity
  8
Defpoints
 62
     0
100
AcDbPoint
 10
-43.99999999999999
 20
-4.999999999999996
 30
0.0
  0
POINT
  5
137
330
F7
100
AcDbEntity
  8
Defpoints
 62
     0
100
AcDbPoint
 10
-55.95151342267839
 20
-5.00000000000004
 30
0.0
  0
ENDBLK
  5
F9
330
F7
100
AcDbEntity
  8
0
100
AcDbBlockEnd
  0
BLOCK
  5
104
330
103
100
AcDbEntity
  8
0
100
AcDbBlockBegin
  2
SW_DOWELSYMBOL_0
 70
     0
 10
0.0
 20
0.0
 30
0.0
  3
SW_DOWELSYMBOL_0
  1

  0
CIRCLE
  5
106
330
103
100
AcDbEntity
  8
외형선
 62
     0
100
AcDbCircle
 10
0.0
 20
0.0
 30
0.0
 40
3.000000000000004
  0
HATCH
  5
107
330
103
100
AcDbEntity
  8
0
  6
Continuous
 62
     0
370
    30
100
AcDbHatch
 10
0.0
 20
0.0
 30
0.0
210
0.0
220
0.0
230
1.0
  2
SOLID
 70
     1
 71
     0
 91
        1
 92
        0
 93
        3
 72
     2
 10
0.0000000000000104
 20
0.0
 40
3.000000000000004
 50
0.0
 51
90.0
 73
     1
 72
     1
 10
0.0000000000000104
 20
3.000000000000004
 11
0.0000000000000104
 21
0.0
 72
     1
 10
0.0000000000000104
 20
0.0
 11
3.000000000000015
 21
0.0
 97
        0
 75
     0
 76
     1
 98
        1
 10
0.0
 20
0.0
  0
HATCH
  5
108
330
103
100
AcDbEntity
  8
0
  6
Continuous
 62
     0
370
    30
100
AcDbHatch
 10
0.0
 20
0.0
 30
0.0
210
0.0
220
0.0
230
1.0
  2
SOLID
 70
     1
 71
     0
 91
        1
 92
        0
 93
        3
 72
     2
 10
0.0000000000000104
 20
0.0
 40
3.000000000000004
 50
180.0
 51
270.0000000000008
 73
     1
 72
     1
 10
0.0000000000000104
 20
-3.000000000000004
 11
0.0000000000000104
 21
0.0
 72
     1
 10
0.0000000000000104
 20
0.0
 11
-2.999999999999994
 21
0.0
 97
        0
 75
     0
 76
     1
 98
        1
 10
0.0
 20
0.0
  0
ENDBLK
  5
105
330
103
100
AcDbEntity
  8
0
100
AcDbBlockEnd
  0
ENDSEC
  0
SECTION
  2
ENTITIES
  0
SPLINE
  5
95
330
1F
100
AcDbEntity
  8
0
  6
Continuous
 62
     1
370
    15
100
AcDbSpline
210
0.0
220
0.0
230
1.0
 70
     8
 71
     3
 72
     9
 73
     5
 74
     0
 42
0.000000001
 43
0.00000001
 40
0.0
 40
0.0
 40
0.0
 40
0.0
 40
0.4370937021891488
 40
1.0
 40
1.0
 40
1.0
 40
1.0
 10
32.04552769158116
 20
1.281236432569305
 30
0.0
 10
31.84358663008636
 20
1.37736515566934
 30
0.0
 10
31.38157800245484
 20
1.597292193324155
 30
0.0
 10
30.91964263685783
 20
1.83898965003169
 30
0.0
 10
30.65961631038172
 20
1.975042670577227
 30
0.0
  0
LINE
  5
96
330
1F
100
AcDbEntity
  8
0
  6
Continuous
 62
     1
370
    15
100
AcDbLine
 10
20.57108815430701
 20
5.000000000000007
 30
0.0
 11
18.1495832921609
 21
5.000000000000007
 31
0.0
  0
LINE
  5
97
330
1F
100
AcDbEntity
  8
0
  6
Continuous
 62
     1
370
    15
100
AcDbLine
 10
18.14958329216094
 20
-4.999999999999996
 30
0.0
 11
20.57108815430698
 21
-4.999999999999996
 31
0.0
  0
SPLINE
  5
98
330
1F
100
AcDbEntity
  8
0
  6
Continuous
 62
     1
370
    15
100
AcDbSpline
210
0.0
220
0.0
230
1.0
 70
     8
 71
     3
 72
    18
 73
    14
 74
     0
 42
0.000000001
 43
0.00000001
 40
0.0
 40
0.0
 40
0.0
 40
0.0
 40
0.120856270705845
 40
0.2142519620637369
 40
0.3131493950386184
 40
0.3878796575459353
 40
0.4756035140050847
 40
0.5691029296423391
 40
0.6635916317006877
 40
0.7538079195937442
 40
0.8326037797238284
 40
0.9042467298271909
 40
1.0
 40
1.0
 40
1.0
 40
1.0
 10
30.3933288361362
 20
3.973197197602361
 30
0.0
 10
30.22744039124639
 20
3.964833041967348
 30
0.0
 10
29.93335614891649
 20
3.950005207670114
 30
0.0
 10
29.50432776369151
 20
3.933361097065932
 30
0.0
 10
29.14057799566005
 20
3.922021750842607
 30
0.0
 10
28.78448921438928
 20
3.913666256809075
 30
0.0
 10
28.43326174935356
 20
3.907898435181938
 30
0.0
 10
28.05426691737927
 20
3.90466944084635
 30
0.0
 10
27.67080599605094
 20
3.904519549695264
 30
0.0
 10
27.30748977390652
 20
3.907278837208209
 30
0.0
 10
26.9800206537195
 20
3.912414114747318
 30
0.0
 10
26.64838982450479
 20
3.919447901125407
 30
0.0
 10
26.41892297393855
 20
3.926658042009332
 30
0.0
 10
26.28766432722763
 20
3.930782355968773
 30
0.0
  0
SPLINE
  5
99
330
1F
100
AcDbEntity
  8
0
  6
Continuous
 62
     1
370
    15
100
AcDbSpline
210
0.0
220
0.0
230
1.0
 70
     8
 71
     3
 72
    27
 73
    23
 74
     0
 42
0.000000001
 43
0.00000001
 40
0.0
 40
0.0
 40
0.0
 40
0.0
 40
0.0719267587017275
 40
0.1267965910624215
 40
0.1734359612557574
 40
0.2019814335925837
 40
0.2323801287471124
 40
0.2651028765905301
 40
0.3007614739604256
 40
0.3396618077715142
 40
0.4050889639318717
 40
0.4604271539540139
 40
0.5062740551294034
 40
0.5671519666229942
 40
0.6401340054184415
 40
0.7185067453615591
 40
0.7752382916317612
 40
0.8236203972038797
 40
0.8468609703291565
 40
0.8830149081545674
 40
0.934010490301069
 40
1.0
 40
1.0
 40
1.0
 40
1.0
 10
22.87364596990698
 20
-4.160691550721497
 30
0.0
 10
23.05472449682836
 20
-4.143086428036987
 30
0.0
 10
23.37394004807331
 20
-4.112051114032522
 30
0.0
 10
23.80942849250491
 20
-4.074458977288369
 30
0.0
 10
24.13549770099879
 20
-4.048663136201778
 30
0.0
 10
24.39785604461628
 20
-4.029415144032351
 30
0.0
 10
24.62703047181157
 20
-4.013564974003231
 30
0.0
 10
24.87459991861202
 20
-3.997603068497978
 30
0.0
 10
25.14365294056543
 20
-3.981621213576181
 30
0.0
 10
25.49456914131744
 20
-3.962720683187373
 30
0.0
 10
25.89471544097487
 20
-3.94434248981153
 30
0.0
 10
26.31239465190826
 20
-3.929192117054466
 30
0.0
 10
26.71874918533951
 20
-3.917732841682565
 30
0.0
 10
27.16093319628938
 20
-3.908749309927684
 30
0.0
 10
27.69740458940625
 20
-3.903768551172545
 30
0.0
 10
28.22225848713843
 20
-3.905324537491917
 30
0.0
 10
28.68365911833991
 20
-3.911604151241441
 30
0.0
 10
29.0049655512211
 20
-3.918695079537094
 30
0.0
 10
29.27296424895545
 20
-3.926110763346558
 30
0.0
 10
29.54931665430814
 20
-3.935114102656049
 30
0.0
 10
29.93327537077644
 20
-3.949999141313409
 30
0.0
 10
30.22741125873393
 20
-3.964830854145089
 30
0.0
 10
30.3933288361362
 20
-3.973197197602349
 30
0.0
  0
SPLINE
  5
9A
330
1F
100
AcDbEntity
  8
0
  6
Continuous
 62
     1
370
    15
100
AcDbSpline
210
0.0
220
0.0
230
1.0
 70
     8
 71
     3
 72
    17
 73
    13
 74
     0
 42
0.000000001
 43
0.00000001
 40
0.0
 40
0.0
 40
0.0
 40
0.0
 40
0.1795688990355475
 40
0.3030762263614554
 40
0.3761155646909944
 40
0.4545216788546479
 40
0.5597703286581932
 40
0.6707058392831788
 40
0.7572876693326711
 40
0.8458618745000609
 40
0.9357215361502912
 40
1.0
 40
1.0
 40
1.0
 40
1.0
 10
34.40760783707118
 20
-3.760677547348171
 30
0.0
 10
34.63086606826587
 20
-3.726578990920433
 30
0.0
 10
35.00768111016922
 20
-3.669027478035977
 30
0.0
 10
35.47403114362416
 20
-3.605762695219035
 30
0.0
 10
35.81675987085298
 20
-3.562397319639864
 30
0.0
 10
36.13670364816599
 20
-3.524359537991101
 30
0.0
 10
36.50318216364157
 20
-3.484089030349726
 30
0.0
 10
36.8794103885205
 20
-3.44678558779198
 30
0.0
 10
37.2346261043798
 20
-3.414960881949277
 30
0.0
 10
37.56383042050511
 20
-3.388637389200105
 30
0.0
 10
37.86562051299036
 20
-3.366883177190507
 30
0.0
 10
38.05729518112527
 20
-3.355743629526359
 30
0.0
 10
38.13722708107963
 20
-3.351098231059824
 30
0.0
  0
SPLINE
  5
9B
330
1F
100
AcDbEntity
  8
0
  6
Continuous
 62
     1
370
    15
100
AcDbSpline
210
0.0
220
0.0
230
1.0
 70
     8
 71
     3
 72
    20
 73
    16
 74
     0
 42
0.000000001
 43
0.00000001
 40
0.0
 40
0.0
 40
0.0
 40
0.0
 40
0.1141200451097481
 40
0.2010044013968632
 40
0.2734812624619403
 40
0.3440901893679935
 40
0.4078539216224789
 40
0.4621714176121459
 40
0.5257114993621018
 40
0.6021325730427067
 40
0.6702767089337598
 40
0.7164318296998547
 40
0.7839820202158645
 40
0.8787238347194254
 40
1.0
 40
1.0
 40
1.0
 40
1.0
 10
15.93478545547755
 20
3.419765648982172
 30
0.0
 10
15.71457299110074
 20
3.401800686098878
 30
0.0
 10
15.32670358095794
 20
3.370158246709718
 30
0.0
 10
14.78150146269824
 20
3.338053482808425
 30
0.0
 10
14.31738214009714
 20
3.316729686635966
 30
0.0
 10
13.90710737635699
 20
3.302857722796588
 30
0.0
 10
13.53433836174997
 20
3.294637226516287
 30
0.0
 10
13.17470677473546
 20
3.290435333982066
 30
0.0
 10
12.79003914705052
 20
3.289896606109831
 30
0.0
 10
12.37813730668944
 20
3.294335264012107
 30
0.0
 10
12.00093524477552
 20
3.303196863875962
 30
0.0
 10
11.64120983872186
 20
3.315229644052721
 30
0.0
 10
11.22879558266373
 20
3.333144883740297
 30
0.0
 10
10.66759728259351
 20
3.364523978757712
 30
0.0
 10
10.2400386711994
 20
3.398672298963517
 30
0.0
 10
9.999999999999995
 20
3.417843746310038
 30
0.0
  0
SPLINE
  5
9C
330
1F
100
AcDbEntity
  8
0
  6
Continuous
 62
     1
370
    15
100
AcDbSpline
210
0.0
220
0.0
230
1.0
 70
     8
 71
     3
 72
     9
 73
     5
 74
     0
 42
0.000000001
 43
0.00000001
 40
0.0
 40
0.0
 40
0.0
 40
0.0
 40
0.7473327093420106
 40
0.9999999999999999
 40
0.9999999999999999
 40
0.9999999999999999
 40
0.9999999999999999
 10
9.999999999999995
 20
-3.41784374631003
 30
0.0
 10
10.23367506819371
 20
-3.398594867814894
 30
0.0
 10
10.54635383264851
 20
-3.372838095423541
 30
0.0
 10
10.85900166545422
 20
-3.355511213206746
 30
0.0
 10
10.93799754629933
 20
-3.351133276821479
 30
0.0
  0
SPLINE
  5
9D
330
1F
100
AcDbEntity
  8
0
  6
Continuous
 62
     1
370
    15
100
AcDbSpline
210
0.0
220
0.0
230
1.0
 70
     8
 71
     3
 72
    26
 73
    22
 74
     0
 42
0.000000001
 43
0.00000001
 40
0.0
 40
0.0
 40
0.0
 40
0.0
 40
0.0816387052657884
 40
0.1521377849116744
 40
0.2095527937093991
 40
0.25597069325863
 40
0.2992213561296477
 40
0.3575287523043817
 40
0.4271304948960283
 40
0.479550818495126
 40
0.5149613792271887
 40
0.5493331522663998
 40
0.5948816414047543
 40
0.6532791675670236
 40
0.7027464836623616
 40
0.747722306532563
 40
0.7859337929551166
 40
0.8137532582178337
 40
0.8587747766296188
 40
0.9207034937635068
 40
1.0
 40
1.0
 40
1.0
 40
1.0
 10
43.14169943397863
 20
3.419759047415969
 30
0.0
 10
42.91422161839908
 20
3.401021964502499
 30
0.0
 10
42.49030540284732
 20
3.366104479213123
 30
0.0
 10
41.86294180807639
 20
3.331275850093128
 30
0.0
 10
41.34658108577274
 20
3.309937681543095
 30
0.0
 10
40.91977484905325
 20
3.297993567335083
 30
0.0
 10
40.48820087882736
 20
3.290908870944893
 30
0.0
 10
39.9893466862676
 20
3.289252417340104
 30
0.0
 10
39.46402680925053
 20
3.296101876891519
 30
0.0
 10
39.00574359958647
 20
3.30934499726627
 30
0.0
 10
38.64974283004122
 20
3.323585815580957
 30
0.0
 10
38.31372420821047
 20
3.339966834073273
 30
0.0
 10
37.91083385444644
 20
3.363632961385444
 30
0.0
 10
37.46391669150087
 20
3.395678146626893
 30
0.0
 10
37.01895076157352
 20
3.433686760671547
 30
0.0
 10
36.63177048329553
 20
3.471012428245146
 30
0.0
 10
36.31035305212638
 20
3.505083718510619
 30
0.0
 10
35.98812110969502
 20
3.541656222878809
 30
0.0
 10
35.59557973494852
 20
3.589574035978823
 30
0.0
 10
35.05269448505673
 20
3.662251681215688
 30
0.0
 10
34.63957190472227
 20
3.725284992965803
 30
0.0
 10
34.40760783707118
 20
3.760677547348181
 30
0.0
  0
LINE
  5
9E
330
1F
100
AcDbEntity
  8
0
  6
Continuous
 62
   131
370
    15
100
AcDbLine
 10
8.47988970501532
 20
5.000000000000005
 30
0.0
 11
-43.99999999999999
 21
5.000000000000002
 31
0.0
  0
LINE
  5
9F
330
1F
100
AcDbEntity
  8
0
  6
Continuous
 62
   131
370
    15
100
AcDbLine
 10
-43.99999999999999
 20
-4.999999999999998
 30
0.0
 11
8.47988970501532
 21
-4.999999999999995
 31
0.0
  0
LINE
  5
A0
330
1F
100
AcDbEntity
  8
0
  6
Continuous
 62
   131
370
    15
100
AcDbLine
 10
-43.99999999999999
 20
4.999999999999999
 30
0.0
 11
-44.99999999999999
 21
3.999999999999998
 31
0.0
  0
LINE
  5
A1
330
1F
100
AcDbEntity
  8
0
  6
Continuous
 62
   131
370
    15
100
AcDbLine
 10
-44.99999999999999
 20
-3.999999999999996
 30
0.0
 11
-43.99999999999999
 21
-4.999999999999996
 31
0.0
  0
SPLINE
  5
A2
330
1F
100
AcDbEntity
  8
0
  6
Continuous
 62
   131
370
    15
100
AcDbSpline
210
0.0
220
0.0
230
1.0
 70
     8
 71
     3
 72
     9
 73
     5
 74
     0
 42
0.000000001
 43
0.00000001
 40
0.0
 40
0.0
 40
0.0
 40
0.0
 40
0.4428559695559482
 40
1.0
 40
1.0
 40
1.0
 40
1.0
 10
8.470735048178758
 20
-3.57995966385495
 30
0.0
 10
8.693086427723168
 20
-3.552861864869451
 30
0.0
 10
9.195171518203852
 20
-3.491673124402273
 30
0.0
 10
9.712033456509353
 20
-3.444259798050445
 30
0.0
 10
10.00000000000001
 20
-3.417843746310028
 30
0.0
  0
SPLINE
  5
A3
330
1F
100
AcDbEntity
  8
0
  6
Continuous
 62
   131
370
    15
100
AcDbSpline
210
0.0
220
0.0
230
1.0
 70
     8
 71
     3
 72
     9
 73
     5
 74
     0
 42
0.000000001
 43
0.00000001
 40
0.0
 40
0.0
 40
0.0
 40
0.0
 40
0.4395517940103306
 40
1.0
 40
1.0
 40
1.0
 40
1.0
 10
10.00000000000001
 20
3.417843746310037
 30
0.0
 10
9.77726672878476
 20
3.437943927487238
 30
0.0
 10
9.270538570123197
 20
3.483672739088286
 30
0.0
 10
8.7659411556831
 20
3.544464681214588
 30
0.0
 10
8.483140440013122
 20
3.578535416117903
 30
0.0
  0
SPLINE
  5
A4
330
1F
100
AcDbEntity
  8
0
  6
Continuous
 62
     1
370
    15
100
AcDbSpline
210
0.0
220
0.0
230
1.0
 70
     8
 71
     3
 72
    21
 73
    17
 74
     0
 42
0.000000001
 43
0.00000001
 40
0.0
 40
0.0
 40
0.0
 40
0.0
 40
0.0749029935787197
 40
0.1497984008765105
 40
0.2246872176547441
 40
0.2995704451016923
 40
0.3744490890168181
 40
0.4493241589869518
 40
0.5199106073834856
 40
0.5904947953562386
 40
0.6610838789002774
 40
0.7316849992041731
 40
0.8023052611002571
 40
0.8729499244737463
 40
0.9435830269861106
 40
1.0
 40
1.0
 40
1.0
 40
1.0
 10
45.00000000000002
 20
-4.744704346159491
 30
0.0
 10
44.39001877746645
 20
-4.613186820495321
 30
0.0
 10
43.17011811215865
 20
-4.350165089447642
 30
0.0
 10
41.34039951338688
 20
-3.705684052746464
 30
0.0
 10
39.51087241095856
 20
-2.911621975212495
 30
0.0
 10
37.68150474409143
 20
-1.984090650917669
 30
0.0
 10
35.85229046089669
 20
-0.9694639027733618
 30
0.0
 10
34.05801140944468
 20
0.068317836380667
 30
0.0
 10
32.29896549605443
 20
1.082227396062628
 30
0.0
 10
30.57477236662746
 20
2.033249005578672
 30
0.0
 10
28.85045145897074
 20
2.904034615871904
 30
0.0
 10
27.12577022284015
 20
3.659644181359275
 30
0.0
 10
25.40055820158858
 20
4.272224336752589
 30
0.0
 10
23.67490445862246
 20
4.709844384915643
 30
0.0
 10
22.06500295613369
 20
4.965183954459576
 30
0.0
 10
21.03047392265257
 20
4.978283448611698
 30
0.0
 10
20.57108815430701
 20
4.984100318889144
 30
0.0
  0
SPLINE
  5
A5
330
1F
100
AcDbEntity
  8
0
  6
Continuous
 62
     1
370
    15
100
AcDbSpline
210
0.0
220
0.0
230
1.0
 70
     8
 71
     3
 72
    16
 73
    12
 74
     0
 42
0.000000001
 43
0.00000001
 40
0.0
 40
0.0
 40
0.0
 40
0.0
 40
0.1173265917135209
 40
0.2345218210755685
 40
0.3516863309076511
 40
0.4689211098423502
 40
0.5862909163772064
 40
0.7035540991170555
 40
0.8207252512846069
 40
0.9379052867036353
 40
1.0
 40
1.0
 40
1.0
 40
1.0
 10
45.00000000000002
 20
-3.944861321841072
 30
0.0
 10
44.49237759064258
 20
-3.840496101422099
 30
0.0
 10
43.47770112111761
 20
-3.631882510997742
 30
0.0
 10
41.95647851299447
 20
-3.174318276835361
 30
0.0
 10
40.43567146989361
 20
-2.627799387358087
 30
0.0
 10
38.914016744428
 20
-1.997819536622777
 30
0.0
 10
37.39147251930962
 20
-1.307751980813112
 30
0.0
 10
35.86958694330808
 20
-0.5761410222134858
 30
0.0
 10
34.34868252776306
 20
0.1711418961613729
 30
0.0
 10
33.06644356155235
 20
0.8029817941598689
 30
0.0
 10
32.29084648883723
 20
1.163043728160946
 30
0.0
 10
32.02220587877451
 20
1.287757011659816
 30
0.0
  0
LINE
  5
A6
330
1F
100
AcDbEntity
  8
0
  6
Continuous
 62
     1
370
    15
100
AcDbLine
 10
45.00000000000001
 20
-4.744704346159493
 30
0.0
 11
45.00000000000001
 21
-3.944861321841071
 31
0.0
  0
SPLINE
  5
A7
330
1F
100
AcDbEntity
  8
0
  6
Continuous
 62
     1
370
    15
100
AcDbSpline
210
0.0
220
0.0
230
1.0
 70
     8
 71
     3
 72
    31
 73
    27
 74
     0
 42
0.000000001
 43
0.00000001
 40
0.0
 40
0.0
 40
0.0
 40
0.0
 40
0.0186649375239685
 40
0.0652491116922531
 40
0.1074995907396309
 40
0.1500433961550457
 40
0.1922804922313864
 40
0.234811112636408
 40
0.277015911180174
 40
0.3195129851929465
 40
0.3617178504146613
 40
0.404215756050985
 40
0.4464171623943375
 40
0.4889106695477434
 40
0.5311121975010299
 40
0.5736069111676749
 40
0.6158044972575383
 40
0.658293999765756
 40
0.7004917717918382
 40
0.7429828867805232
 40
0.7851804664240861
 40
0.8276698632575146
 40
0.8699935132357842
 40
0.9126131759848407
 40
0.9561462909034782
 40
1.0
 40
1.0
 40
1.0
 40
1.0
 10
10.93801200770742
 20
3.351139538931961
 30
0.0
 10
11.14997186439904
 20
3.444862390747359
 30
0.0
 10
11.89094366490926
 20
3.77249985636258
 30
0.0
 10
13.11150664519494
 20
4.195050151905029
 30
0.0
 10
14.60280805913232
 20
4.609107746571818
 30
0.0
 10
16.04504846227989
 20
4.875541466562736
 30
0.0
 10
17.49110711572642
 20
5.00870760915407
 30
0.0
 10
18.9325459874909
 20
5.002693988281834
 30
0.0
 10
20.37682229746998
 20
4.857803724168035
 30
0.0
 10
21.81772522571782
 20
4.578928682142828
 30
0.0
 10
23.26247351533859
 20
4.173135045233021
 30
0.0
 10
24.70308880527637
 20
3.652198442364898
 30
0.0
 10
26.14691563276503
 20
3.028660277894061
 30
0.0
 10
27.5878125515146
 20
2.323336191488759
 30
0.0
 10
29.0323644073755
 20
1.552694528658938
 30
0.0
 10
30.47283358674958
 20
0.7396612921544111
 30
0.0
 10
31.91653603017649
 20
-0.0957260850744427
 30
0.0
 10
33.35743121908161
 20
-0.9256171337450667
 30
0.0
 10
34.8017366067655
 20
-1.73161317998081
 30
0.0
 10
36.24211003081271
 20
-2.488987739975746
 30
0.0
 10
37.68577548461735
 20
-3.179007797761646
 30
0.0
 10
39.128233421567
 20
-3.779121636843042
 30
0.0
 10
40.57529421634576
 20
-4.277264812838578
 30
0.0
 10
42.03370062302786
 20
-4.657132558507379
 30
0.0
 10
43.50958718714514
 20
-4.91761928832243
 30
0.0
 10
44.50198213631857
 20
-4.969658841406699
 30
0.0
 10
44.99999999999972
 20
-4.999999999999864
 30
0.0
  0
LINE
  5
A8
330
1F
100
AcDbEntity
  8
0
  6
Continuous
 62
     1
370
    15
100
AcDbLine
 10
44.99999999999972
 20
-4.999999999999864
 30
0.0
 11
45.00000000000001
 21
-4.744704346159497
 31
0.0
  0
SPLINE
  5
A9
330
1F
100
AcDbEntity
  8
0
  6
Continuous
 62
     1
370
    15
100
AcDbSpline
210
0.0
220
0.0
230
1.0
 70
     8
 71
     3
 72
    17
 73
    13
 74
     0
 42
0.000000001
 43
0.00000001
 40
0.0
 40
0.0
 40
0.0
 40
0.0
 40
0.0215046898591757
 40
0.1311993941241713
 40
0.2408936092197269
 40
0.3505891070942181
 40
0.460287658543313
 40
0.5699910316198574
 40
0.6797009900489731
 40
0.7894192916513731
 40
0.8991476867778732
 40
0.9999999999999999
 40
0.9999999999999999
 40
0.9999999999999999
 40
0.9999999999999999
 10
32.57579428096835
 20
-0.4730927562270777
 30
0.0
 10
32.45649708121979
 20
-0.4260280548484017
 30
0.0
 10
31.7286688525768
 20
-0.1388878846830255
 30
0.0
 10
30.39231672413572
 20
0.4093998797213816
 30
0.0
 10
28.56672716183837
 20
1.131425614594433
 30
0.0
 10
26.74111448952962
 20
1.80570499420844
 30
0.0
 10
24.91544567598523
 20
2.399463287503836
 30
0.0
 10
23.08968827649385
 20
2.886855100155114
 30
0.0
 10
21.26381041098585
 20
3.247408218995084
 30
0.0
 10
19.43777784207405
 20
3.460227481860763
 30
0.0
 10
17.66087286467223
 20
3.53242959379896
 30
0.0
 10
16.49262013643557
 20
3.450247499175692
 30
0.0
 10
15.9331149899543
 20
3.410888460006376
 30
0.0
  0
SPLINE
  5
AA
330
1F
100
AcDbEntity
  8
0
  6
Continuous
 62
     1
370
    15
100
AcDbSpline
210
0.0
220
0.0
230
1.0
 70
     8
 71
     3
 72
    17
 73
    13
 74
     0
 42
0.000000001
 43
0.00000001
 40
0.0
 40
0.0
 40
0.0
 40
0.0
 40
0.0544675144101785
 40
0.1604186720522747
 40
0.2663524909944461
 40
0.3722520539831311
 40
0.4781279753324867
 40
0.5839909406826972
 40
0.6879578030761275
 40
0.7919376965796737
 40
0.89594650530033
 40
1.0
 40
1.0
 40
1.0
 40
1.0
 10
26.28791927831112
 20
-3.930692612003654
 30
0.0
 10
25.99219248459204
 20
-4.038918644738495
 30
0.0
 10
25.12121278132463
 20
-4.357667841224039
 30
0.0
 10
23.67489858668111
 20
-4.708571796591909
 30
0.0
 10
21.94942929474585
 20
-4.970945952690189
 30
0.0
 10
20.22448413664076
 20
-5.028759485254879
 30
0.0
 10
18.50000484319784
 20
-4.889922632225839
 30
0.0
 10
16.78603978905675
 20
-4.55911798500119
 30
0.0
 10
15.08245219650632
 20
-4.054380327700499
 30
0.0
 10
13.38886468800802
 20
-3.396759529647059
 30
0.0
 10
11.69473176731981
 20
-2.614179580163
 30
0.0
 10
10.56499146800349
 20
-2.014406285209974
 30
0.0
 10
9.999999999993861
 20
-1.714455230446722
 30
0.0
  0
SPLINE
  5
AB
330
1F
100
AcDbEntity
  8
0
  6
Continuous
 62
   131
370
    15
100
AcDbSpline
210
0.0
220
0.0
230
1.0
 70
    24
 71
     3
 72
     8
 73
     4
 74
     0
 42
0.000000001
 43
0.00000001
 40
0.0
 40
0.0
 40
0.0
 40
0.0
 40
1.0
 40
1.0
 40
1.0
 40
1.0
 10
10.00000000000005
 20
-1.214011234689421
 30
0.0
 10
10.00000000000005
 20
-1.36332474896583
 30
0.0
 10
10.00000000000005
 20
-1.531133878984188
 30
0.0
 10
10.00000000000005
 20
-1.714455230443857
 30
0.0
  0
SPLINE
  5
AC
330
1F
100
AcDbEntity
  8
0
  6
Continuous
 62
     1
370
    15
100
AcDbSpline
210
0.0
220
0.0
230
1.0
 70
     8
 71
     3
 72
    16
 73
    12
 74
     0
 42
0.000000001
 43
0.00000001
 40
0.0
 40
0.0
 40
0.0
 40
0.0
 40
0.0546096908591934
 40
0.172702363632968
 40
0.2907819780562484
 40
0.4089502498812253
 40
0.5272329670494396
 40
0.64538329450677
 40
0.7634587125727601
 40
0.8816657692369043
 40
0.9999999999999999
 40
0.9999999999999999
 40
0.9999999999999999
 40
0.9999999999999999
 10
22.87775530845378
 20
-4.144240926125882
 30
0.0
 10
22.64331643937095
 20
-4.171217887210934
 30
0.0
 10
21.90190688035259
 20
-4.256532139493303
 30
0.0
 10
20.65386137611305
 20
-4.261926342116161
 30
0.0
 10
19.13297746008686
 20
-4.163908170165177
 30
0.0
 10
17.61113528003884
 20
-3.930465562899154
 30
0.0
 10
16.08858371658744
 20
-3.578187531401602
 30
0.0
 10
14.56688519289984
 20
-3.115066327067141
 30
0.0
 10
13.04561681281297
 20
-2.555341580540882
 30
0.0
 10
11.52354445607695
 20
-1.919199106311508
 30
0.0
 10
10.50803014578916
 20
-1.44915809620693
 30
0.0
 10
9.99999999999998
 20
-1.21401123468939
 30
0.0
  0
SPLINE
  5
AD
330
1F
100
AcDbEntity
  8
0
  6
Continuous
 62
     1
370
    15
100
AcDbSpline
210
0.0
220
0.0
230
1.0
 70
     8
 71
     3
 72
    13
 73
     9
 74
     0
 42
0.000000001
 43
0.00000001
 40
0.0
 40
0.0
 40
0.0
 40
0.0
 40
0.1930992417135391
 40
0.3878092617944831
 40
0.5644055366157558
 40
0.7422278411784694
 40
0.9187681785788069
 40
1.0
 40
1.0
 40
1.0
 40
1.0
 10
10.00000000000001
 20
-2.944959533601309
 30
0.0
 10
10.52464150853943
 20
-3.180263727761425
 30
0.0
 10
11.57830093427271
 20
-3.652834956030429
 30
0.0
 10
13.11151028970377
 20
-4.197444936063217
 30
0.0
 10
14.60281107053824
 20
-4.609693219594347
 30
0.0
 10
16.04503268180119
 20
-4.870820302195852
 30
0.0
 10
17.22881905452662
 20
-4.998583975321647
 30
0.0
 10
17.92895061383964
 20
-4.986463503347017
 30
0.0
 10
18.14958329216094
 20
-4.982643975204471
 30
0.0
  0
SPLINE
  5
AE
330
1F
100
AcDbEntity
  8
0
  6
Continuous
 62
     1
370
    15
100
AcDbSpline
210
0.0
220
0.0
230
1.0
 70
     8
 71
     3
 72
    12
 73
     8
 74
     0
 42
0.000000001
 43
0.00000001
 40
0.0
 40
0.0
 40
0.0
 40
0.0
 40
0.1446555499762653
 40
0.3547250119865925
 40
0.5662637055858619
 40
0.7823362332456298
 40
1.0
 40
1.0
 40
1.0
 40
1.0
 10
38.13720759249774
 20
3.351090154982296
 30
0.0
 10
38.46816649507388
 20
3.492271460560125
 30
0.0
 10
39.27974545421267
 20
3.838476914285164
 30
0.0
 10
40.57530254230676
 20
4.275032047366231
 30
0.0
 10
42.03369834344794
 20
4.657743871403977
 30
0.0
 10
43.50958776700501
 20
4.917463787819399
 30
0.0
 10
44.50198233007736
 20
4.9696068812869
 30
0.0
 10
45.00000000000001
 20
5.000000000000132
 30
0.0
  0
LINE
  5
AF
330
1F
100
AcDbEntity
  8
0
  6
Continuous
 62
   131
370
    15
100
AcDbLine
 10
10.00000000000001
 20
-2.944959533601148
 30
0.0
 11
10.00000000000001
 21
-1.714455230438728
 31
0.0
  0
SPLINE
  5
B0
330
1F
100
AcDbEntity
  8
0
  6
Continuous
 62
     1
370
    15
100
AcDbSpline
210
0.0
220
0.0
230
1.0
 70
     8
 71
     3
 72
     8
 73
     4
 74
     0
 42
0.000000001
 43
0.00000001
 40
0.0
 40
0.0
 40
0.0
 40
0.0
 40
1.0
 40
1.0
 40
1.0
 40
1.0
 10
41.90623807966204
 20
1.398590784794602
 30
0.0
 10
41.68214042923193
 20
1.664076176022841
 30
0.0
 10
41.48755699161193
 20
1.917882404497383
 30
0.0
 10
41.33398001936781
 20
2.153947629457781
 30
0.0
  0
LINE
  5
B1
330
1F
100
AcDbEntity
  8
0
  6
Continuous
 62
     1
370
    15
100
AcDbLine
 10
41.33398001936781
 20
2.153947629457781
 30
0.0
 11
45.00000000000001
 21
0.0000000000000093
 31
0.0
  0
LINE
  5
B2
330
1F
100
AcDbEntity
  8
0
  6
Continuous
 62
     1
370
    15
100
AcDbLine
 10
45.00000000000001
 20
0.0000000000000093
 30
0.0
 11
45.00000000000001
 21
-1.336214730148215
 31
0.0
  0
SPLINE
  5
B3
330
1F
100
AcDbEntity
  8
0
  6
Continuous
 62
     1
370
    15
100
AcDbSpline
210
0.0
220
0.0
230
1.0
 70
     8
 71
     3
 72
    12
 73
     8
 74
     0
 42
0.000000001
 43
0.00000001
 40
0.0
 40
0.0
 40
0.0
 40
0.0
 40
0.5
 40
0.5
 40
0.75
 40
0.75
 40
1.0
 40
1.0
 40
1.0
 40
1.0
 10
45.00000000000001
 20
-1.336214730148215
 30
0.0
 10
44.46446038354472
 20
-0.9151902182568149
 30
0.0
 10
43.93786580922738
 20
-0.4769025407148362
 30
0.0
 10
43.16173639957112
 20
0.2070893295748689
 30
0.0
 10
42.90536026588219
 20
0.4395904021070507
 30
0.0
 10
42.39784408881668
 20
0.9146977532766385
 30
0.0
 10
42.14808896088135
 20
1.156071134681418
 30
0.0
 10
41.90623807966204
 20
1.398590784794602
 30
0.0
  0
SPLINE
  5
B4
330
1F
100
AcDbEntity
  8
0
  6
Continuous
 62
     1
370
    15
100
AcDbSpline
210
0.0
220
0.0
230
1.0
 70
     8
 71
     3
 72
    15
 73
    11
 74
     0
 42
0.000000001
 43
0.00000001
 40
0.0
 40
0.0
 40
0.0
 40
0.0
 40
0.1276929647481516
 40
0.2598149875911661
 40
0.392091310644415
 40
0.5242457822432224
 40
0.6562950886043452
 40
0.7883545524587772
 40
0.9205393815875605
 40
1.0
 40
1.0
 40
1.0
 40
1.0
 10
41.90623807966188
 20
1.398590784794675
 30
0.0
 10
41.41615646113634
 20
1.606908683418729
 30
0.0
 10
40.41899463717053
 20
2.030770032027676
 30
0.0
 10
38.91401026188991
 20
2.598458029796895
 30
0.0
 10
37.39150150798164
 20
3.095096542235122
 30
0.0
 10
35.86961152528345
 20
3.49567147121224
 30
0.0
 10
34.34871018784052
 20
3.79019366375948
 30
0.0
 10
32.82769296041694
 20
3.962577242858887
 30
0.0
 10
31.50829808000431
 20
4.023572498504425
 30
0.0
 10
30.69578498559488
 20
3.976148381557307
 30
0.0
 10
30.39073333577188
 20
3.958343369901918
 30
0.0
  0
SPLINE
  5
B5
330
1F
100
AcDbEntity
  8
0
  6
Continuous
 62
     1
370
    15
100
AcDbSpline
210
0.0
220
0.0
230
1.0
 70
    24
 71
     3
 72
    10
 73
     6
 74
     0
 42
0.000000001
 43
0.00000001
 40
0.0
 40
0.0
 40
0.0
 40
0.0
 40
0.5
 40
0.5
 40
1.0
 40
1.0
 40
1.0
 40
1.0
 10
45.00000000000001
 20
-3.94486132184107
 30
0.0
 10
45.00000000000001
 20
-3.642456945019016
 30
0.0
 10
45.00000000000002
 20
-3.260357419532334
 30
0.0
 10
45.00000000000001
 20
-2.372012795753391
 30
0.0
 10
45.00000000000002
 20
-1.86653721525654
 30
0.0
 10
45.00000000000002
 20
-1.336214730148375
 30
0.0
  0
SPLINE
  5
B6
330
1F
100
AcDbEntity
  8
0
  6
Continuous
 62
     1
370
    15
100
AcDbSpline
210
0.0
220
0.0
230
1.0
 70
     8
 71
     3
 72
    24
 73
    20
 74
     0
 42
0.000000001
 43
0.00000001
 40
0.0
 40
0.0
 40
0.0
 40
0.0
 40
0.0024516893562743
 40
0.0647549620494665
 40
0.1271173798175076
 40
0.1895162210262057
 40
0.2518384078917301
 40
0.3141322726929758
 40
0.3764522748678092
 40
0.4388487291114835
 40
0.5012146494203481
 40
0.5635192520562295
 40
0.6258168749246464
 40
0.6881619349181122
 40
0.750568208555014
 40
0.8129036497659909
 40
0.8751990233060818
 40
0.9375654973970632
 40
0.9999999999999999
 40
0.9999999999999999
 40
0.9999999999999999
 40
0.9999999999999999
 10
34.408586306636
 20
-3.75835420107623
 30
0.0
 10
34.38864062372841
 20
-3.762206652577277
 30
0.0
 10
33.86182757686903
 20
-3.863959083042942
 30
0.0
 10
32.82769296949955
 20
-3.957749627046817
 30
0.0
 10
31.30561962156838
 20
-4.022598232581167
 30
0.0
 10
29.78317488274571
 20
-3.950578944376541
 30
0.0
 10
28.26170360052098
 20
-3.760332345834611
 30
0.0
 10
26.74091666343234
 20
-3.453377418133517
 30
0.0
 10
25.21948977699916
 20
-3.040195366352828
 30
0.0
 10
23.69706744119983
 20
-2.533743557719774
 30
0.0
 10
22.17495845921043
 20
-1.94908217331468
 30
0.0
 10
20.65390280291718
 20
-1.30423065504494
 30
0.0
 10
19.13302392445396
 20
-0.6192800589556483
 30
0.0
 10
17.6111763920578
 20
0.0848541274160547
 30
0.0
 10
16.08865690644178
 20
0.7856077973578764
 30
0.0
 10
14.56695247968249
 20
1.463357335118568
 30
0.0
 10
13.04566753334259
 20
2.094225153824617
 30
0.0
 10
11.52356327963617
 20
2.667750484230852
 30
0.0
 10
10.50803894595944
 20
2.977847546087235
 30
0.0
 10
10.00000000000001
 20
3.132980593347906
 30
0.0
  0
SPLINE
  5
B7
330
1F
100
AcDbEntity
  8
0
  6
Continuous
 62
   131
370
    15
100
AcDbSpline
210
0.0
220
0.0
230
1.0
 70
    24
 71
     3
 72
    14
 73
    10
 74
     0
 42
0.000000001
 43
0.00000001
 40
0.0
 40
0.0
 40
0.0
 40
0.0
 40
0.25
 40
0.25
 40
0.5
 40
0.5
 40
0.75
 40
0.75
 40
1.0
 40
1.0
 40
1.0
 40
1.0
 10
10.00000000000001
 20
3.132980593347905
 30
0.0
 10
10.00000000000001
 20
2.859942192981089
 30
0.0
 10
10.00000000000001
 20
2.551465586093958
 30
0.0
 10
10.00000000000001
 20
1.878569952921217
 30
0.0
 10
10.00000000000001
 20
1.514272013092863
 30
0.0
 10
10.00000000000001
 20
0.7545274889037932
 30
0.0
 10
10.00000000000001
 20
0.3593002956987825
 30
0.0
 10
10.00000000000001
 20
-0.4329572532509134
 30
0.0
 10
10.00000000000001
 20
-0.8297725319786108
 30
0.0
 10
10.00000000000001
 20
-1.214011234689402
 30
0.0
  0
SPLINE
  5
B8
330
1F
100
AcDbEntity
  8
0
  6
Continuous
 62
     1
370
    15
100
AcDbSpline
210
0.0
220
0.0
230
1.0
 70
    24
 71
     3
 72
    10
 73
     6
 74
     0
 42
0.000000001
 43
0.00000001
 40
0.0
 40
0.0
 40
0.0
 40
0.0
 40
0.5
 40
0.5
 40
1.0
 40
1.0
 40
1.0
 40
1.0
 10
45.00000000000001
 20
3.500000000000009
 30
0.0
 10
45.00000000000001
 20
3.712161284036579
 30
0.0
 10
45.00000000000002
 20
3.958712344335594
 30
0.0
 10
45.00000000000001
 20
4.475975804804285
 30
0.0
 10
45.00000000000001
 20
4.745367179007371
 30
0.0
 10
45.00000000000001
 20
5.000000000000132
 30
0.0
  0
SPLINE
  5
B9
330
1F
100
AcDbEntity
  8
0
  6
Continuous
 62
     1
370
    15
100
AcDbSpline
210
0.0
220
0.0
230
1.0
 70
     8
 71
     3
 72
     9
 73
     5
 74
     0
 42
0.000000001
 43
0.00000001
 40
0.0
 40
0.0
 40
0.0
 40
0.0
 40
0.9827187067276659
 40
1.0
 40
1.0
 40
1.0
 40
1.0
 10
45.00000000000001
 20
3.500000000000008
 30
0.0
 10
44.39114365329129
 20
3.498993177011812
 30
0.0
 10
43.77158045322142
 20
3.49796864885202
 30
0.0
 10
43.15202841105562
 20
3.419796423256893
 30
0.0
 10
43.14132175051748
 20
3.418445506100634
 30
0.0
  0
SPLINE
  5
BA
330
1F
100
AcDbEntity
  8
0
  6
Continuous
 62
   131
370
    15
100
AcDbSpline
210
0.0
220
0.0
230
1.0
 70
    24
 71
     3
 72
     9
 73
     5
 74
     0
 42
0.000000001
 43
0.00000001
 40
0.0
 40
0.0
 40
0.0
 40
0.0
 40
0.4760900382361314
 40
1.0
 40
1.0
 40
1.0
 40
1.0
 10
10.00000000000001
 20
3.413294026009059
 30
0.0
 10
10.00000000000001
 20
3.40416151640412
 30
0.0
 10
10.0
 20
3.38497920030531
 30
0.0
 10
10.0
 20
3.219616013975243
 30
0.0
 10
10.00000000000001
 20
3.132980593347907
 30
0.0
  0
SPLINE
  5
BB
330
1F
100
AcDbEntity
  8
0
  6
Continuous
 62
     1
370
    15
100
AcDbSpline
210
0.0
220
0.0
230
1.0
 70
     8
 71
     3
 72
    10
 73
     6
 74
     0
 42
0.000000001
 43
0.00000001
 40
0.0
 40
0.0
 40
0.0
 40
0.0
 40
0.5
 40
0.5
 40
1.0
 40
1.0
 40
1.0
 40
1.0
 10
45.00000000000001
 20
3.500000000000008
 30
0.0
 10
44.37778486821063
 20
3.331216419726823
 30
0.0
 10
43.76026279451122
 20
3.137623633046194
 30
0.0
 10
42.53581778859245
 20
2.694407155383059
 30
0.0
 10
41.92880705278058
 20
2.445160530077928
 30
0.0
 10
41.3339800193678
 20
2.153947629457782
 30
0.0
  0
SPLINE
  5
BC
330
1F
100
AcDbEntity
  8
0
  6
Continuous
 62
   131
370
    15
100
AcDbSpline
210
0.0
220
0.0
230
1.0
 70
    24
 71
     3
 72
    11
 73
     7
 74
     0
 42
0.000000001
 43
0.00000001
 40
0.0
 40
0.0
 40
0.0
 40
0.0
 40
0.0916558349528429
 40
0.5254780081105204
 40
0.971881053678973
 40
1.0
 40
1.0
 40
1.0
 40
1.0
 10
10.00000000000001
 20
-3.007161388485605
 30
0.0
 10
10.00000000000001
 20
-3.035032888526653
 30
0.0
 10
10.00000000000001
 20
-3.194824791924376
 30
0.0
 10
10.00000000000001
 20
-3.335352918595214
 30
0.0
 10
10.0
 20
-3.440244297483911
 30
0.0
 10
10.00000000000001
 20
-3.4148017154903
 30
0.0
 10
10.00000000000001
 20
-3.413294053865391
 30
0.0
  0
LINE
  5
BD
330
1F
100
AcDbEntity
  8
0
  6
Continuous
 62
     1
370
    15
100
AcDbLine
 10
45.00000000000001
 20
0.0000000000000093
 30
0.0
 11
45.00000000000001
 21
3.500000000000008
 31
0.0
  0
LINE
  5
BE
330
1F
100
AcDbEntity
  8
0
  6
Continuous
 62
   131
370
    15
100
AcDbLine
 10
8.47988970501532
 20
-0.8681247869618138
 30
0.0
 11
8.47988970501532
 21
5.000000000000005
 31
0.0
  0
SPLINE
  5
BF
330
1F
100
AcDbEntity
  8
0
  6
Continuous
 62
   131
370
    15
100
AcDbSpline
210
0.0
220
0.0
230
1.0
 70
     8
 71
     3
 72
     8
 73
     4
 74
     0
 42
0.000000001
 43
0.00000001
 40
0.0
 40
0.0
 40
0.0
 40
0.0
 40
1.0
 40
1.0
 40
1.0
 40
1.0
 10
9.999999999996698
 20
-1.714455230448266
 30
0.0
 10
9.496683437200673
 20
-1.440400383167173
 30
0.0
 10
8.986047109271373
 20
-1.156204914380532
 30
0.0
 10
8.479774221512015
 20
-0.8683358174911542
 30
0.0
  0
SPLINE
  5
C0
330
1F
100
AcDbEntity
  8
0
  6
Continuous
 62
   131
370
    15
100
AcDbSpline
210
0.0
220
0.0
230
1.0
 70
     8
 71
     3
 72
     8
 73
     4
 74
     0
 42
0.000000001
 43
0.00000001
 40
0.0
 40
0.0
 40
0.0
 40
0.0
 40
1.0
 40
1.0
 40
1.0
 40
1.0
 10
8.47988970501532
 20
-2.194542641152941
 30
0.0
 10
8.986124762337479
 20
-2.457173441312495
 30
0.0
 10
9.496721706894496
 20
-2.709209690143876
 30
0.0
 10
10.00000000000001
 20
-2.944959533601145
 30
0.0
  0
LINE
  5
C1
330
1F
100
AcDbEntity
  8
0
  6
Continuous
 62
   131
370
    15
100
AcDbLine
 10
8.47988970501532
 20
-4.999999999999995
 30
0.0
 11
8.47988970501532
 21
-2.194545633797712
 31
0.0
  0
LINE
  5
C2
330
1F
100
AcDbEntity
  8
0
  6
Continuous
 62
   131
370
    15
100
AcDbLine
 10
-43.99999999999999
 20
4.999999999999999
 30
0.0
 11
-43.99999999999999
 21
-5.000000000000004
 31
0.0
  0
LINE
  5
C3
330
1F
100
AcDbEntity
  8
0
  6
Continuous
 62
   131
370
    15
100
AcDbLine
 10
-44.99999999999999
 20
3.999999999999999
 30
0.0
 11
-44.99999999999999
 21
-3.999999999999994
 31
0.0
  0
SPLINE
  5
C4
330
1F
100
AcDbEntity
  8
0
  6
Continuous
 62
   131
370
    15
100
AcDbSpline
210
0.0
220
0.0
230
1.0
 70
    24
 71
     3
 72
     8
 73
     4
 74
     0
 42
0.000000001
 43
0.00000001
 40
0.0
 40
0.0
 40
0.0
 40
0.0
 40
1.0
 40
1.0
 40
1.0
 40
1.0
 10
10.00000000000005
 20
-1.214011234689421
 30
0.0
 10
10.00000000000005
 20
-1.363324748965832
 30
0.0
 10
10.00000000000005
 20
-1.531133878984192
 30
0.0
 10
10.00000000000005
 20
-1.714455230443862
 30
0.0
  0
SPLINE
  5
C5
330
1F
100
AcDbEntity
  8
0
  6
Continuous
 62
   131
370
    15
100
AcDbSpline
210
0.0
220
0.0
230
1.0
 70
     8
 71
     3
 72
     8
 73
     4
 74
     0
 42
0.000000001
 43
0.00000001
 40
0.0
 40
0.0
 40
0.0
 40
0.0
 40
1.0
 40
1.0
 40
1.0
 40
1.0
 10
9.999999999996067
 20
-1.214011234687541
 30
0.0
 10
9.496683437200247
 20
-0.9763631743730693
 30
0.0
 10
8.986047109271162
 20
-0.7313249157290659
 30
0.0
 10
8.479774221512015
 20
-0.4844802893082662
 30
0.0
  0
SPLINE
  5
C6
330
1F
100
AcDbEntity
  8
0
  6
Continuous
 62
   131
370
    15
100
AcDbSpline
210
0.0
220
0.0
230
1.0
 70
     8
 71
     3
 72
     8
 73
     4
 74
     0
 42
0.000000001
 43
0.00000001
 40
0.0
 40
0.0
 40
0.0
 40
0.0
 40
1.0
 40
1.0
 40
1.0
 40
1.0
 10
10.00000000000001
 20
3.132980593347907
 30
0.0
 10
9.496707730459564
 20
3.278077238221682
 30
0.0
 10
8.986096402750727
 20
3.40775027134009
 30
0.0
 10
8.4798475293856
 20
3.518932486879532
 30
0.0
  0
SPLINE
  5
C7
330
1F
100
AcDbEntity
  8
0
  6
Continuous
 62
   131
370
    15
100
AcDbSpline
210
0.0
220
0.0
230
1.0
 70
    24
 71
     3
 72
    14
 73
    10
 74
     0
 42
0.000000001
 43
0.00000001
 40
0.0
 40
0.0
 40
0.0
 40
0.0
 40
0.25
 40
0.25
 40
0.5
 40
0.5
 40
0.75
 40
0.75
 40
1.0
 40
1.0
 40
1.0
 40
1.0
 10
10.00000000000001
 20
3.132980593347905
 30
0.0
 10
10.00000000000001
 20
2.859942192981089
 30
0.0
 10
10.00000000000001
 20
2.551465586093958
 30
0.0
 10
10.00000000000001
 20
1.878569952921217
 30
0.0
 10
10.00000000000001
 20
1.514272013092863
 30
0.0
 10
10.00000000000001
 20
0.7545274889037932
 30
0.0
 10
10.00000000000001
 20
0.3593002956987825
 30
0.0
 10
10.00000000000001
 20
-0.4329572532509134
 30
0.0
 10
10.00000000000001
 20
-0.8297725319786108
 30
0.0
 10
10.00000000000001
 20
-1.214011234689402
 30
0.0
  0
SPLINE
  5
C8
330
1F
100
AcDbEntity
  8
0
  6
Continuous
 62
   131
370
    15
100
AcDbSpline
210
0.0
220
0.0
230
1.0
 70
    24
 71
     3
 72
    11
 73
     7
 74
     0
 42
0.000000001
 43
0.00000001
 40
0.0
 40
0.0
 40
0.0
 40
0.0
 40
0.0913781996073529
 40
0.5238329320321526
 40
0.9688288809938367
 40
1.0
 40
1.0
 40
1.0
 40
1.0
 10
10.00000000000001
 20
-3.007151388485604
 30
0.0
 10
10.00000000000001
 20
-3.035025527204302
 30
0.0
 10
10.00000000000001
 20
-3.194816285564916
 30
0.0
 10
10.00000000000001
 20
-3.335499134569137
 30
0.0
 10
10.00000000000001
 20
-3.440283036094317
 30
0.0
 10
10.00000000000001
 20
-3.414506237712014
 30
0.0
 10
10.00000000000001
 20
-3.41281882229834
 30
0.0
  0
SPLINE
  5
C9
330
1F
100
AcDbEntity
  8
0
  6
Continuous
 62
   131
370
    15
100
AcDbSpline
210
0.0
220
0.0
230
1.0
 70
    24
 71
     3
 72
     9
 73
     5
 74
     0
 42
0.000000001
 43
0.00000001
 40
0.0
 40
0.0
 40
0.0
 40
0.0
 40
0.4747573612278872
 40
0.9999999999999999
 40
0.9999999999999999
 40
0.9999999999999999
 40
0.9999999999999999
 10
10.00000000000001
 20
3.412971433210863
 30
0.0
 10
10.00000000000001
 20
3.403856842888098
 30
0.0
 10
10.00000000000001
 20
3.384658424775758
 30
0.0
 10
10.00000000000001
 20
3.219650035270949
 30
0.0
 10
10.00000000000001
 20
3.132980593347906
 30
0.0
  0
LINE
  5
CA
330
1F
100
AcDbEntity
  8
중심선
 62
     1
100
AcDbLine
 10
-47.99999999999999
 20
-0.0000000000000004
 30
0.0
 11
48.00000000000001
 21
0.0000000000000096
 31
0.0
  0
CIRCLE
  5
CB
330
1F
100
AcDbEntity
  8
외형선
100
AcDbCircle
 10
0.0000000000000104
 20
0.0
 30
0.0
 40
3.000000000000005
  0
INSERT
  5
CC
330
1F
100
AcDbEntity
  8
0
  6
Continuous
 62
     7
100
AcDbBlockReference
 66
     1
  2
블럭10
 10
-22.93944368806589
 20
-52.04609937292004
 30
0.0
  0
ATTRIB
  5
CD
330
CC
100
AcDbEntity
  8
FORMAT
 62
     2
100
AcDbText
 10
-39.05870472750145
 20
-49.97073246008785
 30
0.0
 40
4.233333333333333
  1
SEME7010035E [ 2 FLUTE ]
 41
0.75
  7
SLDTEXTSTYLE0
 11
-39.05870472750145
 21
-52.08739912675452
 31
0.0
100
AcDbAttribute
  2
AUTOATTR0
 70
     0
 74
     1
  0
SEQEND
  5
CE
330
CC
100
AcDbEntity
  8
0
  6
Continuous
 62
     7
  0
HATCH
  5
CF
330
1F
100
AcDbEntity
  8
중심선
100
AcDbHatch
 10
0.0
 20
0.0
 30
0.0
210
0.0
220
0.0
230
1.0
  2
SOLID
 70
     1
 71
     0
 91
        1
 92
        0
 93
        4
 72
     1
 10
-17.22453438368504
 20
-35.7989250712761
 11
-20.67080962752232
 21
-35.7989250712761
 72
     1
 10
-20.67080962752232
 20
-35.7989250712761
 11
-22.79903948672635
 21
-38.3352506518487
 72
     1
 10
-22.79903948672635
 20
-38.3352506518487
 11
-19.35273115777591
 21
-38.33521122254621
 72
     1
 10
-19.35273115777591
 20
-38.33521122254621
 11
-17.22453438368504
 21
-35.7989250712761
 97
        0
 75
     0
 76
     1
 98
        1
 10
0.0
 20
0.0
  0
HATCH
  5
D0
330
1F
100
AcDbEntity
  8
중심선
100
AcDbHatch
 10
0.0
 20
0.0
 30
0.0
210
0.0
220
0.0
230
1.0
  2
SOLID
 70
     1
 71
     0
 91
        1
 92
        0
 93
        4
 72
     1
 10
-12.21177039264909
 20
-35.7989250712761
 11
-15.65804563648637
 21
-35.7989250712761
 72
     1
 10
-15.65804563648637
 20
-35.7989250712761
 11
-20.18918364484376
 21
-41.19892507127612
 72
     1
 10
-20.18918364484376
 20
-41.19892507127612
 11
-16.74290840100648
 21
-41.19892507127612
 72
     1
 10
-16.74290840100648
 20
-41.19892507127612
 11
-12.21177039264909
 21
-35.7989250712761
 97
        0
 75
     0
 76
     1
 98
        1
 10
0.0
 20
0.0
  0
HATCH
  5
D1
330
1F
100
AcDbEntity
  8
중심선
100
AcDbHatch
 10
0.0
 20
0.0
 30
0.0
210
0.0
220
0.0
230
1.0
  2
SOLID
 70
     1
 71
     0
 91
        1
 92
        0
 93
        4
 72
     1
 10
-7.199006401613195
 20
-35.79892507127613
 11
-10.64528164545031
 21
-35.7989250712761
 72
     1
 10
-10.64528164545031
 20
-35.7989250712761
 11
-17.69371854733956
 21
-44.19892507127612
 72
     1
 10
-17.69371854733956
 20
-44.19892507127612
 11
-14.24744330350228
 21
-44.19892507127612
 72
     1
 10
-14.24744330350228
 20
-44.19892507127612
 11
-7.199006401613195
 21
-35.79892507127613
 97
        0
 75
     0
 76
     1
 98
        1
 10
0.0
 20
0.0
  0
HATCH
  5
D2
330
1F
100
AcDbEntity
  8
중심선
100
AcDbHatch
 10
0.0
 20
0.0
 30
0.0
210
0.0
220
0.0
230
1.0
  2
SOLID
 70
     1
 71
     0
 91
        1
 92
        0
 93
        6
 72
     3
 10
-2.399115970600996
 20
-39.99892507132738
 11
3.960054785062284
 21
1.540850780301639E-10
 40
0.3939339440162633
 50
17.09539180608433
 51
320.0019657685079
 73
     0
 72
     1
 10
-0.7161163149004002
 20
-38.58681907591441
 11
1.589185558800638
 21
-36.65249236586649
 72
     3
 10
-2.399115970653842
 20
-39.99892507127625
 11
6.600054785286829
 21
-1.249000902703301E-13
 40
0.6363583540795982
 50
39.99873849337408
 51
368.4976242363725
 73
     1
 72
     1
 10
4.026216521246767
 20
-39.03892507120613
 11
-3.71904866381792
 21
-39.0389250712061
 72
     1
 10
-3.71904866381792
 20
-39.0389250712061
 11
-3.719073708263854
 21
-40.95892507120602
 72
     1
 10
-3.719073708263854
 20
-40.95892507120602
 11
0.7223060612081831
 21
-40.95892507120599
 97
        0
 75
     0
 76
     1
 98
        1
 10
0.0
 20
0.0
  0
DIMENSION
  5
D3
330
1F
100
AcDbEntity
  8
치수문자_일반주서
100
AcDbDimension
  2
_D
 10
56.23270664039087
 20
5.000000000000172
 30
0.0
 11
56.23270664039084
 21
15.32275000000017
 31
0.0
 70
   160
  1
%%c<>
 71
     2
 42
9.999999999999996
 52
-270.0
  3
SLDDIMSTYLE0
100
AcDbAlignedDimension
 13
44.99999999999972
 23
-4.999999999999864
 33
0.0
 14
45.00000000000001
 24
5.000000000000132
 34
0.0
 50
90.0000000000002
100
AcDbRotatedDimension
  0
DIMENSION
  5
E1
330
1F
100
AcDbEntity
  8
치수문자_일반주서
100
AcDbDimension
  2
_D_1
 10
45.00000000000001
 20
25.7884104402427
 30
0.0
 11
0.0000000000000151
 21
25.7884104402427
 31
0.0
 70
   160
  1
<>
 71
     2
 42
90.0
  3
SLDDIMSTYLE1
100
AcDbAlignedDimension
 13
-44.99999999999999
 23
3.999999999999999
 33
0.0
 14
45.00000000000001
 24
5.000000000000132
 34
0.0
 50
-0.0000000000000045
100
AcDbRotatedDimension
  0
DIMENSION
  5
EC
330
1F
100
AcDbEntity
  8
치수문자_일반주서
100
AcDbDimension
  2
_D_2
 10
45.00000000000001
 20
16.47997839951543
 30
0.0
 11
27.50000000000001
 21
16.47997839951543
 31
0.0
 70
   160
  1
<>
 71
     2
 42
35.00000000000002
  3
SLDDIMSTYLE1
100
AcDbAlignedDimension
 13
9.999999999999995
 23
3.417843746310038
 33
0.0
 14
45.00000000000001
 24
5.000000000000132
 34
0.0
100
AcDbRotatedDimension
  0
DIMENSION
  5
F6
330
1F
100
AcDbEntity
  8
치수문자_일반주서
100
AcDbDimension
  2
_D_3
 10
-55.95151342267841
 20
-5.000000000000041
 30
0.0
 11
-55.95151342267848
 21
15.32274999999995
 31
0.0
 70
   160
  1
%%c<>
 71
     2
 42
9.999999999999995
 52
-270.0
  3
SLDDIMSTYLE0
100
AcDbAlignedDimension
 13
-43.99999999999999
 23
4.999999999999999
 33
0.0
 14
-43.99999999999999
 24
-4.999999999999996
 34
0.0
 50
90.0000000000002
100
AcDbRotatedDimension
  0
INSERT
  5
109
330
1F
100
AcDbEntity
  8
외형선
100
AcDbBlockReference
  2
SW_DOWELSYMBOL_0
 10
0.0000000000000104
 20
0.0
 30
0.0
  0
ENDSEC
  0
SECTION
  2
OBJECTS
  0
DICTIONARY
  5
C
330
0
100
AcDbDictionary
281
     1
  3
ACAD_GROUP
350
D
  3
ACAD_IMAGE_VARS
350
12D
  3
ACAD_LAYOUT
350
1A
  3
ACAD_MLINESTYLE
350
17
  3
ACAD_PLOTSETTINGS
350
19
  3
ACAD_PLOTSTYLENAME
350
E
  3
ACAD_SCALELIST
350
47
  3
APPDATA
350
12B
  3
DWGPROPS
350
13C
  0
DICTIONARY
  5
D
102
{ACAD_REACTORS
330
C
102
}
330
C
100
AcDbDictionary
281
     1
  0
RASTERVARIABLES
  5
12D
102
{ACAD_REACTORS
330
C
102
}
330
C
100
AcDbRasterVariables
 90
        0
 70
     1
 71
     1
 72
     1
  0
DICTIONARY
  5
1A
102
{ACAD_REACTORS
330
C
102
}
330
C
100
AcDbDictionary
281
     1
  3
Layout1
350
1E
  3
Layout2
350
26
  3
Model
350
22
  0
DICTIONARY
  5
17
102
{ACAD_REACTORS
330
C
102
}
330
C
100
AcDbDictionary
281
     1
  3
Standard
350
18
  0
DICTIONARY
  5
19
102
{ACAD_REACTORS
330
C
102
}
330
C
100
AcDbDictionary
281
     1
  0
ACDBDICTIONARYWDFLT
  5
E
102
{ACAD_REACTORS
330
C
102
}
330
C
100
AcDbDictionary
281
     1
  3
Normal
350
F
100
AcDbDictionaryWithDefault
340
F
  0
DICTIONARY
  5
47
102
{ACAD_REACTORS
330
C
102
}
330
C
100
AcDbDictionary
281
     1
  3
A0
350
48
  3
A1
350
49
  3
A2
350
4A
  3
A3
350
4B
  3
A4
350
4C
  3
A5
350
4D
  3
A6
350
4E
  3
A7
350
4F
  3
A8
350
50
  3
A9
350
51
  3
B0
350
52
  3
B1
350
53
  3
B2
350
54
  3
B3
350
55
  3
B4
350
56
  3
B5
350
57
  3
B6
350
58
  3
B7
350
59
  3
B8
350
5A
  3
B9
350
5B
  3
C0
350
5C
  3
C1
350
5D
  3
C2
350
5E
  3
C3
350
5F
  3
C4
350
60
  3
C5
350
61
  3
C6
350
62
  3
C7
350
63
  3
C8
350
64
  3
C9
350
65
  3
D0
350
66
  3
D1
350
67
  3
D2
350
68
  0
DICTIONARY
  5
12B
102
{ACAD_REACTORS
330
C
102
}
330
C
100
AcDbDictionary
281
     1
  0
XRECORD
  5
13C
102
{ACAD_REACTORS
330
C
102
}
330
C
100
AcDbXrecord
280
     1
  1
DWGPROPS COOKIE
  2

  3

  4

  6

  7

  8
12014102
  9

300
=
301
=
302
=
303
=
304
=
305
=
306
=
307
=
308
=
309
=
 40
0.0
 41
2458262.170296308
 42
2458266.104758761
  1

 90
        0
  0
LAYOUT
  5
1E
102
{ACAD_REACTORS
330
1A
102
}
330
1A
100
AcDbPlotSettings
  1

  2
none_device
  4

  6

 40
0.0
 41
0.0
 42
0.0
 43
0.0
 44
0.0
 45
0.0
 46
0.0
 47
0.0
 48
0.0
 49
0.0
140
0.0
141
0.0
142
1.0
143
1.0
 70
   688
 72
     1
 73
     0
 74
     5
  7

 75
    16
147
1.0
148
0.0
149
0.0
100
AcDbLayout
  1
Layout1
 70
     1
 71
     1
 10
0.0
 20
0.0
 11
420.0
 21
297.0
 12
0.0
 22
0.0
 32
0.0
 14
1.000000000000000E+20
 24
1.000000000000000E+20
 34
1.000000000000000E+20
 15
-1.000000000000000E+20
 25
-1.000000000000000E+20
 35
-1.000000000000000E+20
146
0.0
 13
0.0
 23
0.0
 33
0.0
 16
1.0
 26
0.0
 36
0.0
 17
0.0
 27
1.0
 37
0.0
 76
     0
330
1B
  0
LAYOUT
  5
26
102
{ACAD_REACTORS
330
1A
102
}
330
1A
100
AcDbPlotSettings
  1

  2
none_device
  4

  6

 40
0.0
 41
0.0
 42
0.0
 43
0.0
 44
0.0
 45
0.0
 46
0.0
 47
0.0
 48
0.0
 49
0.0
140
0.0
141
0.0
142
1.0
143
1.0
 70
   688
 72
     1
 73
     0
 74
     5
  7

 75
    16
147
1.0
148
0.0
149
0.0
100
AcDbLayout
  1
Layout2
 70
     1
 71
     2
 10
0.0
 20
0.0
 11
0.0
 21
0.0
 12
0.0
 22
0.0
 32
0.0
 14
0.0
 24
0.0
 34
0.0
 15
0.0
 25
0.0
 35
0.0
146
0.0
 13
0.0
 23
0.0
 33
0.0
 16
1.0
 26
0.0
 36
0.0
 17
0.0
 27
1.0
 37
0.0
 76
     0
330
23
  0
LAYOUT
  5
22
102
{ACAD_REACTORS
330
1A
102
}
330
1A
100
AcDbPlotSettings
  1

  2
none_device
  4
ANSI_A_(11.00_x_8.50_Inches)
  6

 40
6.35
 41
19.05
 42
6.35000508
 43
19.05000254
 44
279.4
 45
215.9
 46
141.2575911738422
 47
115.5188991451641
 48
0.0
 49
0.0
140
0.0
141
0.0
142
0.1026761154949913
143
1.0
 70
  1696
 72
     0
 73
     0
 74
     0
  7

 75
     0
147
0.0235690232323232
148
0.0
149
0.0
100
AcDbLayout
  1
Model
 70
     1
 71
     0
 10
0.0
 20
0.0
 11
420.0
 21
297.0
 12
0.0
 22
0.0
 32
0.0
 14
-60.3265134226785
 24
-49.97073246008785
 34
0.0
 15
56.78303997372426
 25
30.1634104402427
 35
0.0
146
0.0
 13
0.0
 23
0.0
 33
0.0
 16
1.0
 26
0.0
 36
0.0
 17
0.0
 27
1.0
 37
0.0
 76
     0
330
1F
331
29
  0
MLINESTYLE
  5
18
102
{ACAD_REACTORS
330
17
102
}
330
17
100
AcDbMlineStyle
  2
Standard
 70
     0
  3

 62
   256
 51
90.0
 52
90.0
 71
     2
 49
0.5
 62
   256
  6
BYLAYER
 49
-0.5
 62
   256
  6
BYLAYER
  0
ACDBPLACEHOLDER
  5
F
102
{ACAD_REACTORS
330
E
102
}
330
E
  0
SCALE
  5
48
102
{ACAD_REACTORS
330
47
102
}
330
47
100
AcDbScale
 70
     0
300
1:1
140
1.0
141
1.0
290
     1
  0
SCALE
  5
49
102
{ACAD_REACTORS
330
47
102
}
330
47
100
AcDbScale
 70
     0
300
1:2
140
1.0
141
2.0
290
     0
  0
SCALE
  5
4A
102
{ACAD_REACTORS
330
47
102
}
330
47
100
AcDbScale
 70
     0
300
1:4
140
1.0
141
4.0
290
     0
  0
SCALE
  5
4B
102
{ACAD_REACTORS
330
47
102
}
330
47
100
AcDbScale
 70
     0
300
1:5
140
1.0
141
5.0
290
     0
  0
SCALE
  5
4C
102
{ACAD_REACTORS
330
47
102
}
330
47
100
AcDbScale
 70
     0
300
1:8
140
1.0
141
8.0
290
     0
  0
SCALE
  5
4D
102
{ACAD_REACTORS
330
47
102
}
330
47
100
AcDbScale
 70
     0
300
1:10
140
1.0
141
10.0
290
     0
  0
SCALE
  5
4E
102
{ACAD_REACTORS
330
47
102
}
330
47
100
AcDbScale
 70
     0
300
1:16
140
1.0
141
16.0
290
     0
  0
SCALE
  5
4F
102
{ACAD_REACTORS
330
47
102
}
330
47
100
AcDbScale
 70
     0
300
1:20
140
1.0
141
20.0
290
     0
  0
SCALE
  5
50
102
{ACAD_REACTORS
330
47
102
}
330
47
100
AcDbScale
 70
     0
300
1:30
140
1.0
141
30.0
290
     0
  0
SCALE
  5
51
102
{ACAD_REACTORS
330
47
102
}
330
47
100
AcDbScale
 70
     0
300
1:40
140
1.0
141
40.0
290
     0
  0
SCALE
  5
52
102
{ACAD_REACTORS
330
47
102
}
330
47
100
AcDbScale
 70
     0
300
1:50
140
1.0
141
50.0
290
     0
  0
SCALE
  5
53
102
{ACAD_REACTORS
330
47
102
}
330
47
100
AcDbScale
 70
     0
300
1:100
140
1.0
141
100.0
290
     0
  0
SCALE
  5
54
102
{ACAD_REACTORS
330
47
102
}
330
47
100
AcDbScale
 70
     0
300
2:1
140
2.0
141
1.0
290
     0
  0
SCALE
  5
55
102
{ACAD_REACTORS
330
47
102
}
330
47
100
AcDbScale
 70
     0
300
4:1
140
4.0
141
1.0
290
     0
  0
SCALE
  5
56
102
{ACAD_REACTORS
330
47
102
}
330
47
100
AcDbScale
 70
     0
300
8:1
140
8.0
141
1.0
290
     0
  0
SCALE
  5
57
102
{ACAD_REACTORS
330
47
102
}
330
47
100
AcDbScale
 70
     0
300
10:1
140
10.0
141
1.0
290
     0
  0
SCALE
  5
58
102
{ACAD_REACTORS
330
47
102
}
330
47
100
AcDbScale
 70
     0
300
100:1
140
100.0
141
1.0
290
     0
  0
SCALE
  5
59
102
{ACAD_REACTORS
330
47
102
}
330
47
100
AcDbScale
 70
     0
300
1/128" = 1'-0"
140
0.0078125
141
12.0
290
     0
  0
SCALE
  5
5A
102
{ACAD_REACTORS
330
47
102
}
330
47
100
AcDbScale
 70
     0
300
1/64" = 1'-0"
140
0.015625
141
12.0
290
     0
  0
SCALE
  5
5B
102
{ACAD_REACTORS
330
47
102
}
330
47
100
AcDbScale
 70
     0
300
1/32" = 1'-0"
140
0.03125
141
12.0
290
     0
  0
SCALE
  5
5C
102
{ACAD_REACTORS
330
47
102
}
330
47
100
AcDbScale
 70
     0
300
1/16" = 1'-0"
140
0.0625
141
12.0
290
     0
  0
SCALE
  5
5D
102
{ACAD_REACTORS
330
47
102
}
330
47
100
AcDbScale
 70
     0
300
3/32" = 1'-0"
140
0.09375
141
12.0
290
     0
  0
SCALE
  5
5E
102
{ACAD_REACTORS
330
47
102
}
330
47
100
AcDbScale
 70
     0
300
1/8" = 1'-0"
140
0.125
141
12.0
290
     0
  0
SCALE
  5
5F
102
{ACAD_REACTORS
330
47
102
}
330
47
100
AcDbScale
 70
     0
300
3/16" = 1'-0"
140
0.1875
141
12.0
290
     0
  0
SCALE
  5
60
102
{ACAD_REACTORS
330
47
102
}
330
47
100
AcDbScale
 70
     0
300
1/4" = 1'-0"
140
0.25
141
12.0
290
     0
  0
SCALE
  5
61
102
{ACAD_REACTORS
330
47
102
}
330
47
100
AcDbScale
 70
     0
300
3/8" = 1'-0"
140
0.375
141
12.0
290
     0
  0
SCALE
  5
62
102
{ACAD_REACTORS
330
47
102
}
330
47
100
AcDbScale
 70
     0
300
1/2" = 1'-0"
140
0.5
141
12.0
290
     0
  0
SCALE
  5
63
102
{ACAD_REACTORS
330
47
102
}
330
47
100
AcDbScale
 70
     0
300
3/4" = 1'-0"
140
0.75
141
12.0
290
     0
  0
SCALE
  5
64
102
{ACAD_REACTORS
330
47
102
}
330
47
100
AcDbScale
 70
     0
300
1" = 1'-0"
140
1.0
141
12.0
290
     0
  0
SCALE
  5
65
102
{ACAD_REACTORS
330
47
102
}
330
47
100
AcDbScale
 70
     0
300
1-1/2" = 1'-0"
140
1.5
141
12.0
290
     0
  0
SCALE
  5
66
102
{ACAD_REACTORS
330
47
102
}
330
47
100
AcDbScale
 70
     0
300
3" = 1'-0"
140
3.0
141
12.0
290
     0
  0
SCALE
  5
67
102
{ACAD_REACTORS
330
47
102
}
330
47
100
AcDbScale
 70
     0
300
6" = 1'-0"
140
6.0
141
12.0
290
     0
  0
SCALE
  5
68
102
{ACAD_REACTORS
330
47
102
}
330
47
100
AcDbScale
 70
     0
300
1'-0" = 1'-0"
140
12.0
141
12.0
290
     0
  0
ENDSEC
  0
EOF
