  0
SECTION
  2
HEADER
  9
$ACADVER
  1
AC1015
  9
$ACADMAINTVER
 70
     6
  9
$DWGCODEPAGE
  3
ANSI_949
  9
$INSBASE
 10
0.0
 20
0.0
 30
0.0
  9
$EXTMIN
 10
-85.11134265529795
 20
-49.97073246008785
 30
0.0
  9
$EXTMAX
 10
64.3214971698114
 20
30.16341044024269
 30
0.0
  9
$LIMMIN
 10
0.0
 20
0.0
  9
$LIMMAX
 10
420.0
 20
297.0
  9
$ORTHOMODE
 70
     0
  9
$REGENMODE
 70
     1
  9
$FILLMODE
 70
     1
  9
$QTEXTMODE
 70
     0
  9
$MIRRTEXT
 70
     1
  9
$LTSCALE
 40
1.0
  9
$ATTMODE
 70
     1
  9
$TEXTSIZE
 40
3.5
  9
$TRACEWID
 40
1.0
  9
$TEXTSTYLE
  7
Standard
  9
$CLAYER
  8
0
  9
$CELTYPE
  6
ByLayer
  9
$CECOLOR
 62
   256
  9
$CELTSCALE
 40
1.0
  9
$DISPSILH
 70
     0
  9
$DIMSCALE
 40
1.0
  9
$DIMASZ
 40
3.302
  9
$DIMEXO
 40
1.0
  9
$DIMDLI
 40
3.75
  9
$DIMRND
 40
0.0
  9
$DIMDLE
 40
0.0
  9
$DIMEXE
 40
1.0
  9
$DIMTP
 40
0.0
  9
$DIMTM
 40
0.0
  9
$DIMTXT
 40
3.5
  9
$DIMCEN
 40
2.5
  9
$DIMTSZ
 40
0.0
  9
$DIMTOL
 70
     0
  9
$DIMLIM
 70
     0
  9
$DIMTIH
 70
     1
  9
$DIMTOH
 70
     1
  9
$DIMSE1
 70
     0
  9
$DIMSE2
 70
     0
  9
$DIMTAD
 70
     1
  9
$DIMZIN
 70
     0
  9
$DIMBLK
  1

  9
$DIMASO
 70
     1
  9
$DIMSHO
 70
     1
  9
$DIMPOST
  1

  9
$DIMAPOST
  1

  9
$DIMALT
 70
     0
  9
$DIMALTD
 70
     3
  9
$DIMALTF
 40
0.0393700787401575
  9
$DIMLFAC
 40
1.0
  9
$DIMTOFL
 70
     1
  9
$DIMTVP
 40
0.0
  9
$DIMTIX
 70
     0
  9
$DIMSOXD
 70
     0
  9
$DIMSAH
 70
     0
  9
$DIMBLK1
  1

  9
$DIMBLK2
  1

  9
$DIMSTYLE
  2
ISO-25
  9
$DIMCLRD
 70
     0
  9
$DIMCLRE
 70
     0
  9
$DIMCLRT
 70
     0
  9
$DIMTFAC
 40
1.0
  9
$DIMGAP
 40
1.524
  9
$DIMJUST
 70
     0
  9
$DIMSD1
 70
     0
  9
$DIMSD2
 70
     0
  9
$DIMTOLJ
 70
     0
  9
$DIMTZIN
 70
     0
  9
$DIMALTZ
 70
     0
  9
$DIMALTTZ
 70
     0
  9
$DIMUPT
 70
     0
  9
$DIMDEC
 70
     2
  9
$DIMTDEC
 70
     2
  9
$DIMALTU
 70
     2
  9
$DIMALTTD
 70
     3
  9
$DIMTXSTY
  7
Standard
  9
$DIMAUNIT
 70
     0
  9
$DIMADEC
 70
     2
  9
$DIMALTRND
 40
0.0
  9
$DIMAZIN
 70
     0
  9
$DIMDSEP
 70
    44
  9
$DIMATFIT
 70
     3
  9
$DIMFRAC
 70
     0
  9
$DIMLDRBLK
  1

  9
$DIMLUNIT
 70
     2
  9
$DIMLWD
 70
    -2
  9
$DIMLWE
 70
    -2
  9
$DIMTMOVE
 70
     0
  9
$LUNITS
 70
     2
  9
$LUPREC
 70
     2
  9
$SKETCHINC
 40
1.0
  9
$FILLETRAD
 40
10.0
  9
$AUNITS
 70
     0
  9
$AUPREC
 70
     2
  9
$MENU
  1
.
  9
$ELEVATION
 40
0.0
  9
$PELEVATION
 40
0.0
  9
$THICKNESS
 40
0.0
  9
$LIMCHECK
 70
     0
  9
$CHAMFERA
 40
0.0
  9
$CHAMFERB
 40
0.0
  9
$CHAMFERC
 40
0.0
  9
$CHAMFERD
 40
0.0
  9
$SKPOLY
 70
     0
  9
$TDCREATE
 40
2458262.545484398
  9
$TDUCREATE
 40
2458262.170484398
  9
$TDUPDATE
 40
2458266.673491563
  9
$TDUUPDATE
 40
2458266.298491563
  9
$TDINDWG
 40
0.0009545486
  9
$TDUSRTIMER
 40
2458266.297537072
  9
$USRTIMER
 70
     1
  9
$ANGBASE
 50
0.0
  9
$ANGDIR
 70
     0
  9
$PDMODE
 70
     0
  9
$PDSIZE
 40
-1.0
  9
$PLINEWID
 40
0.0
  9
$SPLFRAME
 70
     0
  9
$SPLINETYPE
 70
     6
  9
$SPLINESEGS
 70
     8
  9
$HANDSEED
  5
13E
  9
$SURFTAB1
 70
     6
  9
$SURFTAB2
 70
     6
  9
$SURFTYPE
 70
     6
  9
$SURFU
 70
     6
  9
$SURFV
 70
     6
  9
$UCSBASE
  2

  9
$UCSNAME
  2

  9
$UCSORG
 10
0.0
 20
0.0
 30
0.0
  9
$UCSXDIR
 10
1.0
 20
0.0
 30
0.0
  9
$UCSYDIR
 10
0.0
 20
1.0
 30
0.0
  9
$UCSORTHOREF
  2

  9
$UCSORTHOVIEW
 70
     0
  9
$UCSORGTOP
 10
0.0
 20
0.0
 30
0.0
  9
$UCSORGBOTTOM
 10
0.0
 20
0.0
 30
0.0
  9
$UCSORGLEFT
 10
0.0
 20
0.0
 30
0.0
  9
$UCSORGRIGHT
 10
0.0
 20
0.0
 30
0.0
  9
$UCSORGFRONT
 10
0.0
 20
0.0
 30
0.0
  9
$UCSORGBACK
 10
0.0
 20
0.0
 30
0.0
  9
$PUCSBASE
  2

  9
$PUCSNAME
  2

  9
$PUCSORG
 10
0.0
 20
0.0
 30
0.0
  9
$PUCSXDIR
 10
1.0
 20
0.0
 30
0.0
  9
$PUCSYDIR
 10
0.0
 20
1.0
 30
0.0
  9
$PUCSORTHOREF
  2

  9
$PUCSORTHOVIEW
 70
     0
  9
$PUCSORGTOP
 10
0.0
 20
0.0
 30
0.0
  9
$PUCSORGBOTTOM
 10
0.0
 20
0.0
 30
0.0
  9
$PUCSORGLEFT
 10
0.0
 20
0.0
 30
0.0
  9
$PUCSORGRIGHT
 10
0.0
 20
0.0
 30
0.0
  9
$PUCSORGFRONT
 10
0.0
 20
0.0
 30
0.0
  9
$PUCSORGBACK
 10
0.0
 20
0.0
 30
0.0
  9
$USERI1
 70
     0
  9
$USERI2
 70
     0
  9
$USERI3
 70
     0
  9
$USERI4
 70
     0
  9
$USERI5
 70
     0
  9
$USERR1
 40
0.0
  9
$USERR2
 40
0.0
  9
$USERR3
 40
0.0
  9
$USERR4
 40
0.0
  9
$USERR5
 40
0.0
  9
$WORLDVIEW
 70
     1
  9
$SHADEDGE
 70
     3
  9
$SHADEDIF
 70
    70
  9
$TILEMODE
 70
     1
  9
$MAXACTVP
 70
    64
  9
$PINSBASE
 10
0.0
 20
0.0
 30
0.0
  9
$PLIMCHECK
 70
     0
  9
$PEXTMIN
 10
1.000000000000000E+20
 20
1.000000000000000E+20
 30
1.000000000000000E+20
  9
$PEXTMAX
 10
-1.000000000000000E+20
 20
-1.000000000000000E+20
 30
-1.000000000000000E+20
  9
$PLIMMIN
 10
0.0
 20
0.0
  9
$PLIMMAX
 10
0.0
 20
0.0
  9
$UNITMODE
 70
     0
  9
$VISRETAIN
 70
     1
  9
$PLINEGEN
 70
     0
  9
$PSLTSCALE
 70
     1
  9
$TREEDEPTH
 70
  3020
  9
$CMLSTYLE
  2
Standard
  9
$CMLJUST
 70
     0
  9
$CMLSCALE
 40
20.0
  9
$PROXYGRAPHICS
 70
     1
  9
$MEASUREMENT
 70
     1
  9
$CELWEIGHT
370
    -1
  9
$ENDCAPS
280
     0
  9
$JOINSTYLE
280
     0
  9
$LWDISPLAY
290
     1
  9
$INSUNITS
 70
     4
  9
$HYPERLINKBASE
  1

  9
$STYLESHEET
  1

  9
$XEDIT
290
     1
  9
$CEPSNTYPE
380
     0
  9
$PSTYLEMODE
290
     1
  9
$FINGERPRINTGUID
  2
{4C65705E-2211-44FD-85A0-45311B0118AA}
  9
$VERSIONGUID
  2
{FAEB1C32-E019-11D5-929B-00C0DF256EC4}
  9
$EXTNAMES
290
     1
  9
$PSVPSCALE
 40
0.0
  9
$OLESTARTUP
290
     0
  0
ENDSEC
  0
SECTION
  2
CLASSES
  0
CLASS
  1
ACDBDICTIONARYWDFLT
  2
AcDbDictionaryWithDefault
  3
ObjectDBX Classes
 90
        0
280
     0
281
     0
  0
CLASS
  1
VISUALSTYLE
  2
AcDbVisualStyle
  3
ObjectDBX Classes
 90
     4095
280
     0
281
     0
  0
CLASS
  1
MATERIAL
  2
AcDbMaterial
  3
ObjectDBX Classes
 90
     1153
280
     0
281
     0
  0
CLASS
  1
SCALE
  2
AcDbScale
  3
ObjectDBX Classes
 90
     1153
280
     0
281
     0
  0
CLASS
  1
SUN
  2
AcDbSun
  3
SCENEOE
 90
     1153
280
     0
281
     0
  0
CLASS
  1
ACDBPLACEHOLDER
  2
AcDbPlaceHolder
  3
ObjectDBX Classes
 90
        0
280
     0
281
     0
  0
CLASS
  1
LAYOUT
  2
AcDbLayout
  3
ObjectDBX Classes
 90
        0
280
     0
281
     0
  0
CLASS
  1
TABLESTYLE
  2
AcDbTableStyle
  3
ObjectDBX Classes
 90
     4095
280
     0
281
     0
  0
CLASS
  1
MLEADERSTYLE
  2
AcDbMLeaderStyle
  3
ACDB_MLEADERSTYLE_CLASS
 90
     4095
280
     0
281
     0
  0
CLASS
  1
RASTERVARIABLES
  2
AcDbRasterVariables
  3
ISM
 90
        0
280
     0
281
     0
  0
ENDSEC
  0
SECTION
  2
TABLES
  0
TABLE
  2
VPORT
  5
8
330
0
100
AcDbSymbolTable
 70
     1
  0
VPORT
  5
29
330
8
100
AcDbSymbolTableRecord
100
AcDbViewportTableRecord
  2
*Active
 70
     0
 10
0.0
 20
0.0
 11
1.0
 21
1.0
 12
-10.39492274274328
 22
-9.90366100992258
 13
0.0
 23
0.0
 14
10.0
 24
10.0
 15
10.0
 25
10.0
 16
0.0
 26
0.0
 36
1.0
 17
0.0
 27
0.0
 37
0.0
 40
132.2581147815329
 41
1.152454780361757
 42
50.0
 43
0.0
 44
0.0
 50
0.0
 51
0.0
 71
    16
 72
  2000
 73
     1
 74
     3
 75
     0
 76
     0
 77
     0
 78
     0
281
     0
 65
     1
110
0.0
120
0.0
130
0.0
111
1.0
121
0.0
131
0.0
112
0.0
122
1.0
132
0.0
 79
     0
146
0.0
  0
ENDTAB
  0
TABLE
  2
LTYPE
  5
5
330
0
100
AcDbSymbolTable
 70
     6
  0
LTYPE
  5
14
330
5
100
AcDbSymbolTableRecord
100
AcDbLinetypeTableRecord
  2
ByBlock
 70
     0
  3

 72
    65
 73
     0
 40
0.0
  0
LTYPE
  5
15
330
5
100
AcDbSymbolTableRecord
100
AcDbLinetypeTableRecord
  2
ByLayer
 70
     0
  3

 72
    65
 73
     0
 40
0.0
  0
LTYPE
  5
16
330
5
100
AcDbSymbolTableRecord
100
AcDbLinetypeTableRecord
  2
Continuous
 70
     0
  3
Solid line
 72
    65
 73
     0
 40
0.0
  0
LTYPE
  5
6A
330
5
100
AcDbSymbolTableRecord
100
AcDbLinetypeTableRecord
  2
HIDDEN
 70
     0
  3
Hidden __ __ __ __ __ __ __ __ __ __ __ __ __ __
 72
    65
 73
     2
 40
1.905
 49
1.27
 74
     0
 49
-0.635
 74
     0
  0
LTYPE
  5
6B
330
5
100
AcDbSymbolTableRecord
100
AcDbLinetypeTableRecord
  2
PHANTOM
 70
     0
  3
Phantom ______  __  __  ______  __  __  ______
 72
    65
 73
     6
 40
12.7
 49
6.35
 74
     0
 49
-1.27
 74
     0
 49
1.27
 74
     0
 49
-1.27
 74
     0
 49
1.27
 74
     0
 49
-1.27
 74
     0
  0
LTYPE
  5
6C
330
5
100
AcDbSymbolTableRecord
100
AcDbLinetypeTableRecord
  2
CENTER
 70
     0
  3
Center ____ _ ____ _ ____ _ ____ _ ____ _ ____
 72
    65
 73
     4
 40
10.16
 49
6.35
 74
     0
 49
-1.27
 74
     0
 49
1.27
 74
     0
 49
-1.27
 74
     0
  0
LTYPE
  5
6D
330
5
100
AcDbSymbolTableRecord
100
AcDbLinetypeTableRecord
  2
CENTERX2
 70
     0
  3
Center (2x) ________  __  ________  __  _____
 72
    65
 73
     4
 40
20.32
 49
12.7
 74
     0
 49
-2.54
 74
     0
 49
2.54
 74
     0
 49
-2.54
 74
     0
  0
LTYPE
  5
6E
330
5
100
AcDbSymbolTableRecord
100
AcDbLinetypeTableRecord
  2
DOT2
 70
     0
  3
Dot (.5x) ........................................
 72
    65
 73
     2
 40
0.635
 49
0.0
 74
     0
 49
-0.635
 74
     0
  0
ENDTAB
  0
TABLE
  2
LAYER
  5
2
330
0
100
AcDbSymbolTable
 70
    17
  0
LAYER
  5
10
330
2
100
AcDbSymbolTableRecord
100
AcDbLayerTableRecord
  2
0
 70
     0
 62
     7
  6
Continuous
370
    -3
390
F
  0
LAYER
  5
6F
330
2
100
AcDbSymbolTableRecord
100
AcDbLayerTableRecord
  2
FORMAT
 70
     0
 62
     2
  6
Continuous
370
    -3
390
F
  0
LAYER
  5
70
330
2
100
AcDbSymbolTableRecord
100
AcDbLayerTableRecord
  2
외형선
 70
     0
 62
   100
  6
Continuous
370
    30
390
F
  0
LAYER
  5
71
330
2
100
AcDbSymbolTableRecord
100
AcDbLayerTableRecord
  2
숨은선
 70
     0
 62
     2
  6
HIDDEN
370
    15
390
F
  0
LAYER
  5
72
330
2
100
AcDbSymbolTableRecord
100
AcDbLayerTableRecord
  2
중심선
 70
     0
 62
     1
  6
CENTERX2
370
    -3
390
F
  0
LAYER
  5
73
330
2
100
AcDbSymbolTableRecord
100
AcDbLayerTableRecord
  2
파단선
 70
     0
 62
     4
  6
Continuous
370
    -3
390
F
  0
LAYER
  5
74
330
2
100
AcDbSymbolTableRecord
100
AcDbLayerTableRecord
  2
해칭선
 70
     0
 62
     4
  6
Continuous
370
    -3
390
F
  0
LAYER
  5
75
330
2
100
AcDbSymbolTableRecord
100
AcDbLayerTableRecord
  2
가는실선
 70
     0
 62
     4
  6
Continuous
370
    -3
390
F
  0
LAYER
  5
76
330
2
100
AcDbSymbolTableRecord
100
AcDbLayerTableRecord
  2
치수_보조선
 70
     0
 62
     4
  6
Continuous
370
    -3
390
F
  0
LAYER
  5
77
330
2
100
AcDbSymbolTableRecord
100
AcDbLayerTableRecord
  2
치수문자_일반주서
 70
     0
 62
     7
  6
Continuous
370
    15
390
F
  0
LAYER
  5
78
330
2
100
AcDbSymbolTableRecord
100
AcDbLayerTableRecord
  2
개별주서
 70
     0
 62
   100
  6
Continuous
370
    30
390
F
  0
LAYER
  5
79
330
2
100
AcDbSymbolTableRecord
100
AcDbLayerTableRecord
  2
중간선
 70
     0
 62
     2
  6
Continuous
370
    15
390
F
  0
LAYER
  5
7A
330
2
100
AcDbSymbolTableRecord
100
AcDbLayerTableRecord
  2
윤곽선
 70
     0
 62
     3
  6
Continuous
370
    40
390
F
  0
LAYER
  5
7B
330
2
100
AcDbSymbolTableRecord
100
AcDbLayerTableRecord
  2
중심마크
 70
     0
 62
   100
  6
Continuous
370
    30
390
F
  0
LAYER
  5
7C
330
2
100
AcDbSymbolTableRecord
100
AcDbLayerTableRecord
  2
가상선
 70
     0
 62
     4
  6
PHANTOM
370
    -3
390
F
  0
LAYER
  5
7D
330
2
100
AcDbSymbolTableRecord
100
AcDbLayerTableRecord
  2
특수지정선
 70
     0
 62
     5
  6
CENTERX2
370
    60
390
F
  0
LAYER
  5
12F
330
2
100
AcDbSymbolTableRecord
100
AcDbLayerTableRecord
  2
Defpoints
 70
     0
 62
     7
  6
Continuous
290
     0
370
    -3
390
F
  0
ENDTAB
  0
TABLE
  2
STYLE
  5
3
330
0
100
AcDbSymbolTable
 70
     2
  0
STYLE
  5
11
330
3
100
AcDbSymbolTableRecord
100
AcDbTextStyleTableRecord
  2
Standard
 70
     0
 40
0.0
 41
1.0
 50
0.0
 71
     0
 42
3.5
  3
txt
  4

  0
STYLE
  5
93
330
3
100
AcDbSymbolTableRecord
100
AcDbTextStyleTableRecord
  2
SLDTEXTSTYLE0
 70
     0
 40
0.0
 41
0.75
 50
0.0
 71
     0
 42
3.5
  3
TXT
  4

  0
ENDTAB
  0
TABLE
  2
VIEW
  5
6
330
0
100
AcDbSymbolTable
 70
     0
  0
ENDTAB
  0
TABLE
  2
UCS
  5
7
330
0
100
AcDbSymbolTable
 70
     0
  0
ENDTAB
  0
TABLE
  2
APPID
  5
9
330
0
100
AcDbSymbolTable
 70
     1
  0
APPID
  5
12
330
9
100
AcDbSymbolTableRecord
100
AcDbRegAppTableRecord
  2
ACAD
 70
     0
  0
ENDTAB
  0
TABLE
  2
DIMSTYLE
  5
A
330
0
100
AcDbSymbolTable
 70
     3
100
AcDbDimStyleTable
  0
DIMSTYLE
105
27
330
A
100
AcDbSymbolTableRecord
100
AcDbDimStyleTableRecord
  2
ISO-25
 70
     0
 41
2.5
 42
0.625
 43
3.75
 44
1.25
 73
     0
 74
     0
 77
     1
 78
     8
140
2.5
141
2.5
143
0.03937007874016
147
0.625
171
     3
172
     1
178
     0
271
     2
272
     2
274
     3
278
    44
283
     0
284
     8
340
11
  0
DIMSTYLE
105
D5
102
{ACAD_REACTORS
330
D4
330
F7
102
}
330
A
100
AcDbSymbolTableRecord
100
AcDbDimStyleTableRecord
  2
SLDDIMSTYLE0
 70
     0
 41
3.302
 44
0.0
 45
0.000000001
 73
     0
 74
     0
 77
     1
 78
    12
 79
     3
140
3.5
147
0.875
172
     1
173
     1
178
     0
271
     2
272
     2
276
     2
284
    12
289
     0
340
93
  0
DIMSTYLE
105
E3
102
{ACAD_REACTORS
330
E2
330
ED
102
}
330
A
100
AcDbSymbolTableRecord
100
AcDbDimStyleTableRecord
  2
SLDDIMSTYLE1
 70
     0
 41
3.302
 44
0.0
 45
0.000000001
 73
     0
 74
     0
 77
     1
 78
    12
 79
     3
140
3.5
147
0.875
173
     1
178
     0
271
     2
272
     2
276
     2
284
    12
340
93
  0
ENDTAB
  0
TABLE
  2
BLOCK_RECORD
  5
1
330
0
100
AcDbSymbolTable
 70
     7
  0
BLOCK_RECORD
  5
1F
330
1
100
AcDbSymbolTableRecord
100
AcDbBlockTableRecord
  2
*Model_Space
340
22
  0
BLOCK_RECORD
  5
1B
330
1
100
AcDbSymbolTableRecord
100
AcDbBlockTableRecord
  2
*Paper_Space
340
1E
  0
BLOCK_RECORD
  5
23
330
1
100
AcDbSymbolTableRecord
100
AcDbBlockTableRecord
  2
*Paper_Space0
340
26
  0
BLOCK_RECORD
  5
7E
330
1
100
AcDbSymbolTableRecord
100
AcDbBlockTableRecord
  2
블럭10
340
0
102
{BLKREFS
331
CD
102
}
  0
BLOCK_RECORD
  5
D6
330
1
100
AcDbSymbolTableRecord
100
AcDbBlockTableRecord
  2
_D
340
0
  0
BLOCK_RECORD
  5
E4
330
1
100
AcDbSymbolTableRecord
100
AcDbBlockTableRecord
  2
_D_1
340
0
  0
BLOCK_RECORD
  5
EE
330
1
100
AcDbSymbolTableRecord
100
AcDbBlockTableRecord
  2
_D_2
340
0
  0
BLOCK_RECORD
  5
F8
330
1
100
AcDbSymbolTableRecord
100
AcDbBlockTableRecord
  2
_D_3
340
0
  0
BLOCK_RECORD
  5
104
330
1
100
AcDbSymbolTableRecord
100
AcDbBlockTableRecord
  2
SW_DOWELSYMBOL_0
340
0
102
{BLKREFS
331
10A
102
}
  0
ENDTAB
  0
ENDSEC
  0
SECTION
  2
BLOCKS
  0
BLOCK
  5
20
330
1F
100
AcDbEntity
  8
0
100
AcDbBlockBegin
  2
*Model_Space
 70
     0
 10
0.0
 20
0.0
 30
0.0
  3
*Model_Space
  1

  0
ENDBLK
  5
21
330
1F
100
AcDbEntity
  8
0
100
AcDbBlockEnd
  0
BLOCK
  5
1C
330
1B
100
AcDbEntity
 67
     1
  8
0
100
AcDbBlockBegin
  2
*Paper_Space
 70
     0
 10
0.0
 20
0.0
 30
0.0
  3
*Paper_Space
  1

  0
ENDBLK
  5
1D
330
1B
100
AcDbEntity
 67
     1
  8
0
100
AcDbBlockEnd
  0
BLOCK
  5
24
330
23
100
AcDbEntity
  8
0
100
AcDbBlockBegin
  2
*Paper_Space0
 70
     0
 10
0.0
 20
0.0
 30
0.0
  3
*Paper_Space0
  1

  0
ENDBLK
  5
25
330
23
100
AcDbEntity
  8
0
100
AcDbBlockEnd
  0
BLOCK
  5
7F
330
7E
100
AcDbEntity
  8
0
100
AcDbBlockBegin
  2
블럭10
 70
     2
 10
0.0
 20
0.0
 30
0.0
  3
블럭10
  1

  0
ELLIPSE
  5
81
330
7E
100
AcDbEntity
  8
중심선
100
AcDbEllipse
 10
20.54032771741204
 20
12.0471743016438
 30
0.0
 11
6.600054785286829
 21
-1.261213355974178E-13
 31
0.0
210
0.0
220
0.0
230
1.0
 40
0.636358354079598
 41
0.9219305317359503
 42
6.513795318482858
  0
ELLIPSE
  5
82
330
7E
100
AcDbEntity
  8
중심선
100
AcDbEllipse
 10
20.54032771746488
 20
12.04717430159265
 30
0.0
 11
3.960054785062283
 21
1.540847449632565E-10
 31
0.0
210
0.0
220
0.0
230
1.0
 40
0.3939339440162632
 41
1.131841032648279
 42
5.62031148352944
  0
LINE
  5
83
330
7E
100
AcDbEntity
  8
중심선
100
AcDbLine
 10
2.268634060543552
 20
16.24717430164393
 30
0.0
 11
5.714909304380834
 21
16.24717430164393
 31
0.0
  0
LINE
  5
84
330
7E
100
AcDbEntity
  8
중심선
100
AcDbLine
 10
5.245725140726316
 20
7.84717430164391
 30
0.0
 11
8.692000384563599
 21
7.84717430164391
 31
0.0
  0
LINE
  5
85
330
7E
100
AcDbEntity
  8
중심선
100
AcDbLine
 10
15.74043728645272
 20
16.24717430164393
 30
0.0
 11
8.692000384563599
 21
7.84717430164391
 31
0.0
  0
LINE
  5
86
330
7E
100
AcDbEntity
  8
중심선
100
AcDbLine
 10
0.1404042013395286
 20
13.71084872107135
 30
0.0
 11
3.58671253028996
 21
13.71088815037384
 31
0.0
  0
LINE
  5
87
330
7E
100
AcDbEntity
  8
중심선
100
AcDbLine
 10
2.750260043222114
 20
10.84717430164391
 30
0.0
 11
6.196535287059397
 21
10.84717430164391
 31
0.0
  0
LINE
  5
88
330
7E
100
AcDbEntity
  8
중심선
100
AcDbLine
 10
12.29416204261559
 20
16.24717430164393
 30
0.0
 11
5.245725140726316
 21
7.84717430164391
 31
0.0
  0
LINE
  5
89
330
7E
100
AcDbEntity
  8
중심선
100
AcDbLine
 10
10.72767329541681
 20
16.24717430164393
 30
0.0
 11
6.196535287059397
 21
10.84717430164391
 31
0.0
  0
LINE
  5
8A
330
7E
100
AcDbEntity
  8
중심선
100
AcDbLine
 10
7.28139805157953
 20
16.24717430164393
 30
0.0
 11
2.750260043222114
 21
10.84717430164391
 31
0.0
  0
LINE
  5
8B
330
7E
100
AcDbEntity
  8
중심선
100
AcDbLine
 10
5.714909304380834
 20
16.24717430164393
 30
0.0
 11
3.58671253028996
 21
13.71088815037384
 31
0.0
  0
LINE
  5
8C
330
7E
100
AcDbEntity
  8
중심선
100
AcDbLine
 10
2.268634060543552
 20
16.24717430164393
 30
0.0
 11
0.1404042013395286
 21
13.71084872107135
 31
0.0
  0
LINE
  5
8D
330
7E
100
AcDbEntity
  8
중심선
100
AcDbLine
 10
7.28139805157953
 20
16.24717430164393
 30
0.0
 11
10.72767329541681
 21
16.24717430164393
 31
0.0
  0
LINE
  5
8E
330
7E
100
AcDbEntity
  8
중심선
100
AcDbLine
 10
12.29416204261559
 20
16.24717430164393
 30
0.0
 11
15.74043728645272
 21
16.24717430164393
 31
0.0
  0
LINE
  5
8F
330
7E
100
AcDbEntity
  8
중심선
100
AcDbLine
 10
19.22036997980202
 20
11.08717430171403
 30
0.0
 11
23.66174974927406
 21
11.08717430171406
 31
0.0
  0
LINE
  5
90
330
7E
100
AcDbEntity
  8
중심선
100
AcDbLine
 10
19.22039502424796
 20
13.00717430171391
 30
0.0
 11
19.22036997980202
 21
11.08717430171403
 31
0.0
  0
LINE
  5
91
330
7E
100
AcDbEntity
  8
중심선
100
AcDbLine
 10
19.22039502424796
 20
13.00717430171391
 30
0.0
 11
26.96566020931264
 21
13.00717430171391
 31
0.0
  0
LINE
  5
92
330
7E
100
AcDbEntity
  8
중심선
100
AcDbLine
 10
22.22332737316547
 20
13.45928029700563
 30
0.0
 11
24.52862924686651
 21
15.39360700705356
 31
0.0
  0
ATTDEF
  5
94
330
7E
100
AcDbEntity
  8
FORMAT
 62
     2
100
AcDbText
 10
-20.85824753159254
 20
2.075366912832191
 30
0.0
 40
4.233333333333333
  1
SEME7010040120E [ 2 FLUTE ]
 41
0.75
  7
SLDTEXTSTYLE0
 11
-20.85824753159254
 21
-0.0412997538344756
 31
0.0
100
AcDbAttributeDefinition
  3

  2
AUTOATTR0
 70
     0
 74
     1
  0
ENDBLK
  5
80
330
7E
100
AcDbEntity
  8
0
100
AcDbBlockEnd
  0
BLOCK
  5
D7
330
D6
100
AcDbEntity
  8
0
100
AcDbBlockBegin
  2
_D
 70
     0
 10
0.0
 20
0.0
 30
0.0
  3
_D
  1

  0
LINE
  5
D9
330
D6
100
AcDbEntity
  8
치수문자_일반주서
 62
     0
370
    -2
100
AcDbLine
 10
50.06249999999999
 20
-4.999999999999843
 30
0.0
 11
63.77116383647805
 21
-4.999999999999792
 31
0.0
  0
LINE
  5
DA
330
D6
100
AcDbEntity
  8
치수문자_일반주서
 62
     0
370
    -2
100
AcDbLine
 10
50.06249999999999
 20
5.000000000000152
 30
0.0
 11
63.77116383647802
 21
5.000000000000203
 31
0.0
  0
LINE
  5
DB
330
D6
100
AcDbEntity
  8
치수문자_일반주서
 62
     0
370
    -2
100
AcDbLine
 10
63.77116383647805
 20
-4.999999999999792
 30
0.0
 11
63.77116383647797
 21
19.04150000000021
 31
0.0
  0
LINE
  5
DC
330
D6
100
AcDbEntity
  8
치수문자_일반주서
 62
     0
370
    -2
100
AcDbLine
 10
63.77116383647805
 20
-4.999999999999792
 30
0.0
 11
63.77116383647802
 21
5.000000000000203
 31
0.0
  0
LINE
  5
DD
330
D6
100
AcDbEntity
  8
치수문자_일반주서
 62
     0
370
    -2
100
AcDbLine
 10
63.77116383647807
 20
-8.301999999999792
 30
0.0
 11
63.77116383647808
 21
-11.60399999999979
 31
0.0
  0
LINE
  5
DE
330
D6
100
AcDbEntity
  8
치수문자_일반주서
 62
     0
370
    -2
100
AcDbLine
 10
63.771163836478
 20
8.302000000000202
 30
0.0
 11
63.77116383647799
 21
11.6040000000002
 31
0.0
  0
SOLID
  5
DF
330
D6
100
AcDbEntity
  8
치수문자_일반주서
 62
     0
100
AcDbTrace
 10
64.3214971698114
 20
-8.30199999999979
 30
0.0
 11
63.22083050314473
 21
-8.301999999999794
 31
0.0
 12
63.77116383647805
 22
-4.999999999999792
 32
0.0
 13
63.77116383647805
 23
-4.999999999999792
 33
0.0
  0
SOLID
  5
E0
330
D6
100
AcDbEntity
  8
치수문자_일반주서
 62
     0
100
AcDbTrace
 10
63.22083050314467
 20
8.3020000000002
 30
0.0
 11
64.32149716981134
 21
8.302000000000204
 31
0.0
 12
63.77116383647802
 22
5.000000000000203
 32
0.0
 13
63.77116383647802
 23
5.000000000000203
 33
0.0
  0
MTEXT
  5
E1
330
D6
100
AcDbEntity
  8
치수문자_일반주서
 62
     0
100
AcDbMText
 10
59.39616383647798
 20
15.32275000000019
 30
0.0
 40
3.5
 41
0.0
 71
     2
 72
     1
  1
\A1;%%c10
  7
SLDTEXTSTYLE0
 11
-3.552713678800503E-15
 21
1.0
 31
0.0
 73
     1
 44
1.0
  0
POINT
  5
139
330
D6
100
AcDbEntity
  8
Defpoints
 62
     0
100
AcDbPoint
 10
49.99999999999999
 20
-4.999999999999843
 30
0.0
  0
POINT
  5
13A
330
D6
100
AcDbEntity
  8
Defpoints
 62
     0
100
AcDbPoint
 10
49.99999999999999
 20
5.000000000000152
 30
0.0
  0
POINT
  5
13B
330
D6
100
AcDbEntity
  8
Defpoints
 62
     0
100
AcDbPoint
 10
63.77116383647802
 20
5.000000000000203
 30
0.0
  0
ENDBLK
  5
D8
330
D6
100
AcDbEntity
  8
0
100
AcDbBlockEnd
  0
BLOCK
  5
E5
330
E4
100
AcDbEntity
  8
0
100
AcDbBlockBegin
  2
_D_1
 70
     0
 10
0.0
 20
0.0
 30
0.0
  3
_D_1
  1

  0
LINE
  5
E7
330
E4
100
AcDbEntity
  8
치수문자_일반주서
 62
     0
370
    -2
100
AcDbLine
 10
-70.0
 20
4.062499999999995
 30
0.0
 11
-70.0
 21
25.78841044024269
 31
0.0
  0
LINE
  5
E8
330
E4
100
AcDbEntity
  8
치수문자_일반주서
 62
     0
370
    -2
100
AcDbLine
 10
49.99999999999999
 20
5.062500000000152
 30
0.0
 11
49.99999999999999
 21
25.78841044024269
 31
0.0
  0
LINE
  5
E9
330
E4
100
AcDbEntity
  8
치수문자_일반주서
 62
     0
370
    -2
100
AcDbLine
 10
-66.69800000000001
 20
25.78841044024269
 30
0.0
 11
46.69799999999999
 21
25.78841044024269
 31
0.0
  0
SOLID
  5
EA
330
E4
100
AcDbEntity
  8
치수문자_일반주서
 62
     0
100
AcDbTrace
 10
-66.69800000000001
 20
26.33874377357603
 30
0.0
 11
-66.69800000000001
 21
25.23807710690936
 31
0.0
 12
-70.0
 22
25.78841044024269
 32
0.0
 13
-70.0
 23
25.78841044024269
 33
0.0
  0
SOLID
  5
EB
330
E4
100
AcDbEntity
  8
치수문자_일반주서
 62
     0
100
AcDbTrace
 10
46.69799999999999
 20
25.23807710690936
 30
0.0
 11
46.69799999999999
 21
26.33874377357603
 31
0.0
 12
49.99999999999999
 22
25.78841044024269
 32
0.0
 13
49.99999999999999
 23
25.78841044024269
 33
0.0
  0
MTEXT
  5
EC
330
E4
100
AcDbEntity
  8
치수문자_일반주서
 62
     0
100
AcDbMText
 10
-9.999999999999993
 20
30.16341044024269
 30
0.0
 40
3.5
 41
0.0
 71
     2
 72
     1
  1
\A1;120
  7
SLDTEXTSTYLE0
 73
     1
 44
1.0
  0
POINT
  5
130
330
E4
100
AcDbEntity
  8
Defpoints
 62
     0
100
AcDbPoint
 10
-70.0
 20
3.999999999999995
 30
0.0
  0
POINT
  5
131
330
E4
100
AcDbEntity
  8
Defpoints
 62
     0
100
AcDbPoint
 10
49.99999999999999
 20
5.000000000000152
 30
0.0
  0
POINT
  5
132
330
E4
100
AcDbEntity
  8
Defpoints
 62
     0
100
AcDbPoint
 10
49.99999999999999
 20
25.78841044024269
 30
0.0
  0
ENDBLK
  5
E6
330
E4
100
AcDbEntity
  8
0
100
AcDbBlockEnd
  0
BLOCK
  5
EF
330
EE
100
AcDbEntity
  8
0
100
AcDbBlockBegin
  2
_D_2
 70
     0
 10
0.0
 20
0.0
 30
0.0
  3
_D_2
  1

  0
LINE
  5
F1
330
EE
100
AcDbEntity
  8
치수문자_일반주서
 62
     0
370
    -2
100
AcDbLine
 10
9.999999999999995
 20
4.044981600933552
 30
0.0
 11
9.999999999999996
 21
17.32947940710108
 31
0.0
  0
LINE
  5
F2
330
EE
100
AcDbEntity
  8
치수문자_일반주서
 62
     0
370
    -2
100
AcDbLine
 10
49.99999999999999
 20
5.062500000000152
 30
0.0
 11
49.99999999999999
 21
17.32947940710108
 31
0.0
  0
LINE
  5
F3
330
EE
100
AcDbEntity
  8
치수문자_일반주서
 62
     0
370
    -2
100
AcDbLine
 10
13.302
 20
17.32947940710108
 30
0.0
 11
46.69799999999999
 21
17.32947940710108
 31
0.0
  0
SOLID
  5
F4
330
EE
100
AcDbEntity
  8
치수문자_일반주서
 62
     0
100
AcDbTrace
 10
13.302
 20
17.87981274043441
 30
0.0
 11
13.302
 21
16.77914607376774
 31
0.0
 12
9.999999999999996
 22
17.32947940710108
 32
0.0
 13
9.999999999999996
 23
17.32947940710108
 33
0.0
  0
SOLID
  5
F5
330
EE
100
AcDbEntity
  8
치수문자_일반주서
 62
     0
100
AcDbTrace
 10
46.69799999999999
 20
16.77914607376774
 30
0.0
 11
46.69799999999999
 21
17.87981274043441
 31
0.0
 12
49.99999999999999
 22
17.32947940710108
 32
0.0
 13
49.99999999999999
 23
17.32947940710108
 33
0.0
  0
MTEXT
  5
F6
330
EE
100
AcDbEntity
  8
치수문자_일반주서
 62
     0
100
AcDbMText
 10
30.0
 20
21.70447940710108
 30
0.0
 40
3.5
 41
0.0
 71
     2
 72
     1
  1
\A1;40
  7
SLDTEXTSTYLE0
 73
     1
 44
1.0
  0
POINT
  5
133
330
EE
100
AcDbEntity
  8
Defpoints
 62
     0
100
AcDbPoint
 10
9.999999999999995
 20
3.982481600933552
 30
0.0
  0
POINT
  5
134
330
EE
100
AcDbEntity
  8
Defpoints
 62
     0
100
AcDbPoint
 10
49.99999999999999
 20
5.000000000000152
 30
0.0
  0
POINT
  5
135
330
EE
100
AcDbEntity
  8
Defpoints
 62
     0
100
AcDbPoint
 10
49.99999999999999
 20
17.32947940710108
 30
0.0
  0
ENDBLK
  5
F0
330
EE
100
AcDbEntity
  8
0
100
AcDbBlockEnd
  0
BLOCK
  5
F9
330
F8
100
AcDbEntity
  8
0
100
AcDbBlockBegin
  2
_D_3
 70
     0
 10
0.0
 20
0.0
 30
0.0
  3
_D_3
  1

  0
LINE
  5
FB
330
F8
100
AcDbEntity
  8
치수문자_일반주서
 62
     0
370
    -2
100
AcDbLine
 10
-69.0625
 20
4.999999999999996
 30
0.0
 11
-80.73634265529792
 21
4.999999999999954
 31
0.0
  0
LINE
  5
FC
330
F8
100
AcDbEntity
  8
치수문자_일반주서
 62
     0
370
    -2
100
AcDbLine
 10
-69.0625
 20
-4.999999999999996
 30
0.0
 11
-80.73634265529789
 21
-5.000000000000039
 31
0.0
  0
LINE
  5
FD
330
F8
100
AcDbEntity
  8
치수문자_일반주서
 62
     0
370
    -2
100
AcDbLine
 10
-80.73634265529792
 20
4.999999999999954
 30
0.0
 11
-80.73634265529796
 21
19.04149999999995
 31
0.0
  0
LINE
  5
FE
330
F8
100
AcDbEntity
  8
치수문자_일반주서
 62
     0
370
    -2
100
AcDbLine
 10
-80.73634265529792
 20
4.999999999999954
 30
0.0
 11
-80.73634265529789
 21
-5.000000000000039
 31
0.0
  0
LINE
  5
FF
330
F8
100
AcDbEntity
  8
치수문자_일반주서
 62
     0
370
    -2
100
AcDbLine
 10
-80.73634265529793
 20
8.301999999999953
 30
0.0
 11
-80.73634265529795
 21
11.60399999999995
 31
0.0
  0
LINE
  5
100
330
F8
100
AcDbEntity
  8
치수문자_일반주서
 62
     0
370
    -2
100
AcDbLine
 10
-80.73634265529788
 20
-8.302000000000039
 30
0.0
 11
-80.73634265529786
 21
-11.60400000000004
 31
0.0
  0
SOLID
  5
101
330
F8
100
AcDbEntity
  8
치수문자_일반주서
 62
     0
100
AcDbTrace
 10
-81.28667598863126
 20
8.301999999999952
 30
0.0
 11
-80.1860093219646
 21
8.301999999999955
 31
0.0
 12
-80.73634265529792
 22
4.999999999999954
 32
0.0
 13
-80.73634265529792
 23
4.999999999999954
 33
0.0
  0
SOLID
  5
102
330
F8
100
AcDbEntity
  8
치수문자_일반주서
 62
     0
100
AcDbTrace
 10
-80.18600932196455
 20
-8.302000000000037
 30
0.0
 11
-81.2866759886312
 21
-8.30200000000004
 31
0.0
 12
-80.73634265529789
 22
-5.000000000000039
 32
0.0
 13
-80.73634265529789
 23
-5.000000000000039
 33
0.0
  0
MTEXT
  5
103
330
F8
100
AcDbEntity
  8
치수문자_일반주서
 62
     0
100
AcDbMText
 10
-85.11134265529795
 20
15.32274999999994
 30
0.0
 40
3.5
 41
0.0
 71
     2
 72
     1
  1
\A1;%%c10
  7
SLDTEXTSTYLE0
 11
-2.842170943040403E-15
 21
1.0
 31
0.0
 73
     1
 44
1.0
  0
POINT
  5
136
330
F8
100
AcDbEntity
  8
Defpoints
 62
     0
100
AcDbPoint
 10
-69.0
 20
4.999999999999996
 30
0.0
  0
POINT
  5
137
330
F8
100
AcDbEntity
  8
Defpoints
 62
     0
100
AcDbPoint
 10
-69.0
 20
-4.999999999999996
 30
0.0
  0
POINT
  5
138
330
F8
100
AcDbEntity
  8
Defpoints
 62
     0
100
AcDbPoint
 10
-80.73634265529792
 20
-5.000000000000039
 30
0.0
  0
ENDBLK
  5
FA
330
F8
100
AcDbEntity
  8
0
100
AcDbBlockEnd
  0
BLOCK
  5
105
330
104
100
AcDbEntity
  8
0
100
AcDbBlockBegin
  2
SW_DOWELSYMBOL_0
 70
     0
 10
0.0
 20
0.0
 30
0.0
  3
SW_DOWELSYMBOL_0
  1

  0
CIRCLE
  5
107
330
104
100
AcDbEntity
  8
외형선
 62
     0
100
AcDbCircle
 10
0.0
 20
0.0
 30
0.0
 40
3.000000000000004
  0
HATCH
  5
108
330
104
100
AcDbEntity
  8
0
  6
Continuous
 62
     0
370
    30
100
AcDbHatch
 10
0.0
 20
0.0
 30
0.0
210
0.0
220
0.0
230
1.0
  2
SOLID
 70
     1
 71
     0
 91
        1
 92
        0
 93
        3
 72
     2
 10
0.0000000000000104
 20
0.0
 40
3.000000000000004
 50
0.0
 51
90.0
 73
     1
 72
     1
 10
0.0000000000000104
 20
3.000000000000004
 11
0.0000000000000104
 21
0.0
 72
     1
 10
0.0000000000000104
 20
0.0
 11
3.000000000000015
 21
0.0
 97
        0
 75
     0
 76
     1
 98
        1
 10
0.0
 20
0.0
  0
HATCH
  5
109
330
104
100
AcDbEntity
  8
0
  6
Continuous
 62
     0
370
    30
100
AcDbHatch
 10
0.0
 20
0.0
 30
0.0
210
0.0
220
0.0
230
1.0
  2
SOLID
 70
     1
 71
     0
 91
        1
 92
        0
 93
        3
 72
     2
 10
0.0000000000000104
 20
0.0
 40
3.000000000000004
 50
180.0
 51
270.0000000000008
 73
     1
 72
     1
 10
0.0000000000000104
 20
-3.000000000000004
 11
0.0000000000000104
 21
0.0
 72
     1
 10
0.0000000000000104
 20
0.0
 11
-2.999999999999994
 21
0.0
 97
        0
 75
     0
 76
     1
 98
        1
 10
0.0
 20
0.0
  0
ENDBLK
  5
106
330
104
100
AcDbEntity
  8
0
100
AcDbBlockEnd
  0
ENDSEC
  0
SECTION
  2
ENTITIES
  0
SPLINE
  5
95
330
1F
100
AcDbEntity
  8
0
  6
Continuous
 62
     1
370
    15
100
AcDbSpline
210
0.0
220
0.0
230
1.0
 70
     8
 71
     3
 72
     9
 73
     5
 74
     0
 42
0.000000001
 43
0.00000001
 40
0.0
 40
0.0
 40
0.0
 40
0.0
 40
0.440464766427768
 40
1.0
 40
1.0
 40
1.0
 40
1.0
 10
37.04555041000785
 20
1.28122581719111
 30
0.0
 10
36.84164714765741
 20
1.378312367230027
 30
0.0
 10
36.37871962679324
 20
1.59873079212767
 30
0.0
 10
35.91770075015232
 20
1.83998474085909
 30
0.0
 10
35.65974444532984
 20
1.974974825412748
 30
0.0
  0
LINE
  5
96
330
1F
100
AcDbEntity
  8
0
  6
Continuous
 62
     1
370
    15
100
AcDbLine
 10
23.14791782055371
 20
-4.999999999999997
 30
0.0
 11
25.57066831003571
 21
-4.999999999999997
 31
0.0
  0
LINE
  5
97
330
1F
100
AcDbEntity
  8
0
  6
Continuous
 62
     1
370
    15
100
AcDbLine
 10
25.57066831003571
 20
5.000000000000008
 30
0.0
 11
23.14791782055376
 21
5.000000000000008
 31
0.0
  0
LINE
  5
98
330
1F
100
AcDbEntity
  8
0
  6
Continuous
 62
     1
370
    15
100
AcDbLine
 10
34.3457645906266
 20
1.372649279556978
 30
0.0
 11
34.227991424341
 21
1.437375730762462
 31
0.0
  0
SPLINE
  5
99
330
1F
100
AcDbEntity
  8
0
  6
Continuous
 62
     1
370
    15
100
AcDbSpline
210
0.0
220
0.0
230
1.0
 70
     8
 71
     3
 72
    15
 73
    11
 74
     0
 42
0.000000001
 43
0.00000001
 40
0.0
 40
0.0
 40
0.0
 40
0.0
 40
0.1841622078073908
 40
0.3483300158428427
 40
0.4963341547356548
 40
0.6182721405096556
 40
0.7103960241758627
 40
0.802345418379346
 40
0.9496562618582829
 40
1.0
 40
1.0
 40
1.0
 40
1.0
 10
35.39320332564779
 20
3.973190511484677
 30
0.0
 10
35.15386547176712
 20
3.96102436232677
 30
0.0
 10
34.70117455636912
 20
3.938012936804808
 30
0.0
 10
34.02763354482155
 20
3.916119743825125
 30
0.0
 10
33.4265153997848
 20
3.907318495689047
 30
0.0
 10
32.92640527812163
 20
3.904075794607184
 30
0.0
 10
32.50718289185485
 20
3.905287960899981
 30
0.0
 10
32.06760228210642
 20
3.910679677244651
 30
0.0
 10
31.67661354000775
 20
3.917687413934064
 30
0.0
 10
31.409276914962
 20
3.927219752481419
 30
0.0
 10
31.34118476684867
 20
3.929647692940838
 30
0.0
  0
SPLINE
  5
9A
330
1F
100
AcDbEntity
  8
0
  6
Continuous
 62
     1
370
    15
100
AcDbSpline
210
0.0
220
0.0
230
1.0
 70
     8
 71
     3
 72
    18
 73
    14
 74
     0
 42
0.000000001
 43
0.00000001
 40
0.0
 40
0.0
 40
0.0
 40
0.0
 40
0.1324776238303265
 40
0.2405547842657892
 40
0.3287464565857214
 40
0.4044020455610872
 40
0.4733398735419106
 40
0.5738747202656139
 40
0.664454988136105
 40
0.7105517616600011
 40
0.7818697382350211
 40
0.878252007677087
 40
0.9999999999999999
 40
0.9999999999999999
 40
0.9999999999999999
 40
0.9999999999999999
 10
27.87361070793557
 20
-4.160695073332526
 30
0.0
 10
28.19941423510848
 20
-4.129313959223499
 30
0.0
 10
28.79101298911764
 20
-4.072331678622015
 30
0.0
 10
29.62604087560483
 20
-4.012199837050351
 30
0.0
 10
30.32005173164633
 20
-3.970446330769195
 30
0.0
 10
30.91239471508167
 20
-3.942373916718648
 30
0.0
 10
31.50419280399547
 20
-3.922784312741912
 30
0.0
 10
32.15772293873879
 20
-3.90787493415763
 30
0.0
 10
32.75222646942893
 20
-3.903879242299573
 30
0.0
 10
33.27292647426866
 20
-3.905937358897394
 30
0.0
 10
33.8097510841272
 20
-3.913223891721493
 30
0.0
 10
34.53690802201193
 20
-3.932029886847665
 30
0.0
 10
35.0864692736768
 20
-3.958446339558279
 30
0.0
 10
35.39320332564779
 20
-3.973190511484665
 30
0.0
  0
SPLINE
  5
9B
330
1F
100
AcDbEntity
  8
0
  6
Continuous
 62
     1
370
    15
100
AcDbSpline
210
0.0
220
0.0
230
1.0
 70
     8
 71
     3
 72
    16
 73
    12
 74
     0
 42
0.000000001
 43
0.00000001
 40
0.0
 40
0.0
 40
0.0
 40
0.0
 40
0.1687513388659656
 40
0.292139433345281
 40
0.3781016826125634
 40
0.4773905404525558
 40
0.5992363474039912
 40
0.7144255771163532
 40
0.855658972798029
 40
0.9783347570187994
 40
0.9999999999999999
 40
0.9999999999999999
 40
0.9999999999999999
 40
0.9999999999999999
 10
39.4076686278143
 20
-3.7606680003333
 30
0.0
 10
39.61744890144452
 20
-3.728573821580658
 30
0.0
 10
39.98061692533808
 20
-3.673012927916126
 30
0.0
 10
40.45121958855418
 20
-3.608636436725166
 30
0.0
 10
40.84104050204509
 20
-3.559240250147904
 30
0.0
 10
41.22702484178021
 20
-3.51390706922098
 30
0.0
 10
41.64786782139876
 20
-3.469125697077749
 30
0.0
 10
42.1203535973316
 20
-3.424231783429908
 30
0.0
 10
42.59435352007004
 20
-3.386016654887086
 30
0.0
 10
42.94973449578212
 20
-3.360815387521678
 30
0.0
 10
43.12984428566176
 20
-3.351260938706536
 30
0.0
 10
43.15687833437734
 20
-3.349826838789526
 30
0.0
  0
SPLINE
  5
9C
330
1F
100
AcDbEntity
  8
0
  6
Continuous
 62
     1
370
    15
100
AcDbSpline
210
0.0
220
0.0
230
1.0
 70
     8
 71
     3
 72
    26
 73
    22
 74
     0
 42
0.000000001
 43
0.00000001
 40
0.0
 40
0.0
 40
0.0
 40
0.0
 40
0.0706403662840718
 40
0.125354023650202
 40
0.1722351826648014
 40
0.200470952274755
 40
0.2305602765012754
 40
0.2633245186300662
 40
0.2990245358227068
 40
0.3377026968527773
 40
0.4019751655898014
 40
0.4557023496354038
 40
0.5002959189356212
 40
0.5593037591163684
 40
0.6362636148185465
 40
0.7155202066461097
 40
0.8136041315338759
 40
0.8369723923175147
 40
0.8750070248264967
 40
0.9292027205783371
 40
1.0
 40
1.0
 40
1.0
 40
1.0
 10
20.93462500571446
 20
3.419751799943352
 30
0.0
 10
20.72759495859198
 20
3.402905480995838
 30
0.0
 10
20.3602122454428
 20
3.373011045634709
 30
0.0
 10
19.85715755315579
 20
3.342429868701811
 30
0.0
 10
19.47904345400482
 20
3.323866670173361
 30
0.0
 10
19.17670654879059
 20
3.311962429774416
 30
0.0
 10
18.91275135978418
 20
3.30342950594683
 30
0.0
 10
18.62623713730794
 20
3.296487938951497
 30
0.0
 10
18.3135342328145
 20
3.291687433782873
 30
0.0
 10
17.90802322265924
 20
3.28934488768252
 30
0.0
 10
17.4479139346119
 20
3.292732273321322
 30
0.0
 10
16.97519725385501
 20
3.303572920262404
 30
0.0
 10
16.52400396820327
 20
3.319566890727036
 30
0.0
 10
15.99735591233592
 20
3.344925888333921
 30
0.0
 10
15.37104172667021
 20
3.385759999511848
 30
0.0
 10
14.63090364682502
 20
3.448642963977233
 30
0.0
 10
14.04623757283382
 20
3.510406656573049
 30
0.0
 10
13.58642377872132
 20
3.565260207407719
 30
0.0
 10
13.2495915442433
 20
3.607910769229509
 30
0.0
 10
12.77411043963068
 20
3.672917512167954
 30
0.0
 10
12.40802432970423
 20
3.728938508956105
 30
0.0
 10
12.2006694717142
 20
3.760669365490926
 30
0.0
  0
SPLINE
  5
9D
330
1F
100
AcDbEntity
  8
0
  6
Continuous
 62
     1
370
    15
100
AcDbSpline
210
0.0
220
0.0
230
1.0
 70
     8
 71
     3
 72
    17
 73
    13
 74
     0
 42
0.000000001
 43
0.00000001
 40
0.0
 40
0.0
 40
0.0
 40
0.0
 40
0.1652277151101467
 40
0.2917104140363034
 40
0.4000752354868725
 40
0.4661596454728792
 40
0.5373434183369235
 40
0.6150214409103818
 40
0.698885875563356
 40
0.7887061459833499
 40
0.9377043470003723
 40
1.0
 40
1.0
 40
1.0
 40
1.0
 10
12.2006694717142
 20
-3.760669365490917
 30
0.0
 10
12.40801450712987
 20
-3.728940665039551
 30
0.0
 10
12.77408327524881
 20
-3.672923474828261
 30
0.0
 10
13.27415949603065
 20
-3.604545681423888
 30
0.0
 10
13.64957100945461
 20
-3.557381344832427
 30
0.0
 10
13.95266169404432
 20
-3.521980785378295
 30
0.0
 10
14.2199188122799
 20
-3.492513549122249
 30
0.0
 10
14.51018858172498
 20
-3.462658539345054
 30
0.0
 10
14.82391889209005
 20
-3.432864327340529
 30
0.0
 10
15.22622655505401
 20
-3.398343398241258
 30
0.0
 10
15.60184860223631
 20
-3.36992517982783
 30
0.0
 10
15.86545180633161
 20
-3.3549573536183
 30
0.0
 10
15.94316979679724
 20
-3.35054439749117
 30
0.0
  0
SPLINE
  5
9E
330
1F
100
AcDbEntity
  8
0
  6
Continuous
 62
     1
370
    15
100
AcDbSpline
210
0.0
220
0.0
230
1.0
 70
     8
 71
     3
 72
    25
 73
    21
 74
     0
 42
0.000000001
 43
0.00000001
 40
0.0
 40
0.0
 40
0.0
 40
0.0
 40
0.0753439280222884
 40
0.1291140020762845
 40
0.1643441779830499
 40
0.2056681759019104
 40
0.2574360460156798
 40
0.30764614120615
 40
0.3716948603490516
 40
0.4257423257016676
 40
0.4791792879253664
 40
0.552043677898967
 40
0.6361284100805232
 40
0.7103451027255859
 40
0.7402168665648676
 40
0.7678226276793242
 40
0.7957798052115508
 40
0.8421249636149353
 40
0.9100743674776125
 40
1.0
 40
1.0
 40
1.0
 40
1.0
 10
48.14172478905463
 20
3.419761235890993
 30
0.0
 10
47.92325234485112
 20
3.402041130968395
 30
0.0
 10
47.54886448965247
 20
3.371674866243104
 30
0.0
 10
47.0719153203398
 20
3.343077116910869
 30
0.0
 10
46.68923890546345
 20
3.324024511857088
 30
0.0
 10
46.31405101603407
 20
3.309037744966436
 30
0.0
 10
45.89694046538941
 20
3.297261846262088
 30
0.0
 10
45.41375232561884
 20
3.29003441430567
 30
0.0
 10
44.92384372807945
 20
3.289875887849921
 30
0.0
 10
44.4243881498309
 20
3.29726569714569
 30
0.0
 10
43.89940735795149
 20
3.312375993287307
 30
0.0
 10
43.28727557306047
 20
3.339752524802725
 30
0.0
 10
42.60816204036959
 20
3.383340875434404
 30
0.0
 10
42.05858407328154
 20
3.429849017990104
 30
0.0
 10
41.68126758766242
 20
3.466357454078023
 30
0.0
 10
41.43553974609571
 20
3.491687819540647
 30
0.0
 10
41.14196330463734
 20
3.523773070726074
 30
0.0
 10
40.72797549715268
 20
3.572633218034976
 30
0.0
 10
40.13291415701055
 20
3.650371454650216
 30
0.0
 10
39.67085662982637
 20
3.720641931480001
 30
0.0
 10
39.4076686278143
 20
3.760668000333315
 30
0.0
  0
LINE
  5
9F
330
1F
100
AcDbEntity
  8
0
  6
Continuous
 62
   131
370
    15
100
AcDbLine
 10
8.480071506243396
 20
5.000000000000005
 30
0.0
 11
-69.0
 21
5.0
 31
0.0
  0
LINE
  5
A0
330
1F
100
AcDbEntity
  8
0
  6
Continuous
 62
   131
370
    15
100
AcDbLine
 10
-69.0
 20
-5.0
 30
0.0
 11
8.480071506243396
 21
-4.999999999999995
 31
0.0
  0
LINE
  5
A1
330
1F
100
AcDbEntity
  8
0
  6
Continuous
 62
   131
370
    15
100
AcDbLine
 10
-69.0
 20
4.999999999999996
 30
0.0
 11
-70.0
 21
3.999999999999994
 31
0.0
  0
LINE
  5
A2
330
1F
100
AcDbEntity
  8
0
  6
Continuous
 62
   131
370
    15
100
AcDbLine
 10
-70.0
 20
-3.999999999999996
 30
0.0
 11
-69.0
 21
-4.999999999999996
 31
0.0
  0
SPLINE
  5
A3
330
1F
100
AcDbEntity
  8
0
  6
Continuous
 62
   131
370
    15
100
AcDbSpline
210
0.0
220
0.0
230
1.0
 70
     8
 71
     3
 72
     9
 73
     5
 74
     0
 42
0.000000001
 43
0.00000001
 40
0.0
 40
0.0
 40
0.0
 40
0.0
 40
0.4238077247931644
 40
1.0
 40
1.0
 40
1.0
 40
1.0
 10
9.739759995465633
 20
1.327317558325339
 30
0.0
 10
9.566011301539454
 20
1.41077541742192
 30
0.0
 10
9.15604073290253
 20
1.607699291655955
 30
0.0
 10
8.727226117691218
 20
1.830998221058763
 30
0.0
 10
8.480146448910665
 20
1.959661339242617
 30
0.0
  0
SPLINE
  5
A4
330
1F
100
AcDbEntity
  8
0
  6
Continuous
 62
     1
370
    15
100
AcDbSpline
210
0.0
220
0.0
230
1.0
 70
     8
 71
     3
 72
    19
 73
    15
 74
     0
 42
0.000000001
 43
0.00000001
 40
0.0
 40
0.0
 40
0.0
 40
0.0
 40
0.0849588285540403
 40
0.1699277091770486
 40
0.2549050709503313
 40
0.3398893333815462
 40
0.4248789081722896
 40
0.5098722010047024
 40
0.5948676133427824
 40
0.679863544244008
 40
0.7648583921768608
 40
0.8498505568397905
 40
0.9348384409771644
 40
1.0
 40
1.0
 40
1.0
 40
1.0
 10
50.0
 20
-4.74470434615949
 30
0.0
 10
49.30821715320212
 20
-4.592325594872934
 30
0.0
 10
47.92456960997397
 20
-4.287550063311624
 30
0.0
 10
45.84892409527978
 20
-3.512530872180742
 30
0.0
 10
43.77303415284261
 20
-2.556091572391335
 30
0.0
 10
41.69694092162383
 20
-1.448219349235697
 30
0.0
 10
39.62069231322421
 20
-0.2588767299321128
 30
0.0
 10
37.54433467863315
 20
0.9456213399479438
 30
0.0
 10
35.46791493242534
 20
2.096120734753911
 30
0.0
 10
33.39148006268803
 20
3.126099254878011
 30
0.0
 10
31.3150766374659
 20
3.979716511527628
 30
0.0
 10
29.23875293852095
 20
4.596539305470791
 30
0.0
 10
27.32395213053247
 20
4.954475296870233
 30
0.0
 10
26.10128080078042
 20
4.968345440694627
 30
0.0
 10
25.57066831003571
 20
4.974364778338816
 30
0.0
  0
SPLINE
  5
A5
330
1F
100
AcDbEntity
  8
0
  6
Continuous
 62
     1
370
    15
100
AcDbSpline
210
0.0
220
0.0
230
1.0
 70
     8
 71
     3
 72
    15
 73
    11
 74
     0
 42
0.000000001
 43
0.00000001
 40
0.0
 40
0.0
 40
0.0
 40
0.0
 40
0.1333319043739094
 40
0.2666175715400538
 40
0.3998699095596627
 40
0.5331019235159483
 40
0.666326677787881
 40
0.7995572579588887
 40
0.9328067325948054
 40
1.0
 40
1.0
 40
1.0
 40
1.0
 10
50.0
 20
-3.94486132184107
 30
0.0
 10
49.42300706766818
 20
-3.824349208163118
 30
0.0
 10
48.26922129421463
 20
-3.58336677233239
 30
0.0
 10
46.53890637485731
 20
-3.037258187266676
 30
0.0
 10
44.80907993012714
 20
-2.381610401336381
 30
0.0
 10
43.07955820474764
 20
-1.628460046848195
 30
0.0
 10
41.35014509838925
 20
-0.8106578610334496
 30
0.0
 10
39.62064148212956
 20
0.0369371435161075
 30
0.0
 10
38.17683449215728
 20
0.7515092332770585
 30
0.0
 10
37.30947373771986
 20
1.153273561984689
 30
0.0
 10
37.01871338133972
 20
1.287954706823465
 30
0.0
  0
LINE
  5
A6
330
1F
100
AcDbEntity
  8
0
  6
Continuous
 62
   131
370
    15
100
AcDbLine
 10
50.0
 20
-4.744704346159494
 30
0.0
 11
50.0
 21
-3.94486132184107
 31
0.0
  0
SPLINE
  5
A7
330
1F
100
AcDbEntity
  8
0
  6
Continuous
 62
     1
370
    15
100
AcDbSpline
210
0.0
220
0.0
230
1.0
 70
     8
 71
     3
 72
    19
 73
    15
 74
     0
 42
0.000000001
 43
0.00000001
 40
0.0
 40
0.0
 40
0.0
 40
0.0
 40
0.001307050212096
 40
0.0985823713040116
 40
0.1958527932443461
 40
0.2931164934963901
 40
0.3903716571356866
 40
0.4876164788877265
 40
0.5848508161096716
 40
0.66791035335544
 40
0.750952127651172
 40
0.8339783774908013
 40
0.916993021514974
 40
1.0
 40
1.0
 40
1.0
 40
1.0
 10
31.34295624288612
 20
-3.928928024797743
 30
0.0
 10
31.33365654608797
 20
-3.932711919728438
 30
0.0
 10
30.63224036919928
 20
-4.21810672061757
 30
0.0
 10
29.23875304703398
 20
-4.58635575660598
 30
0.0
 10
27.16255292339833
 20
-4.967444117223705
 30
0.0
 10
25.08652613379663
 20
-5.039059574746257
 30
0.0
 10
23.01071765476706
 20
-4.829276627957096
 30
0.0
 10
20.93516187153522
 20
-4.34162428697398
 30
0.0
 10
18.96065203475926
 20
-3.641596616780074
 30
0.0
 10
17.08719749143985
 20
-2.805807166672651
 30
0.0
 10
15.31491942915572
 20
-1.897575498969161
 30
0.0
 10
13.54302377404013
 20
-0.9111847183086079
 30
0.0
 10
11.7714249664264
 20
0.1165376907483697
 30
0.0
 10
10.5904568129471
 20
0.7900489002251132
 30
0.0
 10
9.99999999999838
 20
1.126788956306437
 30
0.0
  0
SPLINE
  5
A8
330
1F
100
AcDbEntity
  8
0
  6
Continuous
 62
     1
370
    15
100
AcDbSpline
210
0.0
220
0.0
230
1.0
 70
     8
 71
     3
 72
    18
 73
    14
 74
     0
 42
0.000000001
 43
0.00000001
 40
0.0
 40
0.0
 40
0.0
 40
0.0
 40
0.0205403595607965
 40
0.1172859611574429
 40
0.2140347520818336
 40
0.3107962252057883
 40
0.4075798363879189
 40
0.5043949770049428
 40
0.6012248187620557
 40
0.6980211006610028
 40
0.7947911179177757
 40
0.8973971219675587
 40
1.0
 40
1.0
 40
1.0
 40
1.0
 10
27.876397679468
 20
-4.146589535928395
 30
0.0
 10
27.75400750633561
 20
-4.163108008951972
 30
0.0
 10
27.0551565904317
 20
-4.257428898500626
 30
0.0
 10
25.7798475781444
 20
-4.266757488206655
 30
0.0
 10
24.05036437564081
 20
-4.161992134510013
 30
0.0
 10
22.32062242075914
 20
-3.877690512282867
 30
0.0
 10
20.59042872956121
 20
-3.442875737386318
 30
0.0
 10
18.85973267616853
 20
-2.87006886907152
 30
0.0
 10
17.12889557370665
 20
-2.183517292881175
 30
0.0
 10
15.39845078022852
 20
-1.409665763565472
 30
0.0
 10
13.63369405371538
 20
-0.5640764703391674
 30
0.0
 10
11.83420189821001
 20
0.3266838478868632
 30
0.0
 10
10.611394423588
 20
0.9126281239235354
 30
0.0
 10
9.999999999999996
 20
1.205595798996726
 30
0.0
  0
SPLINE
  5
A9
330
1F
100
AcDbEntity
  8
0
  6
Continuous
 62
     1
370
    15
100
AcDbSpline
210
0.0
220
0.0
230
1.0
 70
     8
 71
     3
 72
    15
 73
    11
 74
     0
 42
0.000000001
 43
0.00000001
 40
0.0
 40
0.0
 40
0.0
 40
0.0
 40
0.1347377258811918
 40
0.269487896663677
 40
0.4042569095337067
 40
0.5390511265473882
 40
0.6738741760670323
 40
0.8317071677570126
 40
0.989557173968543
 40
1.0
 40
1.0
 40
1.0
 40
1.0
 10
10.00000000000051
 20
-0.2624183083156483
 30
0.0
 10
10.59045306609587
 20
-0.6018494421664362
 30
0.0
 10
11.77141373483215
 20
-1.28074306104994
 30
0.0
 10
13.54300135760498
 20
-2.242616247712883
 30
0.0
 10
15.3148858100676
 20
-3.112254391030391
 30
0.0
 10
17.08715297423892
 20
-3.850151459547805
 30
0.0
 10
18.96060056354554
 20
-4.467235117682545
 30
0.0
 10
20.93511261294677
 20
-4.864370502498446
 30
0.0
 10
22.36450645255023
 20
-5.041011313595366
 30
0.0
 10
23.10214615581648
 20
-4.994073029482155
 30
0.0
 10
23.14791782055372
 20
-4.991160437610734
 30
0.0
  0
SPLINE
  5
AA
330
1F
100
AcDbEntity
  8
0
  6
Continuous
 62
     1
370
    15
100
AcDbSpline
210
0.0
220
0.0
230
1.0
 70
     8
 71
     3
 72
    11
 73
     7
 74
     0
 42
0.000000001
 43
0.00000001
 40
0.0
 40
0.0
 40
0.0
 40
0.0
 40
0.089814854541055
 40
0.3932420577651302
 40
0.6966389761573936
 40
1.0
 40
1.0
 40
1.0
 40
1.0
 10
43.15859239853995
 20
3.350587789045259
 30
0.0
 10
43.36341970351091
 20
3.443521035996612
 30
0.0
 10
44.26022804668368
 20
3.850416548467098
 30
0.0
 10
45.84891520443524
 20
4.367345890012846
 30
0.0
 10
47.92456623935493
 20
4.865426709355675
 30
0.0
 10
49.30821603107523
 20
4.952326667491533
 30
0.0
 10
49.99999999999999
 20
5.000000000000152
 30
0.0
  0
LINE
  5
AB
330
1F
100
AcDbEntity
  8
0
  6
Continuous
 62
   131
370
    15
100
AcDbLine
 10
10.0
 20
-0.2624183083167281
 30
0.0
 11
10.0
 21
1.126788956307216
 31
0.0
  0
SPLINE
  5
AC
330
1F
100
AcDbEntity
  8
0
  6
Continuous
 62
     1
370
    15
100
AcDbSpline
210
0.0
220
0.0
230
1.0
 70
     8
 71
     3
 72
    24
 73
    20
 74
     0
 42
0.000000001
 43
0.00000001
 40
0.0
 40
0.0
 40
0.0
 40
0.0
 40
0.0335859789059993
 40
0.0856412957936967
 40
0.1465807748147386
 40
0.2075268231598993
 40
0.2684793538219051
 40
0.3294372352934677
 40
0.3903993300183054
 40
0.4513644956683976
 40
0.5123315864328866
 40
0.5732994543154951
 40
0.6342669504372949
 40
0.6952329263416355
 40
0.7561962352980423
 40
0.8171557336018834
 40
0.8781102818666361
 40
0.9390587463056054
 40
1.0
 40
1.0
 40
1.0
 40
1.0
 10
15.94334171470598
 20
3.350615617986769
 30
0.0
 10
16.32457206376998
 20
3.514125144751481
 30
0.0
 10
17.29667596406428
 20
3.931060074233105
 30
0.0
 10
18.96060349313546
 20
4.458519119104205
 30
0.0
 10
20.93510911250585
 20
4.885357581700342
 30
0.0
 10
23.01066938239626
 20
5.047134584611877
 30
0.0
 10
25.08648121407864
 20
4.922309871650623
 30
0.0
 10
27.16251200529102
 20
4.515437552965119
 30
0.0
 10
29.23871480836174
 20
3.850448581158478
 30
0.0
 10
31.31504309465268
 20
2.965179644765071
 30
0.0
 10
33.39145002136031
 20
1.910312945292787
 30
0.0
 10
35.46788870028645
 20
0.746165091945612
 30
0.0
 10
37.54431218494614
 20
-0.4606295851918433
 30
0.0
 10
39.62067358362262
 20
-1.641171573868863
 30
0.0
 10
41.69692595087602
 20
-2.727431205674415
 30
0.0
 10
43.77302293897448
 20
-3.659148680342565
 30
0.0
 10
45.84891663035691
 20
-4.376075878819017
 30
0.0
 10
47.92456588293857
 20
-4.863244604152893
 30
0.0
 10
49.30821591227443
 20
-4.951599327777572
 30
0.0
 10
50.00000000000001
 20
-4.999999999999845
 30
0.0
  0
LINE
  5
AD
330
1F
100
AcDbEntity
  8
0
  6
Continuous
 62
   131
370
    15
100
AcDbLine
 10
50.00000000000001
 20
-4.999999999999846
 30
0.0
 11
50.0
 21
-4.744704346159499
 31
0.0
  0
SPLINE
  5
AE
330
1F
100
AcDbEntity
  8
0
  6
Continuous
 62
     1
370
    15
100
AcDbSpline
210
0.0
220
0.0
230
1.0
 70
     8
 71
     3
 72
    15
 73
    11
 74
     0
 42
0.000000001
 43
0.00000001
 40
0.0
 40
0.0
 40
0.0
 40
0.0
 40
0.0318692279121841
 40
0.1878853813030245
 40
0.343922427825569
 40
0.5000971043252214
 40
0.6561083710003766
 40
0.8121505441393059
 40
0.9683249275560666
 40
1.0
 40
1.0
 40
1.0
 40
1.0
 10
37.55376068470821
 20
-0.4615807271840727
 30
0.0
 10
37.37711931414417
 20
-0.3924642525565109
 30
0.0
 10
36.33572818431304
 20
0.0150126786544752
 30
0.0
 10
34.42979286064671
 20
0.803085899118491
 30
0.0
 10
31.83486681770669
 20
1.785860928222762
 30
0.0
 10
29.23950563340985
 20
2.611776142538615
 30
0.0
 10
26.64467100697188
 20
3.211558001753742
 30
0.0
 10
24.04975903250389
 20
3.499118277575148
 30
0.0
 10
22.14350760049395
 20
3.552319770150214
 30
0.0
 10
21.10245397155037
 20
3.417433043996557
 30
0.0
 10
20.92691207836937
 20
3.394688518051213
 30
0.0
  0
SPLINE
  5
AF
330
1F
100
AcDbEntity
  8
0
  6
Continuous
 62
   131
370
    15
100
AcDbSpline
210
0.0
220
0.0
230
1.0
 70
    24
 71
     3
 72
    10
 73
     6
 74
     0
 42
0.000000001
 43
0.00000001
 40
0.0
 40
0.0
 40
0.0
 40
0.0
 40
0.5
 40
0.5
 40
1.0
 40
1.0
 40
1.0
 40
1.0
 10
50.0
 20
3.50000000000001
 30
0.0
 10
49.99999999999999
 20
3.712161284036581
 30
0.0
 10
50.0
 20
3.958712344335596
 30
0.0
 10
49.99999999999997
 20
4.475975804804286
 30
0.0
 10
49.99999999999999
 20
4.745367179007371
 30
0.0
 10
49.99999999999999
 20
5.000000000000152
 30
0.0
  0
LINE
  5
B0
330
1F
100
AcDbEntity
  8
0
  6
Continuous
 62
     1
370
    15
100
AcDbLine
 10
50.0
 20
3.500000000000009
 30
0.0
 11
48.13357170302247
 21
3.387815851089957
 31
0.0
  0
LINE
  5
B1
330
1F
100
AcDbEntity
  8
0
  6
Continuous
 62
     1
370
    15
100
AcDbLine
 10
10.37210591044993
 20
-0.4743495496740875
 30
0.0
 11
9.999999999999996
 21
-0.3272082338956437
 31
0.0
  0
SPLINE
  5
B2
330
1F
100
AcDbEntity
  8
0
  6
Continuous
 62
     1
370
    15
100
AcDbSpline
210
0.0
220
0.0
230
1.0
 70
     8
 71
     3
 72
     8
 73
     4
 74
     0
 42
0.000000001
 43
0.00000001
 40
0.0
 40
0.0
 40
0.0
 40
0.0
 40
1.0
 40
1.0
 40
1.0
 40
1.0
 10
46.90623807966212
 20
1.398590784794544
 30
0.0
 10
46.68214042923198
 20
1.664076176022803
 30
0.0
 10
46.48755699161194
 20
1.917882404497364
 30
0.0
 10
46.33398001936779
 20
2.153947629457781
 30
0.0
  0
LINE
  5
B3
330
1F
100
AcDbEntity
  8
0
  6
Continuous
 62
     1
370
    15
100
AcDbLine
 10
46.33398001936777
 20
2.15394762945779
 30
0.0
 11
50.0
 21
0.0000000000000098
 31
0.0
  0
LINE
  5
B4
330
1F
100
AcDbEntity
  8
0
  6
Continuous
 62
   131
370
    15
100
AcDbLine
 10
50.0
 20
0.0000000000000098
 30
0.0
 11
50.0
 21
-1.336214730148214
 31
0.0
  0
SPLINE
  5
B5
330
1F
100
AcDbEntity
  8
0
  6
Continuous
 62
     1
370
    15
100
AcDbSpline
210
0.0
220
0.0
230
1.0
 70
     8
 71
     3
 72
    12
 73
     8
 74
     0
 42
0.000000001
 43
0.00000001
 40
0.0
 40
0.0
 40
0.0
 40
0.0
 40
0.5
 40
0.5
 40
0.75
 40
0.75
 40
1.0
 40
1.0
 40
1.0
 40
1.0
 10
50.0
 20
-1.336214730148214
 30
0.0
 10
49.4644603835447
 20
-0.9151902182568146
 30
0.0
 10
48.93786580922738
 20
-0.4769025407148363
 30
0.0
 10
48.16173639957113
 20
0.2070893295748672
 30
0.0
 10
47.90536026588215
 20
0.4395904021070462
 30
0.0
 10
47.39784408881665
 20
0.9146977532766329
 30
0.0
 10
47.14808896088135
 20
1.156071134681415
 30
0.0
 10
46.90623807966203
 20
1.398590784794598
 30
0.0
  0
SPLINE
  5
B6
330
1F
100
AcDbEntity
  8
0
  6
Continuous
 62
     1
370
    15
100
AcDbSpline
210
0.0
220
0.0
230
1.0
 70
     8
 71
     3
 72
    14
 73
    10
 74
     0
 42
0.000000001
 43
0.00000001
 40
0.0
 40
0.0
 40
0.0
 40
0.0
 40
0.1821043095944578
 40
0.332304143340677
 40
0.4824956778658901
 40
0.6326938713818949
 40
0.7829136625706309
 40
0.9331699268361706
 40
1.0
 40
1.0
 40
1.0
 40
1.0
 10
46.90623807966203
 20
1.398590784794604
 30
0.0
 10
46.20711688480159
 20
1.69321214871128
 30
0.0
 10
44.93135976369457
 20
2.230837535854628
 30
0.0
 10
43.07957105858155
 20
2.885350362864073
 30
0.0
 10
41.35012844962215
 20
3.385568958472027
 30
0.0
 10
39.6206325642008
 20
3.752422745474262
 30
0.0
 10
37.89084143108568
 20
3.961292310229202
 30
0.0
 10
36.48100833912169
 20
4.030653436930175
 30
0.0
 10
35.64771232827232
 20
3.97166745200688
 30
0.0
 10
35.39118198172157
 20
3.953508604542115
 30
0.0
  0
SPLINE
  5
B7
330
1F
100
AcDbEntity
  8
0
  6
Continuous
 62
     1
370
    15
100
AcDbSpline
210
0.0
220
0.0
230
1.0
 70
     8
 71
     3
 72
     9
 73
     5
 74
     0
 42
0.000000001
 43
0.00000001
 40
0.0
 40
0.0
 40
0.0
 40
0.0
 40
0.1690393673049014
 40
1.0
 40
1.0
 40
1.0
 40
1.0
 10
12.20729081498992
 20
-3.74607518335552
 30
0.0
 10
12.08291733351534
 20
-3.769980716852742
 30
0.0
 10
11.34715096466563
 20
-3.911400635055003
 30
0.0
 10
10.6113891243454
 20
-3.950222314019181
 30
0.0
 10
9.999999999999995
 20
-3.982481600933542
 30
0.0
  0
SPLINE
  5
B8
330
1F
100
AcDbEntity
  8
0
  6
Continuous
 62
   131
370
    15
100
AcDbSpline
210
0.0
220
0.0
230
1.0
 70
    24
 71
     3
 72
    10
 73
     6
 74
     0
 42
0.000000001
 43
0.00000001
 40
0.0
 40
0.0
 40
0.0
 40
0.0
 40
0.5
 40
0.5
 40
1.0
 40
1.0
 40
1.0
 40
1.0
 10
50.0
 20
-3.944861321841069
 30
0.0
 10
49.99999999999999
 20
-3.642456945019014
 30
0.0
 10
50.0
 20
-3.260357419532333
 30
0.0
 10
49.99999999999997
 20
-2.37201279575339
 30
0.0
 10
50.0
 20
-1.866537215256539
 30
0.0
 10
50.0
 20
-1.336214730148374
 30
0.0
  0
SPLINE
  5
B9
330
1F
100
AcDbEntity
  8
0
  6
Continuous
 62
     1
370
    15
100
AcDbSpline
210
0.0
220
0.0
230
1.0
 70
     8
 71
     3
 72
    24
 73
    20
 74
     0
 42
0.000000001
 43
0.00000001
 40
0.0
 40
0.0
 40
0.0
 40
0.0
 40
0.051706683956689
 40
0.1105337272271079
 40
0.1693808322653596
 40
0.2282327881519256
 40
0.2870637389036496
 40
0.3458791374899609
 40
0.4046848000893941
 40
0.4634865713948641
 40
0.5222903075103821
 40
0.5811018587771853
 40
0.6399270526355255
 40
0.698771676627973
 40
0.7576253666083925
 40
0.8164583752920753
 40
0.875275196349968
 40
0.9376385619099671
 40
1.0
 40
1.0
 40
1.0
 40
1.0
 10
39.41171198777492
 20
-3.751998808344307
 30
0.0
 10
38.9048026596173
 20
-3.82396227334834
 30
0.0
 10
37.82117916803193
 20
-3.977799058119455
 30
0.0
 10
36.16058678389209
 20
-4.022796183514332
 30
0.0
 10
34.42985039851339
 20
-3.923943604340255
 30
0.0
 10
32.69904081353177
 20
-3.66519976768302
 30
0.0
 10
30.96866077299913
 20
-3.261639525344124
 30
0.0
 10
29.2387857858855
 20
-2.728113907851066
 30
0.0
 10
27.50923747306107
 20
-2.086197156208325
 30
0.0
 10
25.77981796995704
 20
-1.361314241089113
 30
0.0
 10
24.0503334373105
 20
-0.5822917607393583
 30
0.0
 10
22.32058794338811
 20
0.2199325606378643
 30
0.0
 10
20.5903910929519
 20
1.013468686741017
 30
0.0
 10
18.85969496093981
 20
1.766752855623574
 30
0.0
 10
17.12886284112261
 20
2.449453278444112
 30
0.0
 10
15.39841509427712
 20
3.035666043975739
 30
0.0
 10
13.63365590297049
 20
3.50724910759751
 30
0.0
 10
11.834182110269
 20
3.851516198159899
 30
0.0
 10
10.61138773782364
 20
3.938826916435945
 30
0.0
 10
9.999999999999995
 20
3.982481600933552
 30
0.0
  0
SPLINE
  5
BA
330
1F
100
AcDbEntity
  8
0
  6
Continuous
 62
   131
370
    15
100
AcDbSpline
210
0.0
220
0.0
230
1.0
 70
    24
 71
     3
 72
    12
 73
     8
 74
     0
 42
0.000000001
 43
0.00000001
 40
0.0
 40
0.0
 40
0.0
 40
0.0
 40
0.2673616318747724
 40
0.4628919295663074
 40
0.6640926191370599
 40
0.8404688787780377
 40
1.0
 40
1.0
 40
1.0
 40
1.0
 10
9.999999999999996
 20
3.982481600933552
 30
0.0
 10
10.0
 20
3.869272319504286
 30
0.0
 10
10.0
 20
3.673269391342351
 30
0.0
 10
10.0
 20
3.146478649243444
 30
0.0
 10
10.0
 20
2.577508161116673
 30
0.0
 10
10.0
 20
1.951235020654728
 30
0.0
 10
10.0
 20
1.501611291912382
 30
0.0
 10
10.0
 20
1.288073329781287
 30
0.0
  0
SPLINE
  5
BB
330
1F
100
AcDbEntity
  8
0
  6
Continuous
 62
     1
370
    15
100
AcDbSpline
210
0.0
220
0.0
230
1.0
 70
     8
 71
     3
 72
    10
 73
     6
 74
     0
 42
0.000000001
 43
0.00000001
 40
0.0
 40
0.0
 40
0.0
 40
0.0
 40
0.5
 40
0.5
 40
1.0
 40
1.0
 40
1.0
 40
1.0
 10
50.0
 20
3.500000000000009
 30
0.0
 10
49.37778486821061
 20
3.331216419726823
 30
0.0
 10
48.76026279451122
 20
3.137623633046194
 30
0.0
 10
47.53581778859244
 20
2.694407155383059
 30
0.0
 10
46.92880705278057
 20
2.445160530077929
 30
0.0
 10
46.33398001936779
 20
2.153947629457781
 30
0.0
  0
SPLINE
  5
BC
330
1F
100
AcDbEntity
  8
0
  6
Continuous
 62
   131
370
    15
100
AcDbSpline
210
0.0
220
0.0
230
1.0
 70
    24
 71
     3
 72
    14
 73
    10
 74
     0
 42
0.000000001
 43
0.00000001
 40
0.0
 40
0.0
 40
0.0
 40
0.0
 40
0.2499999999999999
 40
0.2499999999999999
 40
0.4999999999999999
 40
0.4999999999999999
 40
0.7499999999999999
 40
0.7499999999999999
 40
1.0
 40
1.0
 40
1.0
 40
1.0
 10
9.999999999999996
 20
-0.3272082338956439
 30
0.0
 10
9.999999999999996
 20
-0.7492660728676919
 30
0.0
 10
9.999999999999996
 20
-1.168409970006627
 30
0.0
 10
10.0
 20
-1.957550999700608
 30
0.0
 10
9.999999999999996
 20
-2.327068931671435
 30
0.0
 10
10.0
 20
-2.976716394582909
 30
0.0
 10
9.999999999999996
 20
-3.256499766194711
 30
0.0
 10
10.0
 20
-3.703723127104493
 30
0.0
 10
10.0
 20
-3.871164157633086
 30
0.0
 10
10.0
 20
-3.982481600933542
 30
0.0
  0
LINE
  5
BD
330
1F
100
AcDbEntity
  8
0
  6
Continuous
 62
   131
370
    15
100
AcDbLine
 10
50.0
 20
0.0000000000000098
 30
0.0
 11
50.0
 21
3.500000000000009
 31
0.0
  0
SPLINE
  5
BE
330
1F
100
AcDbEntity
  8
0
  6
Continuous
 62
   131
370
    15
100
AcDbSpline
210
0.0
220
0.0
230
1.0
 70
     8
 71
     3
 72
     8
 73
     4
 74
     0
 42
0.000000001
 43
0.00000001
 40
0.0
 40
0.0
 40
0.0
 40
0.0
 40
1.0
 40
1.0
 40
1.0
 40
1.0
 10
9.999999999999996
 20
-0.3272082338956439
 30
0.0
 10
9.491476408681176
 20
-0.1229847681200552
 30
0.0
 10
8.988396364878625
 20
0.082191555745938
 30
0.0
 10
8.4800895575938
 20
0.2865954883557164
 30
0.0
  0
SPLINE
  5
BF
330
1F
100
AcDbEntity
  8
0
  6
Continuous
 62
   131
370
    15
100
AcDbSpline
210
0.0
220
0.0
230
1.0
 70
     8
 71
     3
 72
     8
 73
     4
 74
     0
 42
0.000000001
 43
0.00000001
 40
0.0
 40
0.0
 40
0.0
 40
0.0
 40
1.0
 40
1.0
 40
1.0
 40
1.0
 10
9.999999999999995
 20
-0.2624183083153502
 30
0.0
 10
9.49147038899846
 20
0.0302124625945548
 30
0.0
 10
8.988384378608979
 20
0.3231472750749525
 30
0.0
 10
8.48007150624339
 20
0.6139232992154489
 30
0.0
  0
LINE
  5
C0
330
1F
100
AcDbEntity
  8
0
  6
Continuous
 62
   131
370
    15
100
AcDbLine
 10
8.480071506243393
 20
1.960657613940777
 30
0.0
 11
8.480071506243396
 21
5.000000000000005
 31
0.0
  0
SPLINE
  5
C1
330
1F
100
AcDbEntity
  8
0
  6
Continuous
 62
   131
370
    15
100
AcDbSpline
210
0.0
220
0.0
230
1.0
 70
     8
 71
     3
 72
     8
 73
     4
 74
     0
 42
0.000000001
 43
0.00000001
 40
0.0
 40
0.0
 40
0.0
 40
0.0
 40
1.0
 40
1.0
 40
1.0
 40
1.0
 10
9.999999999999995
 20
1.126788956305532
 30
0.0
 10
9.491495380544004
 20
1.412271560246079
 30
0.0
 10
8.988434141240285
 20
1.690941897284968
 30
0.0
 10
8.480146448910665
 20
1.960460488545781
 30
0.0
  0
LINE
  5
C2
330
1F
100
AcDbEntity
  8
0
  6
Continuous
 62
   131
370
    15
100
AcDbLine
 10
8.480071506243396
 20
-4.999999999999995
 30
0.0
 11
8.48007150624339
 21
0.6139199938219309
 31
0.0
  0
LINE
  5
C3
330
1F
100
AcDbEntity
  8
0
  6
Continuous
 62
   131
370
    15
100
AcDbLine
 10
-69.0
 20
4.999999999999996
 30
0.0
 11
-69.0
 21
-5.0
 31
0.0
  0
LINE
  5
C4
330
1F
100
AcDbEntity
  8
0
  6
Continuous
 62
   131
370
    15
100
AcDbLine
 10
-70.0
 20
3.999999999999995
 30
0.0
 11
-70.0
 21
-3.999999999999996
 31
0.0
  0
LINE
  5
C5
330
1F
100
AcDbEntity
  8
0
  6
Continuous
 62
   131
370
    15
100
AcDbLine
 10
8.480071506243393
 20
1.952389958684128
 30
0.0
 11
8.480071506243393
 21
1.960657471118843
 31
0.0
  0
LINE
  5
C6
330
1F
100
AcDbEntity
  8
0
  6
Continuous
 62
   131
370
    15
100
AcDbLine
 10
9.999999999999996
 20
1.205595798996726
 30
0.0
 11
9.685621588407347
 21
1.349026243701543
 31
0.0
  0
SPLINE
  5
C7
330
1F
100
AcDbEntity
  8
0
  6
Continuous
 62
   131
370
    15
100
AcDbSpline
210
0.0
220
0.0
230
1.0
 70
     8
 71
     3
 72
     8
 73
     4
 74
     0
 42
0.000000001
 43
0.00000001
 40
0.0
 40
0.0
 40
0.0
 40
0.0
 40
1.0
 40
1.0
 40
1.0
 40
1.0
 10
9.999999999999995
 20
3.982481600933552
 30
0.0
 10
9.49147951326411
 20
4.00439740102933
 30
0.0
 10
8.988402546659445
 20
4.005760333702166
 30
0.0
 10
8.480098867371932
 20
3.98656767874068
 30
0.0
  0
SPLINE
  5
C8
330
1F
100
AcDbEntity
  8
0
  6
Continuous
 62
   131
370
    15
100
AcDbSpline
210
0.0
220
0.0
230
1.0
 70
    24
 71
     3
 72
    12
 73
     8
 74
     0
 42
0.000000001
 43
0.00000001
 40
0.0
 40
0.0
 40
0.0
 40
0.0
 40
0.2673616318747717
 40
0.4628919295663058
 40
0.6640926191370584
 40
0.8404688787780367
 40
1.0
 40
1.0
 40
1.0
 40
1.0
 10
9.999999999999995
 20
3.982481600933552
 30
0.0
 10
9.999999999999991
 20
3.869272319504286
 30
0.0
 10
9.999999999999991
 20
3.673269391342354
 30
0.0
 10
9.999999999999991
 20
3.146478649243447
 30
0.0
 10
9.999999999999991
 20
2.57750816111668
 30
0.0
 10
9.999999999999988
 20
1.951235020654734
 30
0.0
 10
9.999999999999996
 20
1.501611291912386
 30
0.0
 10
10.0
 20
1.28807332978129
 30
0.0
  0
SPLINE
  5
C9
330
1F
100
AcDbEntity
  8
0
  6
Continuous
 62
   131
370
    15
100
AcDbSpline
210
0.0
220
0.0
230
1.0
 70
     8
 71
     3
 72
     8
 73
     4
 74
     0
 42
0.000000001
 43
0.00000001
 40
0.0
 40
0.0
 40
0.0
 40
0.0
 40
1.0
 40
1.0
 40
1.0
 40
1.0
 10
9.999999999999995
 20
-3.982481600933542
 30
0.0
 10
9.491479513264114
 20
-4.004397401029321
 30
0.0
 10
8.988402546659449
 20
-4.005760333702156
 30
0.0
 10
8.480098867371932
 20
-3.986567678740671
 30
0.0
  0
SPLINE
  5
CA
330
1F
100
AcDbEntity
  8
0
  6
Continuous
 62
   131
370
    15
100
AcDbSpline
210
0.0
220
0.0
230
1.0
 70
    24
 71
     3
 72
    14
 73
    10
 74
     0
 42
0.000000001
 43
0.00000001
 40
0.0
 40
0.0
 40
0.0
 40
0.0
 40
0.25
 40
0.25
 40
0.5
 40
0.5
 40
0.75
 40
0.75
 40
1.0
 40
1.0
 40
1.0
 40
1.0
 10
9.999999999999995
 20
-0.3272082338956414
 30
0.0
 10
9.999999999999995
 20
-0.7492660728676899
 30
0.0
 10
9.999999999999995
 20
-1.168409970006626
 30
0.0
 10
9.999999999999995
 20
-1.957550999700606
 30
0.0
 10
9.999999999999995
 20
-2.327068931671433
 30
0.0
 10
9.999999999999995
 20
-2.976716394582907
 30
0.0
 10
9.999999999999995
 20
-3.256499766194709
 30
0.0
 10
9.999999999999995
 20
-3.703723127104493
 30
0.0
 10
9.999999999999995
 20
-3.871164157633085
 30
0.0
 10
9.999999999999995
 20
-3.982481600933542
 30
0.0
  0
LINE
  5
CB
330
1F
100
AcDbEntity
  8
중심선
100
AcDbLine
 10
-73.0
 20
-0.0000000000000004
 30
0.0
 11
53.0
 21
0.0000000000000101
 31
0.0
  0
CIRCLE
  5
CC
330
1F
100
AcDbEntity
  8
외형선
100
AcDbCircle
 10
0.0000000000000104
 20
0.0
 30
0.0
 40
3.000000000000005
  0
INSERT
  5
CD
330
1F
100
AcDbEntity
  8
0
  6
Continuous
 62
     7
100
AcDbBlockReference
 66
     1
  2
블럭10
 10
-22.93944368806589
 20
-52.04609937292004
 30
0.0
  0
ATTRIB
  5
CE
330
CD
100
AcDbEntity
  8
FORMAT
 62
     2
100
AcDbText
 10
-43.79769121965843
 20
-49.97073246008785
 30
0.0
 40
4.233333333333333
  1
SEME7010040120E [ 2 FLUTE ]
 41
0.75
  7
SLDTEXTSTYLE0
 11
-43.79769121965843
 21
-52.08739912675452
 31
0.0
100
AcDbAttribute
  2
AUTOATTR0
 70
     0
 74
     1
  0
SEQEND
  5
CF
330
CD
100
AcDbEntity
  8
0
  6
Continuous
 62
     7
  0
HATCH
  5
D0
330
1F
100
AcDbEntity
  8
중심선
100
AcDbHatch
 10
0.0
 20
0.0
 30
0.0
210
0.0
220
0.0
230
1.0
  2
SOLID
 70
     1
 71
     0
 91
        1
 92
        0
 93
        4
 72
     1
 10
-17.22453438368504
 20
-35.7989250712761
 11
-20.67080962752232
 21
-35.7989250712761
 72
     1
 10
-20.67080962752232
 20
-35.7989250712761
 11
-22.79903948672635
 21
-38.3352506518487
 72
     1
 10
-22.79903948672635
 20
-38.3352506518487
 11
-19.35273115777591
 21
-38.33521122254621
 72
     1
 10
-19.35273115777591
 20
-38.33521122254621
 11
-17.22453438368504
 21
-35.7989250712761
 97
        0
 75
     0
 76
     1
 98
        1
 10
0.0
 20
0.0
  0
HATCH
  5
D1
330
1F
100
AcDbEntity
  8
중심선
100
AcDbHatch
 10
0.0
 20
0.0
 30
0.0
210
0.0
220
0.0
230
1.0
  2
SOLID
 70
     1
 71
     0
 91
        1
 92
        0
 93
        4
 72
     1
 10
-12.21177039264909
 20
-35.7989250712761
 11
-15.65804563648637
 21
-35.7989250712761
 72
     1
 10
-15.65804563648637
 20
-35.7989250712761
 11
-20.18918364484376
 21
-41.19892507127612
 72
     1
 10
-20.18918364484376
 20
-41.19892507127612
 11
-16.74290840100648
 21
-41.19892507127612
 72
     1
 10
-16.74290840100648
 20
-41.19892507127612
 11
-12.21177039264909
 21
-35.7989250712761
 97
        0
 75
     0
 76
     1
 98
        1
 10
0.0
 20
0.0
  0
HATCH
  5
D2
330
1F
100
AcDbEntity
  8
중심선
100
AcDbHatch
 10
0.0
 20
0.0
 30
0.0
210
0.0
220
0.0
230
1.0
  2
SOLID
 70
     1
 71
     0
 91
        1
 92
        0
 93
        4
 72
     1
 10
-7.199006401613195
 20
-35.79892507127613
 11
-10.64528164545031
 21
-35.7989250712761
 72
     1
 10
-10.64528164545031
 20
-35.7989250712761
 11
-17.69371854733956
 21
-44.19892507127612
 72
     1
 10
-17.69371854733956
 20
-44.19892507127612
 11
-14.24744330350228
 21
-44.19892507127612
 72
     1
 10
-14.24744330350228
 20
-44.19892507127612
 11
-7.199006401613195
 21
-35.79892507127613
 97
        0
 75
     0
 76
     1
 98
        1
 10
0.0
 20
0.0
  0
HATCH
  5
D3
330
1F
100
AcDbEntity
  8
중심선
100
AcDbHatch
 10
0.0
 20
0.0
 30
0.0
210
0.0
220
0.0
230
1.0
  2
SOLID
 70
     1
 71
     0
 91
        1
 92
        0
 93
        6
 72
     3
 10
-2.399115970600996
 20
-39.99892507132738
 11
3.960054785062284
 21
1.540850780301639E-10
 40
0.3939339440162633
 50
17.09539180608433
 51
320.0019657685079
 73
     0
 72
     1
 10
-0.7161163149004002
 20
-38.58681907591441
 11
1.589185558800638
 21
-36.65249236586649
 72
     3
 10
-2.399115970653842
 20
-39.99892507127625
 11
6.600054785286829
 21
-1.249000902703301E-13
 40
0.6363583540795982
 50
39.99873849337408
 51
368.4976242363725
 73
     1
 72
     1
 10
4.026216521246767
 20
-39.03892507120613
 11
-3.71904866381792
 21
-39.0389250712061
 72
     1
 10
-3.71904866381792
 20
-39.0389250712061
 11
-3.719073708263854
 21
-40.95892507120602
 72
     1
 10
-3.719073708263854
 20
-40.95892507120602
 11
0.7223060612081831
 21
-40.95892507120599
 97
        0
 75
     0
 76
     1
 98
        1
 10
0.0
 20
0.0
  0
DIMENSION
  5
D4
330
1F
100
AcDbEntity
  8
치수문자_일반주서
100
AcDbDimension
  2
_D
 10
63.77116383647802
 20
5.000000000000203
 30
0.0
 11
63.77116383647798
 21
15.3227500000002
 31
0.0
 70
   160
  1
%%c<>
 71
     2
 42
9.999999999999995
 52
-270.0
  3
SLDDIMSTYLE0
100
AcDbAlignedDimension
 13
49.99999999999999
 23
-4.999999999999843
 33
0.0
 14
49.99999999999999
 24
5.000000000000152
 34
0.0
 50
90.0000000000002
100
AcDbRotatedDimension
  0
DIMENSION
  5
E2
330
1F
100
AcDbEntity
  8
치수문자_일반주서
100
AcDbDimension
  2
_D_1
 10
49.99999999999999
 20
25.78841044024269
 30
0.0
 11
-9.999999999999993
 21
25.78841044024269
 31
0.0
 70
   160
  1
<>
 71
     2
 42
120.0
  3
SLDDIMSTYLE1
100
AcDbAlignedDimension
 13
-70.0
 23
3.999999999999995
 33
0.0
 14
49.99999999999999
 24
5.000000000000152
 34
0.0
 50
-0.0000000000000034
100
AcDbRotatedDimension
  0
DIMENSION
  5
ED
330
1F
100
AcDbEntity
  8
치수문자_일반주서
100
AcDbDimension
  2
_D_2
 10
49.99999999999999
 20
17.32947940710108
 30
0.0
 11
30.0
 21
17.32947940710108
 31
0.0
 70
   160
  1
<>
 71
     2
 42
40.0
  3
SLDDIMSTYLE1
100
AcDbAlignedDimension
 13
9.999999999999995
 23
3.982481600933552
 33
0.0
 14
49.99999999999999
 24
5.000000000000152
 34
0.0
100
AcDbRotatedDimension
  0
DIMENSION
  5
F7
330
1F
100
AcDbEntity
  8
치수문자_일반주서
100
AcDbDimension
  2
_D_3
 10
-80.73634265529789
 20
-5.000000000000039
 30
0.0
 11
-80.73634265529795
 21
15.32274999999995
 31
0.0
 70
   160
  1
%%c<>
 71
     2
 42
9.999999999999991
 52
-270.0
  3
SLDDIMSTYLE0
100
AcDbAlignedDimension
 13
-69.0
 23
4.999999999999996
 33
0.0
 14
-69.0
 24
-4.999999999999996
 34
0.0
 50
90.0000000000002
100
AcDbRotatedDimension
  0
INSERT
  5
10A
330
1F
100
AcDbEntity
  8
외형선
100
AcDbBlockReference
  2
SW_DOWELSYMBOL_0
 10
0.0000000000000104
 20
0.0
 30
0.0
  0
ENDSEC
  0
SECTION
  2
OBJECTS
  0
DICTIONARY
  5
C
330
0
100
AcDbDictionary
281
     1
  3
ACAD_GROUP
350
D
  3
ACAD_IMAGE_VARS
350
12E
  3
ACAD_LAYOUT
350
1A
  3
ACAD_MLINESTYLE
350
17
  3
ACAD_PLOTSETTINGS
350
19
  3
ACAD_PLOTSTYLENAME
350
E
  3
ACAD_SCALELIST
350
47
  3
APPDATA
350
12C
  3
DWGPROPS
350
13D
  0
DICTIONARY
  5
D
102
{ACAD_REACTORS
330
C
102
}
330
C
100
AcDbDictionary
281
     1
  0
RASTERVARIABLES
  5
12E
102
{ACAD_REACTORS
330
C
102
}
330
C
100
AcDbRasterVariables
 90
        0
 70
     1
 71
     1
 72
     1
  0
DICTIONARY
  5
1A
102
{ACAD_REACTORS
330
C
102
}
330
C
100
AcDbDictionary
281
     1
  3
Layout1
350
1E
  3
Layout2
350
26
  3
Model
350
22
  0
DICTIONARY
  5
17
102
{ACAD_REACTORS
330
C
102
}
330
C
100
AcDbDictionary
281
     1
  3
Standard
350
18
  0
DICTIONARY
  5
19
102
{ACAD_REACTORS
330
C
102
}
330
C
100
AcDbDictionary
281
     1
  0
ACDBDICTIONARYWDFLT
  5
E
102
{ACAD_REACTORS
330
C
102
}
330
C
100
AcDbDictionary
281
     1
  3
Normal
350
F
100
AcDbDictionaryWithDefault
340
F
  0
DICTIONARY
  5
47
102
{ACAD_REACTORS
330
C
102
}
330
C
100
AcDbDictionary
281
     1
  3
A0
350
48
  3
A1
350
49
  3
A2
350
4A
  3
A3
350
4B
  3
A4
350
4C
  3
A5
350
4D
  3
A6
350
4E
  3
A7
350
4F
  3
A8
350
50
  3
A9
350
51
  3
B0
350
52
  3
B1
350
53
  3
B2
350
54
  3
B3
350
55
  3
B4
350
56
  3
B5
350
57
  3
B6
350
58
  3
B7
350
59
  3
B8
350
5A
  3
B9
350
5B
  3
C0
350
5C
  3
C1
350
5D
  3
C2
350
5E
  3
C3
350
5F
  3
C4
350
60
  3
C5
350
61
  3
C6
350
62
  3
C7
350
63
  3
C8
350
64
  3
C9
350
65
  3
D0
350
66
  3
D1
350
67
  3
D2
350
68
  0
DICTIONARY
  5
12C
102
{ACAD_REACTORS
330
C
102
}
330
C
100
AcDbDictionary
281
     1
  0
XRECORD
  5
13D
102
{ACAD_REACTORS
330
C
102
}
330
C
100
AcDbXrecord
280
     1
  1
DWGPROPS COOKIE
  2

  3

  4

  6

  7

  8
12014102
  9

300
=
301
=
302
=
303
=
304
=
305
=
306
=
307
=
308
=
309
=
 40
0.0
 41
2458262.170484398
 42
2458266.298491563
  1

 90
        0
  0
LAYOUT
  5
1E
102
{ACAD_REACTORS
330
1A
102
}
330
1A
100
AcDbPlotSettings
  1

  2
none_device
  4

  6

 40
0.0
 41
0.0
 42
0.0
 43
0.0
 44
0.0
 45
0.0
 46
0.0
 47
0.0
 48
0.0
 49
0.0
140
0.0
141
0.0
142
1.0
143
1.0
 70
   688
 72
     1
 73
     0
 74
     5
  7

 75
    16
147
1.0
148
0.0
149
0.0
100
AcDbLayout
  1
Layout1
 70
     1
 71
     1
 10
0.0
 20
0.0
 11
420.0
 21
297.0
 12
0.0
 22
0.0
 32
0.0
 14
1.000000000000000E+20
 24
1.000000000000000E+20
 34
1.000000000000000E+20
 15
-1.000000000000000E+20
 25
-1.000000000000000E+20
 35
-1.000000000000000E+20
146
0.0
 13
0.0
 23
0.0
 33
0.0
 16
1.0
 26
0.0
 36
0.0
 17
0.0
 27
1.0
 37
0.0
 76
     0
330
1B
  0
LAYOUT
  5
26
102
{ACAD_REACTORS
330
1A
102
}
330
1A
100
AcDbPlotSettings
  1

  2
none_device
  4

  6

 40
0.0
 41
0.0
 42
0.0
 43
0.0
 44
0.0
 45
0.0
 46
0.0
 47
0.0
 48
0.0
 49
0.0
140
0.0
141
0.0
142
1.0
143
1.0
 70
   688
 72
     1
 73
     0
 74
     5
  7

 75
    16
147
1.0
148
0.0
149
0.0
100
AcDbLayout
  1
Layout2
 70
     1
 71
     2
 10
0.0
 20
0.0
 11
0.0
 21
0.0
 12
0.0
 22
0.0
 32
0.0
 14
0.0
 24
0.0
 34
0.0
 15
0.0
 25
0.0
 35
0.0
146
0.0
 13
0.0
 23
0.0
 33
0.0
 16
1.0
 26
0.0
 36
0.0
 17
0.0
 27
1.0
 37
0.0
 76
     0
330
23
  0
LAYOUT
  5
22
102
{ACAD_REACTORS
330
1A
102
}
330
1A
100
AcDbPlotSettings
  1

  2
none_device
  4
ANSI_A_(11.00_x_8.50_Inches)
  6

 40
6.35
 41
19.05
 42
6.35000508
 43
19.05000254
 44
279.4
 45
215.9
 46
159.8435179745316
 47
109.6497441629038
 48
0.0
 49
0.0
140
0.0
141
0.0
142
0.0800372376518905
143
1.0
 70
  1696
 72
     0
 73
     0
 74
     0
  7

 75
     0
147
0.0235690232323232
148
0.0
149
0.0
100
AcDbLayout
  1
Model
 70
     1
 71
     0
 10
0.0
 20
0.0
 11
420.0
 21
297.0
 12
0.0
 22
0.0
 32
0.0
 14
-85.11134265529795
 24
-49.97073246008785
 34
0.0
 15
64.3214971698114
 25
30.16341044024269
 35
0.0
146
0.0
 13
0.0
 23
0.0
 33
0.0
 16
1.0
 26
0.0
 36
0.0
 17
0.0
 27
1.0
 37
0.0
 76
     0
330
1F
331
29
  0
MLINESTYLE
  5
18
102
{ACAD_REACTORS
330
17
102
}
330
17
100
AcDbMlineStyle
  2
Standard
 70
     0
  3

 62
   256
 51
90.0
 52
90.0
 71
     2
 49
0.5
 62
   256
  6
BYLAYER
 49
-0.5
 62
   256
  6
BYLAYER
  0
ACDBPLACEHOLDER
  5
F
102
{ACAD_REACTORS
330
E
102
}
330
E
  0
SCALE
  5
48
102
{ACAD_REACTORS
330
47
102
}
330
47
100
AcDbScale
 70
     0
300
1:1
140
1.0
141
1.0
290
     1
  0
SCALE
  5
49
102
{ACAD_REACTORS
330
47
102
}
330
47
100
AcDbScale
 70
     0
300
1:2
140
1.0
141
2.0
290
     0
  0
SCALE
  5
4A
102
{ACAD_REACTORS
330
47
102
}
330
47
100
AcDbScale
 70
     0
300
1:4
140
1.0
141
4.0
290
     0
  0
SCALE
  5
4B
102
{ACAD_REACTORS
330
47
102
}
330
47
100
AcDbScale
 70
     0
300
1:5
140
1.0
141
5.0
290
     0
  0
SCALE
  5
4C
102
{ACAD_REACTORS
330
47
102
}
330
47
100
AcDbScale
 70
     0
300
1:8
140
1.0
141
8.0
290
     0
  0
SCALE
  5
4D
102
{ACAD_REACTORS
330
47
102
}
330
47
100
AcDbScale
 70
     0
300
1:10
140
1.0
141
10.0
290
     0
  0
SCALE
  5
4E
102
{ACAD_REACTORS
330
47
102
}
330
47
100
AcDbScale
 70
     0
300
1:16
140
1.0
141
16.0
290
     0
  0
SCALE
  5
4F
102
{ACAD_REACTORS
330
47
102
}
330
47
100
AcDbScale
 70
     0
300
1:20
140
1.0
141
20.0
290
     0
  0
SCALE
  5
50
102
{ACAD_REACTORS
330
47
102
}
330
47
100
AcDbScale
 70
     0
300
1:30
140
1.0
141
30.0
290
     0
  0
SCALE
  5
51
102
{ACAD_REACTORS
330
47
102
}
330
47
100
AcDbScale
 70
     0
300
1:40
140
1.0
141
40.0
290
     0
  0
SCALE
  5
52
102
{ACAD_REACTORS
330
47
102
}
330
47
100
AcDbScale
 70
     0
300
1:50
140
1.0
141
50.0
290
     0
  0
SCALE
  5
53
102
{ACAD_REACTORS
330
47
102
}
330
47
100
AcDbScale
 70
     0
300
1:100
140
1.0
141
100.0
290
     0
  0
SCALE
  5
54
102
{ACAD_REACTORS
330
47
102
}
330
47
100
AcDbScale
 70
     0
300
2:1
140
2.0
141
1.0
290
     0
  0
SCALE
  5
55
102
{ACAD_REACTORS
330
47
102
}
330
47
100
AcDbScale
 70
     0
300
4:1
140
4.0
141
1.0
290
     0
  0
SCALE
  5
56
102
{ACAD_REACTORS
330
47
102
}
330
47
100
AcDbScale
 70
     0
300
8:1
140
8.0
141
1.0
290
     0
  0
SCALE
  5
57
102
{ACAD_REACTORS
330
47
102
}
330
47
100
AcDbScale
 70
     0
300
10:1
140
10.0
141
1.0
290
     0
  0
SCALE
  5
58
102
{ACAD_REACTORS
330
47
102
}
330
47
100
AcDbScale
 70
     0
300
100:1
140
100.0
141
1.0
290
     0
  0
SCALE
  5
59
102
{ACAD_REACTORS
330
47
102
}
330
47
100
AcDbScale
 70
     0
300
1/128" = 1'-0"
140
0.0078125
141
12.0
290
     0
  0
SCALE
  5
5A
102
{ACAD_REACTORS
330
47
102
}
330
47
100
AcDbScale
 70
     0
300
1/64" = 1'-0"
140
0.015625
141
12.0
290
     0
  0
SCALE
  5
5B
102
{ACAD_REACTORS
330
47
102
}
330
47
100
AcDbScale
 70
     0
300
1/32" = 1'-0"
140
0.03125
141
12.0
290
     0
  0
SCALE
  5
5C
102
{ACAD_REACTORS
330
47
102
}
330
47
100
AcDbScale
 70
     0
300
1/16" = 1'-0"
140
0.0625
141
12.0
290
     0
  0
SCALE
  5
5D
102
{ACAD_REACTORS
330
47
102
}
330
47
100
AcDbScale
 70
     0
300
3/32" = 1'-0"
140
0.09375
141
12.0
290
     0
  0
SCALE
  5
5E
102
{ACAD_REACTORS
330
47
102
}
330
47
100
AcDbScale
 70
     0
300
1/8" = 1'-0"
140
0.125
141
12.0
290
     0
  0
SCALE
  5
5F
102
{ACAD_REACTORS
330
47
102
}
330
47
100
AcDbScale
 70
     0
300
3/16" = 1'-0"
140
0.1875
141
12.0
290
     0
  0
SCALE
  5
60
102
{ACAD_REACTORS
330
47
102
}
330
47
100
AcDbScale
 70
     0
300
1/4" = 1'-0"
140
0.25
141
12.0
290
     0
  0
SCALE
  5
61
102
{ACAD_REACTORS
330
47
102
}
330
47
100
AcDbScale
 70
     0
300
3/8" = 1'-0"
140
0.375
141
12.0
290
     0
  0
SCALE
  5
62
102
{ACAD_REACTORS
330
47
102
}
330
47
100
AcDbScale
 70
     0
300
1/2" = 1'-0"
140
0.5
141
12.0
290
     0
  0
SCALE
  5
63
102
{ACAD_REACTORS
330
47
102
}
330
47
100
AcDbScale
 70
     0
300
3/4" = 1'-0"
140
0.75
141
12.0
290
     0
  0
SCALE
  5
64
102
{ACAD_REACTORS
330
47
102
}
330
47
100
AcDbScale
 70
     0
300
1" = 1'-0"
140
1.0
141
12.0
290
     0
  0
SCALE
  5
65
102
{ACAD_REACTORS
330
47
102
}
330
47
100
AcDbScale
 70
     0
300
1-1/2" = 1'-0"
140
1.5
141
12.0
290
     0
  0
SCALE
  5
66
102
{ACAD_REACTORS
330
47
102
}
330
47
100
AcDbScale
 70
     0
300
3" = 1'-0"
140
3.0
141
12.0
290
     0
  0
SCALE
  5
67
102
{ACAD_REACTORS
330
47
102
}
330
47
100
AcDbScale
 70
     0
300
6" = 1'-0"
140
6.0
141
12.0
290
     0
  0
SCALE
  5
68
102
{ACAD_REACTORS
330
47
102
}
330
47
100
AcDbScale
 70
     0
300
1'-0" = 1'-0"
140
12.0
141
12.0
290
     0
  0
ENDSEC
  0
EOF
