  0
SECTION
  2
HEADER
  9
$ACADVER
  1
AC1015
  9
$ACADMAINTVER
 70
     6
  9
$DWGCODEPAGE
  3
ANSI_949
  9
$INSBASE
 10
0.0
 20
0.0
 30
0.0
  9
$EXTMIN
 10
-54.68979686479155
 20
-49.97073246008785
 30
0.0
  9
$EXTMAX
 10
61.20695415255106
 20
30.1634104402427
 30
0.0
  9
$LIMMIN
 10
0.0
 20
0.0
  9
$LIMMAX
 10
420.0
 20
297.0
  9
$ORTHOMODE
 70
     0
  9
$REGENMODE
 70
     1
  9
$FILLMODE
 70
     1
  9
$QTEXTMODE
 70
     0
  9
$MIRRTEXT
 70
     1
  9
$LTSCALE
 40
1.0
  9
$ATTMODE
 70
     1
  9
$TEXTSIZE
 40
3.5
  9
$TRACEWID
 40
1.0
  9
$TEXTSTYLE
  7
Standard
  9
$CLAYER
  8
0
  9
$CELTYPE
  6
ByLayer
  9
$CECOLOR
 62
   256
  9
$CELTSCALE
 40
1.0
  9
$DISPSILH
 70
     0
  9
$DIMSCALE
 40
1.0
  9
$DIMASZ
 40
3.302
  9
$DIMEXO
 40
1.0
  9
$DIMDLI
 40
3.75
  9
$DIMRND
 40
0.0
  9
$DIMDLE
 40
0.0
  9
$DIMEXE
 40
1.0
  9
$DIMTP
 40
0.0
  9
$DIMTM
 40
0.0
  9
$DIMTXT
 40
3.5
  9
$DIMCEN
 40
2.5
  9
$DIMTSZ
 40
0.0
  9
$DIMTOL
 70
     0
  9
$DIMLIM
 70
     0
  9
$DIMTIH
 70
     1
  9
$DIMTOH
 70
     1
  9
$DIMSE1
 70
     0
  9
$DIMSE2
 70
     0
  9
$DIMTAD
 70
     1
  9
$DIMZIN
 70
     0
  9
$DIMBLK
  1

  9
$DIMASO
 70
     1
  9
$DIMSHO
 70
     1
  9
$DIMPOST
  1

  9
$DIMAPOST
  1

  9
$DIMALT
 70
     0
  9
$DIMALTD
 70
     3
  9
$DIMALTF
 40
0.0393700787401575
  9
$DIMLFAC
 40
1.0
  9
$DIMTOFL
 70
     1
  9
$DIMTVP
 40
0.0
  9
$DIMTIX
 70
     0
  9
$DIMSOXD
 70
     0
  9
$DIMSAH
 70
     0
  9
$DIMBLK1
  1

  9
$DIMBLK2
  1

  9
$DIMSTYLE
  2
ISO-25
  9
$DIMCLRD
 70
     0
  9
$DIMCLRE
 70
     0
  9
$DIMCLRT
 70
     0
  9
$DIMTFAC
 40
1.0
  9
$DIMGAP
 40
1.524
  9
$DIMJUST
 70
     0
  9
$DIMSD1
 70
     0
  9
$DIMSD2
 70
     0
  9
$DIMTOLJ
 70
     0
  9
$DIMTZIN
 70
     0
  9
$DIMALTZ
 70
     0
  9
$DIMALTTZ
 70
     0
  9
$DIMUPT
 70
     0
  9
$DIMDEC
 70
     2
  9
$DIMTDEC
 70
     2
  9
$DIMALTU
 70
     2
  9
$DIMALTTD
 70
     3
  9
$DIMTXSTY
  7
Standard
  9
$DIMAUNIT
 70
     0
  9
$DIMADEC
 70
     2
  9
$DIMALTRND
 40
0.0
  9
$DIMAZIN
 70
     0
  9
$DIMDSEP
 70
    44
  9
$DIMATFIT
 70
     3
  9
$DIMFRAC
 70
     0
  9
$DIMLDRBLK
  1

  9
$DIMLUNIT
 70
     2
  9
$DIMLWD
 70
    -2
  9
$DIMLWE
 70
    -2
  9
$DIMTMOVE
 70
     0
  9
$LUNITS
 70
     2
  9
$LUPREC
 70
     2
  9
$SKETCHINC
 40
1.0
  9
$FILLETRAD
 40
10.0
  9
$AUNITS
 70
     0
  9
$AUPREC
 70
     2
  9
$MENU
  1
.
  9
$ELEVATION
 40
0.0
  9
$PELEVATION
 40
0.0
  9
$THICKNESS
 40
0.0
  9
$LIMCHECK
 70
     0
  9
$CHAMFERA
 40
0.0
  9
$CHAMFERB
 40
0.0
  9
$CHAMFERC
 40
0.0
  9
$CHAMFERD
 40
0.0
  9
$SKPOLY
 70
     0
  9
$TDCREATE
 40
2458262.545672141
  9
$TDUCREATE
 40
2458262.170672141
  9
$TDUPDATE
 40
2458266.481157095
  9
$TDUUPDATE
 40
2458266.106157095
  9
$TDINDWG
 40
0.0012824074
  9
$TDUSRTIMER
 40
2458266.104874734
  9
$USRTIMER
 70
     1
  9
$ANGBASE
 50
0.0
  9
$ANGDIR
 70
     0
  9
$PDMODE
 70
     0
  9
$PDSIZE
 40
-1.0
  9
$PLINEWID
 40
0.0
  9
$SPLFRAME
 70
     0
  9
$SPLINETYPE
 70
     6
  9
$SPLINESEGS
 70
     8
  9
$HANDSEED
  5
142
  9
$SURFTAB1
 70
     6
  9
$SURFTAB2
 70
     6
  9
$SURFTYPE
 70
     6
  9
$SURFU
 70
     6
  9
$SURFV
 70
     6
  9
$UCSBASE
  2

  9
$UCSNAME
  2

  9
$UCSORG
 10
0.0
 20
0.0
 30
0.0
  9
$UCSXDIR
 10
1.0
 20
0.0
 30
0.0
  9
$UCSYDIR
 10
0.0
 20
1.0
 30
0.0
  9
$UCSORTHOREF
  2

  9
$UCSORTHOVIEW
 70
     0
  9
$UCSORGTOP
 10
0.0
 20
0.0
 30
0.0
  9
$UCSORGBOTTOM
 10
0.0
 20
0.0
 30
0.0
  9
$UCSORGLEFT
 10
0.0
 20
0.0
 30
0.0
  9
$UCSORGRIGHT
 10
0.0
 20
0.0
 30
0.0
  9
$UCSORGFRONT
 10
0.0
 20
0.0
 30
0.0
  9
$UCSORGBACK
 10
0.0
 20
0.0
 30
0.0
  9
$PUCSBASE
  2

  9
$PUCSNAME
  2

  9
$PUCSORG
 10
0.0
 20
0.0
 30
0.0
  9
$PUCSXDIR
 10
1.0
 20
0.0
 30
0.0
  9
$PUCSYDIR
 10
0.0
 20
1.0
 30
0.0
  9
$PUCSORTHOREF
  2

  9
$PUCSORTHOVIEW
 70
     0
  9
$PUCSORGTOP
 10
0.0
 20
0.0
 30
0.0
  9
$PUCSORGBOTTOM
 10
0.0
 20
0.0
 30
0.0
  9
$PUCSORGLEFT
 10
0.0
 20
0.0
 30
0.0
  9
$PUCSORGRIGHT
 10
0.0
 20
0.0
 30
0.0
  9
$PUCSORGFRONT
 10
0.0
 20
0.0
 30
0.0
  9
$PUCSORGBACK
 10
0.0
 20
0.0
 30
0.0
  9
$USERI1
 70
     0
  9
$USERI2
 70
     0
  9
$USERI3
 70
     0
  9
$USERI4
 70
     0
  9
$USERI5
 70
     0
  9
$USERR1
 40
0.0
  9
$USERR2
 40
0.0
  9
$USERR3
 40
0.0
  9
$USERR4
 40
0.0
  9
$USERR5
 40
0.0
  9
$WORLDVIEW
 70
     1
  9
$SHADEDGE
 70
     3
  9
$SHADEDIF
 70
    70
  9
$TILEMODE
 70
     1
  9
$MAXACTVP
 70
    64
  9
$PINSBASE
 10
0.0
 20
0.0
 30
0.0
  9
$PLIMCHECK
 70
     0
  9
$PEXTMIN
 10
1.000000000000000E+20
 20
1.000000000000000E+20
 30
1.000000000000000E+20
  9
$PEXTMAX
 10
-1.000000000000000E+20
 20
-1.000000000000000E+20
 30
-1.000000000000000E+20
  9
$PLIMMIN
 10
0.0
 20
0.0
  9
$PLIMMAX
 10
0.0
 20
0.0
  9
$UNITMODE
 70
     0
  9
$VISRETAIN
 70
     1
  9
$PLINEGEN
 70
     0
  9
$PSLTSCALE
 70
     1
  9
$TREEDEPTH
 70
  3020
  9
$CMLSTYLE
  2
Standard
  9
$CMLJUST
 70
     0
  9
$CMLSCALE
 40
20.0
  9
$PROXYGRAPHICS
 70
     1
  9
$MEASUREMENT
 70
     1
  9
$CELWEIGHT
370
    -1
  9
$ENDCAPS
280
     0
  9
$JOINSTYLE
280
     0
  9
$LWDISPLAY
290
     1
  9
$INSUNITS
 70
     4
  9
$HYPERLINKBASE
  1

  9
$STYLESHEET
  1

  9
$XEDIT
290
     1
  9
$CEPSNTYPE
380
     0
  9
$PSTYLEMODE
290
     1
  9
$FINGERPRINTGUID
  2
{ECA3BE26-EEEF-463D-8BF7-06BFB7B89B7A}
  9
$VERSIONGUID
  2
{FAEB1C32-E019-11D5-929B-00C0DF256EC4}
  9
$EXTNAMES
290
     1
  9
$PSVPSCALE
 40
0.0
  9
$OLESTARTUP
290
     0
  0
ENDSEC
  0
SECTION
  2
CLASSES
  0
CLASS
  1
ACDBDICTIONARYWDFLT
  2
AcDbDictionaryWithDefault
  3
ObjectDBX Classes
 90
        0
280
     0
281
     0
  0
CLASS
  1
VISUALSTYLE
  2
AcDbVisualStyle
  3
ObjectDBX Classes
 90
     4095
280
     0
281
     0
  0
CLASS
  1
MATERIAL
  2
AcDbMaterial
  3
ObjectDBX Classes
 90
     1153
280
     0
281
     0
  0
CLASS
  1
SCALE
  2
AcDbScale
  3
ObjectDBX Classes
 90
     1153
280
     0
281
     0
  0
CLASS
  1
SUN
  2
AcDbSun
  3
SCENEOE
 90
     1153
280
     0
281
     0
  0
CLASS
  1
ACDBPLACEHOLDER
  2
AcDbPlaceHolder
  3
ObjectDBX Classes
 90
        0
280
     0
281
     0
  0
CLASS
  1
LAYOUT
  2
AcDbLayout
  3
ObjectDBX Classes
 90
        0
280
     0
281
     0
  0
CLASS
  1
TABLESTYLE
  2
AcDbTableStyle
  3
ObjectDBX Classes
 90
     4095
280
     0
281
     0
  0
CLASS
  1
MLEADERSTYLE
  2
AcDbMLeaderStyle
  3
ACDB_MLEADERSTYLE_CLASS
 90
     4095
280
     0
281
     0
  0
CLASS
  1
RASTERVARIABLES
  2
AcDbRasterVariables
  3
ISM
 90
        0
280
     0
281
     0
  0
ENDSEC
  0
SECTION
  2
TABLES
  0
TABLE
  2
VPORT
  5
8
330
0
100
AcDbSymbolTable
 70
     1
  0
VPORT
  5
29
330
8
100
AcDbSymbolTableRecord
100
AcDbViewportTableRecord
  2
*Active
 70
     0
 10
0.0
 20
0.0
 11
1.0
 21
1.0
 12
3.258578643879751
 22
-9.90366100992258
 13
0.0
 23
0.0
 14
10.0
 24
10.0
 15
10.0
 25
10.0
 16
0.0
 26
0.0
 36
1.0
 17
0.0
 27
0.0
 37
0.0
 40
102.5764203959323
 41
1.152454780361757
 42
50.0
 43
0.0
 44
0.0
 50
0.0
 51
0.0
 71
    16
 72
  2000
 73
     1
 74
     3
 75
     0
 76
     0
 77
     0
 78
     0
281
     0
 65
     1
110
0.0
120
0.0
130
0.0
111
1.0
121
0.0
131
0.0
112
0.0
122
1.0
132
0.0
 79
     0
146
0.0
  0
ENDTAB
  0
TABLE
  2
LTYPE
  5
5
330
0
100
AcDbSymbolTable
 70
     6
  0
LTYPE
  5
14
330
5
100
AcDbSymbolTableRecord
100
AcDbLinetypeTableRecord
  2
ByBlock
 70
     0
  3

 72
    65
 73
     0
 40
0.0
  0
LTYPE
  5
15
330
5
100
AcDbSymbolTableRecord
100
AcDbLinetypeTableRecord
  2
ByLayer
 70
     0
  3

 72
    65
 73
     0
 40
0.0
  0
LTYPE
  5
16
330
5
100
AcDbSymbolTableRecord
100
AcDbLinetypeTableRecord
  2
Continuous
 70
     0
  3
Solid line
 72
    65
 73
     0
 40
0.0
  0
LTYPE
  5
6A
330
5
100
AcDbSymbolTableRecord
100
AcDbLinetypeTableRecord
  2
HIDDEN
 70
     0
  3
Hidden __ __ __ __ __ __ __ __ __ __ __ __ __ __
 72
    65
 73
     2
 40
1.905
 49
1.27
 74
     0
 49
-0.635
 74
     0
  0
LTYPE
  5
6B
330
5
100
AcDbSymbolTableRecord
100
AcDbLinetypeTableRecord
  2
PHANTOM
 70
     0
  3
Phantom ______  __  __  ______  __  __  ______
 72
    65
 73
     6
 40
12.7
 49
6.35
 74
     0
 49
-1.27
 74
     0
 49
1.27
 74
     0
 49
-1.27
 74
     0
 49
1.27
 74
     0
 49
-1.27
 74
     0
  0
LTYPE
  5
6C
330
5
100
AcDbSymbolTableRecord
100
AcDbLinetypeTableRecord
  2
CENTER
 70
     0
  3
Center ____ _ ____ _ ____ _ ____ _ ____ _ ____
 72
    65
 73
     4
 40
10.16
 49
6.35
 74
     0
 49
-1.27
 74
     0
 49
1.27
 74
     0
 49
-1.27
 74
     0
  0
LTYPE
  5
6D
330
5
100
AcDbSymbolTableRecord
100
AcDbLinetypeTableRecord
  2
CENTERX2
 70
     0
  3
Center (2x) ________  __  ________  __  _____
 72
    65
 73
     4
 40
20.32
 49
12.7
 74
     0
 49
-2.54
 74
     0
 49
2.54
 74
     0
 49
-2.54
 74
     0
  0
LTYPE
  5
6E
330
5
100
AcDbSymbolTableRecord
100
AcDbLinetypeTableRecord
  2
DOT2
 70
     0
  3
Dot (.5x) ........................................
 72
    65
 73
     2
 40
0.635
 49
0.0
 74
     0
 49
-0.635
 74
     0
  0
ENDTAB
  0
TABLE
  2
LAYER
  5
2
330
0
100
AcDbSymbolTable
 70
    17
  0
LAYER
  5
10
330
2
100
AcDbSymbolTableRecord
100
AcDbLayerTableRecord
  2
0
 70
     0
 62
     7
  6
Continuous
370
    -3
390
F
  0
LAYER
  5
6F
330
2
100
AcDbSymbolTableRecord
100
AcDbLayerTableRecord
  2
FORMAT
 70
     0
 62
     2
  6
Continuous
370
    -3
390
F
  0
LAYER
  5
70
330
2
100
AcDbSymbolTableRecord
100
AcDbLayerTableRecord
  2
외형선
 70
     0
 62
   100
  6
Continuous
370
    30
390
F
  0
LAYER
  5
71
330
2
100
AcDbSymbolTableRecord
100
AcDbLayerTableRecord
  2
숨은선
 70
     0
 62
     2
  6
HIDDEN
370
    15
390
F
  0
LAYER
  5
72
330
2
100
AcDbSymbolTableRecord
100
AcDbLayerTableRecord
  2
중심선
 70
     0
 62
     1
  6
CENTERX2
370
    -3
390
F
  0
LAYER
  5
73
330
2
100
AcDbSymbolTableRecord
100
AcDbLayerTableRecord
  2
파단선
 70
     0
 62
     4
  6
Continuous
370
    -3
390
F
  0
LAYER
  5
74
330
2
100
AcDbSymbolTableRecord
100
AcDbLayerTableRecord
  2
해칭선
 70
     0
 62
     4
  6
Continuous
370
    -3
390
F
  0
LAYER
  5
75
330
2
100
AcDbSymbolTableRecord
100
AcDbLayerTableRecord
  2
가는실선
 70
     0
 62
     4
  6
Continuous
370
    -3
390
F
  0
LAYER
  5
76
330
2
100
AcDbSymbolTableRecord
100
AcDbLayerTableRecord
  2
치수_보조선
 70
     0
 62
     4
  6
Continuous
370
    -3
390
F
  0
LAYER
  5
77
330
2
100
AcDbSymbolTableRecord
100
AcDbLayerTableRecord
  2
치수문자_일반주서
 70
     0
 62
     7
  6
Continuous
370
    15
390
F
  0
LAYER
  5
78
330
2
100
AcDbSymbolTableRecord
100
AcDbLayerTableRecord
  2
개별주서
 70
     0
 62
   100
  6
Continuous
370
    30
390
F
  0
LAYER
  5
79
330
2
100
AcDbSymbolTableRecord
100
AcDbLayerTableRecord
  2
중간선
 70
     0
 62
     2
  6
Continuous
370
    15
390
F
  0
LAYER
  5
7A
330
2
100
AcDbSymbolTableRecord
100
AcDbLayerTableRecord
  2
윤곽선
 70
     0
 62
     3
  6
Continuous
370
    40
390
F
  0
LAYER
  5
7B
330
2
100
AcDbSymbolTableRecord
100
AcDbLayerTableRecord
  2
중심마크
 70
     0
 62
   100
  6
Continuous
370
    30
390
F
  0
LAYER
  5
7C
330
2
100
AcDbSymbolTableRecord
100
AcDbLayerTableRecord
  2
가상선
 70
     0
 62
     4
  6
PHANTOM
370
    -3
390
F
  0
LAYER
  5
7D
330
2
100
AcDbSymbolTableRecord
100
AcDbLayerTableRecord
  2
특수지정선
 70
     0
 62
     5
  6
CENTERX2
370
    60
390
F
  0
LAYER
  5
132
330
2
100
AcDbSymbolTableRecord
100
AcDbLayerTableRecord
  2
Defpoints
 70
     0
 62
     7
  6
Continuous
290
     0
370
    -3
390
F
  0
ENDTAB
  0
TABLE
  2
STYLE
  5
3
330
0
100
AcDbSymbolTable
 70
     2
  0
STYLE
  5
11
330
3
100
AcDbSymbolTableRecord
100
AcDbTextStyleTableRecord
  2
Standard
 70
     0
 40
0.0
 41
1.0
 50
0.0
 71
     0
 42
3.5
  3
txt
  4

  0
STYLE
  5
93
330
3
100
AcDbSymbolTableRecord
100
AcDbTextStyleTableRecord
  2
SLDTEXTSTYLE0
 70
     0
 40
0.0
 41
0.75
 50
0.0
 71
     0
 42
3.5
  3
TXT
  4

  0
ENDTAB
  0
TABLE
  2
VIEW
  5
6
330
0
100
AcDbSymbolTable
 70
     0
  0
ENDTAB
  0
TABLE
  2
UCS
  5
7
330
0
100
AcDbSymbolTable
 70
     0
  0
ENDTAB
  0
TABLE
  2
APPID
  5
9
330
0
100
AcDbSymbolTable
 70
     1
  0
APPID
  5
12
330
9
100
AcDbSymbolTableRecord
100
AcDbRegAppTableRecord
  2
ACAD
 70
     0
  0
ENDTAB
  0
TABLE
  2
DIMSTYLE
  5
A
330
0
100
AcDbSymbolTable
 70
     3
100
AcDbDimStyleTable
  0
DIMSTYLE
105
27
330
A
100
AcDbSymbolTableRecord
100
AcDbDimStyleTableRecord
  2
ISO-25
 70
     0
 41
2.5
 42
0.625
 43
3.75
 44
1.25
 73
     0
 74
     0
 77
     1
 78
     8
140
2.5
141
2.5
143
0.03937007874016
147
0.625
171
     3
172
     1
178
     0
271
     2
272
     2
274
     3
278
    44
283
     0
284
     8
340
11
  0
DIMSTYLE
105
D8
102
{ACAD_REACTORS
330
D7
330
FA
102
}
330
A
100
AcDbSymbolTableRecord
100
AcDbDimStyleTableRecord
  2
SLDDIMSTYLE0
 70
     0
 41
3.302
 44
0.0
 45
0.000000001
 73
     0
 74
     0
 77
     1
 78
    12
 79
     3
140
3.5
147
0.875
172
     1
173
     1
178
     0
271
     2
272
     2
276
     2
284
    12
289
     0
340
93
  0
DIMSTYLE
105
E6
102
{ACAD_REACTORS
330
E5
330
F0
102
}
330
A
100
AcDbSymbolTableRecord
100
AcDbDimStyleTableRecord
  2
SLDDIMSTYLE1
 70
     0
 41
3.302
 44
0.0
 45
0.000000001
 73
     0
 74
     0
 77
     1
 78
    12
 79
     3
140
3.5
147
0.875
173
     1
178
     0
271
     2
272
     2
276
     2
284
    12
340
93
  0
ENDTAB
  0
TABLE
  2
BLOCK_RECORD
  5
1
330
0
100
AcDbSymbolTable
 70
     7
  0
BLOCK_RECORD
  5
1F
330
1
100
AcDbSymbolTableRecord
100
AcDbBlockTableRecord
  2
*Model_Space
340
22
  0
BLOCK_RECORD
  5
1B
330
1
100
AcDbSymbolTableRecord
100
AcDbBlockTableRecord
  2
*Paper_Space
340
1E
  0
BLOCK_RECORD
  5
23
330
1
100
AcDbSymbolTableRecord
100
AcDbBlockTableRecord
  2
*Paper_Space0
340
26
  0
BLOCK_RECORD
  5
7E
330
1
100
AcDbSymbolTableRecord
100
AcDbBlockTableRecord
  2
블럭10
340
0
102
{BLKREFS
331
D0
102
}
  0
BLOCK_RECORD
  5
D9
330
1
100
AcDbSymbolTableRecord
100
AcDbBlockTableRecord
  2
_D
340
0
  0
BLOCK_RECORD
  5
E7
330
1
100
AcDbSymbolTableRecord
100
AcDbBlockTableRecord
  2
_D_1
340
0
  0
BLOCK_RECORD
  5
F1
330
1
100
AcDbSymbolTableRecord
100
AcDbBlockTableRecord
  2
_D_2
340
0
  0
BLOCK_RECORD
  5
FB
330
1
100
AcDbSymbolTableRecord
100
AcDbBlockTableRecord
  2
_D_3
340
0
  0
BLOCK_RECORD
  5
107
330
1
100
AcDbSymbolTableRecord
100
AcDbBlockTableRecord
  2
SW_DOWELSYMBOL_0
340
0
102
{BLKREFS
331
10D
102
}
  0
ENDTAB
  0
ENDSEC
  0
SECTION
  2
BLOCKS
  0
BLOCK
  5
20
330
1F
100
AcDbEntity
  8
0
100
AcDbBlockBegin
  2
*Model_Space
 70
     0
 10
0.0
 20
0.0
 30
0.0
  3
*Model_Space
  1

  0
ENDBLK
  5
21
330
1F
100
AcDbEntity
  8
0
100
AcDbBlockEnd
  0
BLOCK
  5
1C
330
1B
100
AcDbEntity
 67
     1
  8
0
100
AcDbBlockBegin
  2
*Paper_Space
 70
     0
 10
0.0
 20
0.0
 30
0.0
  3
*Paper_Space
  1

  0
ENDBLK
  5
1D
330
1B
100
AcDbEntity
 67
     1
  8
0
100
AcDbBlockEnd
  0
BLOCK
  5
24
330
23
100
AcDbEntity
  8
0
100
AcDbBlockBegin
  2
*Paper_Space0
 70
     0
 10
0.0
 20
0.0
 30
0.0
  3
*Paper_Space0
  1

  0
ENDBLK
  5
25
330
23
100
AcDbEntity
  8
0
100
AcDbBlockEnd
  0
BLOCK
  5
7F
330
7E
100
AcDbEntity
  8
0
100
AcDbBlockBegin
  2
블럭10
 70
     2
 10
0.0
 20
0.0
 30
0.0
  3
블럭10
  1

  0
ELLIPSE
  5
81
330
7E
100
AcDbEntity
  8
중심선
100
AcDbEllipse
 10
20.54032771741204
 20
12.0471743016438
 30
0.0
 11
6.600054785286829
 21
-1.261213355974178E-13
 31
0.0
210
0.0
220
0.0
230
1.0
 40
0.636358354079598
 41
0.9219305317359503
 42
6.513795318482858
  0
ELLIPSE
  5
82
330
7E
100
AcDbEntity
  8
중심선
100
AcDbEllipse
 10
20.54032771746488
 20
12.04717430159265
 30
0.0
 11
3.960054785062283
 21
1.540847449632565E-10
 31
0.0
210
0.0
220
0.0
230
1.0
 40
0.3939339440162632
 41
1.131841032648279
 42
5.62031148352944
  0
LINE
  5
83
330
7E
100
AcDbEntity
  8
중심선
100
AcDbLine
 10
2.268634060543552
 20
16.24717430164393
 30
0.0
 11
5.714909304380834
 21
16.24717430164393
 31
0.0
  0
LINE
  5
84
330
7E
100
AcDbEntity
  8
중심선
100
AcDbLine
 10
5.245725140726316
 20
7.84717430164391
 30
0.0
 11
8.692000384563599
 21
7.84717430164391
 31
0.0
  0
LINE
  5
85
330
7E
100
AcDbEntity
  8
중심선
100
AcDbLine
 10
15.74043728645272
 20
16.24717430164393
 30
0.0
 11
8.692000384563599
 21
7.84717430164391
 31
0.0
  0
LINE
  5
86
330
7E
100
AcDbEntity
  8
중심선
100
AcDbLine
 10
0.1404042013395286
 20
13.71084872107135
 30
0.0
 11
3.58671253028996
 21
13.71088815037384
 31
0.0
  0
LINE
  5
87
330
7E
100
AcDbEntity
  8
중심선
100
AcDbLine
 10
2.750260043222114
 20
10.84717430164391
 30
0.0
 11
6.196535287059397
 21
10.84717430164391
 31
0.0
  0
LINE
  5
88
330
7E
100
AcDbEntity
  8
중심선
100
AcDbLine
 10
12.29416204261559
 20
16.24717430164393
 30
0.0
 11
5.245725140726316
 21
7.84717430164391
 31
0.0
  0
LINE
  5
89
330
7E
100
AcDbEntity
  8
중심선
100
AcDbLine
 10
10.72767329541681
 20
16.24717430164393
 30
0.0
 11
6.196535287059397
 21
10.84717430164391
 31
0.0
  0
LINE
  5
8A
330
7E
100
AcDbEntity
  8
중심선
100
AcDbLine
 10
7.28139805157953
 20
16.24717430164393
 30
0.0
 11
2.750260043222114
 21
10.84717430164391
 31
0.0
  0
LINE
  5
8B
330
7E
100
AcDbEntity
  8
중심선
100
AcDbLine
 10
5.714909304380834
 20
16.24717430164393
 30
0.0
 11
3.58671253028996
 21
13.71088815037384
 31
0.0
  0
LINE
  5
8C
330
7E
100
AcDbEntity
  8
중심선
100
AcDbLine
 10
2.268634060543552
 20
16.24717430164393
 30
0.0
 11
0.1404042013395286
 21
13.71084872107135
 31
0.0
  0
LINE
  5
8D
330
7E
100
AcDbEntity
  8
중심선
100
AcDbLine
 10
7.28139805157953
 20
16.24717430164393
 30
0.0
 11
10.72767329541681
 21
16.24717430164393
 31
0.0
  0
LINE
  5
8E
330
7E
100
AcDbEntity
  8
중심선
100
AcDbLine
 10
12.29416204261559
 20
16.24717430164393
 30
0.0
 11
15.74043728645272
 21
16.24717430164393
 31
0.0
  0
LINE
  5
8F
330
7E
100
AcDbEntity
  8
중심선
100
AcDbLine
 10
19.22036997980202
 20
11.08717430171403
 30
0.0
 11
23.66174974927406
 21
11.08717430171406
 31
0.0
  0
LINE
  5
90
330
7E
100
AcDbEntity
  8
중심선
100
AcDbLine
 10
19.22039502424796
 20
13.00717430171391
 30
0.0
 11
19.22036997980202
 21
11.08717430171403
 31
0.0
  0
LINE
  5
91
330
7E
100
AcDbEntity
  8
중심선
100
AcDbLine
 10
19.22039502424796
 20
13.00717430171391
 30
0.0
 11
26.96566020931264
 21
13.00717430171391
 31
0.0
  0
LINE
  5
92
330
7E
100
AcDbEntity
  8
중심선
100
AcDbLine
 10
22.22332737316547
 20
13.45928029700563
 30
0.0
 11
24.52862924686651
 21
15.39360700705356
 31
0.0
  0
ATTDEF
  5
94
330
7E
100
AcDbEntity
  8
FORMAT
 62
     2
100
AcDbText
 10
-16.11926103943555
 20
2.075366912832191
 30
0.0
 40
4.233333333333333
  1
SEME7010040E [ 2 FLUTE ]
 41
0.75
  7
SLDTEXTSTYLE0
 11
-16.11926103943555
 21
-0.0412997538344756
 31
0.0
100
AcDbAttributeDefinition
  3

  2
AUTOATTR0
 70
     0
 74
     1
  0
ENDBLK
  5
80
330
7E
100
AcDbEntity
  8
0
100
AcDbBlockEnd
  0
BLOCK
  5
DA
330
D9
100
AcDbEntity
  8
0
100
AcDbBlockBegin
  2
_D
 70
     0
 10
0.0
 20
0.0
 30
0.0
  3
_D
  1

  0
LINE
  5
DC
330
D9
100
AcDbEntity
  8
치수문자_일반주서
 62
     0
370
    -2
100
AcDbLine
 10
50.0625
 20
-4.999999999999843
 30
0.0
 11
60.65662081921771
 21
-4.999999999999803
 31
0.0
  0
LINE
  5
DD
330
D9
100
AcDbEntity
  8
치수문자_일반주서
 62
     0
370
    -2
100
AcDbLine
 10
50.06250000000001
 20
5.00000000000015
 30
0.0
 11
60.65662081921767
 21
5.00000000000019
 31
0.0
  0
LINE
  5
DE
330
D9
100
AcDbEntity
  8
치수문자_일반주서
 62
     0
370
    -2
100
AcDbLine
 10
60.65662081921771
 20
-4.999999999999803
 30
0.0
 11
60.65662081921762
 21
19.04150000000019
 31
0.0
  0
LINE
  5
DF
330
D9
100
AcDbEntity
  8
치수문자_일반주서
 62
     0
370
    -2
100
AcDbLine
 10
60.65662081921771
 20
-4.999999999999803
 30
0.0
 11
60.65662081921767
 21
5.00000000000019
 31
0.0
  0
LINE
  5
E0
330
D9
100
AcDbEntity
  8
치수문자_일반주서
 62
     0
370
    -2
100
AcDbLine
 10
60.65662081921772
 20
-8.301999999999802
 30
0.0
 11
60.65662081921774
 21
-11.6039999999998
 31
0.0
  0
LINE
  5
E1
330
D9
100
AcDbEntity
  8
치수문자_일반주서
 62
     0
370
    -2
100
AcDbLine
 10
60.65662081921766
 20
8.30200000000019
 30
0.0
 11
60.65662081921764
 21
11.60400000000019
 31
0.0
  0
SOLID
  5
E2
330
D9
100
AcDbEntity
  8
치수문자_일반주서
 62
     0
100
AcDbTrace
 10
61.20695415255106
 20
-8.3019999999998
 30
0.0
 11
60.10628748588439
 21
-8.301999999999804
 31
0.0
 12
60.65662081921771
 22
-4.999999999999803
 32
0.0
 13
60.65662081921771
 23
-4.999999999999803
 33
0.0
  0
SOLID
  5
E3
330
D9
100
AcDbEntity
  8
치수문자_일반주서
 62
     0
100
AcDbTrace
 10
60.10628748588432
 20
8.302000000000188
 30
0.0
 11
61.20695415255099
 21
8.302000000000191
 31
0.0
 12
60.65662081921767
 22
5.00000000000019
 32
0.0
 13
60.65662081921767
 23
5.00000000000019
 33
0.0
  0
MTEXT
  5
E4
330
D9
100
AcDbEntity
  8
치수문자_일반주서
 62
     0
100
AcDbMText
 10
56.28162081921764
 20
15.32275000000018
 30
0.0
 40
3.5
 41
0.0
 71
     2
 72
     1
  1
\A1;%%c10
  7
SLDTEXTSTYLE0
 11
-3.552713678800503E-15
 21
1.0
 31
0.0
 73
     1
 44
1.0
  0
POINT
  5
13C
330
D9
100
AcDbEntity
  8
Defpoints
 62
     0
100
AcDbPoint
 10
50.0
 20
-4.999999999999843
 30
0.0
  0
POINT
  5
13D
330
D9
100
AcDbEntity
  8
Defpoints
 62
     0
100
AcDbPoint
 10
50.00000000000001
 20
5.00000000000015
 30
0.0
  0
POINT
  5
13E
330
D9
100
AcDbEntity
  8
Defpoints
 62
     0
100
AcDbPoint
 10
60.65662081921767
 20
5.00000000000019
 30
0.0
  0
ENDBLK
  5
DB
330
D9
100
AcDbEntity
  8
0
100
AcDbBlockEnd
  0
BLOCK
  5
E8
330
E7
100
AcDbEntity
  8
0
100
AcDbBlockBegin
  2
_D_1
 70
     0
 10
0.0
 20
0.0
 30
0.0
  3
_D_1
  1

  0
LINE
  5
EA
330
E7
100
AcDbEntity
  8
치수문자_일반주서
 62
     0
370
    -2
100
AcDbLine
 10
-40.0
 20
4.062499999999998
 30
0.0
 11
-39.99999999999999
 21
25.7884104402427
 31
0.0
  0
LINE
  5
EB
330
E7
100
AcDbEntity
  8
치수문자_일반주서
 62
     0
370
    -2
100
AcDbLine
 10
50.00000000000001
 20
5.06250000000015
 30
0.0
 11
50.00000000000001
 21
25.7884104402427
 31
0.0
  0
LINE
  5
EC
330
E7
100
AcDbEntity
  8
치수문자_일반주서
 62
     0
370
    -2
100
AcDbLine
 10
-36.69799999999999
 20
25.7884104402427
 30
0.0
 11
46.69800000000001
 21
25.7884104402427
 31
0.0
  0
SOLID
  5
ED
330
E7
100
AcDbEntity
  8
치수문자_일반주서
 62
     0
100
AcDbTrace
 10
-36.69799999999999
 20
26.33874377357603
 30
0.0
 11
-36.69799999999999
 21
25.23807710690936
 31
0.0
 12
-39.99999999999999
 22
25.7884104402427
 32
0.0
 13
-39.99999999999999
 23
25.7884104402427
 33
0.0
  0
SOLID
  5
EE
330
E7
100
AcDbEntity
  8
치수문자_일반주서
 62
     0
100
AcDbTrace
 10
46.69800000000001
 20
25.23807710690936
 30
0.0
 11
46.69800000000001
 21
26.33874377357603
 31
0.0
 12
50.00000000000001
 22
25.7884104402427
 32
0.0
 13
50.00000000000001
 23
25.7884104402427
 33
0.0
  0
MTEXT
  5
EF
330
E7
100
AcDbEntity
  8
치수문자_일반주서
 62
     0
100
AcDbMText
 10
4.999999999999995
 20
30.1634104402427
 30
0.0
 40
3.5
 41
0.0
 71
     2
 72
     1
  1
\A1;90
  7
SLDTEXTSTYLE0
 73
     1
 44
1.0
  0
POINT
  5
133
330
E7
100
AcDbEntity
  8
Defpoints
 62
     0
100
AcDbPoint
 10
-40.0
 20
3.999999999999999
 30
0.0
  0
POINT
  5
134
330
E7
100
AcDbEntity
  8
Defpoints
 62
     0
100
AcDbPoint
 10
50.00000000000001
 20
5.00000000000015
 30
0.0
  0
POINT
  5
135
330
E7
100
AcDbEntity
  8
Defpoints
 62
     0
100
AcDbPoint
 10
50.00000000000001
 20
25.7884104402427
 30
0.0
  0
ENDBLK
  5
E9
330
E7
100
AcDbEntity
  8
0
100
AcDbBlockEnd
  0
BLOCK
  5
F2
330
F1
100
AcDbEntity
  8
0
100
AcDbBlockBegin
  2
_D_2
 70
     0
 10
0.0
 20
0.0
 30
0.0
  3
_D_2
  1

  0
LINE
  5
F4
330
F1
100
AcDbEntity
  8
치수문자_일반주서
 62
     0
370
    -2
100
AcDbLine
 10
9.999999999999995
 20
4.044981600933552
 30
0.0
 11
9.999999999999996
 21
17.32947940710108
 31
0.0
  0
LINE
  5
F5
330
F1
100
AcDbEntity
  8
치수문자_일반주서
 62
     0
370
    -2
100
AcDbLine
 10
50.00000000000001
 20
5.06250000000015
 30
0.0
 11
50.00000000000001
 21
17.32947940710108
 31
0.0
  0
LINE
  5
F6
330
F1
100
AcDbEntity
  8
치수문자_일반주서
 62
     0
370
    -2
100
AcDbLine
 10
13.302
 20
17.32947940710108
 30
0.0
 11
46.69800000000001
 21
17.32947940710108
 31
0.0
  0
SOLID
  5
F7
330
F1
100
AcDbEntity
  8
치수문자_일반주서
 62
     0
100
AcDbTrace
 10
13.302
 20
17.87981274043441
 30
0.0
 11
13.302
 21
16.77914607376774
 31
0.0
 12
9.999999999999996
 22
17.32947940710108
 32
0.0
 13
9.999999999999996
 23
17.32947940710108
 33
0.0
  0
SOLID
  5
F8
330
F1
100
AcDbEntity
  8
치수문자_일반주서
 62
     0
100
AcDbTrace
 10
46.69800000000001
 20
16.77914607376774
 30
0.0
 11
46.69800000000001
 21
17.87981274043441
 31
0.0
 12
50.00000000000001
 22
17.32947940710108
 32
0.0
 13
50.00000000000001
 23
17.32947940710108
 33
0.0
  0
MTEXT
  5
F9
330
F1
100
AcDbEntity
  8
치수문자_일반주서
 62
     0
100
AcDbMText
 10
30.0
 20
21.70447940710108
 30
0.0
 40
3.5
 41
0.0
 71
     2
 72
     1
  1
\A1;40
  7
SLDTEXTSTYLE0
 73
     1
 44
1.0
  0
POINT
  5
136
330
F1
100
AcDbEntity
  8
Defpoints
 62
     0
100
AcDbPoint
 10
9.999999999999995
 20
3.982481600933552
 30
0.0
  0
POINT
  5
137
330
F1
100
AcDbEntity
  8
Defpoints
 62
     0
100
AcDbPoint
 10
50.00000000000001
 20
5.00000000000015
 30
0.0
  0
POINT
  5
138
330
F1
100
AcDbEntity
  8
Defpoints
 62
     0
100
AcDbPoint
 10
50.00000000000001
 20
17.32947940710108
 30
0.0
  0
ENDBLK
  5
F3
330
F1
100
AcDbEntity
  8
0
100
AcDbBlockEnd
  0
BLOCK
  5
FC
330
FB
100
AcDbEntity
  8
0
100
AcDbBlockBegin
  2
_D_3
 70
     0
 10
0.0
 20
0.0
 30
0.0
  3
_D_3
  1

  0
LINE
  5
FE
330
FB
100
AcDbEntity
  8
치수문자_일반주서
 62
     0
370
    -2
100
AcDbLine
 10
-39.0625
 20
4.999999999999999
 30
0.0
 11
-50.31479686479151
 21
4.999999999999957
 31
0.0
  0
LINE
  5
FF
330
FB
100
AcDbEntity
  8
치수문자_일반주서
 62
     0
370
    -2
100
AcDbLine
 10
-39.0625
 20
-4.999999999999994
 30
0.0
 11
-50.31479686479148
 21
-5.000000000000036
 31
0.0
  0
LINE
  5
100
330
FB
100
AcDbEntity
  8
치수문자_일반주서
 62
     0
370
    -2
100
AcDbLine
 10
-50.31479686479151
 20
4.999999999999957
 30
0.0
 11
-50.31479686479156
 21
19.04149999999996
 31
0.0
  0
LINE
  5
101
330
FB
100
AcDbEntity
  8
치수문자_일반주서
 62
     0
370
    -2
100
AcDbLine
 10
-50.31479686479151
 20
4.999999999999957
 30
0.0
 11
-50.31479686479148
 21
-5.000000000000036
 31
0.0
  0
LINE
  5
102
330
FB
100
AcDbEntity
  8
치수문자_일반주서
 62
     0
370
    -2
100
AcDbLine
 10
-50.31479686479152
 20
8.301999999999957
 30
0.0
 11
-50.31479686479154
 21
11.60399999999996
 31
0.0
  0
LINE
  5
103
330
FB
100
AcDbEntity
  8
치수문자_일반주서
 62
     0
370
    -2
100
AcDbLine
 10
-50.31479686479146
 20
-8.302000000000035
 30
0.0
 11
-50.31479686479145
 21
-11.60400000000003
 31
0.0
  0
SOLID
  5
104
330
FB
100
AcDbEntity
  8
치수문자_일반주서
 62
     0
100
AcDbTrace
 10
-50.86513019812486
 20
8.301999999999955
 30
0.0
 11
-49.76446353145819
 21
8.301999999999959
 31
0.0
 12
-50.31479686479151
 22
4.999999999999957
 32
0.0
 13
-50.31479686479151
 23
4.999999999999957
 33
0.0
  0
SOLID
  5
105
330
FB
100
AcDbEntity
  8
치수문자_일반주서
 62
     0
100
AcDbTrace
 10
-49.76446353145813
 20
-8.302000000000033
 30
0.0
 11
-50.8651301981248
 21
-8.302000000000037
 31
0.0
 12
-50.31479686479148
 22
-5.000000000000036
 32
0.0
 13
-50.31479686479148
 23
-5.000000000000036
 33
0.0
  0
MTEXT
  5
106
330
FB
100
AcDbEntity
  8
치수문자_일반주서
 62
     0
100
AcDbMText
 10
-54.68979686479155
 20
15.32274999999994
 30
0.0
 40
3.5
 41
0.0
 71
     2
 72
     1
  1
\A1;%%c10
  7
SLDTEXTSTYLE0
 11
-3.552713678800503E-15
 21
1.0
 31
0.0
 73
     1
 44
1.0
  0
POINT
  5
139
330
FB
100
AcDbEntity
  8
Defpoints
 62
     0
100
AcDbPoint
 10
-39.0
 20
4.999999999999999
 30
0.0
  0
POINT
  5
13A
330
FB
100
AcDbEntity
  8
Defpoints
 62
     0
100
AcDbPoint
 10
-39.0
 20
-4.999999999999994
 30
0.0
  0
POINT
  5
13B
330
FB
100
AcDbEntity
  8
Defpoints
 62
     0
100
AcDbPoint
 10
-50.31479686479145
 20
-5.000000000000036
 30
0.0
  0
ENDBLK
  5
FD
330
FB
100
AcDbEntity
  8
0
100
AcDbBlockEnd
  0
BLOCK
  5
108
330
107
100
AcDbEntity
  8
0
100
AcDbBlockBegin
  2
SW_DOWELSYMBOL_0
 70
     0
 10
0.0
 20
0.0
 30
0.0
  3
SW_DOWELSYMBOL_0
  1

  0
CIRCLE
  5
10A
330
107
100
AcDbEntity
  8
외형선
 62
     0
100
AcDbCircle
 10
0.0
 20
0.0
 30
0.0
 40
3.000000000000004
  0
HATCH
  5
10B
330
107
100
AcDbEntity
  8
0
  6
Continuous
 62
     0
370
    30
100
AcDbHatch
 10
0.0
 20
0.0
 30
0.0
210
0.0
220
0.0
230
1.0
  2
SOLID
 70
     1
 71
     0
 91
        1
 92
        0
 93
        3
 72
     2
 10
0.0000000000000104
 20
0.0
 40
3.000000000000004
 50
0.0
 51
90.0
 73
     1
 72
     1
 10
0.0000000000000104
 20
3.000000000000004
 11
0.0000000000000104
 21
0.0
 72
     1
 10
0.0000000000000104
 20
0.0
 11
3.000000000000015
 21
0.0
 97
        0
 75
     0
 76
     1
 98
        1
 10
0.0
 20
0.0
  0
HATCH
  5
10C
330
107
100
AcDbEntity
  8
0
  6
Continuous
 62
     0
370
    30
100
AcDbHatch
 10
0.0
 20
0.0
 30
0.0
210
0.0
220
0.0
230
1.0
  2
SOLID
 70
     1
 71
     0
 91
        1
 92
        0
 93
        3
 72
     2
 10
0.0000000000000104
 20
0.0
 40
3.000000000000004
 50
180.0
 51
270.0000000000008
 73
     1
 72
     1
 10
0.0000000000000104
 20
-3.000000000000004
 11
0.0000000000000104
 21
0.0
 72
     1
 10
0.0000000000000104
 20
0.0
 11
-2.999999999999994
 21
0.0
 97
        0
 75
     0
 76
     1
 98
        1
 10
0.0
 20
0.0
  0
ENDBLK
  5
109
330
107
100
AcDbEntity
  8
0
100
AcDbBlockEnd
  0
ENDSEC
  0
SECTION
  2
ENTITIES
  0
SPLINE
  5
95
330
1F
100
AcDbEntity
  8
0
  6
Continuous
 62
     1
370
    15
100
AcDbSpline
210
0.0
220
0.0
230
1.0
 70
     8
 71
     3
 72
     9
 73
     5
 74
     0
 42
0.000000001
 43
0.00000001
 40
0.0
 40
0.0
 40
0.0
 40
0.0
 40
0.440464766427768
 40
1.0
 40
1.0
 40
1.0
 40
1.0
 10
37.04555041000785
 20
1.28122581719111
 30
0.0
 10
36.84164714765741
 20
1.378312367230027
 30
0.0
 10
36.37871962679324
 20
1.59873079212767
 30
0.0
 10
35.91770075015232
 20
1.83998474085909
 30
0.0
 10
35.65974444532984
 20
1.974974825412748
 30
0.0
  0
LINE
  5
96
330
1F
100
AcDbEntity
  8
0
  6
Continuous
 62
     1
370
    15
100
AcDbLine
 10
23.14969798783062
 20
-4.999999999999997
 30
0.0
 11
25.57304757709493
 21
-4.999999999999997
 31
0.0
  0
LINE
  5
97
330
1F
100
AcDbEntity
  8
0
  6
Continuous
 62
     1
370
    15
100
AcDbLine
 10
25.57304757709493
 20
5.000000000000008
 30
0.0
 11
23.14969798783062
 21
5.000000000000008
 31
0.0
  0
SPLINE
  5
98
330
1F
100
AcDbEntity
  8
0
  6
Continuous
 62
     1
370
    15
100
AcDbSpline
210
0.0
220
0.0
230
1.0
 70
     8
 71
     3
 72
    16
 73
    12
 74
     0
 42
0.000000001
 43
0.00000001
 40
0.0
 40
0.0
 40
0.0
 40
0.0
 40
0.1578567277788151
 40
0.3007132477195217
 40
0.4314742630414531
 40
0.5478781331828377
 40
0.6423761576875947
 40
0.7154440699429295
 40
0.7958771690066904
 40
0.9176547724938123
 40
1.0
 40
1.0
 40
1.0
 40
1.0
 10
35.39320332564779
 20
3.973190511484677
 30
0.0
 10
35.18656666921213
 20
3.962631761377667
 30
0.0
 10
34.79292883743256
 20
3.942517597849671
 30
0.0
 10
34.20753339222782
 20
3.921262429477259
 30
0.0
 10
33.6652581783338
 20
3.910191434945767
 30
0.0
 10
33.18925443382058
 20
3.905471427135367
 30
0.0
 10
32.79387129308815
 20
3.904203275658925
 30
0.0
 10
32.45432075198654
 20
3.905929349605667
 30
0.0
 10
32.08545246852826
 20
3.910465474238404
 30
0.0
 10
31.69839396610372
 20
3.917599204145026
 30
0.0
 10
31.42036578907836
 20
3.926854963461725
 30
0.0
 10
31.30820639280273
 20
3.930588830971633
 30
0.0
  0
SPLINE
  5
99
330
1F
100
AcDbEntity
  8
0
  6
Continuous
 62
     1
370
    15
100
AcDbSpline
210
0.0
220
0.0
230
1.0
 70
     8
 71
     3
 72
    21
 73
    17
 74
     0
 42
0.000000001
 43
0.00000001
 40
0.0
 40
0.0
 40
0.0
 40
0.0
 40
0.1121788558320853
 40
0.2071419087078809
 40
0.2864308877632895
 40
0.3552081205445763
 40
0.4160520750879346
 40
0.4733640357417057
 40
0.5383616546710462
 40
0.607464848511741
 40
0.6644851618915195
 40
0.6924897033656112
 40
0.7315136392382842
 40
0.7818897176902911
 40
0.8782631590805977
 40
1.0
 40
1.0
 40
1.0
 40
1.0
 10
27.87361070793557
 20
-4.160695073332526
 30
0.0
 10
28.14942675976864
 20
-4.134019818752609
 30
0.0
 10
28.65873007727168
 20
-4.084763092893114
 30
0.0
 10
29.38062636545292
 20
-4.028887083862665
 30
0.0
 10
30.00133824243823
 20
-3.989336145067545
 30
0.0
 10
30.53408356795935
 20
-3.959593361934739
 30
0.0
 10
31.0051187951565
 20
-3.939282285053027
 30
0.0
 10
31.4470037416784
 20
-3.924927669367314
 30
0.0
 10
31.92464181065523
 20
-3.912867142089415
 30
0.0
 10
32.40488851187493
 20
-3.906024634277101
 30
0.0
 10
32.7909416657814
 20
-3.904390528736628
 30
0.0
 10
33.10141078376923
 20
-3.905191152899588
 30
0.0
 10
33.39590032858274
 20
-3.907510688915412
 30
0.0
 10
33.86230015175478
 20
-3.914599193627665
 30
0.0
 10
34.53692835456827
 20
-3.932023793438803
 30
0.0
 10
35.08647655701394
 20
-3.958444156834652
 30
0.0
 10
35.39320332564779
 20
-3.973190511484665
 30
0.0
  0
SPLINE
  5
9A
330
1F
100
AcDbEntity
  8
0
  6
Continuous
 62
     1
370
    15
100
AcDbSpline
210
0.0
220
0.0
230
1.0
 70
     8
 71
     3
 72
    17
 73
    13
 74
     0
 42
0.000000001
 43
0.00000001
 40
0.0
 40
0.0
 40
0.0
 40
0.0
 40
0.1489406611192725
 40
0.2641127027176445
 40
0.3462421703507998
 40
0.4220668148207494
 40
0.5152979042568124
 40
0.6233160878828593
 40
0.7217576001768751
 40
0.8644403886765857
 40
0.9883751201862617
 40
1.0
 40
1.0
 40
1.0
 40
1.0
 10
39.4076686278143
 20
-3.7606680003333
 30
0.0
 10
39.59093524876323
 20
-3.732542623569001
 30
0.0
 10
39.91591730680572
 20
-3.682668605175713
 30
0.0
 10
40.34228435442786
 20
-3.623324326201534
 30
0.0
 10
40.68200342998161
 20
-3.579106190769561
 30
0.0
 10
40.99582812340991
 20
-3.540791076492654
 30
0.0
 10
41.33983029591161
 20
-3.501606542003284
 30
0.0
 10
41.71084874725385
 20
-3.463059605505416
 30
0.0
 10
42.1425386550498
 20
-3.42242110610899
 30
0.0
 10
42.59436408157804
 20
-3.38608181937304
 30
0.0
 10
42.93707420531506
 20
-3.361589459337343
 30
0.0
 10
43.10449865742129
 20
-3.352644786536342
 30
0.0
 10
43.11885609851022
 20
-3.351877738406963
 30
0.0
  0
SPLINE
  5
9B
330
1F
100
AcDbEntity
  8
0
  6
Continuous
 62
     1
370
    15
100
AcDbSpline
210
0.0
220
0.0
230
1.0
 70
     8
 71
     3
 72
    28
 73
    24
 74
     0
 42
0.000000001
 43
0.00000001
 40
0.0
 40
0.0
 40
0.0
 40
0.0
 40
0.0706401453024216
 40
0.1253536315098372
 40
0.1672519460314602
 40
0.192347064879264
 40
0.2173516210840319
 40
0.2442555601387412
 40
0.2732183313967197
 40
0.304368878657747
 40
0.3377027441479311
 40
0.4019750118237638
 40
0.4557020277965997
 40
0.5002954575964004
 40
0.5434773796315489
 40
0.5951127899823465
 40
0.6571559542696227
 40
0.715521096573746
 40
0.8136047146291906
 40
0.8369729023107619
 40
0.8750074158374069
 40
0.929202942050853
 40
1.0
 40
1.0
 40
1.0
 40
1.0
 10
20.93462500571446
 20
3.419751799943352
 30
0.0
 10
20.72758656057281
 20
3.402904259824582
 30
0.0
 10
20.36018894481837
 20
3.373007657448496
 30
0.0
 10
19.8717734468462
 20
3.34332368596659
 30
0.0
 10
19.51705784758064
 20
3.325685116658767
 30
0.0
 10
19.25251228503714
 20
3.314839831477306
 30
0.0
 10
19.02985135042228
 20
3.307058029802483
 30
0.0
 10
18.7952334246843
 20
3.300391864675947
 30
0.0
 10
18.54182677795065
 20
3.295031243851522
 30
0.0
 10
18.26897789324526
 20
3.291377982613732
 30
0.0
 10
17.89233179800803
 20
3.289460642675056
 30
0.0
 10
17.44792167359897
 20
3.292732369342966
 30
0.0
 10
16.97517287631923
 20
3.303572482349904
 30
0.0
 10
16.56946364739293
 20
3.317959399677638
 30
0.0
 10
16.16351649038107
 20
3.336706411430149
 30
0.0
 10
15.70680207431986
 20
3.363249822808132
 30
0.0
 10
15.205950035222
 20
3.399458857667706
 30
0.0
 10
14.57008642675358
 20
3.455085411883681
 30
0.0
 10
14.04623498826947
 20
3.510405758134364
 30
0.0
 10
13.58642429502394
 20
3.565260386883321
 30
0.0
 10
13.24959130356393
 20
3.607910685565253
 30
0.0
 10
12.77411053300569
 20
3.672917544626698
 30
0.0
 10
12.4080243634684
 20
3.728938520693108
 30
0.0
 10
12.2006694717142
 20
3.760669365490926
 30
0.0
  0
SPLINE
  5
9C
330
1F
100
AcDbEntity
  8
0
  6
Continuous
 62
     1
370
    15
100
AcDbSpline
210
0.0
220
0.0
230
1.0
 70
     8
 71
     3
 72
    18
 73
    14
 74
     0
 42
0.000000001
 43
0.00000001
 40
0.0
 40
0.0
 40
0.0
 40
0.0
 40
0.1652273140391129
 40
0.2917097059432498
 40
0.3885724162549481
 40
0.4470277210887535
 40
0.5060354160482607
 40
0.5698469630405095
 40
0.6383704860895089
 40
0.7113523422777259
 40
0.7887066588745703
 40
0.9377044982158141
 40
0.9999999999999999
 40
0.9999999999999999
 40
0.9999999999999999
 40
0.9999999999999999
 10
12.2006694717142
 20
-3.760669365490917
 30
0.0
 10
12.40802268341892
 20
-3.728939042034589
 30
0.0
 10
12.77410588681989
 20
-3.672918986399365
 30
0.0
 10
13.25972265925739
 20
-3.606523404844173
 30
0.0
 10
13.6115033870798
 20
-3.562121743267353
 30
0.0
 10
13.87605233743892
 20
-3.530828658646262
 30
0.0
 10
14.10100920179108
 20
-3.505476258184348
 30
0.0
 10
14.3391890607193
 20
-3.480071736776273
 30
0.0
 10
14.5955130427289
 20
-3.454414736420234
 30
0.0
 10
14.86855968195873
 20
-3.428973877397272
 30
0.0
 10
15.24178167663407
 20
-3.397177966136055
 30
0.0
 10
15.60184804739101
 20
-3.369923907043069
 30
0.0
 10
15.86545167999471
 20
-3.354957063808362
 30
0.0
 10
15.94316979679724
 20
-3.35054439749117
 30
0.0
  0
SPLINE
  5
9D
330
1F
100
AcDbEntity
  8
0
  6
Continuous
 62
     1
370
    15
100
AcDbSpline
210
0.0
220
0.0
230
1.0
 70
     8
 71
     3
 72
    27
 73
    23
 74
     0
 42
0.000000001
 43
0.00000001
 40
0.0
 40
0.0
 40
0.0
 40
0.0
 40
0.0658815538681443
 40
0.1159906280124334
 40
0.1499689943921993
 40
0.1807226108090233
 40
0.2194568544945338
 40
0.2650650839941258
 40
0.3076434825375975
 40
0.3716915626978274
 40
0.4257384888453778
 40
0.4791749179547015
 40
0.5326899664439346
 40
0.5928528306639396
 40
0.6567745356888851
 40
0.7103479924704956
 40
0.7402194582938338
 40
0.7678249439991454
 40
0.7957818426163173
 40
0.8421265386567767
 40
0.9100752646215631
 40
1.0
 40
1.0
 40
1.0
 40
1.0
 10
48.14172478905463
 20
3.419761235890993
 30
0.0
 10
47.95070878455229
 20
3.404143392335751
 30
0.0
 10
47.61440727036828
 20
3.376646720265783
 30
0.0
 10
47.17921197306612
 20
3.349295537370531
 30
0.0
 10
46.84348161481587
 20
3.331411217852537
 30
0.0
 10
46.53979709493262
 20
3.317778946260644
 30
0.0
 10
46.20396377191467
 20
3.305617513528403
 30
0.0
 10
45.83461298744335
 20
3.296222857281528
 30
0.0
 10
45.39153303010148
 20
3.290026571110256
 30
0.0
 10
44.92384475898849
 20
3.289876123097819
 30
0.0
 10
44.4243894865341
 20
3.297265447747285
 30
0.0
 10
43.95572386728595
 20
3.310755661459239
 30
0.0
 10
43.46948594057858
 20
3.331311429337823
 30
0.0
 10
42.95008216561644
 20
3.360656016006149
 30
0.0
 10
42.42801333678658
 20
3.398218536573835
 30
0.0
 10
41.99946768561497
 20
3.435578272075245
 30
0.0
 10
41.68126265815393
 20
3.466356234756991
 30
0.0
 10
41.43554101862216
 20
3.491688134301898
 30
0.0
 10
41.14196270961867
 20
3.523772923547345
 30
0.0
 10
40.72797578480073
 20
3.572633289185135
 30
0.0
 10
40.13291404270328
 20
3.650371426376148
 30
0.0
 10
39.67085658834483
 20
3.720641921219481
 30
0.0
 10
39.4076686278143
 20
3.760668000333315
 30
0.0
  0
LINE
  5
9E
330
1F
100
AcDbEntity
  8
0
  6
Continuous
 62
   131
370
    15
100
AcDbLine
 10
8.480071506243396
 20
5.000000000000005
 30
0.0
 11
-39.0
 21
5.000000000000003
 31
0.0
  0
LINE
  5
9F
330
1F
100
AcDbEntity
  8
0
  6
Continuous
 62
   131
370
    15
100
AcDbLine
 10
-39.0
 20
-4.999999999999997
 30
0.0
 11
8.480071506243396
 21
-4.999999999999995
 31
0.0
  0
LINE
  5
A0
330
1F
100
AcDbEntity
  8
0
  6
Continuous
 62
   131
370
    15
100
AcDbLine
 10
-39.0
 20
4.999999999999999
 30
0.0
 11
-40.0
 21
3.999999999999998
 31
0.0
  0
LINE
  5
A1
330
1F
100
AcDbEntity
  8
0
  6
Continuous
 62
   131
370
    15
100
AcDbLine
 10
-40.0
 20
-3.999999999999995
 30
0.0
 11
-39.0
 21
-4.999999999999994
 31
0.0
  0
SPLINE
  5
A2
330
1F
100
AcDbEntity
  8
0
  6
Continuous
 62
   131
370
    15
100
AcDbSpline
210
0.0
220
0.0
230
1.0
 70
     8
 71
     3
 72
     9
 73
     5
 74
     0
 42
0.000000001
 43
0.00000001
 40
0.0
 40
0.0
 40
0.0
 40
0.0
 40
0.4238077247931644
 40
1.0
 40
1.0
 40
1.0
 40
1.0
 10
9.739759995465633
 20
1.327317558325339
 30
0.0
 10
9.566011301539454
 20
1.41077541742192
 30
0.0
 10
9.15604073290253
 20
1.607699291655955
 30
0.0
 10
8.727226117691218
 20
1.830998221058763
 30
0.0
 10
8.480146448910665
 20
1.959661339242617
 30
0.0
  0
SPLINE
  5
A3
330
1F
100
AcDbEntity
  8
0
  6
Continuous
 62
     1
370
    15
100
AcDbSpline
210
0.0
220
0.0
230
1.0
 70
     8
 71
     3
 72
    22
 73
    18
 74
     0
 42
0.000000001
 43
0.00000001
 40
0.0
 40
0.0
 40
0.0
 40
0.0
 40
0.070856158093967
 40
0.1416887951539424
 40
0.2125044782096253
 40
0.2833098230068505
 40
0.3541114750634286
 40
0.4249160905435403
 40
0.4957303170671505
 40
0.5665607745715853
 40
0.6374140363418409
 40
0.7082728081804044
 40
0.7791077036931366
 40
0.8499249227635451
 40
0.9207310767183206
 40
0.9915328087432754
 40
0.9999999999999999
 40
0.9999999999999999
 40
0.9999999999999999
 40
0.9999999999999999
 10
50.0
 20
-4.74470434615949
 30
0.0
 10
49.4230051517051
 20
-4.621379988582562
 30
0.0
 10
48.26920699126127
 20
-4.374772211527587
 30
0.0
 10
46.5388975155535
 20
-3.780208275883779
 30
0.0
 10
44.80907411957611
 20
-3.048894016472758
 30
0.0
 10
43.07955640674102
 20
-2.192740783098459
 30
0.0
 10
41.35014598755974
 20
-1.250379872546064
 30
0.0
 10
39.62064944496923
 20
-0.2580152334583855
 30
0.0
 10
37.89086949183924
 20
0.7445852499705554
 30
0.0
 10
36.16062093200176
 20
1.717717443581231
 30
0.0
 10
34.42987299965934
 20
2.622384536038454
 30
0.0
 10
32.69904074935351
 20
3.42307727200256
 30
0.0
 10
30.96867026142634
 20
4.086261967741414
 30
0.0
 10
29.23880173707664
 20
4.592155614801793
 30
0.0
 10
27.50925867029932
 20
4.895514138407975
 30
0.0
 10
26.2873836183734
 20
5.024705185370508
 30
0.0
 10
25.6419863478041
 20
4.992917707463378
 30
0.0
 10
25.57304757709493
 20
4.9895222954423
 30
0.0
  0
SPLINE
  5
A4
330
1F
100
AcDbEntity
  8
0
  6
Continuous
 62
     1
370
    15
100
AcDbSpline
210
0.0
220
0.0
230
1.0
 70
     8
 71
     3
 72
    15
 73
    11
 74
     0
 42
0.000000001
 43
0.00000001
 40
0.0
 40
0.0
 40
0.0
 40
0.0
 40
0.1334210029900909
 40
0.2667957378745514
 40
0.4001371213403815
 40
0.5334581671613983
 40
0.6667719484468015
 40
0.8000915595244179
 40
0.9334300776931089
 40
1.0
 40
1.0
 40
1.0
 40
1.0
 10
50.0
 20
-3.94486132184107
 30
0.0
 10
49.42300706767627
 20
-3.824349203051928
 30
0.0
 10
48.26922129423889
 20
-3.58336675700059
 30
0.0
 10
46.53890637476033
 20
-3.037258248562684
 30
0.0
 10
44.80907993049068
 20
-2.381610171552679
 30
0.0
 10
43.07955820339063
 20
-1.628460904549767
 30
0.0
 10
41.35014510345353
 20
-0.8106546600852955
 30
0.0
 10
39.6206414632272
 20
0.0369251960695469
 30
0.0
 10
38.17972412571592
 20
0.7501142742512192
 30
0.0
 10
37.31525312465244
 20
1.150559374532968
 30
0.0
 10
37.02738250127882
 20
1.283908417477392
 30
0.0
  0
LINE
  5
A5
330
1F
100
AcDbEntity
  8
0
  6
Continuous
 62
     1
370
    15
100
AcDbLine
 10
50.0
 20
-4.744704346159494
 30
0.0
 11
50.0
 21
-3.94486132184107
 31
0.0
  0
SPLINE
  5
A6
330
1F
100
AcDbEntity
  8
0
  6
Continuous
 62
     1
370
    15
100
AcDbSpline
210
0.0
220
0.0
230
1.0
 70
     8
 71
     3
 72
    20
 73
    16
 74
     0
 42
0.000000001
 43
0.00000001
 40
0.0
 40
0.0
 40
0.0
 40
0.0
 40
0.0160187388592722
 40
0.0971950020763152
 40
0.1783585815880257
 40
0.2595170923361821
 40
0.3406781638750325
 40
0.4218494183751525
 40
0.5030384486723776
 40
0.5842527964955884
 40
0.6674319804474979
 40
0.7505933758619606
 40
0.8337392244574459
 40
0.9168734505193751
 40
1.0
 40
1.0
 40
1.0
 40
1.0
 10
31.30990537709366
 20
-3.929940927387013
 30
0.0
 10
31.19611599966018
 20
-3.97408913350869
 30
0.0
 10
30.50568968875813
 20
-4.241961968153113
 30
0.0
 10
29.23880734741186
 20
-4.580489664552667
 30
0.0
 10
27.50925848966071
 20
-4.910192752262907
 30
0.0
 10
25.77984775901916
 20
-5.031319399537159
 30
0.0
 10
24.05036955747746
 20
-4.955929300366194
 30
0.0
 10
22.32063064542442
 20
-4.682482175816778
 30
0.0
 10
20.59044146976654
 20
-4.223004204666719
 30
0.0
 10
18.84586514776186
 20
-3.590439222131035
 30
0.0
 10
17.08719327825008
 20
-2.805791332918041
 30
0.0
 10
15.31492055735729
 20
-1.897579738907972
 30
0.0
 10
13.54302347325616
 20
-0.9111835879205079
 30
0.0
 10
11.77142504160991
 20
0.1165374081982484
 30
0.0
 10
10.5904568380075
 20
0.7900488060446385
 30
0.0
 10
9.99999999999838
 20
1.126788956306437
 30
0.0
  0
SPLINE
  5
A7
330
1F
100
AcDbEntity
  8
0
  6
Continuous
 62
   131
370
    15
100
AcDbSpline
210
0.0
220
0.0
230
1.0
 70
    24
 71
     3
 72
     8
 73
     4
 74
     0
 42
0.000000001
 43
0.00000001
 40
0.0
 40
0.0
 40
0.0
 40
0.0
 40
1.0
 40
1.0
 40
1.0
 40
1.0
 10
9.999999999999996
 20
1.205595798996726
 30
0.0
 10
9.999999999999996
 20
1.200643738315048
 30
0.0
 10
9.999999999999996
 20
1.174300549274778
 30
0.0
 10
9.999999999999996
 20
1.126788956307457
 30
0.0
  0
SPLINE
  5
A8
330
1F
100
AcDbEntity
  8
0
  6
Continuous
 62
     1
370
    15
100
AcDbSpline
210
0.0
220
0.0
230
1.0
 70
     8
 71
     3
 72
    18
 73
    14
 74
     0
 42
0.000000001
 43
0.00000001
 40
0.0
 40
0.0
 40
0.0
 40
0.0
 40
0.020540299347338
 40
0.1172859068915365
 40
0.2140347037636755
 40
0.3107961828361579
 40
0.4075797999681774
 40
0.5043949465370284
 40
0.6012247942468721
 40
0.698021082096487
 40
0.794791105302313
 40
0.8973971156599235
 40
1.0
 40
1.0
 40
1.0
 40
1.0
 10
27.87639658054736
 20
-4.146589676056097
 30
0.0
 10
27.75400677372251
 20
-4.16310809744854
 30
0.0
 10
27.05515622412749
 20
-4.257428925040592
 30
0.0
 10
25.77984757814567
 20
-4.266757478622245
 30
0.0
 10
24.05036437564047
 20
-4.161992137078537
 30
0.0
 10
22.32062242075924
 20
-3.877690511594427
 30
0.0
 10
20.59042872956119
 20
-3.442875737570867
 30
0.0
 10
18.85973267616854
 20
-2.870068869022054
 30
0.0
 10
17.12889557370665
 20
-2.183517292894424
 30
0.0
 10
15.39845078022852
 20
-1.409665763561933
 30
0.0
 10
13.63369405371538
 20
-0.5640764703401742
 30
0.0
 10
11.83420189821002
 20
0.3266838478871207
 30
0.0
 10
10.611394423588
 20
0.9126281239236211
 30
0.0
 10
9.999999999999996
 20
1.205595798996726
 30
0.0
  0
SPLINE
  5
A9
330
1F
100
AcDbEntity
  8
0
  6
Continuous
 62
     1
370
    15
100
AcDbSpline
210
0.0
220
0.0
230
1.0
 70
     8
 71
     3
 72
    15
 73
    11
 74
     0
 42
0.000000001
 43
0.00000001
 40
0.0
 40
0.0
 40
0.0
 40
0.0
 40
0.1347148047031964
 40
0.2694420521905967
 40
0.4041881385601823
 40
0.5389594247857661
 40
0.6737595386124131
 40
0.8053764889794313
 40
0.9369524137472066
 40
0.9999999999999999
 40
0.9999999999999999
 40
0.9999999999999999
 40
0.9999999999999999
 10
10.00000000000051
 20
-0.2624183083156483
 30
0.0
 10
10.59045309299417
 20
-0.6018458793949477
 30
0.0
 10
11.77141381552954
 20
-1.280732372406403
 30
0.0
 10
13.54300103476184
 20
-2.242659009385492
 30
0.0
 10
15.31488702101027
 20
-3.112093997548838
 30
0.0
 10
17.08714845205813
 20
-3.85075043779559
 30
0.0
 10
18.84581461966565
 20
-4.427207286080239
 30
0.0
 10
20.59038666058594
 20
-4.808394243704356
 30
0.0
 10
22.02034495180306
 20
-4.996086682231828
 30
0.0
 10
22.87336516004256
 20
-4.980254102859176
 30
0.0
 10
23.14969798783062
 20
-4.975125195727829
 30
0.0
  0
SPLINE
  5
AA
330
1F
100
AcDbEntity
  8
0
  6
Continuous
 62
     1
370
    15
100
AcDbSpline
210
0.0
220
0.0
230
1.0
 70
     8
 71
     3
 72
    11
 73
     7
 74
     0
 42
0.000000001
 43
0.00000001
 40
0.0
 40
0.0
 40
0.0
 40
0.0
 40
0.2454942506427155
 40
0.4969282005867166
 40
0.7484223452268127
 40
1.0
 40
1.0
 40
1.0
 40
1.0
 10
43.12012600602814
 20
3.352371573693079
 30
0.0
 10
43.68307738634552
 20
3.582014807017922
 30
0.0
 10
44.8226006774472
 20
4.046857459806199
 30
0.0
 10
46.53889151988977
 20
4.548415775464263
 30
0.0
 10
48.26920382090529
 20
4.897395403227045
 30
0.0
 10
49.4230040965226
 20
4.962977556286049
 30
0.0
 10
50.00000000000001
 20
5.00000000000015
 30
0.0
  0
LINE
  5
AB
330
1F
100
AcDbEntity
  8
0
  6
Continuous
 62
   131
370
    15
100
AcDbLine
 10
10.0
 20
-0.2624183083167281
 30
0.0
 11
10.0
 21
1.126788956307216
 31
0.0
  0
SPLINE
  5
AC
330
1F
100
AcDbEntity
  8
0
  6
Continuous
 62
     1
370
    15
100
AcDbSpline
210
0.0
220
0.0
230
1.0
 70
     8
 71
     3
 72
    27
 73
    23
 74
     0
 42
0.000000001
 43
0.00000001
 40
0.0
 40
0.0
 40
0.0
 40
0.0
 40
0.0335888297811692
 40
0.085635005433313
 40
0.1364521651755564
 40
0.1872534849790653
 40
0.2380436836228811
 40
0.2888275118594331
 40
0.3396097387922842
 40
0.3903951381419932
 40
0.4411884744837936
 40
0.4919944895410835
 40
0.5428176293112271
 40
0.5936368126424797
 40
0.6444396407709868
 40
0.695230828145534
 40
0.7460151226726921
 40
0.796797292111894
 40
0.8475821103494992
 40
0.8983743436354605
 40
0.9491787368665976
 40
1.0
 40
1.0
 40
1.0
 40
1.0
 10
15.94304374084534
 20
3.3504921762454
 30
0.0
 10
16.32437273489266
 20
3.514057630853555
 30
0.0
 10
17.29657422836145
 20
3.93106913989768
 30
0.0
 10
18.84581612025606
 20
4.42183490763166
 30
0.0
 10
20.5903880965384
 20
4.816073532066749
 30
0.0
 10
22.32058090360956
 20
5.010056380866854
 30
0.0
 10
24.05032281295691
 20
5.006232873637487
 30
0.0
 10
25.77980360551895
 20
4.802922057416203
 30
0.0
 10
27.50921948695938
 20
4.408722486455791
 30
0.0
 10
29.23876391238492
 20
3.839155766386626
 30
0.0
 10
30.96863610668835
 20
3.116874243365217
 30
0.0
 10
32.69900965872466
 20
2.270508494910473
 30
0.0
 10
34.42984509547836
 20
1.333930327978034
 30
0.0
 10
36.16059607470351
 20
0.3442366421097128
 30
0.0
 10
37.89084768779745
 20
-0.6591828627717149
 30
0.0
 10
39.62063072028715
 20
-1.636259693116171
 30
0.0
 10
41.35013036949735
 20
-2.548287116490065
 30
0.0
 10
43.07954391151854
 20
-3.358686254362622
 30
0.0
 10
44.80906475558817
 20
-4.036557910920468
 30
0.0
 10
46.53889128235461
 20
-4.550107948971678
 30
0.0
 10
48.26920388031803
 20
-4.896972153751246
 30
0.0
 10
49.42300411632905
 20
-4.96283645751506
 30
0.0
 10
50.0
 20
-4.999999999999843
 30
0.0
  0
LINE
  5
AD
330
1F
100
AcDbEntity
  8
0
  6
Continuous
 62
     1
370
    15
100
AcDbLine
 10
50.0
 20
-4.999999999999843
 30
0.0
 11
50.0
 21
-4.744704346159499
 31
0.0
  0
SPLINE
  5
AE
330
1F
100
AcDbEntity
  8
0
  6
Continuous
 62
     1
370
    15
100
AcDbSpline
210
0.0
220
0.0
230
1.0
 70
     8
 71
     3
 72
    17
 73
    13
 74
     0
 42
0.000000001
 43
0.00000001
 40
0.0
 40
0.0
 40
0.0
 40
0.0
 40
0.0851789827904927
 40
0.1891510347917091
 40
0.2931318873321997
 40
0.3970746367735903
 40
0.5009891738899849
 40
0.6048860491046953
 40
0.708775864963928
 40
0.8126692448735957
 40
0.916576801706299
 40
1.0
 40
1.0
 40
1.0
 40
1.0
 10
37.57873220232727
 20
-0.4750379215715129
 30
0.0
 10
37.10608007636523
 20
-0.2849483511895843
 30
0.0
 10
36.05649441810353
 20
0.1371703189674675
 30
0.0
 10
34.42984345355096
 20
0.793609045596618
 30
0.0
 10
32.69904672065366
 20
1.45866568662424
 30
0.0
 10
30.96866223425033
 20
2.066247583374729
 30
0.0
 10
29.23878509471009
 20
2.591514895179524
 30
0.0
 10
27.50923385001875
 20
3.013430477803142
 30
0.0
 10
25.77981208119866
 20
3.316580213177912
 30
0.0
 10
24.05032338491473
 20
3.483768034531697
 30
0.0
 10
22.43438145453679
 20
3.524738034742056
 30
0.0
 10
21.39488662221344
 20
3.444350524394269
 30
0.0
 10
20.93197286593421
 20
3.408551900662916
 30
0.0
  0
SPLINE
  5
AF
330
1F
100
AcDbEntity
  8
0
  6
Continuous
 62
     1
370
    15
100
AcDbSpline
210
0.0
220
0.0
230
1.0
 70
    24
 71
     3
 72
    10
 73
     6
 74
     0
 42
0.000000001
 43
0.00000001
 40
0.0
 40
0.0
 40
0.0
 40
0.0
 40
0.5
 40
0.5
 40
1.0
 40
1.0
 40
1.0
 40
1.0
 10
50.0
 20
3.50000000000001
 30
0.0
 10
49.99999999999999
 20
3.712161284036581
 30
0.0
 10
50.0
 20
3.958712344335596
 30
0.0
 10
49.99999999999997
 20
4.475975804804286
 30
0.0
 10
49.99999999999999
 20
4.745367179007371
 30
0.0
 10
50.00000000000001
 20
5.00000000000015
 30
0.0
  0
SPLINE
  5
B0
330
1F
100
AcDbEntity
  8
0
  6
Continuous
 62
     1
370
    15
100
AcDbSpline
210
0.0
220
0.0
230
1.0
 70
     8
 71
     3
 72
     9
 73
     5
 74
     0
 42
0.000000001
 43
0.00000001
 40
0.0
 40
0.0
 40
0.0
 40
0.0
 40
0.930711982830176
 40
1.0
 40
1.0
 40
1.0
 40
1.0
 10
50.0
 20
3.50000000000001
 30
0.0
 10
49.4230029319705
 20
3.497968023829808
 30
0.0
 10
48.80305059583002
 20
3.495784774653168
 30
0.0
 10
48.18313285686843
 20
3.420256032560286
 30
0.0
 10
48.14017998592738
 20
3.41502279578134
 30
0.0
  0
LINE
  5
B1
330
1F
100
AcDbEntity
  8
0
  6
Continuous
 62
     1
370
    15
100
AcDbLine
 10
10.37210591044993
 20
-0.4743495496740875
 30
0.0
 11
9.999999999999996
 21
-0.3272082338956437
 31
0.0
  0
SPLINE
  5
B2
330
1F
100
AcDbEntity
  8
0
  6
Continuous
 62
   131
370
    15
100
AcDbSpline
210
0.0
220
0.0
230
1.0
 70
    24
 71
     3
 72
     9
 73
     5
 74
     0
 42
0.000000001
 43
0.00000001
 40
0.0
 40
0.0
 40
0.0
 40
0.0
 40
0.6846897020159602
 40
1.0
 40
1.0
 40
1.0
 40
1.0
 10
10.00000000000003
 20
-0.1576833305971967
 30
0.0
 10
10.00000000000002
 20
-0.1669749739020837
 30
0.0
 10
9.999999999999996
 20
-0.1805455640212708
 30
0.0
 10
10.0
 20
-0.2920498000171016
 30
0.0
 10
10.0
 20
-0.3272082338954298
 30
0.0
  0
SPLINE
  5
B3
330
1F
100
AcDbEntity
  8
0
  6
Continuous
 62
     1
370
    15
100
AcDbSpline
210
0.0
220
0.0
230
1.0
 70
     8
 71
     3
 72
     8
 73
     4
 74
     0
 42
0.000000001
 43
0.00000001
 40
0.0
 40
0.0
 40
0.0
 40
0.0
 40
1.0
 40
1.0
 40
1.0
 40
1.0
 10
46.90623807966212
 20
1.398590784794544
 30
0.0
 10
46.68214042923198
 20
1.664076176022803
 30
0.0
 10
46.48755699161194
 20
1.917882404497364
 30
0.0
 10
46.33398001936779
 20
2.153947629457781
 30
0.0
  0
LINE
  5
B4
330
1F
100
AcDbEntity
  8
0
  6
Continuous
 62
     1
370
    15
100
AcDbLine
 10
46.33398001936777
 20
2.15394762945779
 30
0.0
 11
50.0
 21
0.0000000000000098
 31
0.0
  0
LINE
  5
B5
330
1F
100
AcDbEntity
  8
0
  6
Continuous
 62
     1
370
    15
100
AcDbLine
 10
50.0
 20
0.0000000000000098
 30
0.0
 11
50.0
 21
-1.336214730148214
 31
0.0
  0
SPLINE
  5
B6
330
1F
100
AcDbEntity
  8
0
  6
Continuous
 62
     1
370
    15
100
AcDbSpline
210
0.0
220
0.0
230
1.0
 70
     8
 71
     3
 72
    12
 73
     8
 74
     0
 42
0.000000001
 43
0.00000001
 40
0.0
 40
0.0
 40
0.0
 40
0.0
 40
0.5
 40
0.5
 40
0.75
 40
0.75
 40
1.0
 40
1.0
 40
1.0
 40
1.0
 10
50.0
 20
-1.336214730148214
 30
0.0
 10
49.4644603835447
 20
-0.9151902182568146
 30
0.0
 10
48.93786580922738
 20
-0.4769025407148363
 30
0.0
 10
48.16173639957113
 20
0.2070893295748672
 30
0.0
 10
47.90536026588215
 20
0.4395904021070462
 30
0.0
 10
47.39784408881665
 20
0.9146977532766329
 30
0.0
 10
47.14808896088135
 20
1.156071134681415
 30
0.0
 10
46.90623807966203
 20
1.398590784794598
 30
0.0
  0
SPLINE
  5
B7
330
1F
100
AcDbEntity
  8
0
  6
Continuous
 62
     1
370
    15
100
AcDbSpline
210
0.0
220
0.0
230
1.0
 70
     8
 71
     3
 72
    14
 73
    10
 74
     0
 42
0.000000001
 43
0.00000001
 40
0.0
 40
0.0
 40
0.0
 40
0.0
 40
0.18210434953948
 40
0.3323042162323972
 40
0.4824957837024879
 40
0.6326940101648308
 40
0.7829138343046425
 40
0.9331701315292583
 40
1.0
 40
1.0
 40
1.0
 40
1.0
 10
46.90623807966203
 20
1.398590784794604
 30
0.0
 10
46.20711688480158
 20
1.693212148681212
 30
0.0
 10
44.93135976369453
 20
2.230837535769692
 30
0.0
 10
43.07957105858169
 20
2.885350363135601
 30
0.0
 10
41.35012844962162
 20
3.385568957447322
 30
0.0
 10
39.62063256420281
 20
3.752422749301996
 30
0.0
 10
37.8908414310782
 20
3.961292295939351
 30
0.0
 10
36.48100918108446
 20
4.030653436334521
 30
0.0
 10
35.6477140122411
 20
3.971667533261069
 30
0.0
 10
35.39118450768824
 20
3.953508752247088
 30
0.0
  0
SPLINE
  5
B8
330
1F
100
AcDbEntity
  8
0
  6
Continuous
 62
     1
370
    15
100
AcDbSpline
210
0.0
220
0.0
230
1.0
 70
     8
 71
     3
 72
     9
 73
     5
 74
     0
 42
0.000000001
 43
0.00000001
 40
0.0
 40
0.0
 40
0.0
 40
0.0
 40
0.1690393673049014
 40
1.0
 40
1.0
 40
1.0
 40
1.0
 10
12.20729081498992
 20
-3.74607518335552
 30
0.0
 10
12.08291733351534
 20
-3.769980716852742
 30
0.0
 10
11.34715096466563
 20
-3.911400635055003
 30
0.0
 10
10.6113891243454
 20
-3.950222314019181
 30
0.0
 10
9.999999999999995
 20
-3.982481600933542
 30
0.0
  0
SPLINE
  5
B9
330
1F
100
AcDbEntity
  8
0
  6
Continuous
 62
     1
370
    15
100
AcDbSpline
210
0.0
220
0.0
230
1.0
 70
    24
 71
     3
 72
    10
 73
     6
 74
     0
 42
0.000000001
 43
0.00000001
 40
0.0
 40
0.0
 40
0.0
 40
0.0
 40
0.5
 40
0.5
 40
1.0
 40
1.0
 40
1.0
 40
1.0
 10
50.0
 20
-3.944861321841069
 30
0.0
 10
49.99999999999999
 20
-3.642456945019014
 30
0.0
 10
50.0
 20
-3.260357419532333
 30
0.0
 10
49.99999999999997
 20
-2.37201279575339
 30
0.0
 10
50.0
 20
-1.866537215256539
 30
0.0
 10
50.0
 20
-1.336214730148374
 30
0.0
  0
SPLINE
  5
BA
330
1F
100
AcDbEntity
  8
0
  6
Continuous
 62
     1
370
    15
100
AcDbSpline
210
0.0
220
0.0
230
1.0
 70
     8
 71
     3
 72
    24
 73
    20
 74
     0
 42
0.000000001
 43
0.00000001
 40
0.0
 40
0.0
 40
0.0
 40
0.0
 40
0.0517071440136791
 40
0.110534158744624
 40
0.1693812352336689
 40
0.2282331625686746
 40
0.2870640847790289
 40
0.3458794548315156
 40
0.4046850889018474
 40
0.463486831680104
 40
0.5222905392674552
 40
0.5811020620023002
 40
0.6399272273220635
 40
0.698771822766508
 40
0.757625484194526
 40
0.8164584643358407
 40
0.8752752568592185
 40
0.9376385921641249
 40
1.0
 40
1.0
 40
1.0
 40
1.0
 10
39.411726256211
 20
-3.751997038299046
 30
0.0
 10
38.90481217194683
 20
-3.823961220785407
 30
0.0
 10
37.8211839242695
 20
-3.977798771139569
 30
0.0
 10
36.16058678390567
 20
-4.022796228177339
 30
0.0
 10
34.42985039850974
 20
-3.923943592369864
 30
0.0
 10
32.69904081353276
 20
-3.665199770889345
 30
0.0
 10
30.96866077299888
 20
-3.26163952448537
 30
0.0
 10
29.23878578588557
 20
-2.728113908081101
 30
0.0
 10
27.50923747306106
 20
-2.086197156146697
 30
0.0
 10
25.77981796995704
 20
-1.361314241105626
 30
0.0
 10
24.0503334373105
 20
-0.5822917607349329
 30
0.0
 10
22.3205879433881
 20
0.219932560636678
 30
0.0
 10
20.5903910929519
 20
1.013468686741336
 30
0.0
 10
18.85969496093981
 20
1.766752855623489
 30
0.0
 10
17.1288628411226
 20
2.449453278444133
 30
0.0
 10
15.39841509427712
 20
3.035666043975732
 30
0.0
 10
13.63365590297049
 20
3.507249107597513
 30
0.0
 10
11.83418211026901
 20
3.851516198159896
 30
0.0
 10
10.61138773782364
 20
3.938826916435945
 30
0.0
 10
9.999999999999995
 20
3.982481600933552
 30
0.0
  0
SPLINE
  5
BB
330
1F
100
AcDbEntity
  8
0
  6
Continuous
 62
   131
370
    15
100
AcDbSpline
210
0.0
220
0.0
230
1.0
 70
    24
 71
     3
 72
    14
 73
    10
 74
     0
 42
0.000000001
 43
0.00000001
 40
0.0
 40
0.0
 40
0.0
 40
0.0
 40
0.25
 40
0.25
 40
0.5
 40
0.5
 40
0.75
 40
0.75
 40
1.0
 40
1.0
 40
1.0
 40
1.0
 10
9.999999999999995
 20
3.982481600933551
 30
0.0
 10
9.999999999999995
 20
3.902301387851167
 30
0.0
 10
9.999999999999995
 20
3.780108577721498
 30
0.0
 10
9.999999999999995
 20
3.451413729149541
 30
0.0
 10
9.999999999999995
 20
3.244909387726681
 30
0.0
 10
9.999999999999995
 20
2.759579792968178
 30
0.0
 10
9.999999999999995
 20
2.480894688086785
 30
0.0
 10
9.999999999999995
 20
1.873640441273549
 30
0.0
 10
9.999999999999995
 20
1.545288345670244
 30
0.0
 10
9.999999999999995
 20
1.205595798996728
 30
0.0
  0
SPLINE
  5
BC
330
1F
100
AcDbEntity
  8
0
  6
Continuous
 62
     1
370
    15
100
AcDbSpline
210
0.0
220
0.0
230
1.0
 70
     8
 71
     3
 72
    10
 73
     6
 74
     0
 42
0.000000001
 43
0.00000001
 40
0.0
 40
0.0
 40
0.0
 40
0.0
 40
0.5
 40
0.5
 40
1.0
 40
1.0
 40
1.0
 40
1.0
 10
50.0
 20
3.500000000000009
 30
0.0
 10
49.37778486821061
 20
3.331216419726823
 30
0.0
 10
48.76026279451122
 20
3.137623633046194
 30
0.0
 10
47.53581778859244
 20
2.694407155383059
 30
0.0
 10
46.92880705278057
 20
2.445160530077929
 30
0.0
 10
46.33398001936779
 20
2.153947629457781
 30
0.0
  0
SPLINE
  5
BD
330
1F
100
AcDbEntity
  8
0
  6
Continuous
 62
   131
370
    15
100
AcDbSpline
210
0.0
220
0.0
230
1.0
 70
    24
 71
     3
 72
    14
 73
    10
 74
     0
 42
0.000000001
 43
0.00000001
 40
0.0
 40
0.0
 40
0.0
 40
0.0
 40
0.2499999999999999
 40
0.2499999999999999
 40
0.4999999999999999
 40
0.4999999999999999
 40
0.7499999999999999
 40
0.7499999999999999
 40
1.0
 40
1.0
 40
1.0
 40
1.0
 10
9.999999999999996
 20
-0.3272082338956439
 30
0.0
 10
9.999999999999996
 20
-0.7492660728676919
 30
0.0
 10
9.999999999999996
 20
-1.168409970006627
 30
0.0
 10
10.0
 20
-1.957550999700608
 30
0.0
 10
9.999999999999996
 20
-2.327068931671435
 30
0.0
 10
10.0
 20
-2.976716394582909
 30
0.0
 10
9.999999999999996
 20
-3.256499766194711
 30
0.0
 10
10.0
 20
-3.703723127104493
 30
0.0
 10
10.0
 20
-3.871164157633086
 30
0.0
 10
10.0
 20
-3.982481600933542
 30
0.0
  0
LINE
  5
BE
330
1F
100
AcDbEntity
  8
0
  6
Continuous
 62
     1
370
    15
100
AcDbLine
 10
50.0
 20
0.0000000000000098
 30
0.0
 11
50.0
 21
3.500000000000009
 31
0.0
  0
SPLINE
  5
BF
330
1F
100
AcDbEntity
  8
0
  6
Continuous
 62
   131
370
    15
100
AcDbSpline
210
0.0
220
0.0
230
1.0
 70
    24
 71
     3
 72
     9
 73
     5
 74
     0
 42
0.000000001
 43
0.00000001
 40
0.0
 40
0.0
 40
0.0
 40
0.0
 40
0.6825849960713987
 40
1.0
 40
1.0
 40
1.0
 40
1.0
 10
10.00000000000003
 20
-0.1583979017073777
 30
0.0
 10
10.00000000000002
 20
-0.1676461490619616
 30
0.0
 10
9.999999999999996
 20
-0.181195007310842
 30
0.0
 10
10.0
 20
-0.2920281359371048
 30
0.0
 10
10.0
 20
-0.3272082338954292
 30
0.0
  0
SPLINE
  5
C0
330
1F
100
AcDbEntity
  8
0
  6
Continuous
 62
   131
370
    15
100
AcDbSpline
210
0.0
220
0.0
230
1.0
 70
     8
 71
     3
 72
     8
 73
     4
 74
     0
 42
0.000000001
 43
0.00000001
 40
0.0
 40
0.0
 40
0.0
 40
0.0
 40
1.0
 40
1.0
 40
1.0
 40
1.0
 10
9.999999999999996
 20
-0.3272082338956439
 30
0.0
 10
9.491476408681176
 20
-0.1229847681200552
 30
0.0
 10
8.988396364878625
 20
0.082191555745938
 30
0.0
 10
8.4800895575938
 20
0.2865954883557164
 30
0.0
  0
SPLINE
  5
C1
330
1F
100
AcDbEntity
  8
0
  6
Continuous
 62
   131
370
    15
100
AcDbSpline
210
0.0
220
0.0
230
1.0
 70
     8
 71
     3
 72
     8
 73
     4
 74
     0
 42
0.000000001
 43
0.00000001
 40
0.0
 40
0.0
 40
0.0
 40
0.0
 40
1.0
 40
1.0
 40
1.0
 40
1.0
 10
9.999999999999995
 20
-0.2624183083153502
 30
0.0
 10
9.49147038899846
 20
0.0302124625945548
 30
0.0
 10
8.988384378608979
 20
0.3231472750749525
 30
0.0
 10
8.48007150624339
 20
0.6139232992154489
 30
0.0
  0
LINE
  5
C2
330
1F
100
AcDbEntity
  8
0
  6
Continuous
 62
   131
370
    15
100
AcDbLine
 10
8.480071506243393
 20
1.960657613940777
 30
0.0
 11
8.480071506243396
 21
5.000000000000005
 31
0.0
  0
SPLINE
  5
C3
330
1F
100
AcDbEntity
  8
0
  6
Continuous
 62
   131
370
    15
100
AcDbSpline
210
0.0
220
0.0
230
1.0
 70
     8
 71
     3
 72
     8
 73
     4
 74
     0
 42
0.000000001
 43
0.00000001
 40
0.0
 40
0.0
 40
0.0
 40
0.0
 40
1.0
 40
1.0
 40
1.0
 40
1.0
 10
9.999999999999995
 20
1.126788956305532
 30
0.0
 10
9.491495380544004
 20
1.412271560246079
 30
0.0
 10
8.988434141240285
 20
1.690941897284968
 30
0.0
 10
8.480146448910665
 20
1.960460488545781
 30
0.0
  0
LINE
  5
C4
330
1F
100
AcDbEntity
  8
0
  6
Continuous
 62
   131
370
    15
100
AcDbLine
 10
8.480071506243396
 20
-4.999999999999995
 30
0.0
 11
8.48007150624339
 21
0.6139199938219309
 31
0.0
  0
LINE
  5
C5
330
1F
100
AcDbEntity
  8
0
  6
Continuous
 62
   131
370
    15
100
AcDbLine
 10
-39.0
 20
4.999999999999999
 30
0.0
 11
-39.0
 21
-5.000000000000002
 31
0.0
  0
LINE
  5
C6
330
1F
100
AcDbEntity
  8
0
  6
Continuous
 62
   131
370
    15
100
AcDbLine
 10
-40.0
 20
3.999999999999999
 30
0.0
 11
-40.0
 21
-3.999999999999992
 31
0.0
  0
LINE
  5
C7
330
1F
100
AcDbEntity
  8
0
  6
Continuous
 62
   131
370
    15
100
AcDbLine
 10
8.480071506243393
 20
1.952389958684128
 30
0.0
 11
8.480071506243393
 21
1.960657471118843
 31
0.0
  0
LINE
  5
C8
330
1F
100
AcDbEntity
  8
0
  6
Continuous
 62
   131
370
    15
100
AcDbLine
 10
9.999999999999996
 20
1.205595798996726
 30
0.0
 11
9.70062793703498
 21
1.342179821753697
 31
0.0
  0
SPLINE
  5
C9
330
1F
100
AcDbEntity
  8
0
  6
Continuous
 62
   131
370
    15
100
AcDbSpline
210
0.0
220
0.0
230
1.0
 70
    24
 71
     3
 72
     8
 73
     4
 74
     0
 42
0.000000001
 43
0.00000001
 40
0.0
 40
0.0
 40
0.0
 40
0.0
 40
1.0
 40
1.0
 40
1.0
 40
1.0
 10
9.999999999999995
 20
1.205595798996729
 30
0.0
 10
9.999999999999995
 20
1.200643738315051
 30
0.0
 10
9.999999999999995
 20
1.174300549274781
 30
0.0
 10
9.999999999999995
 20
1.126788956307461
 30
0.0
  0
SPLINE
  5
CA
330
1F
100
AcDbEntity
  8
0
  6
Continuous
 62
   131
370
    15
100
AcDbSpline
210
0.0
220
0.0
230
1.0
 70
     8
 71
     3
 72
     8
 73
     4
 74
     0
 42
0.000000001
 43
0.00000001
 40
0.0
 40
0.0
 40
0.0
 40
0.0
 40
1.0
 40
1.0
 40
1.0
 40
1.0
 10
9.999999999999995
 20
3.982481600933552
 30
0.0
 10
9.49147951326411
 20
4.00439740102933
 30
0.0
 10
8.988402546659445
 20
4.005760333702166
 30
0.0
 10
8.480098867371932
 20
3.98656767874068
 30
0.0
  0
SPLINE
  5
CB
330
1F
100
AcDbEntity
  8
0
  6
Continuous
 62
   131
370
    15
100
AcDbSpline
210
0.0
220
0.0
230
1.0
 70
    24
 71
     3
 72
    14
 73
    10
 74
     0
 42
0.000000001
 43
0.00000001
 40
0.0
 40
0.0
 40
0.0
 40
0.0
 40
0.25
 40
0.25
 40
0.5
 40
0.5
 40
0.75
 40
0.75
 40
1.0
 40
1.0
 40
1.0
 40
1.0
 10
9.999999999999995
 20
3.982481600933551
 30
0.0
 10
9.999999999999995
 20
3.902301387851167
 30
0.0
 10
9.999999999999995
 20
3.780108577721498
 30
0.0
 10
9.999999999999995
 20
3.451413729149541
 30
0.0
 10
9.999999999999995
 20
3.244909387726681
 30
0.0
 10
9.999999999999995
 20
2.759579792968178
 30
0.0
 10
9.999999999999995
 20
2.480894688086785
 30
0.0
 10
9.999999999999995
 20
1.873640441273549
 30
0.0
 10
9.999999999999995
 20
1.545288345670244
 30
0.0
 10
9.999999999999995
 20
1.205595798996728
 30
0.0
  0
SPLINE
  5
CC
330
1F
100
AcDbEntity
  8
0
  6
Continuous
 62
   131
370
    15
100
AcDbSpline
210
0.0
220
0.0
230
1.0
 70
     8
 71
     3
 72
     8
 73
     4
 74
     0
 42
0.000000001
 43
0.00000001
 40
0.0
 40
0.0
 40
0.0
 40
0.0
 40
1.0
 40
1.0
 40
1.0
 40
1.0
 10
9.999999999999995
 20
-3.982481600933542
 30
0.0
 10
9.491479513264114
 20
-4.004397401029321
 30
0.0
 10
8.988402546659449
 20
-4.005760333702156
 30
0.0
 10
8.480098867371932
 20
-3.986567678740671
 30
0.0
  0
SPLINE
  5
CD
330
1F
100
AcDbEntity
  8
0
  6
Continuous
 62
   131
370
    15
100
AcDbSpline
210
0.0
220
0.0
230
1.0
 70
    24
 71
     3
 72
    14
 73
    10
 74
     0
 42
0.000000001
 43
0.00000001
 40
0.0
 40
0.0
 40
0.0
 40
0.0
 40
0.25
 40
0.25
 40
0.5
 40
0.5
 40
0.75
 40
0.75
 40
1.0
 40
1.0
 40
1.0
 40
1.0
 10
9.999999999999995
 20
-0.3272082338956414
 30
0.0
 10
9.999999999999995
 20
-0.7492660728676899
 30
0.0
 10
9.999999999999995
 20
-1.168409970006626
 30
0.0
 10
9.999999999999995
 20
-1.957550999700606
 30
0.0
 10
9.999999999999995
 20
-2.327068931671433
 30
0.0
 10
9.999999999999995
 20
-2.976716394582907
 30
0.0
 10
9.999999999999995
 20
-3.256499766194709
 30
0.0
 10
9.999999999999995
 20
-3.703723127104493
 30
0.0
 10
9.999999999999995
 20
-3.871164157633085
 30
0.0
 10
9.999999999999995
 20
-3.982481600933542
 30
0.0
  0
LINE
  5
CE
330
1F
100
AcDbEntity
  8
중심선
 62
     1
100
AcDbLine
 10
-43.00000000000001
 20
-0.0000000000000004
 30
0.0
 11
53.0
 21
0.0000000000000102
 31
0.0
  0
CIRCLE
  5
CF
330
1F
100
AcDbEntity
  8
외형선
100
AcDbCircle
 10
0.0000000000000104
 20
0.0
 30
0.0
 40
3.000000000000005
  0
INSERT
  5
D0
330
1F
100
AcDbEntity
  8
0
  6
Continuous
 62
     7
100
AcDbBlockReference
 66
     1
  2
블럭10
 10
-22.93944368806589
 20
-52.04609937292004
 30
0.0
  0
ATTRIB
  5
D1
330
D0
100
AcDbEntity
  8
FORMAT
 62
     2
100
AcDbText
 10
-39.05870472750145
 20
-49.97073246008785
 30
0.0
 40
4.233333333333333
  1
SEME7010040E [ 2 FLUTE ]
 41
0.75
  7
SLDTEXTSTYLE0
 11
-39.05870472750145
 21
-52.08739912675452
 31
0.0
100
AcDbAttribute
  2
AUTOATTR0
 70
     0
 74
     1
  0
SEQEND
  5
D2
330
D0
100
AcDbEntity
  8
0
  6
Continuous
 62
     7
  0
HATCH
  5
D3
330
1F
100
AcDbEntity
  8
중심선
100
AcDbHatch
 10
0.0
 20
0.0
 30
0.0
210
0.0
220
0.0
230
1.0
  2
SOLID
 70
     1
 71
     0
 91
        1
 92
        0
 93
        4
 72
     1
 10
-17.22453438368504
 20
-35.7989250712761
 11
-20.67080962752232
 21
-35.7989250712761
 72
     1
 10
-20.67080962752232
 20
-35.7989250712761
 11
-22.79903948672635
 21
-38.3352506518487
 72
     1
 10
-22.79903948672635
 20
-38.3352506518487
 11
-19.35273115777591
 21
-38.33521122254621
 72
     1
 10
-19.35273115777591
 20
-38.33521122254621
 11
-17.22453438368504
 21
-35.7989250712761
 97
        0
 75
     0
 76
     1
 98
        1
 10
0.0
 20
0.0
  0
HATCH
  5
D4
330
1F
100
AcDbEntity
  8
중심선
100
AcDbHatch
 10
0.0
 20
0.0
 30
0.0
210
0.0
220
0.0
230
1.0
  2
SOLID
 70
     1
 71
     0
 91
        1
 92
        0
 93
        4
 72
     1
 10
-12.21177039264909
 20
-35.7989250712761
 11
-15.65804563648637
 21
-35.7989250712761
 72
     1
 10
-15.65804563648637
 20
-35.7989250712761
 11
-20.18918364484376
 21
-41.19892507127612
 72
     1
 10
-20.18918364484376
 20
-41.19892507127612
 11
-16.74290840100648
 21
-41.19892507127612
 72
     1
 10
-16.74290840100648
 20
-41.19892507127612
 11
-12.21177039264909
 21
-35.7989250712761
 97
        0
 75
     0
 76
     1
 98
        1
 10
0.0
 20
0.0
  0
HATCH
  5
D5
330
1F
100
AcDbEntity
  8
중심선
100
AcDbHatch
 10
0.0
 20
0.0
 30
0.0
210
0.0
220
0.0
230
1.0
  2
SOLID
 70
     1
 71
     0
 91
        1
 92
        0
 93
        4
 72
     1
 10
-7.199006401613195
 20
-35.79892507127613
 11
-10.64528164545031
 21
-35.7989250712761
 72
     1
 10
-10.64528164545031
 20
-35.7989250712761
 11
-17.69371854733956
 21
-44.19892507127612
 72
     1
 10
-17.69371854733956
 20
-44.19892507127612
 11
-14.24744330350228
 21
-44.19892507127612
 72
     1
 10
-14.24744330350228
 20
-44.19892507127612
 11
-7.199006401613195
 21
-35.79892507127613
 97
        0
 75
     0
 76
     1
 98
        1
 10
0.0
 20
0.0
  0
HATCH
  5
D6
330
1F
100
AcDbEntity
  8
중심선
100
AcDbHatch
 10
0.0
 20
0.0
 30
0.0
210
0.0
220
0.0
230
1.0
  2
SOLID
 70
     1
 71
     0
 91
        1
 92
        0
 93
        6
 72
     3
 10
-2.399115970600996
 20
-39.99892507132738
 11
3.960054785062284
 21
1.540850780301639E-10
 40
0.3939339440162633
 50
17.09539180608433
 51
320.0019657685079
 73
     0
 72
     1
 10
-0.7161163149004002
 20
-38.58681907591441
 11
1.589185558800638
 21
-36.65249236586649
 72
     3
 10
-2.399115970653842
 20
-39.99892507127625
 11
6.600054785286829
 21
-1.249000902703301E-13
 40
0.6363583540795982
 50
39.99873849337408
 51
368.4976242363725
 73
     1
 72
     1
 10
4.026216521246767
 20
-39.03892507120613
 11
-3.71904866381792
 21
-39.0389250712061
 72
     1
 10
-3.71904866381792
 20
-39.0389250712061
 11
-3.719073708263854
 21
-40.95892507120602
 72
     1
 10
-3.719073708263854
 20
-40.95892507120602
 11
0.7223060612081831
 21
-40.95892507120599
 97
        0
 75
     0
 76
     1
 98
        1
 10
0.0
 20
0.0
  0
DIMENSION
  5
D7
330
1F
100
AcDbEntity
  8
치수문자_일반주서
100
AcDbDimension
  2
_D
 10
60.65662081921767
 20
5.00000000000019
 30
0.0
 11
60.65662081921764
 21
15.32275000000019
 31
0.0
 70
   160
  1
%%c<>
 71
     2
 42
9.999999999999993
 52
-270.0
  3
SLDDIMSTYLE0
100
AcDbAlignedDimension
 13
50.0
 23
-4.999999999999843
 33
0.0
 14
50.00000000000001
 24
5.00000000000015
 34
0.0
 50
90.0000000000002
100
AcDbRotatedDimension
  0
DIMENSION
  5
E5
330
1F
100
AcDbEntity
  8
치수문자_일반주서
100
AcDbDimension
  2
_D_1
 10
50.00000000000001
 20
25.7884104402427
 30
0.0
 11
4.999999999999995
 21
25.7884104402427
 31
0.0
 70
   160
  1
<>
 71
     2
 42
90.0
  3
SLDDIMSTYLE1
100
AcDbAlignedDimension
 13
-40.0
 23
3.999999999999999
 33
0.0
 14
50.00000000000001
 24
5.00000000000015
 34
0.0
 50
-0.0000000000000045
100
AcDbRotatedDimension
  0
DIMENSION
  5
F0
330
1F
100
AcDbEntity
  8
치수문자_일반주서
100
AcDbDimension
  2
_D_2
 10
50.00000000000001
 20
17.32947940710108
 30
0.0
 11
30.0
 21
17.32947940710108
 31
0.0
 70
   160
  1
<>
 71
     2
 42
40.00000000000001
  3
SLDDIMSTYLE1
100
AcDbAlignedDimension
 13
9.999999999999995
 23
3.982481600933552
 33
0.0
 14
50.00000000000001
 24
5.00000000000015
 34
0.0
100
AcDbRotatedDimension
  0
DIMENSION
  5
FA
330
1F
100
AcDbEntity
  8
치수문자_일반주서
100
AcDbDimension
  2
_D_3
 10
-50.31479686479148
 20
-5.000000000000036
 30
0.0
 11
-50.31479686479155
 21
15.32274999999996
 31
0.0
 70
   160
  1
%%c<>
 71
     2
 42
9.999999999999993
 52
-270.0
  3
SLDDIMSTYLE0
100
AcDbAlignedDimension
 13
-39.0
 23
4.999999999999999
 33
0.0
 14
-39.0
 24
-4.999999999999994
 34
0.0
 50
90.0000000000002
100
AcDbRotatedDimension
  0
INSERT
  5
10D
330
1F
100
AcDbEntity
  8
외형선
100
AcDbBlockReference
  2
SW_DOWELSYMBOL_0
 10
0.0000000000000104
 20
0.0
 30
0.0
  0
ENDSEC
  0
SECTION
  2
OBJECTS
  0
DICTIONARY
  5
C
330
0
100
AcDbDictionary
281
     1
  3
ACAD_GROUP
350
D
  3
ACAD_IMAGE_VARS
350
131
  3
ACAD_LAYOUT
350
1A
  3
ACAD_MLINESTYLE
350
17
  3
ACAD_PLOTSETTINGS
350
19
  3
ACAD_PLOTSTYLENAME
350
E
  3
ACAD_SCALELIST
350
47
  3
APPDATA
350
12F
  3
DWGPROPS
350
141
  0
DICTIONARY
  5
D
102
{ACAD_REACTORS
330
C
102
}
330
C
100
AcDbDictionary
281
     1
  0
RASTERVARIABLES
  5
131
102
{ACAD_REACTORS
330
C
102
}
330
C
100
AcDbRasterVariables
 90
        0
 70
     1
 71
     1
 72
     1
  0
DICTIONARY
  5
1A
102
{ACAD_REACTORS
330
C
102
}
330
C
100
AcDbDictionary
281
     1
  3
Layout1
350
1E
  3
Layout2
350
26
  3
Model
350
22
  0
DICTIONARY
  5
17
102
{ACAD_REACTORS
330
C
102
}
330
C
100
AcDbDictionary
281
     1
  3
Standard
350
18
  0
DICTIONARY
  5
19
102
{ACAD_REACTORS
330
C
102
}
330
C
100
AcDbDictionary
281
     1
  0
ACDBDICTIONARYWDFLT
  5
E
102
{ACAD_REACTORS
330
C
102
}
330
C
100
AcDbDictionary
281
     1
  3
Normal
350
F
100
AcDbDictionaryWithDefault
340
F
  0
DICTIONARY
  5
47
102
{ACAD_REACTORS
330
C
102
}
330
C
100
AcDbDictionary
281
     1
  3
A0
350
48
  3
A1
350
49
  3
A2
350
4A
  3
A3
350
4B
  3
A4
350
4C
  3
A5
350
4D
  3
A6
350
4E
  3
A7
350
4F
  3
A8
350
50
  3
A9
350
51
  3
B0
350
52
  3
B1
350
53
  3
B2
350
54
  3
B3
350
55
  3
B4
350
56
  3
B5
350
57
  3
B6
350
58
  3
B7
350
59
  3
B8
350
5A
  3
B9
350
5B
  3
C0
350
5C
  3
C1
350
5D
  3
C2
350
5E
  3
C3
350
5F
  3
C4
350
60
  3
C5
350
61
  3
C6
350
62
  3
C7
350
63
  3
C8
350
64
  3
C9
350
65
  3
D0
350
66
  3
D1
350
67
  3
D2
350
68
  0
DICTIONARY
  5
12F
102
{ACAD_REACTORS
330
C
102
}
330
C
100
AcDbDictionary
281
     1
  0
XRECORD
  5
141
102
{ACAD_REACTORS
330
C
102
}
330
C
100
AcDbXrecord
280
     1
  1
DWGPROPS COOKIE
  2

  3

  4

  6

  7

  8
12014102
  9

300
=
301
=
302
=
303
=
304
=
305
=
306
=
307
=
308
=
309
=
 40
0.0
 41
2458262.170672141
 42
2458266.106157095
  1

 90
        0
  0
LAYOUT
  5
1E
102
{ACAD_REACTORS
330
1A
102
}
330
1A
100
AcDbPlotSettings
  1

  2
none_device
  4

  6

 40
0.0
 41
0.0
 42
0.0
 43
0.0
 44
0.0
 45
0.0
 46
0.0
 47
0.0
 48
0.0
 49
0.0
140
0.0
141
0.0
142
1.0
143
1.0
 70
   688
 72
     1
 73
     0
 74
     5
  7

 75
    16
147
1.0
148
0.0
149
0.0
100
AcDbLayout
  1
Layout1
 70
     1
 71
     1
 10
0.0
 20
0.0
 11
420.0
 21
297.0
 12
0.0
 22
0.0
 32
0.0
 14
1.000000000000000E+20
 24
1.000000000000000E+20
 34
1.000000000000000E+20
 15
-1.000000000000000E+20
 25
-1.000000000000000E+20
 35
-1.000000000000000E+20
146
0.0
 13
0.0
 23
0.0
 33
0.0
 16
1.0
 26
0.0
 36
0.0
 17
0.0
 27
1.0
 37
0.0
 76
     0
330
1B
  0
LAYOUT
  5
26
102
{ACAD_REACTORS
330
1A
102
}
330
1A
100
AcDbPlotSettings
  1

  2
none_device
  4

  6

 40
0.0
 41
0.0
 42
0.0
 43
0.0
 44
0.0
 45
0.0
 46
0.0
 47
0.0
 48
0.0
 49
0.0
140
0.0
141
0.0
142
1.0
143
1.0
 70
   688
 72
     1
 73
     0
 74
     5
  7

 75
    16
147
1.0
148
0.0
149
0.0
100
AcDbLayout
  1
Layout2
 70
     1
 71
     2
 10
0.0
 20
0.0
 11
0.0
 21
0.0
 12
0.0
 22
0.0
 32
0.0
 14
0.0
 24
0.0
 34
0.0
 15
0.0
 25
0.0
 35
0.0
146
0.0
 13
0.0
 23
0.0
 33
0.0
 16
1.0
 26
0.0
 36
0.0
 17
0.0
 27
1.0
 37
0.0
 76
     0
330
23
  0
LAYOUT
  5
22
102
{ACAD_REACTORS
330
1A
102
}
330
1A
100
AcDbPlotSettings
  1

  2
none_device
  4
ANSI_A_(11.00_x_8.50_Inches)
  6

 40
6.35
 41
19.05
 42
6.35000508
 43
19.05000254
 44
279.4
 45
215.9
 46
128.2177245059784
 47
115.5188991451642
 48
0.0
 49
0.0
140
0.0
141
0.0
142
0.1026761154949913
143
1.0
 70
  1696
 72
     0
 73
     0
 74
     0
  7

 75
     0
147
0.0235690232323232
148
0.0
149
0.0
100
AcDbLayout
  1
Model
 70
     1
 71
     0
 10
0.0
 20
0.0
 11
420.0
 21
297.0
 12
0.0
 22
0.0
 32
0.0
 14
-54.68979686479155
 24
-49.97073246008785
 34
0.0
 15
61.20695415255106
 25
30.1634104402427
 35
0.0
146
0.0
 13
0.0
 23
0.0
 33
0.0
 16
1.0
 26
0.0
 36
0.0
 17
0.0
 27
1.0
 37
0.0
 76
     0
330
1F
331
29
  0
MLINESTYLE
  5
18
102
{ACAD_REACTORS
330
17
102
}
330
17
100
AcDbMlineStyle
  2
Standard
 70
     0
  3

 62
   256
 51
90.0
 52
90.0
 71
     2
 49
0.5
 62
   256
  6
BYLAYER
 49
-0.5
 62
   256
  6
BYLAYER
  0
ACDBPLACEHOLDER
  5
F
102
{ACAD_REACTORS
330
E
102
}
330
E
  0
SCALE
  5
48
102
{ACAD_REACTORS
330
47
102
}
330
47
100
AcDbScale
 70
     0
300
1:1
140
1.0
141
1.0
290
     1
  0
SCALE
  5
49
102
{ACAD_REACTORS
330
47
102
}
330
47
100
AcDbScale
 70
     0
300
1:2
140
1.0
141
2.0
290
     0
  0
SCALE
  5
4A
102
{ACAD_REACTORS
330
47
102
}
330
47
100
AcDbScale
 70
     0
300
1:4
140
1.0
141
4.0
290
     0
  0
SCALE
  5
4B
102
{ACAD_REACTORS
330
47
102
}
330
47
100
AcDbScale
 70
     0
300
1:5
140
1.0
141
5.0
290
     0
  0
SCALE
  5
4C
102
{ACAD_REACTORS
330
47
102
}
330
47
100
AcDbScale
 70
     0
300
1:8
140
1.0
141
8.0
290
     0
  0
SCALE
  5
4D
102
{ACAD_REACTORS
330
47
102
}
330
47
100
AcDbScale
 70
     0
300
1:10
140
1.0
141
10.0
290
     0
  0
SCALE
  5
4E
102
{ACAD_REACTORS
330
47
102
}
330
47
100
AcDbScale
 70
     0
300
1:16
140
1.0
141
16.0
290
     0
  0
SCALE
  5
4F
102
{ACAD_REACTORS
330
47
102
}
330
47
100
AcDbScale
 70
     0
300
1:20
140
1.0
141
20.0
290
     0
  0
SCALE
  5
50
102
{ACAD_REACTORS
330
47
102
}
330
47
100
AcDbScale
 70
     0
300
1:30
140
1.0
141
30.0
290
     0
  0
SCALE
  5
51
102
{ACAD_REACTORS
330
47
102
}
330
47
100
AcDbScale
 70
     0
300
1:40
140
1.0
141
40.0
290
     0
  0
SCALE
  5
52
102
{ACAD_REACTORS
330
47
102
}
330
47
100
AcDbScale
 70
     0
300
1:50
140
1.0
141
50.0
290
     0
  0
SCALE
  5
53
102
{ACAD_REACTORS
330
47
102
}
330
47
100
AcDbScale
 70
     0
300
1:100
140
1.0
141
100.0
290
     0
  0
SCALE
  5
54
102
{ACAD_REACTORS
330
47
102
}
330
47
100
AcDbScale
 70
     0
300
2:1
140
2.0
141
1.0
290
     0
  0
SCALE
  5
55
102
{ACAD_REACTORS
330
47
102
}
330
47
100
AcDbScale
 70
     0
300
4:1
140
4.0
141
1.0
290
     0
  0
SCALE
  5
56
102
{ACAD_REACTORS
330
47
102
}
330
47
100
AcDbScale
 70
     0
300
8:1
140
8.0
141
1.0
290
     0
  0
SCALE
  5
57
102
{ACAD_REACTORS
330
47
102
}
330
47
100
AcDbScale
 70
     0
300
10:1
140
10.0
141
1.0
290
     0
  0
SCALE
  5
58
102
{ACAD_REACTORS
330
47
102
}
330
47
100
AcDbScale
 70
     0
300
100:1
140
100.0
141
1.0
290
     0
  0
SCALE
  5
59
102
{ACAD_REACTORS
330
47
102
}
330
47
100
AcDbScale
 70
     0
300
1/128" = 1'-0"
140
0.0078125
141
12.0
290
     0
  0
SCALE
  5
5A
102
{ACAD_REACTORS
330
47
102
}
330
47
100
AcDbScale
 70
     0
300
1/64" = 1'-0"
140
0.015625
141
12.0
290
     0
  0
SCALE
  5
5B
102
{ACAD_REACTORS
330
47
102
}
330
47
100
AcDbScale
 70
     0
300
1/32" = 1'-0"
140
0.03125
141
12.0
290
     0
  0
SCALE
  5
5C
102
{ACAD_REACTORS
330
47
102
}
330
47
100
AcDbScale
 70
     0
300
1/16" = 1'-0"
140
0.0625
141
12.0
290
     0
  0
SCALE
  5
5D
102
{ACAD_REACTORS
330
47
102
}
330
47
100
AcDbScale
 70
     0
300
3/32" = 1'-0"
140
0.09375
141
12.0
290
     0
  0
SCALE
  5
5E
102
{ACAD_REACTORS
330
47
102
}
330
47
100
AcDbScale
 70
     0
300
1/8" = 1'-0"
140
0.125
141
12.0
290
     0
  0
SCALE
  5
5F
102
{ACAD_REACTORS
330
47
102
}
330
47
100
AcDbScale
 70
     0
300
3/16" = 1'-0"
140
0.1875
141
12.0
290
     0
  0
SCALE
  5
60
102
{ACAD_REACTORS
330
47
102
}
330
47
100
AcDbScale
 70
     0
300
1/4" = 1'-0"
140
0.25
141
12.0
290
     0
  0
SCALE
  5
61
102
{ACAD_REACTORS
330
47
102
}
330
47
100
AcDbScale
 70
     0
300
3/8" = 1'-0"
140
0.375
141
12.0
290
     0
  0
SCALE
  5
62
102
{ACAD_REACTORS
330
47
102
}
330
47
100
AcDbScale
 70
     0
300
1/2" = 1'-0"
140
0.5
141
12.0
290
     0
  0
SCALE
  5
63
102
{ACAD_REACTORS
330
47
102
}
330
47
100
AcDbScale
 70
     0
300
3/4" = 1'-0"
140
0.75
141
12.0
290
     0
  0
SCALE
  5
64
102
{ACAD_REACTORS
330
47
102
}
330
47
100
AcDbScale
 70
     0
300
1" = 1'-0"
140
1.0
141
12.0
290
     0
  0
SCALE
  5
65
102
{ACAD_REACTORS
330
47
102
}
330
47
100
AcDbScale
 70
     0
300
1-1/2" = 1'-0"
140
1.5
141
12.0
290
     0
  0
SCALE
  5
66
102
{ACAD_REACTORS
330
47
102
}
330
47
100
AcDbScale
 70
     0
300
3" = 1'-0"
140
3.0
141
12.0
290
     0
  0
SCALE
  5
67
102
{ACAD_REACTORS
330
47
102
}
330
47
100
AcDbScale
 70
     0
300
6" = 1'-0"
140
6.0
141
12.0
290
     0
  0
SCALE
  5
68
102
{ACAD_REACTORS
330
47
102
}
330
47
100
AcDbScale
 70
     0
300
1'-0" = 1'-0"
140
12.0
141
12.0
290
     0
  0
ENDSEC
  0
EOF
