  0
SECTION
  2
HEADER
  9
$ACADVER
  1
AC1015
  9
$ACADMAINTVER
 70
     6
  9
$DWGCODEPAGE
  3
ANSI_949
  9
$INSBASE
 10
0.0
 20
0.0
 30
0.0
  9
$EXTMIN
 10
-60.6862726915267
 20
-49.97073246008785
 30
0.0
  9
$EXTMAX
 10
70.31851535207826
 20
30.1634104402427
 30
0.0
  9
$LIMMIN
 10
0.0
 20
0.0
  9
$LIMMAX
 10
420.0
 20
297.0
  9
$ORTHOMODE
 70
     0
  9
$REGENMODE
 70
     1
  9
$FILLMODE
 70
     1
  9
$QTEXTMODE
 70
     0
  9
$MIRRTEXT
 70
     1
  9
$LTSCALE
 40
1.0
  9
$ATTMODE
 70
     1
  9
$TEXTSIZE
 40
3.5
  9
$TRACEWID
 40
1.0
  9
$TEXTSTYLE
  7
Standard
  9
$CLAYER
  8
0
  9
$CELTYPE
  6
ByLayer
  9
$CECOLOR
 62
   256
  9
$CELTSCALE
 40
1.0
  9
$DISPSILH
 70
     0
  9
$DIMSCALE
 40
1.0
  9
$DIMASZ
 40
3.302
  9
$DIMEXO
 40
1.0
  9
$DIMDLI
 40
3.75
  9
$DIMRND
 40
0.0
  9
$DIMDLE
 40
0.0
  9
$DIMEXE
 40
1.0
  9
$DIMTP
 40
0.0
  9
$DIMTM
 40
0.0
  9
$DIMTXT
 40
3.5
  9
$DIMCEN
 40
2.5
  9
$DIMTSZ
 40
0.0
  9
$DIMTOL
 70
     0
  9
$DIMLIM
 70
     0
  9
$DIMTIH
 70
     1
  9
$DIMTOH
 70
     1
  9
$DIMSE1
 70
     0
  9
$DIMSE2
 70
     0
  9
$DIMTAD
 70
     1
  9
$DIMZIN
 70
     0
  9
$DIMBLK
  1

  9
$DIMASO
 70
     1
  9
$DIMSHO
 70
     1
  9
$DIMPOST
  1

  9
$DIMAPOST
  1

  9
$DIMALT
 70
     0
  9
$DIMALTD
 70
     3
  9
$DIMALTF
 40
0.0393700787401575
  9
$DIMLFAC
 40
1.0
  9
$DIMTOFL
 70
     1
  9
$DIMTVP
 40
0.0
  9
$DIMTIX
 70
     0
  9
$DIMSOXD
 70
     0
  9
$DIMSAH
 70
     0
  9
$DIMBLK1
  1

  9
$DIMBLK2
  1

  9
$DIMSTYLE
  2
ISO-25
  9
$DIMCLRD
 70
     0
  9
$DIMCLRE
 70
     0
  9
$DIMCLRT
 70
     0
  9
$DIMTFAC
 40
1.0
  9
$DIMGAP
 40
1.524
  9
$DIMJUST
 70
     0
  9
$DIMSD1
 70
     0
  9
$DIMSD2
 70
     0
  9
$DIMTOLJ
 70
     0
  9
$DIMTZIN
 70
     0
  9
$DIMALTZ
 70
     0
  9
$DIMALTTZ
 70
     0
  9
$DIMUPT
 70
     0
  9
$DIMDEC
 70
     2
  9
$DIMTDEC
 70
     2
  9
$DIMALTU
 70
     2
  9
$DIMALTTD
 70
     3
  9
$DIMTXSTY
  7
Standard
  9
$DIMAUNIT
 70
     0
  9
$DIMADEC
 70
     2
  9
$DIMALTRND
 40
0.0
  9
$DIMAZIN
 70
     0
  9
$DIMDSEP
 70
    44
  9
$DIMATFIT
 70
     3
  9
$DIMFRAC
 70
     0
  9
$DIMLDRBLK
  1

  9
$DIMLUNIT
 70
     2
  9
$DIMLWD
 70
    -2
  9
$DIMLWE
 70
    -2
  9
$DIMTMOVE
 70
     0
  9
$LUNITS
 70
     2
  9
$LUPREC
 70
     2
  9
$SKETCHINC
 40
1.0
  9
$FILLETRAD
 40
10.0
  9
$AUNITS
 70
     0
  9
$AUPREC
 70
     2
  9
$MENU
  1
.
  9
$ELEVATION
 40
0.0
  9
$PELEVATION
 40
0.0
  9
$THICKNESS
 40
0.0
  9
$LIMCHECK
 70
     0
  9
$CHAMFERA
 40
0.0
  9
$CHAMFERB
 40
0.0
  9
$CHAMFERC
 40
0.0
  9
$CHAMFERD
 40
0.0
  9
$SKPOLY
 70
     0
  9
$TDCREATE
 40
2458262.545859514
  9
$TDUCREATE
 40
2458262.170859514
  9
$TDUPDATE
 40
2458266.482557592
  9
$TDUUPDATE
 40
2458266.107557592
  9
$TDINDWG
 40
0.0013057523
  9
$TDUSRTIMER
 40
2458266.106251898
  9
$USRTIMER
 70
     1
  9
$ANGBASE
 50
0.0
  9
$ANGDIR
 70
     0
  9
$PDMODE
 70
     0
  9
$PDSIZE
 40
-1.0
  9
$PLINEWID
 40
0.0
  9
$SPLFRAME
 70
     0
  9
$SPLINETYPE
 70
     6
  9
$SPLINESEGS
 70
     8
  9
$HANDSEED
  5
145
  9
$SURFTAB1
 70
     6
  9
$SURFTAB2
 70
     6
  9
$SURFTYPE
 70
     6
  9
$SURFU
 70
     6
  9
$SURFV
 70
     6
  9
$UCSBASE
  2

  9
$UCSNAME
  2

  9
$UCSORG
 10
0.0
 20
0.0
 30
0.0
  9
$UCSXDIR
 10
1.0
 20
0.0
 30
0.0
  9
$UCSYDIR
 10
0.0
 20
1.0
 30
0.0
  9
$UCSORTHOREF
  2

  9
$UCSORTHOVIEW
 70
     0
  9
$UCSORGTOP
 10
0.0
 20
0.0
 30
0.0
  9
$UCSORGBOTTOM
 10
0.0
 20
0.0
 30
0.0
  9
$UCSORGLEFT
 10
0.0
 20
0.0
 30
0.0
  9
$UCSORGRIGHT
 10
0.0
 20
0.0
 30
0.0
  9
$UCSORGFRONT
 10
0.0
 20
0.0
 30
0.0
  9
$UCSORGBACK
 10
0.0
 20
0.0
 30
0.0
  9
$PUCSBASE
  2

  9
$PUCSNAME
  2

  9
$PUCSORG
 10
0.0
 20
0.0
 30
0.0
  9
$PUCSXDIR
 10
1.0
 20
0.0
 30
0.0
  9
$PUCSYDIR
 10
0.0
 20
1.0
 30
0.0
  9
$PUCSORTHOREF
  2

  9
$PUCSORTHOVIEW
 70
     0
  9
$PUCSORGTOP
 10
0.0
 20
0.0
 30
0.0
  9
$PUCSORGBOTTOM
 10
0.0
 20
0.0
 30
0.0
  9
$PUCSORGLEFT
 10
0.0
 20
0.0
 30
0.0
  9
$PUCSORGRIGHT
 10
0.0
 20
0.0
 30
0.0
  9
$PUCSORGFRONT
 10
0.0
 20
0.0
 30
0.0
  9
$PUCSORGBACK
 10
0.0
 20
0.0
 30
0.0
  9
$USERI1
 70
     0
  9
$USERI2
 70
     0
  9
$USERI3
 70
     0
  9
$USERI4
 70
     0
  9
$USERI5
 70
     0
  9
$USERR1
 40
0.0
  9
$USERR2
 40
0.0
  9
$USERR3
 40
0.0
  9
$USERR4
 40
0.0
  9
$USERR5
 40
0.0
  9
$WORLDVIEW
 70
     1
  9
$SHADEDGE
 70
     3
  9
$SHADEDIF
 70
    70
  9
$TILEMODE
 70
     1
  9
$MAXACTVP
 70
    64
  9
$PINSBASE
 10
0.0
 20
0.0
 30
0.0
  9
$PLIMCHECK
 70
     0
  9
$PEXTMIN
 10
1.000000000000000E+20
 20
1.000000000000000E+20
 30
1.000000000000000E+20
  9
$PEXTMAX
 10
-1.000000000000000E+20
 20
-1.000000000000000E+20
 30
-1.000000000000000E+20
  9
$PLIMMIN
 10
0.0
 20
0.0
  9
$PLIMMAX
 10
0.0
 20
0.0
  9
$UNITMODE
 70
     0
  9
$VISRETAIN
 70
     1
  9
$PLINEGEN
 70
     0
  9
$PSLTSCALE
 70
     1
  9
$TREEDEPTH
 70
  3020
  9
$CMLSTYLE
  2
Standard
  9
$CMLJUST
 70
     0
  9
$CMLSCALE
 40
20.0
  9
$PROXYGRAPHICS
 70
     1
  9
$MEASUREMENT
 70
     1
  9
$CELWEIGHT
370
    -1
  9
$ENDCAPS
280
     0
  9
$JOINSTYLE
280
     0
  9
$LWDISPLAY
290
     1
  9
$INSUNITS
 70
     4
  9
$HYPERLINKBASE
  1

  9
$STYLESHEET
  1

  9
$XEDIT
290
     1
  9
$CEPSNTYPE
380
     0
  9
$PSTYLEMODE
290
     1
  9
$FINGERPRINTGUID
  2
{FBF983F1-39C1-44E6-A5F8-E4885FEAC953}
  9
$VERSIONGUID
  2
{FAEB1C32-E019-11D5-929B-00C0DF256EC4}
  9
$EXTNAMES
290
     1
  9
$PSVPSCALE
 40
0.0
  9
$OLESTARTUP
290
     0
  0
ENDSEC
  0
SECTION
  2
CLASSES
  0
CLASS
  1
ACDBDICTIONARYWDFLT
  2
AcDbDictionaryWithDefault
  3
ObjectDBX Classes
 90
        0
280
     0
281
     0
  0
CLASS
  1
VISUALSTYLE
  2
AcDbVisualStyle
  3
ObjectDBX Classes
 90
     4095
280
     0
281
     0
  0
CLASS
  1
MATERIAL
  2
AcDbMaterial
  3
ObjectDBX Classes
 90
     1153
280
     0
281
     0
  0
CLASS
  1
SCALE
  2
AcDbScale
  3
ObjectDBX Classes
 90
     1153
280
     0
281
     0
  0
CLASS
  1
SUN
  2
AcDbSun
  3
SCENEOE
 90
     1153
280
     0
281
     0
  0
CLASS
  1
ACDBPLACEHOLDER
  2
AcDbPlaceHolder
  3
ObjectDBX Classes
 90
        0
280
     0
281
     0
  0
CLASS
  1
LAYOUT
  2
AcDbLayout
  3
ObjectDBX Classes
 90
        0
280
     0
281
     0
  0
CLASS
  1
TABLESTYLE
  2
AcDbTableStyle
  3
ObjectDBX Classes
 90
     4095
280
     0
281
     0
  0
CLASS
  1
MLEADERSTYLE
  2
AcDbMLeaderStyle
  3
ACDB_MLEADERSTYLE_CLASS
 90
     4095
280
     0
281
     0
  0
CLASS
  1
RASTERVARIABLES
  2
AcDbRasterVariables
  3
ISM
 90
        0
280
     0
281
     0
  0
ENDSEC
  0
SECTION
  2
TABLES
  0
TABLE
  2
VPORT
  5
8
330
0
100
AcDbSymbolTable
 70
     1
  0
VPORT
  5
29
330
8
100
AcDbSymbolTableRecord
100
AcDbViewportTableRecord
  2
*Active
 70
     0
 10
0.0
 20
0.0
 11
1.0
 21
1.0
 12
4.816121330275784
 22
-9.90366100992258
 13
0.0
 23
0.0
 14
10.0
 24
10.0
 15
10.0
 25
10.0
 16
0.0
 26
0.0
 36
1.0
 17
0.0
 27
0.0
 37
0.0
 40
115.9480493998489
 41
1.152454780361757
 42
50.0
 43
0.0
 44
0.0
 50
0.0
 51
0.0
 71
    16
 72
  2000
 73
     1
 74
     3
 75
     0
 76
     0
 77
     0
 78
     0
281
     0
 65
     1
110
0.0
120
0.0
130
0.0
111
1.0
121
0.0
131
0.0
112
0.0
122
1.0
132
0.0
 79
     0
146
0.0
  0
ENDTAB
  0
TABLE
  2
LTYPE
  5
5
330
0
100
AcDbSymbolTable
 70
     6
  0
LTYPE
  5
14
330
5
100
AcDbSymbolTableRecord
100
AcDbLinetypeTableRecord
  2
ByBlock
 70
     0
  3

 72
    65
 73
     0
 40
0.0
  0
LTYPE
  5
15
330
5
100
AcDbSymbolTableRecord
100
AcDbLinetypeTableRecord
  2
ByLayer
 70
     0
  3

 72
    65
 73
     0
 40
0.0
  0
LTYPE
  5
16
330
5
100
AcDbSymbolTableRecord
100
AcDbLinetypeTableRecord
  2
Continuous
 70
     0
  3
Solid line
 72
    65
 73
     0
 40
0.0
  0
LTYPE
  5
6A
330
5
100
AcDbSymbolTableRecord
100
AcDbLinetypeTableRecord
  2
HIDDEN
 70
     0
  3
Hidden __ __ __ __ __ __ __ __ __ __ __ __ __ __
 72
    65
 73
     2
 40
1.905
 49
1.27
 74
     0
 49
-0.635
 74
     0
  0
LTYPE
  5
6B
330
5
100
AcDbSymbolTableRecord
100
AcDbLinetypeTableRecord
  2
PHANTOM
 70
     0
  3
Phantom ______  __  __  ______  __  __  ______
 72
    65
 73
     6
 40
12.7
 49
6.35
 74
     0
 49
-1.27
 74
     0
 49
1.27
 74
     0
 49
-1.27
 74
     0
 49
1.27
 74
     0
 49
-1.27
 74
     0
  0
LTYPE
  5
6C
330
5
100
AcDbSymbolTableRecord
100
AcDbLinetypeTableRecord
  2
CENTER
 70
     0
  3
Center ____ _ ____ _ ____ _ ____ _ ____ _ ____
 72
    65
 73
     4
 40
10.16
 49
6.35
 74
     0
 49
-1.27
 74
     0
 49
1.27
 74
     0
 49
-1.27
 74
     0
  0
LTYPE
  5
6D
330
5
100
AcDbSymbolTableRecord
100
AcDbLinetypeTableRecord
  2
CENTERX2
 70
     0
  3
Center (2x) ________  __  ________  __  _____
 72
    65
 73
     4
 40
20.32
 49
12.7
 74
     0
 49
-2.54
 74
     0
 49
2.54
 74
     0
 49
-2.54
 74
     0
  0
LTYPE
  5
6E
330
5
100
AcDbSymbolTableRecord
100
AcDbLinetypeTableRecord
  2
DOT2
 70
     0
  3
Dot (.5x) ........................................
 72
    65
 73
     2
 40
0.635
 49
0.0
 74
     0
 49
-0.635
 74
     0
  0
ENDTAB
  0
TABLE
  2
LAYER
  5
2
330
0
100
AcDbSymbolTable
 70
    17
  0
LAYER
  5
10
330
2
100
AcDbSymbolTableRecord
100
AcDbLayerTableRecord
  2
0
 70
     0
 62
     7
  6
Continuous
370
    -3
390
F
  0
LAYER
  5
6F
330
2
100
AcDbSymbolTableRecord
100
AcDbLayerTableRecord
  2
FORMAT
 70
     0
 62
     2
  6
Continuous
370
    -3
390
F
  0
LAYER
  5
70
330
2
100
AcDbSymbolTableRecord
100
AcDbLayerTableRecord
  2
외형선
 70
     0
 62
   100
  6
Continuous
370
    30
390
F
  0
LAYER
  5
71
330
2
100
AcDbSymbolTableRecord
100
AcDbLayerTableRecord
  2
숨은선
 70
     0
 62
     2
  6
HIDDEN
370
    15
390
F
  0
LAYER
  5
72
330
2
100
AcDbSymbolTableRecord
100
AcDbLayerTableRecord
  2
중심선
 70
     0
 62
     1
  6
CENTERX2
370
    -3
390
F
  0
LAYER
  5
73
330
2
100
AcDbSymbolTableRecord
100
AcDbLayerTableRecord
  2
파단선
 70
     0
 62
     4
  6
Continuous
370
    -3
390
F
  0
LAYER
  5
74
330
2
100
AcDbSymbolTableRecord
100
AcDbLayerTableRecord
  2
해칭선
 70
     0
 62
     4
  6
Continuous
370
    -3
390
F
  0
LAYER
  5
75
330
2
100
AcDbSymbolTableRecord
100
AcDbLayerTableRecord
  2
가는실선
 70
     0
 62
     4
  6
Continuous
370
    -3
390
F
  0
LAYER
  5
76
330
2
100
AcDbSymbolTableRecord
100
AcDbLayerTableRecord
  2
치수_보조선
 70
     0
 62
     4
  6
Continuous
370
    -3
390
F
  0
LAYER
  5
77
330
2
100
AcDbSymbolTableRecord
100
AcDbLayerTableRecord
  2
치수문자_일반주서
 70
     0
 62
     7
  6
Continuous
370
    15
390
F
  0
LAYER
  5
78
330
2
100
AcDbSymbolTableRecord
100
AcDbLayerTableRecord
  2
개별주서
 70
     0
 62
   100
  6
Continuous
370
    30
390
F
  0
LAYER
  5
79
330
2
100
AcDbSymbolTableRecord
100
AcDbLayerTableRecord
  2
중간선
 70
     0
 62
     2
  6
Continuous
370
    15
390
F
  0
LAYER
  5
7A
330
2
100
AcDbSymbolTableRecord
100
AcDbLayerTableRecord
  2
윤곽선
 70
     0
 62
     3
  6
Continuous
370
    40
390
F
  0
LAYER
  5
7B
330
2
100
AcDbSymbolTableRecord
100
AcDbLayerTableRecord
  2
중심마크
 70
     0
 62
   100
  6
Continuous
370
    30
390
F
  0
LAYER
  5
7C
330
2
100
AcDbSymbolTableRecord
100
AcDbLayerTableRecord
  2
가상선
 70
     0
 62
     4
  6
PHANTOM
370
    -3
390
F
  0
LAYER
  5
7D
330
2
100
AcDbSymbolTableRecord
100
AcDbLayerTableRecord
  2
특수지정선
 70
     0
 62
     5
  6
CENTERX2
370
    60
390
F
  0
LAYER
  5
136
330
2
100
AcDbSymbolTableRecord
100
AcDbLayerTableRecord
  2
Defpoints
 70
     0
 62
     7
  6
Continuous
290
     0
370
    -3
390
F
  0
ENDTAB
  0
TABLE
  2
STYLE
  5
3
330
0
100
AcDbSymbolTable
 70
     2
  0
STYLE
  5
11
330
3
100
AcDbSymbolTableRecord
100
AcDbTextStyleTableRecord
  2
Standard
 70
     0
 40
0.0
 41
1.0
 50
0.0
 71
     0
 42
3.5
  3
txt
  4

  0
STYLE
  5
93
330
3
100
AcDbSymbolTableRecord
100
AcDbTextStyleTableRecord
  2
SLDTEXTSTYLE0
 70
     0
 40
0.0
 41
0.75
 50
0.0
 71
     0
 42
3.5
  3
TXT
  4

  0
ENDTAB
  0
TABLE
  2
VIEW
  5
6
330
0
100
AcDbSymbolTable
 70
     0
  0
ENDTAB
  0
TABLE
  2
UCS
  5
7
330
0
100
AcDbSymbolTable
 70
     0
  0
ENDTAB
  0
TABLE
  2
APPID
  5
9
330
0
100
AcDbSymbolTable
 70
     1
  0
APPID
  5
12
330
9
100
AcDbSymbolTableRecord
100
AcDbRegAppTableRecord
  2
ACAD
 70
     0
  0
ENDTAB
  0
TABLE
  2
DIMSTYLE
  5
A
330
0
100
AcDbSymbolTable
 70
     3
100
AcDbDimStyleTable
  0
DIMSTYLE
105
27
330
A
100
AcDbSymbolTableRecord
100
AcDbDimStyleTableRecord
  2
ISO-25
 70
     0
 41
2.5
 42
0.625
 43
3.75
 44
1.25
 73
     0
 74
     0
 77
     1
 78
     8
140
2.5
141
2.5
143
0.03937007874016
147
0.625
171
     3
172
     1
178
     0
271
     2
272
     2
274
     3
278
    44
283
     0
284
     8
340
11
  0
DIMSTYLE
105
DC
102
{ACAD_REACTORS
330
DB
330
FE
102
}
330
A
100
AcDbSymbolTableRecord
100
AcDbDimStyleTableRecord
  2
SLDDIMSTYLE0
 70
     0
 41
3.302
 44
0.0
 45
0.000000001
 73
     0
 74
     0
 77
     1
 78
    12
 79
     3
140
3.5
147
0.875
172
     1
173
     1
178
     0
271
     2
272
     2
276
     2
284
    12
289
     0
340
93
  0
DIMSTYLE
105
EA
102
{ACAD_REACTORS
330
E9
330
F4
102
}
330
A
100
AcDbSymbolTableRecord
100
AcDbDimStyleTableRecord
  2
SLDDIMSTYLE1
 70
     0
 41
3.302
 44
0.0
 45
0.000000001
 73
     0
 74
     0
 77
     1
 78
    12
 79
     3
140
3.5
147
0.875
173
     1
178
     0
271
     2
272
     2
276
     2
284
    12
340
93
  0
ENDTAB
  0
TABLE
  2
BLOCK_RECORD
  5
1
330
0
100
AcDbSymbolTable
 70
     7
  0
BLOCK_RECORD
  5
1F
330
1
100
AcDbSymbolTableRecord
100
AcDbBlockTableRecord
  2
*Model_Space
340
22
  0
BLOCK_RECORD
  5
1B
330
1
100
AcDbSymbolTableRecord
100
AcDbBlockTableRecord
  2
*Paper_Space
340
1E
  0
BLOCK_RECORD
  5
23
330
1
100
AcDbSymbolTableRecord
100
AcDbBlockTableRecord
  2
*Paper_Space0
340
26
  0
BLOCK_RECORD
  5
7E
330
1
100
AcDbSymbolTableRecord
100
AcDbBlockTableRecord
  2
블럭10
340
0
102
{BLKREFS
331
D4
102
}
  0
BLOCK_RECORD
  5
DD
330
1
100
AcDbSymbolTableRecord
100
AcDbBlockTableRecord
  2
_D
340
0
  0
BLOCK_RECORD
  5
EB
330
1
100
AcDbSymbolTableRecord
100
AcDbBlockTableRecord
  2
_D_1
340
0
  0
BLOCK_RECORD
  5
F5
330
1
100
AcDbSymbolTableRecord
100
AcDbBlockTableRecord
  2
_D_2
340
0
  0
BLOCK_RECORD
  5
FF
330
1
100
AcDbSymbolTableRecord
100
AcDbBlockTableRecord
  2
_D_3
340
0
  0
BLOCK_RECORD
  5
10B
330
1
100
AcDbSymbolTableRecord
100
AcDbBlockTableRecord
  2
SW_DOWELSYMBOL_0
340
0
102
{BLKREFS
331
111
102
}
  0
ENDTAB
  0
ENDSEC
  0
SECTION
  2
BLOCKS
  0
BLOCK
  5
20
330
1F
100
AcDbEntity
  8
0
100
AcDbBlockBegin
  2
*Model_Space
 70
     0
 10
0.0
 20
0.0
 30
0.0
  3
*Model_Space
  1

  0
ENDBLK
  5
21
330
1F
100
AcDbEntity
  8
0
100
AcDbBlockEnd
  0
BLOCK
  5
1C
330
1B
100
AcDbEntity
 67
     1
  8
0
100
AcDbBlockBegin
  2
*Paper_Space
 70
     0
 10
0.0
 20
0.0
 30
0.0
  3
*Paper_Space
  1

  0
ENDBLK
  5
1D
330
1B
100
AcDbEntity
 67
     1
  8
0
100
AcDbBlockEnd
  0
BLOCK
  5
24
330
23
100
AcDbEntity
  8
0
100
AcDbBlockBegin
  2
*Paper_Space0
 70
     0
 10
0.0
 20
0.0
 30
0.0
  3
*Paper_Space0
  1

  0
ENDBLK
  5
25
330
23
100
AcDbEntity
  8
0
100
AcDbBlockEnd
  0
BLOCK
  5
7F
330
7E
100
AcDbEntity
  8
0
100
AcDbBlockBegin
  2
블럭10
 70
     2
 10
0.0
 20
0.0
 30
0.0
  3
블럭10
  1

  0
ELLIPSE
  5
81
330
7E
100
AcDbEntity
  8
중심선
100
AcDbEllipse
 10
20.54032771741204
 20
12.0471743016438
 30
0.0
 11
6.600054785286829
 21
-1.261213355974178E-13
 31
0.0
210
0.0
220
0.0
230
1.0
 40
0.636358354079598
 41
0.9219305317359503
 42
6.513795318482858
  0
ELLIPSE
  5
82
330
7E
100
AcDbEntity
  8
중심선
100
AcDbEllipse
 10
20.54032771746488
 20
12.04717430159265
 30
0.0
 11
3.960054785062283
 21
1.540847449632565E-10
 31
0.0
210
0.0
220
0.0
230
1.0
 40
0.3939339440162632
 41
1.131841032648279
 42
5.62031148352944
  0
LINE
  5
83
330
7E
100
AcDbEntity
  8
중심선
100
AcDbLine
 10
2.268634060543552
 20
16.24717430164393
 30
0.0
 11
5.714909304380834
 21
16.24717430164393
 31
0.0
  0
LINE
  5
84
330
7E
100
AcDbEntity
  8
중심선
100
AcDbLine
 10
5.245725140726316
 20
7.84717430164391
 30
0.0
 11
8.692000384563599
 21
7.84717430164391
 31
0.0
  0
LINE
  5
85
330
7E
100
AcDbEntity
  8
중심선
100
AcDbLine
 10
15.74043728645272
 20
16.24717430164393
 30
0.0
 11
8.692000384563599
 21
7.84717430164391
 31
0.0
  0
LINE
  5
86
330
7E
100
AcDbEntity
  8
중심선
100
AcDbLine
 10
0.1404042013395286
 20
13.71084872107135
 30
0.0
 11
3.58671253028996
 21
13.71088815037384
 31
0.0
  0
LINE
  5
87
330
7E
100
AcDbEntity
  8
중심선
100
AcDbLine
 10
2.750260043222114
 20
10.84717430164391
 30
0.0
 11
6.196535287059397
 21
10.84717430164391
 31
0.0
  0
LINE
  5
88
330
7E
100
AcDbEntity
  8
중심선
100
AcDbLine
 10
12.29416204261559
 20
16.24717430164393
 30
0.0
 11
5.245725140726316
 21
7.84717430164391
 31
0.0
  0
LINE
  5
89
330
7E
100
AcDbEntity
  8
중심선
100
AcDbLine
 10
10.72767329541681
 20
16.24717430164393
 30
0.0
 11
6.196535287059397
 21
10.84717430164391
 31
0.0
  0
LINE
  5
8A
330
7E
100
AcDbEntity
  8
중심선
100
AcDbLine
 10
7.28139805157953
 20
16.24717430164393
 30
0.0
 11
2.750260043222114
 21
10.84717430164391
 31
0.0
  0
LINE
  5
8B
330
7E
100
AcDbEntity
  8
중심선
100
AcDbLine
 10
5.714909304380834
 20
16.24717430164393
 30
0.0
 11
3.58671253028996
 21
13.71088815037384
 31
0.0
  0
LINE
  5
8C
330
7E
100
AcDbEntity
  8
중심선
100
AcDbLine
 10
2.268634060543552
 20
16.24717430164393
 30
0.0
 11
0.1404042013395286
 21
13.71084872107135
 31
0.0
  0
LINE
  5
8D
330
7E
100
AcDbEntity
  8
중심선
100
AcDbLine
 10
7.28139805157953
 20
16.24717430164393
 30
0.0
 11
10.72767329541681
 21
16.24717430164393
 31
0.0
  0
LINE
  5
8E
330
7E
100
AcDbEntity
  8
중심선
100
AcDbLine
 10
12.29416204261559
 20
16.24717430164393
 30
0.0
 11
15.74043728645272
 21
16.24717430164393
 31
0.0
  0
LINE
  5
8F
330
7E
100
AcDbEntity
  8
중심선
100
AcDbLine
 10
19.22036997980202
 20
11.08717430171403
 30
0.0
 11
23.66174974927406
 21
11.08717430171406
 31
0.0
  0
LINE
  5
90
330
7E
100
AcDbEntity
  8
중심선
100
AcDbLine
 10
19.22039502424796
 20
13.00717430171391
 30
0.0
 11
19.22036997980202
 21
11.08717430171403
 31
0.0
  0
LINE
  5
91
330
7E
100
AcDbEntity
  8
중심선
100
AcDbLine
 10
19.22039502424796
 20
13.00717430171391
 30
0.0
 11
26.96566020931264
 21
13.00717430171391
 31
0.0
  0
LINE
  5
92
330
7E
100
AcDbEntity
  8
중심선
100
AcDbLine
 10
22.22332737316547
 20
13.45928029700563
 30
0.0
 11
24.52862924686651
 21
15.39360700705356
 31
0.0
  0
ATTDEF
  5
94
330
7E
100
AcDbEntity
  8
FORMAT
 62
     2
100
AcDbText
 10
-16.11926103943555
 20
2.075366912832191
 30
0.0
 40
4.233333333333333
  1
SEME7010045E [ 2 FLUTE ]
 41
0.75
  7
SLDTEXTSTYLE0
 11
-16.11926103943555
 21
-0.0412997538344756
 31
0.0
100
AcDbAttributeDefinition
  3

  2
AUTOATTR0
 70
     0
 74
     1
  0
ENDBLK
  5
80
330
7E
100
AcDbEntity
  8
0
100
AcDbBlockEnd
  0
BLOCK
  5
DE
330
DD
100
AcDbEntity
  8
0
100
AcDbBlockBegin
  2
_D
 70
     0
 10
0.0
 20
0.0
 30
0.0
  3
_D
  1

  0
LINE
  5
E0
330
DD
100
AcDbEntity
  8
치수문자_일반주서
 62
     0
370
    -2
100
AcDbLine
 10
55.06249999999971
 20
-4.999999999999825
 30
0.0
 11
69.76818201874492
 21
-4.999999999999773
 31
0.0
  0
LINE
  5
E1
330
DD
100
AcDbEntity
  8
치수문자_일반주서
 62
     0
370
    -2
100
AcDbLine
 10
55.06249999999998
 20
5.000000000000169
 30
0.0
 11
69.7681820187449
 21
5.000000000000222
 31
0.0
  0
LINE
  5
E2
330
DD
100
AcDbEntity
  8
치수문자_일반주서
 62
     0
370
    -2
100
AcDbLine
 10
69.76818201874492
 20
-4.999999999999773
 30
0.0
 11
69.76818201874485
 21
19.04150000000022
 31
0.0
  0
LINE
  5
E3
330
DD
100
AcDbEntity
  8
치수문자_일반주서
 62
     0
370
    -2
100
AcDbLine
 10
69.76818201874492
 20
-4.999999999999773
 30
0.0
 11
69.7681820187449
 21
5.000000000000222
 31
0.0
  0
LINE
  5
E4
330
DD
100
AcDbEntity
  8
치수문자_일반주서
 62
     0
370
    -2
100
AcDbLine
 10
69.76818201874494
 20
-8.301999999999772
 30
0.0
 11
69.76818201874495
 21
-11.60399999999977
 31
0.0
  0
LINE
  5
E5
330
DD
100
AcDbEntity
  8
치수문자_일반주서
 62
     0
370
    -2
100
AcDbLine
 10
69.76818201874488
 20
8.302000000000222
 30
0.0
 11
69.76818201874487
 21
11.60400000000022
 31
0.0
  0
SOLID
  5
E6
330
DD
100
AcDbEntity
  8
치수문자_일반주서
 62
     0
100
AcDbTrace
 10
70.31851535207826
 20
-8.30199999999977
 30
0.0
 11
69.21784868541161
 21
-8.301999999999774
 31
0.0
 12
69.76818201874492
 22
-4.999999999999773
 32
0.0
 13
69.76818201874492
 23
-4.999999999999773
 33
0.0
  0
SOLID
  5
E7
330
DD
100
AcDbEntity
  8
치수문자_일반주서
 62
     0
100
AcDbTrace
 10
69.21784868541155
 20
8.30200000000022
 30
0.0
 11
70.31851535207821
 21
8.302000000000223
 31
0.0
 12
69.7681820187449
 22
5.000000000000222
 32
0.0
 13
69.7681820187449
 23
5.000000000000222
 33
0.0
  0
MTEXT
  5
E8
330
DD
100
AcDbEntity
  8
치수문자_일반주서
 62
     0
100
AcDbMText
 10
65.39318201874487
 20
15.32275000000021
 30
0.0
 40
3.5
 41
0.0
 71
     2
 72
     1
  1
\A1;%%c10
  7
SLDTEXTSTYLE0
 11
-2.842170943040402E-15
 21
1.0
 31
0.0
 73
     1
 44
1.0
  0
POINT
  5
140
330
DD
100
AcDbEntity
  8
Defpoints
 62
     0
100
AcDbPoint
 10
54.99999999999971
 20
-4.999999999999825
 30
0.0
  0
POINT
  5
141
330
DD
100
AcDbEntity
  8
Defpoints
 62
     0
100
AcDbPoint
 10
54.99999999999998
 20
5.000000000000169
 30
0.0
  0
POINT
  5
142
330
DD
100
AcDbEntity
  8
Defpoints
 62
     0
100
AcDbPoint
 10
69.7681820187449
 20
5.000000000000224
 30
0.0
  0
ENDBLK
  5
DF
330
DD
100
AcDbEntity
  8
0
100
AcDbBlockEnd
  0
BLOCK
  5
EC
330
EB
100
AcDbEntity
  8
0
100
AcDbBlockBegin
  2
_D_1
 70
     0
 10
0.0
 20
0.0
 30
0.0
  3
_D_1
  1

  0
LINE
  5
EE
330
EB
100
AcDbEntity
  8
치수문자_일반주서
 62
     0
370
    -2
100
AcDbLine
 10
-45.00000000000003
 20
4.062499999999998
 30
0.0
 11
-45.00000000000002
 21
25.7884104402427
 31
0.0
  0
LINE
  5
EF
330
EB
100
AcDbEntity
  8
치수문자_일반주서
 62
     0
370
    -2
100
AcDbLine
 10
54.99999999999998
 20
5.062500000000169
 30
0.0
 11
54.99999999999999
 21
25.7884104402427
 31
0.0
  0
LINE
  5
F0
330
EB
100
AcDbEntity
  8
치수문자_일반주서
 62
     0
370
    -2
100
AcDbLine
 10
-41.69800000000002
 20
25.7884104402427
 30
0.0
 11
51.69799999999999
 21
25.7884104402427
 31
0.0
  0
SOLID
  5
F1
330
EB
100
AcDbEntity
  8
치수문자_일반주서
 62
     0
100
AcDbTrace
 10
-41.69800000000002
 20
26.33874377357603
 30
0.0
 11
-41.69800000000002
 21
25.23807710690936
 31
0.0
 12
-45.00000000000002
 22
25.7884104402427
 32
0.0
 13
-45.00000000000002
 23
25.7884104402427
 33
0.0
  0
SOLID
  5
F2
330
EB
100
AcDbEntity
  8
치수문자_일반주서
 62
     0
100
AcDbTrace
 10
51.69799999999999
 20
25.23807710690936
 30
0.0
 11
51.69799999999999
 21
26.33874377357603
 31
0.0
 12
54.99999999999999
 22
25.7884104402427
 32
0.0
 13
54.99999999999999
 23
25.7884104402427
 33
0.0
  0
MTEXT
  5
F3
330
EB
100
AcDbEntity
  8
치수문자_일반주서
 62
     0
100
AcDbMText
 10
4.999999999999977
 20
30.1634104402427
 30
0.0
 40
3.5
 41
0.0
 71
     2
 72
     1
  1
\A1;100
  7
SLDTEXTSTYLE0
 73
     1
 44
1.0
  0
POINT
  5
137
330
EB
100
AcDbEntity
  8
Defpoints
 62
     0
100
AcDbPoint
 10
-45.00000000000003
 20
3.999999999999999
 30
0.0
  0
POINT
  5
138
330
EB
100
AcDbEntity
  8
Defpoints
 62
     0
100
AcDbPoint
 10
54.99999999999998
 20
5.000000000000169
 30
0.0
  0
POINT
  5
139
330
EB
100
AcDbEntity
  8
Defpoints
 62
     0
100
AcDbPoint
 10
54.99999999999998
 20
25.7884104402427
 30
0.0
  0
ENDBLK
  5
ED
330
EB
100
AcDbEntity
  8
0
100
AcDbBlockEnd
  0
BLOCK
  5
F6
330
F5
100
AcDbEntity
  8
0
100
AcDbBlockBegin
  2
_D_2
 70
     0
 10
0.0
 20
0.0
 30
0.0
  3
_D_2
  1

  0
LINE
  5
F8
330
F5
100
AcDbEntity
  8
치수문자_일반주서
 62
     0
370
    -2
100
AcDbLine
 10
9.999999999999979
 20
3.97160364066405
 30
0.0
 11
9.999999999999979
 21
17.25610144683154
 31
0.0
  0
LINE
  5
F9
330
F5
100
AcDbEntity
  8
치수문자_일반주서
 62
     0
370
    -2
100
AcDbLine
 10
54.99999999999998
 20
5.062500000000169
 30
0.0
 11
54.99999999999998
 21
17.25610144683154
 31
0.0
  0
LINE
  5
FA
330
F5
100
AcDbEntity
  8
치수문자_일반주서
 62
     0
370
    -2
100
AcDbLine
 10
13.30199999999998
 20
17.25610144683154
 30
0.0
 11
51.69799999999998
 21
17.25610144683154
 31
0.0
  0
SOLID
  5
FB
330
F5
100
AcDbEntity
  8
치수문자_일반주서
 62
     0
100
AcDbTrace
 10
13.30199999999998
 20
17.80643478016487
 30
0.0
 11
13.30199999999998
 21
16.7057681134982
 31
0.0
 12
9.999999999999979
 22
17.25610144683154
 32
0.0
 13
9.999999999999979
 23
17.25610144683154
 33
0.0
  0
SOLID
  5
FC
330
F5
100
AcDbEntity
  8
치수문자_일반주서
 62
     0
100
AcDbTrace
 10
51.69799999999998
 20
16.7057681134982
 30
0.0
 11
51.69799999999998
 21
17.80643478016487
 31
0.0
 12
54.99999999999998
 22
17.25610144683154
 32
0.0
 13
54.99999999999998
 23
17.25610144683154
 33
0.0
  0
MTEXT
  5
FD
330
F5
100
AcDbEntity
  8
치수문자_일반주서
 62
     0
100
AcDbMText
 10
32.5
 20
21.63110144683154
 30
0.0
 40
3.5
 41
0.0
 71
     2
 72
     1
  1
\A1;45
  7
SLDTEXTSTYLE0
 73
     1
 44
1.0
  0
POINT
  5
13A
330
F5
100
AcDbEntity
  8
Defpoints
 62
     0
100
AcDbPoint
 10
9.999999999999979
 20
3.90910364066405
 30
0.0
  0
POINT
  5
13B
330
F5
100
AcDbEntity
  8
Defpoints
 62
     0
100
AcDbPoint
 10
54.99999999999998
 20
5.000000000000169
 30
0.0
  0
POINT
  5
13C
330
F5
100
AcDbEntity
  8
Defpoints
 62
     0
100
AcDbPoint
 10
54.99999999999998
 20
17.25610144683154
 30
0.0
  0
ENDBLK
  5
F7
330
F5
100
AcDbEntity
  8
0
100
AcDbBlockEnd
  0
BLOCK
  5
100
330
FF
100
AcDbEntity
  8
0
100
AcDbBlockBegin
  2
_D_3
 70
     0
 10
0.0
 20
0.0
 30
0.0
  3
_D_3
  1

  0
LINE
  5
102
330
FF
100
AcDbEntity
  8
치수문자_일반주서
 62
     0
370
    -2
100
AcDbLine
 10
-44.06250000000003
 20
4.999999999999999
 30
0.0
 11
-56.31127269152665
 21
4.999999999999954
 31
0.0
  0
LINE
  5
103
330
FF
100
AcDbEntity
  8
치수문자_일반주서
 62
     0
370
    -2
100
AcDbLine
 10
-44.06250000000003
 20
-4.999999999999996
 30
0.0
 11
-56.31127269152662
 21
-5.000000000000043
 31
0.0
  0
LINE
  5
104
330
FF
100
AcDbEntity
  8
치수문자_일반주서
 62
     0
370
    -2
100
AcDbLine
 10
-56.31127269152665
 20
4.999999999999954
 30
0.0
 11
-56.3112726915267
 21
19.04149999999995
 31
0.0
  0
LINE
  5
105
330
FF
100
AcDbEntity
  8
치수문자_일반주서
 62
     0
370
    -2
100
AcDbLine
 10
-56.31127269152665
 20
4.999999999999954
 30
0.0
 11
-56.31127269152662
 21
-5.000000000000043
 31
0.0
  0
LINE
  5
106
330
FF
100
AcDbEntity
  8
치수문자_일반주서
 62
     0
370
    -2
100
AcDbLine
 10
-56.31127269152667
 20
8.301999999999953
 30
0.0
 11
-56.31127269152668
 21
11.60399999999995
 31
0.0
  0
LINE
  5
107
330
FF
100
AcDbEntity
  8
치수문자_일반주서
 62
     0
370
    -2
100
AcDbLine
 10
-56.3112726915266
 20
-8.302000000000042
 30
0.0
 11
-56.31127269152659
 21
-11.60400000000004
 31
0.0
  0
SOLID
  5
108
330
FF
100
AcDbEntity
  8
치수문자_일반주서
 62
     0
100
AcDbTrace
 10
-56.86160602486
 20
8.301999999999952
 30
0.0
 11
-55.76093935819333
 21
8.301999999999955
 31
0.0
 12
-56.31127269152665
 22
4.999999999999954
 32
0.0
 13
-56.31127269152665
 23
4.999999999999954
 33
0.0
  0
SOLID
  5
109
330
FF
100
AcDbEntity
  8
치수문자_일반주서
 62
     0
100
AcDbTrace
 10
-55.76093935819327
 20
-8.30200000000004
 30
0.0
 11
-56.86160602485994
 21
-8.302000000000044
 31
0.0
 12
-56.31127269152662
 22
-5.000000000000043
 32
0.0
 13
-56.31127269152662
 23
-5.000000000000043
 33
0.0
  0
MTEXT
  5
10A
330
FF
100
AcDbEntity
  8
치수문자_일반주서
 62
     0
100
AcDbMText
 10
-60.68627269152669
 20
15.32274999999994
 30
0.0
 40
3.5
 41
0.0
 71
     2
 72
     1
  1
\A1;%%c10
  7
SLDTEXTSTYLE0
 11
-3.552713678800503E-15
 21
1.0
 31
0.0
 73
     1
 44
1.0
  0
POINT
  5
13D
330
FF
100
AcDbEntity
  8
Defpoints
 62
     0
100
AcDbPoint
 10
-44.00000000000003
 20
4.999999999999999
 30
0.0
  0
POINT
  5
13E
330
FF
100
AcDbEntity
  8
Defpoints
 62
     0
100
AcDbPoint
 10
-44.00000000000003
 20
-4.999999999999996
 30
0.0
  0
POINT
  5
13F
330
FF
100
AcDbEntity
  8
Defpoints
 62
     0
100
AcDbPoint
 10
-56.31127269152662
 20
-5.000000000000042
 30
0.0
  0
ENDBLK
  5
101
330
FF
100
AcDbEntity
  8
0
100
AcDbBlockEnd
  0
BLOCK
  5
10C
330
10B
100
AcDbEntity
  8
0
100
AcDbBlockBegin
  2
SW_DOWELSYMBOL_0
 70
     0
 10
0.0
 20
0.0
 30
0.0
  3
SW_DOWELSYMBOL_0
  1

  0
CIRCLE
  5
10E
330
10B
100
AcDbEntity
  8
외형선
 62
     0
100
AcDbCircle
 10
0.0
 20
0.0
 30
0.0
 40
3.000000000000004
  0
HATCH
  5
10F
330
10B
100
AcDbEntity
  8
0
  6
Continuous
 62
     0
370
    30
100
AcDbHatch
 10
0.0
 20
0.0
 30
0.0
210
0.0
220
0.0
230
1.0
  2
SOLID
 70
     1
 71
     0
 91
        1
 92
        0
 93
        3
 72
     2
 10
0.0000000000000104
 20
0.0
 40
3.000000000000004
 50
0.0
 51
90.0
 73
     1
 72
     1
 10
0.0000000000000104
 20
3.000000000000004
 11
0.0000000000000104
 21
0.0
 72
     1
 10
0.0000000000000104
 20
0.0
 11
3.000000000000015
 21
0.0
 97
        0
 75
     0
 76
     1
 98
        1
 10
0.0
 20
0.0
  0
HATCH
  5
110
330
10B
100
AcDbEntity
  8
0
  6
Continuous
 62
     0
370
    30
100
AcDbHatch
 10
0.0
 20
0.0
 30
0.0
210
0.0
220
0.0
230
1.0
  2
SOLID
 70
     1
 71
     0
 91
        1
 92
        0
 93
        3
 72
     2
 10
0.0000000000000104
 20
0.0
 40
3.000000000000004
 50
180.0
 51
270.0000000000008
 73
     1
 72
     1
 10
0.0000000000000104
 20
-3.000000000000004
 11
0.0000000000000104
 21
0.0
 72
     1
 10
0.0000000000000104
 20
0.0
 11
-2.999999999999994
 21
0.0
 97
        0
 75
     0
 76
     1
 98
        1
 10
0.0
 20
0.0
  0
ENDBLK
  5
10D
330
10B
100
AcDbEntity
  8
0
100
AcDbBlockEnd
  0
ENDSEC
  0
SECTION
  2
ENTITIES
  0
LINE
  5
95
330
1F
100
AcDbEntity
  8
0
  6
Continuous
 62
     1
370
    15
100
AcDbLine
 10
40.70595168754349
 20
1.951208025391222
 30
0.0
 11
40.65970290866908
 21
1.974996818382262
 31
0.0
  0
SPLINE
  5
96
330
1F
100
AcDbEntity
  8
0
  6
Continuous
 62
     1
370
    15
100
AcDbSpline
210
0.0
220
0.0
230
1.0
 70
     8
 71
     3
 72
     9
 73
     5
 74
     0
 42
0.000000001
 43
0.00000001
 40
0.0
 40
0.0
 40
0.0
 40
0.0
 40
0.4520278889751052
 40
1.0
 40
1.0
 40
1.0
 40
1.0
 10
42.04517766641867
 20
1.281399983824439
 30
0.0
 10
41.84339208739837
 20
1.377408826642883
 30
0.0
 10
41.39699135872252
 20
1.589804665837955
 30
0.0
 10
40.95057525971315
 20
1.823273574598841
 30
0.0
 10
40.70595168754349
 20
1.951208025391222
 30
0.0
  0
SPLINE
  5
97
330
1F
100
AcDbEntity
  8
0
  6
Continuous
 62
     1
370
    15
100
AcDbSpline
210
0.0
220
0.0
230
1.0
 70
     8
 71
     3
 72
     9
 73
     5
 74
     0
 42
0.000000001
 43
0.00000001
 40
0.0
 40
0.0
 40
0.0
 40
0.0
 40
0.437038838375672
 40
0.9999999999999999
 40
0.9999999999999999
 40
0.9999999999999999
 40
0.9999999999999999
 10
14.83837476819198
 20
1.281312343102647
 30
0.0
 10
14.63648785229429
 20
1.377416442227487
 30
0.0
 10
14.17454511821593
 20
1.597314745733022
 30
0.0
 10
13.712644071283
 20
1.838994074242469
 30
0.0
 10
13.45261172134615
 20
1.975050149760735
 30
0.0
  0
LINE
  5
98
330
1F
100
AcDbEntity
  8
0
  6
Continuous
 62
     1
370
    15
100
AcDbLine
 10
28.14950014480385
 20
-4.999999999999998
 30
0.0
 11
30.57174995838447
 21
-4.999999999999998
 31
0.0
  0
LINE
  5
99
330
1F
100
AcDbEntity
  8
0
  6
Continuous
 62
     1
370
    15
100
AcDbLine
 10
30.57174995838445
 20
5.000000000000009
 30
0.0
 11
28.14950014480383
 21
5.000000000000009
 31
0.0
  0
LINE
  5
9A
330
1F
100
AcDbEntity
  8
0
  6
Continuous
 62
     1
370
    15
100
AcDbLine
 10
12.42968675816499
 20
1.212384143795575
 30
0.0
 11
12.0208913666491
 21
1.437436431838275
 31
0.0
  0
SPLINE
  5
9B
330
1F
100
AcDbEntity
  8
0
  6
Continuous
 62
     1
370
    15
100
AcDbSpline
210
0.0
220
0.0
230
1.0
 70
     8
 71
     3
 72
     9
 73
     5
 74
     0
 42
0.000000001
 43
0.00000001
 40
0.0
 40
0.0
 40
0.0
 40
0.0
 40
0.4585045890871988
 40
1.0
 40
1.0
 40
1.0
 40
1.0
 10
9.999999999999963
 20
-3.909103640661252
 30
0.0
 10
10.4868585070745
 20
-3.90627740864282
 30
0.0
 10
11.54869849442072
 20
-3.900113387418826
 30
0.0
 10
12.61100624252527
 20
-3.947521004244551
 30
0.0
 10
13.18624101310099
 20
-3.973192011197992
 30
0.0
  0
SPLINE
  5
9C
330
1F
100
AcDbEntity
  8
0
  6
Continuous
 62
     1
370
    15
100
AcDbSpline
210
0.0
220
0.0
230
1.0
 70
     8
 71
     3
 72
    15
 73
    11
 74
     0
 42
0.000000001
 43
0.00000001
 40
0.0
 40
0.0
 40
0.0
 40
0.0
 40
0.1925861607084116
 40
0.3282323213565482
 40
0.4114791339657953
 40
0.4847932133302358
 40
0.5608084436421604
 40
0.7047016593658715
 40
0.8497900764607048
 40
1.0
 40
1.0
 40
1.0
 40
1.0
 10
40.39338163509262
 20
3.97320001002752
 30
0.0
 10
40.12762379444437
 20
3.960225579275721
 30
0.0
 10
39.67468204289897
 20
3.938112736336866
 30
0.0
 10
39.10848313416324
 20
3.920855348529023
 30
0.0
 10
38.71053011943786
 20
3.912274726232935
 30
0.0
 10
38.3933169289683
 20
3.90758905747913
 30
0.0
 10
37.99076570469738
 20
3.904182966565774
 30
0.0
 10
37.49031084841521
 20
3.905040886027289
 30
0.0
 10
36.88813261515472
 20
3.912454418326268
 30
0.0
 10
36.48211072527907
 20
3.925779490565081
 30
0.0
 10
36.27557886024204
 20
3.932557578372311
 30
0.0
  0
SPLINE
  5
9D
330
1F
100
AcDbEntity
  8
0
  6
Continuous
 62
     1
370
    15
100
AcDbSpline
210
0.0
220
0.0
230
1.0
 70
     8
 71
     3
 72
    11
 73
     7
 74
     0
 42
0.000000001
 43
0.00000001
 40
0.0
 40
0.0
 40
0.0
 40
0.0
 40
0.2150705753757638
 40
0.4829309984333097
 40
0.6806463034126293
 40
0.9999999999999999
 40
0.9999999999999999
 40
0.9999999999999999
 40
0.9999999999999999
 10
32.87367438790818
 20
-4.160688711761171
 30
0.0
 10
33.41349148913188
 20
-4.111171598030039
 30
0.0
 10
34.6256257441775
 20
-3.999983216579293
 30
0.0
 10
36.32888603704681
 20
-3.919841716589078
 30
0.0
 10
38.2963862379553
 20
-3.889913745528593
 30
0.0
 10
39.59272996306069
 20
-3.94140056639526
 30
0.0
 10
40.39338163509262
 20
-3.973200010027506
 30
0.0
  0
SPLINE
  5
9E
330
1F
100
AcDbEntity
  8
0
  6
Continuous
 62
     1
370
    15
100
AcDbSpline
210
0.0
220
0.0
230
1.0
 70
     8
 71
     3
 72
     9
 73
     5
 74
     0
 42
0.000000001
 43
0.00000001
 40
0.0
 40
0.0
 40
0.0
 40
0.0
 40
0.3655665888286984
 40
1.0
 40
1.0
 40
1.0
 40
1.0
 10
13.18624101310099
 20
3.973192011198003
 30
0.0
 10
12.79980947180963
 20
3.954768981996594
 30
0.0
 10
11.74273381692139
 20
3.904373158733759
 30
0.0
 10
10.67647207446685
 20
3.907267422822568
 30
0.0
 10
9.999999999999963
 20
3.909103640661262
 30
0.0
  0
SPLINE
  5
9F
330
1F
100
AcDbEntity
  8
0
  6
Continuous
 62
     1
370
    15
100
AcDbSpline
210
0.0
220
0.0
230
1.0
 70
     8
 71
     3
 72
    17
 73
    13
 74
     0
 42
0.000000001
 43
0.00000001
 40
0.0
 40
0.0
 40
0.0
 40
0.0
 40
0.1461103888931814
 40
0.2482957657811851
 40
0.3119823272820963
 40
0.3713045898452189
 40
0.4327959361743425
 40
0.4989803859036737
 40
0.5726561208470006
 40
0.6516413548704384
 40
0.9018706067445736
 40
0.9999999999999999
 40
0.9999999999999999
 40
0.9999999999999999
 40
0.9999999999999999
 10
44.40760410379226
 20
-3.760678133643058
 30
0.0
 10
44.58958349649863
 20
-3.732744049427778
 30
0.0
 10
44.89883400914672
 20
-3.685273675252676
 30
0.0
 10
45.28647808346602
 20
-3.631135186232154
 30
0.0
 10
45.56647801947796
 20
-3.594039177541357
 30
0.0
 10
45.79594416754241
 20
-3.565095108375499
 30
0.0
 10
46.02845254605138
 20
-3.537139358803429
 30
0.0
 10
46.27887464807734
 20
-3.508622510396465
 30
0.0
 10
46.55120020245239
 20
-3.479429769018335
 30
0.0
 10
47.05252885162742
 20
-3.429869371207583
 30
0.0
 10
47.58369254731727
 20
-3.3827171067402
 30
0.0
 10
48.01710935310469
 20
-3.35976052975392
 30
0.0
 10
48.1391988398255
 20
-3.353293875337902
 30
0.0
  0
SPLINE
  5
A0
330
1F
100
AcDbEntity
  8
0
  6
Continuous
 62
     1
370
    15
100
AcDbSpline
210
0.0
220
0.0
230
1.0
 70
     8
 71
     3
 72
    24
 73
    20
 74
     0
 42
0.000000001
 43
0.00000001
 40
0.0
 40
0.0
 40
0.0
 40
0.0
 40
0.0734595051915328
 40
0.1195373247864528
 40
0.1497341547601881
 40
0.1801663077457116
 40
0.2773080862137154
 40
0.3405973037411927
 40
0.4175021754687951
 40
0.4956196763220941
 40
0.5919189841534878
 40
0.6876878811316894
 40
0.7696045054638331
 40
0.7993385528701584
 40
0.8280763636516414
 40
0.8563817634499838
 40
0.8849837089869437
 40
0.9303111068443837
 40
1.0
 40
1.0
 40
1.0
 40
1.0
 10
25.93474465611094
 20
3.41976212754575
 30
0.0
 10
25.72068608314029
 20
3.402368939619425
 30
0.0
 10
25.37235826506145
 20
3.374065792888447
 30
0.0
 10
24.93669515262374
 20
3.347359700729561
 30
0.0
 10
24.62600634196793
 20
3.330958838342332
 30
0.0
 10
24.16669107088654
 20
3.310292377189837
 30
0.0
 10
23.61125509397754
 20
3.294174606287155
 30
0.0
 10
22.92045026293189
 20
3.28852584518221
 30
0.0
 10
22.28449145469237
 20
3.294693436987234
 30
0.0
 10
21.55332854042672
 20
3.316519987254352
 30
0.0
 10
20.76639509144795
 20
3.357185303402209
 30
0.0
 10
19.96900407364997
 20
3.417744218120832
 30
0.0
 10
19.36518369833501
 20
3.476549776768298
 30
0.0
 10
18.95641135591842
 20
3.521550980854506
 30
0.0
 10
18.70375763953859
 20
3.551078213302947
 30
0.0
 10
18.45442419131193
 20
3.581847353024794
 30
0.0
 10
18.15678963467323
 20
3.620596517038934
 30
0.0
 10
17.73922601427398
 20
3.678212822809105
 30
0.0
 10
17.40396021444468
 20
3.729543845388609
 30
0.0
 10
17.20082114347269
 20
3.760645545126998
 30
0.0
  0
SPLINE
  5
A1
330
1F
100
AcDbEntity
  8
0
  6
Continuous
 62
     1
370
    15
100
AcDbSpline
210
0.0
220
0.0
230
1.0
 70
     8
 71
     3
 72
    15
 73
    11
 74
     0
 42
0.000000001
 43
0.00000001
 40
0.0
 40
0.0
 40
0.0
 40
0.0
 40
0.1428326260532684
 40
0.2439434716676873
 40
0.3071655663518325
 40
0.3634283512482591
 40
0.4202182791285232
 40
0.6584518859894818
 40
0.9122430513020025
 40
1.0
 40
1.0
 40
1.0
 40
1.0
 10
17.20082114347268
 20
-3.76064554512699
 30
0.0
 10
17.37897351474624
 20
-3.73328642435789
 30
0.0
 10
17.68323948769062
 20
-3.686559852939251
 30
0.0
 10
18.06547429786946
 20
-3.633064349259555
 30
0.0
 10
18.34013067485341
 20
-3.596557073314962
 30
0.0
 10
18.55971534650249
 20
-3.568741169910936
 30
0.0
 10
18.99730038584608
 20
-3.515652318490534
 30
0.0
 10
19.68113704943539
 20
-3.443940475532143
 30
0.0
 10
20.40298394914744
 20
-3.380349802771022
 30
0.0
 10
20.82850778532467
 20
-3.35875935922784
 30
0.0
 10
20.93784135189804
 20
-3.353211937448408
 30
0.0
  0
SPLINE
  5
A2
330
1F
100
AcDbEntity
  8
0
  6
Continuous
 62
     1
370
    15
100
AcDbSpline
210
0.0
220
0.0
230
1.0
 70
     8
 71
     3
 72
    26
 73
    22
 74
     0
 42
0.000000001
 43
0.00000001
 40
0.0
 40
0.0
 40
0.0
 40
0.0
 40
0.0624194349180426
 40
0.1073150429336436
 40
0.1367089783988714
 40
0.1673636649045825
 40
0.2022912485098358
 40
0.2377324608699514
 40
0.2726204278087827
 40
0.3073740084823193
 40
0.3802704106541033
 40
0.4533655260776935
 40
0.5146690597264291
 40
0.5844701174236581
 40
0.6531336567309077
 40
0.726811658018721
 40
0.7670697462169616
 40
0.8072797549879744
 40
0.8489528001580674
 40
0.9119985981253502
 40
1.0
 40
1.0
 40
1.0
 40
1.0
 10
53.14153608047259
 20
3.419744947146638
 30
0.0
 10
52.95965979143613
 20
3.404832962058271
 30
0.0
 10
52.64696773018654
 20
3.379195429099425
 30
0.0
 10
52.24915646130085
 20
3.353629558246772
 30
0.0
 10
51.94364849670366
 20
3.336543348389276
 30
0.0
 10
51.66705116134665
 20
3.323205163953
 30
0.0
 10
51.37294588918775
 20
3.311428396025535
 30
0.0
 10
51.06672697824013
 20
3.301878686633033
 30
0.0
 10
50.76088825629424
 20
3.295125624299404
 30
0.0
 10
50.3458925807119
 20
3.289699385191703
 30
0.0
 10
49.8195710524813
 20
3.290075440122453
 30
0.0
 10
49.21603486381456
 20
3.301839640898347
 30
0.0
 10
48.62183640054322
 20
3.323717944998044
 30
0.0
 10
48.04015529585924
 20
3.354645063384074
 30
0.0
 10
47.42249327558559
 20
3.398168680807614
 30
0.0
 10
46.89119321626687
 20
3.445145132341007
 30
0.0
 10
46.44234105617302
 20
3.490673490802571
 30
0.0
 10
46.08664636649831
 20
3.530055679110339
 30
0.0
 10
45.66471002351056
 20
3.580812155625817
 30
0.0
 10
45.1045146522312
 20
3.6546297778215
 30
0.0
 10
44.66415906710709
 20
3.721638357163373
 30
0.0
 10
44.40760410379226
 20
3.760678133643072
 30
0.0
  0
LINE
  5
A3
330
1F
100
AcDbEntity
  8
0
  6
Continuous
 62
   131
370
    15
100
AcDbLine
 10
8.4799413124156
 20
5.000000000000005
 30
0.0
 11
-44.00000000000003
 21
5.000000000000002
 31
0.0
  0
LINE
  5
A4
330
1F
100
AcDbEntity
  8
0
  6
Continuous
 62
   131
370
    15
100
AcDbLine
 10
-44.00000000000003
 20
-4.999999999999998
 30
0.0
 11
8.479941312415603
 21
-4.999999999999995
 31
0.0
  0
LINE
  5
A5
330
1F
100
AcDbEntity
  8
0
  6
Continuous
 62
   131
370
    15
100
AcDbLine
 10
-44.00000000000003
 20
4.999999999999999
 30
0.0
 11
-45.00000000000003
 21
3.999999999999998
 31
0.0
  0
LINE
  5
A6
330
1F
100
AcDbEntity
  8
0
  6
Continuous
 62
   131
370
    15
100
AcDbLine
 10
-45.00000000000003
 20
-3.999999999999996
 30
0.0
 11
-44.00000000000003
 21
-4.999999999999996
 31
0.0
  0
SPLINE
  5
A7
330
1F
100
AcDbEntity
  8
0
  6
Continuous
 62
   131
370
    15
100
AcDbSpline
210
0.0
220
0.0
230
1.0
 70
     8
 71
     3
 72
     9
 73
     5
 74
     0
 42
0.000000001
 43
0.00000001
 40
0.0
 40
0.0
 40
0.0
 40
0.0
 40
0.7371660897144059
 40
1.0
 40
1.0
 40
1.0
 40
1.0
 10
9.999999999999973
 20
3.909103640661261
 30
0.0
 10
9.776871025665756
 20
3.912396082197996
 30
0.0
 10
9.474186220372196
 20
3.916862431888619
 30
0.0
 10
9.171494767441846
 20
3.928614172656561
 30
0.0
 10
9.091937189258136
 20
3.931702928635262
 30
0.0
  0
SPLINE
  5
A8
330
1F
100
AcDbEntity
  8
0
  6
Continuous
 62
   131
370
    15
100
AcDbSpline
210
0.0
220
0.0
230
1.0
 70
     8
 71
     3
 72
     9
 73
     5
 74
     0
 42
0.000000001
 43
0.00000001
 40
0.0
 40
0.0
 40
0.0
 40
0.0
 40
0.4393308727646856
 40
0.9999999999999999
 40
0.9999999999999999
 40
0.9999999999999999
 40
0.9999999999999999
 10
8.470806909658949
 20
-3.954508061020391
 30
0.0
 10
8.693107603477511
 20
-3.945089647241255
 30
0.0
 10
9.199105946866478
 20
-3.923651559542418
 30
0.0
 10
9.712279456329217
 20
-3.914329968804644
 30
0.0
 10
9.999999999999973
 20
-3.909103640661252
 30
0.0
  0
SPLINE
  5
A9
330
1F
100
AcDbEntity
  8
0
  6
Continuous
 62
     1
370
    15
100
AcDbSpline
210
0.0
220
0.0
230
1.0
 70
     8
 71
     3
 72
    20
 73
    16
 74
     0
 42
0.000000001
 43
0.00000001
 40
0.0
 40
0.0
 40
0.0
 40
0.0
 40
0.0793484299460882
 40
0.1586968431909465
 40
0.238045239820005
 40
0.3173936199187209
 40
0.3967419835725751
 40
0.4760903308670777
 40
0.5554386618877636
 40
0.6347869767201958
 40
0.714135275449962
 40
0.793483558162676
 40
0.8728318249439783
 40
0.9521800758795346
 40
1.0
 40
1.0
 40
1.0
 40
1.0
 10
54.99999999999998
 20
-4.744704346159491
 30
0.0
 10
54.35388541041362
 20
-4.604065280750818
 30
0.0
 10
53.06165636723489
 20
-4.322787179535135
 30
0.0
 10
51.12331310907367
 20
-3.6218023214298
 30
0.0
 10
49.18497033191151
 20
-2.757135076098335
 30
0.0
 10
47.2466280406932
 20
-1.750371441147083
 30
0.0
 10
45.30828623092206
 20
-0.657513340639513
 30
0.0
 10
43.36994490062345
 20
0.4684871837738133
 30
0.0
 10
41.43160404717161
 20
1.570973115209507
 30
0.0
 10
39.49326366801788
 20
2.595322402067044
 30
0.0
 10
37.55492376095182
 20
3.489414988864059
 30
0.0
 10
35.61658432232792
 20
4.212350625026065
 30
0.0
 10
33.67824535389817
 20
4.714275986617719
 30
0.0
 10
31.9966339397856
 20
4.980901682300823
 30
0.0
 10
30.96113554627147
 20
4.973012584989307
 30
0.0
 10
30.57174995838445
 20
4.970045993429355
 30
0.0
  0
SPLINE
  5
AA
330
1F
100
AcDbEntity
  8
0
  6
Continuous
 62
     1
370
    15
100
AcDbSpline
210
0.0
220
0.0
230
1.0
 70
     8
 71
     3
 72
    14
 73
    10
 74
     0
 42
0.000000001
 43
0.00000001
 40
0.0
 40
0.0
 40
0.0
 40
0.0
 40
0.1493723501230754
 40
0.298744667402456
 40
0.448116952006106
 40
0.5974892041020432
 40
0.7468614238583368
 40
0.8962336114431104
 40
1.0
 40
1.0
 40
1.0
 40
1.0
 10
54.99999999999998
 20
-3.94486132184107
 30
0.0
 10
54.35388541170052
 20
-3.807794093408157
 30
0.0
 10
53.06165637716798
 20
-3.5336596666804
 30
0.0
 10
51.12331311788981
 20
-2.893407854363517
 30
0.0
 10
49.18497034108754
 20
-2.123105980049798
 30
0.0
 10
47.24662804926831
 20
-1.242502385017887
 30
0.0
 10
45.30828624126258
 20
-0.3031814881359214
 30
0.0
 10
43.56721398719401
 20
0.5619195053397181
 30
0.0
 10
42.47225569566726
 20
1.075177221945588
 30
0.0
 10
42.02341115658538
 20
1.285571467117219
 30
0.0
  0
LINE
  5
AB
330
1F
100
AcDbEntity
  8
0
  6
Continuous
 62
     1
370
    15
100
AcDbLine
 10
54.99999999999998
 20
-4.744704346159495
 30
0.0
 11
54.99999999999998
 21
-3.94486132184107
 31
0.0
  0
SPLINE
  5
AC
330
1F
100
AcDbEntity
  8
0
  6
Continuous
 62
     1
370
    15
100
AcDbSpline
210
0.0
220
0.0
230
1.0
 70
     8
 71
     3
 72
    22
 73
    18
 74
     0
 42
0.000000001
 43
0.00000001
 40
0.0
 40
0.0
 40
0.0
 40
0.0
 40
0.0247778146493774
 40
0.0985657463269856
 40
0.1723536632692395
 40
0.246141565555825
 40
0.3199294532664525
 40
0.3937173264808561
 40
0.4675051852787924
 40
0.541293029740042
 40
0.615080859944408
 40
0.6792635390746755
 40
0.7434198727598185
 40
0.807560738402834
 40
0.8716970783872773
 40
0.9358398541358149
 40
1.0
 40
1.0
 40
1.0
 40
1.0
 10
36.26747391895911
 20
-3.935545707058168
 30
0.0
 10
36.05051068034376
 20
-4.018032437675726
 30
0.0
 10
35.18743442272151
 20
-4.346163319290705
 30
0.0
 10
33.6782453579214
 20
-4.712677431641894
 30
0.0
 10
31.73990683419654
 20
-4.998409449589071
 30
0.0
 10
29.80156883743705
 20
-5.021370224342372
 30
0.0
 10
27.86323107606968
 20
-4.797431762810048
 30
0.0
 10
25.92489460200951
 20
-4.33321004627567
 30
0.0
 10
23.98655548410659
 20
-3.653067438702025
 30
0.0
 10
22.04822837997311
 20
-2.790671677847115
 30
0.0
 10
20.19396597378077
 20
-1.832354804355729
 30
0.0
 10
18.42417944512254
 20
-0.8420559688824493
 30
0.0
 10
16.73901766653817
 20
0.1330215378489661
 30
0.0
 10
15.05433850102044
 20
1.1036290252185
 30
0.0
 10
13.36980039713672
 20
2.029953062373257
 30
0.0
 10
11.68506989389531
 20
2.889466564101583
 30
0.0
 10
10.56174065809392
 20
3.365403581687446
 30
0.0
 10
9.999999999996746
 20
3.603404307521628
 30
0.0
  0
SPLINE
  5
AD
330
1F
100
AcDbEntity
  8
0
  6
Continuous
 62
     1
370
    15
100
AcDbSpline
210
0.0
220
0.0
230
1.0
 70
     8
 71
     3
 72
    17
 73
    13
 74
     0
 42
0.000000001
 43
0.00000001
 40
0.0
 40
0.0
 40
0.0
 40
0.0
 40
0.0631123990692429
 40
0.1704101782489978
 40
0.2777079352865899
 40
0.3850056703031194
 40
0.4923033834197204
 40
0.5996010747575654
 40
0.7068987444378612
 40
0.8141963925818495
 40
0.9214940193108085
 40
1.0
 40
1.0
 40
1.0
 40
1.0
 10
32.88003440861149
 20
-4.134705478261265
 30
0.0
 10
32.49999184705032
 20
-4.175812798966499
 30
0.0
 10
31.47383658100204
 20
-4.28680692931214
 30
0.0
 10
29.80156881034421
 20
-4.23213151652397
 30
0.0
 10
27.86323122254237
 20
-3.992342826583299
 30
0.0
 10
25.92489409423938
 20
-3.544103033505456
 30
0.0
 10
23.9865574194621
 20
-2.921515202135377
 30
0.0
 10
22.04822119679174
 20
-2.152667733086051
 30
0.0
 10
20.10988542280355
 20
-1.276052381772625
 30
0.0
 10
18.17155009753761
 20
-0.337820673329621
 30
0.0
 10
16.40658906784741
 20
0.5389208649732903
 30
0.0
 10
15.28773983849209
 20
1.064589331142247
 30
0.0
 10
14.8150022139948
 20
1.286695451832913
 30
0.0
  0
SPLINE
  5
AE
330
1F
100
AcDbEntity
  8
0
  6
Continuous
 62
     1
370
    15
100
AcDbSpline
210
0.0
220
0.0
230
1.0
 70
     8
 71
     3
 72
    20
 73
    16
 74
     0
 42
0.000000001
 43
0.00000001
 40
0.0
 40
0.0
 40
0.0
 40
0.0
 40
0.086530498544126
 40
0.1737788425274926
 40
0.2530460367349934
 40
0.3328622962417411
 40
0.4120643700974729
 40
0.4918170389911543
 40
0.5710188076347796
 40
0.6507681863406239
 40
0.7299701997574399
 40
0.8097226366599795
 40
0.8889243901455876
 40
0.9686737136547968
 40
1.0
 40
1.0
 40
1.0
 40
1.0
 10
9.999999999999979
 20
2.505917393907267
 30
0.0
 10
10.52350919978863
 20
2.236404968253022
 30
0.0
 10
11.5748705616485
 20
1.695144277918647
 30
0.0
 10
13.1057162971886
 20
0.830678199520067
 30
0.0
 10
14.59559976405771
 20
-0.0295256594228354
 30
0.0
 10
16.0376711901786
 20
-0.8608956782376312
 30
0.0
 10
17.48225604285608
 20
-1.67035235732987
 30
0.0
 10
18.92276197074345
 20
-2.43232804448486
 30
0.0
 10
20.36660639537505
 20
-3.128325635972744
 30
0.0
 10
21.80793325678404
 20
-3.735456605868598
 30
0.0
 10
23.25200517302601
 20
-4.240644919641447
 30
0.0
 10
24.69251433834947
 20
-4.629931292626636
 30
0.0
 10
26.13638635532454
 20
-4.882875566719543
 30
0.0
 10
27.28806332425354
 20
-5.002316172434875
 30
0.0
 10
27.95999693431967
 20
-4.98767139308336
 30
0.0
 10
28.14950014480384
 20
-4.983541174468948
 30
0.0
  0
SPLINE
  5
AF
330
1F
100
AcDbEntity
  8
0
  6
Continuous
 62
     1
370
    15
100
AcDbSpline
210
0.0
220
0.0
230
1.0
 70
     8
 71
     3
 72
    13
 73
     9
 74
     0
 42
0.000000001
 43
0.00000001
 40
0.0
 40
0.0
 40
0.0
 40
0.0
 40
0.1569765933232593
 40
0.3677896787455641
 40
0.5246117071695549
 40
0.6814334589162765
 40
0.8407170013418808
 40
1.0
 40
1.0
 40
1.0
 40
1.0
 10
48.13457553410318
 20
3.351396244466573
 30
0.0
 10
48.49385793794283
 20
3.503517160333835
 30
0.0
 10
49.33564178029569
 20
3.859930187224327
 30
0.0
 10
50.53656413387191
 20
4.25908031397473
 30
0.0
 10
51.73684696523732
 20
4.581611586004747
 30
0.0
 10
52.81873986859068
 20
4.798420768067057
 30
0.0
 10
53.90691846873089
 20
4.946702705123031
 30
0.0
 10
54.63563990419976
 20
4.979416971086701
 30
0.0
 10
54.99999999999998
 20
5.000000000000169
 30
0.0
  0
LINE
  5
B0
330
1F
100
AcDbEntity
  8
0
  6
Continuous
 62
   131
370
    15
100
AcDbLine
 10
9.999999999999979
 20
2.505917393907266
 30
0.0
 11
9.999999999999979
 21
3.603404307512991
 31
0.0
  0
SPLINE
  5
B1
330
1F
100
AcDbEntity
  8
0
  6
Continuous
 62
     1
370
    15
100
AcDbSpline
210
0.0
220
0.0
230
1.0
 70
     8
 71
     3
 72
    32
 73
    28
 74
     0
 42
0.000000001
 43
0.00000001
 40
0.0
 40
0.0
 40
0.0
 40
0.0
 40
0.0257226060586735
 40
0.067919381927435
 40
0.1104094091348684
 40
0.1526060465190329
 40
0.1950944149913547
 40
0.2372911658714286
 40
0.2797810745419083
 40
0.3219777038415696
 40
0.3644660697500227
 40
0.4066628015967028
 40
0.4491525957350399
 40
0.4913492174074274
 40
0.5338376075990292
 40
0.5760343252217823
 40
0.6185240078831623
 40
0.6607206229545908
 40
0.7032090642902028
 40
0.7454057714616662
 40
0.7878953448579131
 40
0.8300919550278014
 40
0.8725804743925415
 40
0.9041264712424776
 40
0.9357942043578036
 40
0.9678331766178954
 40
1.0
 40
1.0
 40
1.0
 40
1.0
 10
20.93469417192503
 20
3.351891821479138
 30
0.0
 10
21.22685479908623
 20
3.477719506640539
 30
0.0
 10
21.99829176682803
 20
3.809961837997963
 30
0.0
 10
23.25201184265011
 20
4.238462212647184
 30
0.0
 10
24.69250802167355
 20
4.629166047243431
 30
0.0
 10
26.13640488341941
 20
4.88807651778655
 30
0.0
 10
27.57776857216101
 20
5.012218828048925
 30
0.0
 10
29.02174883555313
 20
4.997746617663917
 30
0.0
 10
30.46225011951889
 20
4.844993253243022
 30
0.0
 10
31.90621376511351
 20
4.557527410878553
 30
0.0
 10
33.34758089332189
 20
4.145409217328082
 30
0.0
 10
34.79148605658872
 20
3.616891991001849
 30
0.0
 10
36.2319857084972
 20
2.98924823109929
 30
0.0
 10
37.67603637148276
 20
2.277664582888436
 30
0.0
 10
39.1173715546959
 20
1.505715627042681
 30
0.0
 10
40.56122016381124
 20
0.6890407149473425
 30
0.0
 10
42.00171824656486
 20
-0.1450138931856773
 30
0.0
 10
43.44587391187194
 20
-0.976254713903631
 30
0.0
 10
44.88714403825433
 20
-1.777982294950103
 30
0.0
 10
46.33094771835071
 20
-2.533526040278558
 30
0.0
 10
47.77146962212541
 20
-3.21722058137234
 30
0.0
 10
49.21565412054449
 20
-3.812705571822841
 30
0.0
 10
50.53617421956496
 20
-4.260039489523575
 30
0.0
 10
51.73533531359375
 20
-4.581768545762058
 30
0.0
 10
52.8176757524209
 20
-4.7980540567418
 30
0.0
 10
53.90559701115477
 20
-4.946814625509615
 30
0.0
 10
54.63471504658212
 20
-4.979432608856764
 30
0.0
 10
54.99999999999971
 20
-4.999999999999825
 30
0.0
  0
LINE
  5
B2
330
1F
100
AcDbEntity
  8
0
  6
Continuous
 62
     1
370
    15
100
AcDbLine
 10
54.99999999999971
 20
-4.999999999999825
 30
0.0
 11
54.99999999999941
 21
-4.7447043461595
 31
0.0
  0
SPLINE
  5
B3
330
1F
100
AcDbEntity
  8
0
  6
Continuous
 62
     1
370
    15
100
AcDbSpline
210
0.0
220
0.0
230
1.0
 70
     8
 71
     3
 72
    16
 73
    12
 74
     0
 42
0.000000001
 43
0.00000001
 40
0.0
 40
0.0
 40
0.0
 40
0.0
 40
0.0685835507019972
 40
0.1850837039413715
 40
0.3015838314498391
 40
0.4180839333642088
 40
0.5345840098213321
 40
0.6510840609581016
 40
0.7675840869114519
 40
0.8840840878183602
 40
1.0
 40
1.0
 40
1.0
 40
1.0
 10
42.57271586429169
 20
-0.47135844323576
 30
0.0
 10
42.19234973742684
 20
-0.3192690719055211
 30
0.0
 10
41.1658707801055
 20
0.0911684730712149
 30
0.0
 10
39.49327918450226
 20
0.7699592239169297
 30
0.0
 10
37.55494121445252
 20
1.514484445644355
 30
0.0
 10
35.61660371608193
 20
2.184510397958883
 30
0.0
 10
33.67826668442025
 20
2.745057236190299
 30
0.0
 10
31.73993011735445
 20
3.169626602806044
 30
0.0
 10
29.80159401323947
 20
3.43273438586221
 30
0.0
 10
27.86649759804406
 20
3.536833145866334
 30
0.0
 10
26.57751323997713
 20
3.458424090339403
 30
0.0
 10
25.93464074614635
 20
3.419318088198996
 30
0.0
  0
SPLINE
  5
B4
330
1F
100
AcDbEntity
  8
0
  6
Continuous
 62
     1
370
    15
100
AcDbSpline
210
0.0
220
0.0
230
1.0
 70
    24
 71
     3
 72
    10
 73
     6
 74
     0
 42
0.000000001
 43
0.00000001
 40
0.0
 40
0.0
 40
0.0
 40
0.0
 40
0.5
 40
0.5
 40
1.0
 40
1.0
 40
1.0
 40
1.0
 10
54.99999999999998
 20
3.500000000000011
 30
0.0
 10
54.99999999999998
 20
3.71216128403658
 30
0.0
 10
54.99999999999999
 20
3.958712344335597
 30
0.0
 10
54.99999999999996
 20
4.47597580480429
 30
0.0
 10
54.99999999999999
 20
4.745367179007378
 30
0.0
 10
54.99999999999998
 20
5.000000000000169
 30
0.0
  0
LINE
  5
B5
330
1F
100
AcDbEntity
  8
0
  6
Continuous
 62
     1
370
    15
100
AcDbLine
 10
54.99999999999998
 20
3.50000000000001
 30
0.0
 11
53.14073658513804
 21
3.416261547182279
 31
0.0
  0
SPLINE
  5
B6
330
1F
100
AcDbEntity
  8
0
  6
Continuous
 62
     1
370
    15
100
AcDbSpline
210
0.0
220
0.0
230
1.0
 70
     8
 71
     3
 72
    10
 73
     6
 74
     0
 42
0.000000001
 43
0.00000001
 40
0.0
 40
0.0
 40
0.0
 40
0.0
 40
0.1995328801641744
 40
0.599723060651682
 40
1.0
 40
1.0
 40
1.0
 40
1.0
 10
15.3654874399472
 20
-0.4711866195130121
 30
0.0
 10
15.00863290050711
 20
-0.3287876079074413
 30
0.0
 10
13.93605831317912
 20
0.0992118827208735
 30
0.0
 10
12.14757180738475
 20
0.8315459131442227
 30
0.0
 10
10.71590899285795
 20
1.362605377922917
 30
0.0
 10
9.999999999999979
 20
1.628163889829276
 30
0.0
  0
SPLINE
  5
B7
330
1F
100
AcDbEntity
  8
0
  6
Continuous
 62
   131
370
    15
100
AcDbSpline
210
0.0
220
0.0
230
1.0
 70
    24
 71
     3
 72
    10
 73
     6
 74
     0
 42
0.000000001
 43
0.00000001
 40
0.0
 40
0.0
 40
0.0
 40
0.0
 40
0.5
 40
0.5
 40
1.0
 40
1.0
 40
1.0
 40
1.0
 10
9.999999999999979
 20
2.505917393907265
 30
0.0
 10
9.999999999999979
 20
2.446148275849642
 30
0.0
 10
9.999999999999979
 20
2.334283516785393
 30
0.0
 10
9.999999999999979
 20
2.028289496235101
 30
0.0
 10
9.999999999999979
 20
1.835289845400833
 30
0.0
 10
9.999999999999979
 20
1.628163889829276
 30
0.0
  0
SPLINE
  5
B8
330
1F
100
AcDbEntity
  8
0
  6
Continuous
 62
     1
370
    15
100
AcDbSpline
210
0.0
220
0.0
230
1.0
 70
     8
 71
     3
 72
     8
 73
     4
 74
     0
 42
0.000000001
 43
0.00000001
 40
0.0
 40
0.0
 40
0.0
 40
0.0
 40
1.0
 40
1.0
 40
1.0
 40
1.0
 10
51.90623807966199
 20
1.398590784794608
 30
0.0
 10
51.68214042923189
 20
1.664076176022846
 30
0.0
 10
51.48755699161189
 20
1.917882404497385
 30
0.0
 10
51.33398001936777
 20
2.153947629457782
 30
0.0
  0
LINE
  5
B9
330
1F
100
AcDbEntity
  8
0
  6
Continuous
 62
     1
370
    15
100
AcDbLine
 10
51.33398001936776
 20
2.153947629457786
 30
0.0
 11
54.99999999999998
 21
0.0000000000000105
 31
0.0
  0
LINE
  5
BA
330
1F
100
AcDbEntity
  8
0
  6
Continuous
 62
     1
370
    15
100
AcDbLine
 10
54.99999999999998
 20
0.0000000000000105
 30
0.0
 11
54.99999999999998
 21
-1.336214730148213
 31
0.0
  0
SPLINE
  5
BB
330
1F
100
AcDbEntity
  8
0
  6
Continuous
 62
     1
370
    15
100
AcDbSpline
210
0.0
220
0.0
230
1.0
 70
     8
 71
     3
 72
    12
 73
     8
 74
     0
 42
0.000000001
 43
0.00000001
 40
0.0
 40
0.0
 40
0.0
 40
0.0
 40
0.4999999999999981
 40
0.4999999999999981
 40
0.749999999999999
 40
0.749999999999999
 40
1.0
 40
1.0
 40
1.0
 40
1.0
 10
54.99999999999999
 20
-1.336214730148218
 30
0.0
 10
54.46446038354469
 20
-0.9151902182568172
 30
0.0
 10
53.93786580922737
 20
-0.4769025407148361
 30
0.0
 10
53.16173639957108
 20
0.2070893295748705
 30
0.0
 10
52.90536026588213
 20
0.4395904021070519
 30
0.0
 10
52.39784408881665
 20
0.9146977532766408
 30
0.0
 10
52.14808896088131
 20
1.156071134681421
 30
0.0
 10
51.906238079662
 20
1.398590784794606
 30
0.0
  0
SPLINE
  5
BC
330
1F
100
AcDbEntity
  8
0
  6
Continuous
 62
     1
370
    15
100
AcDbSpline
210
0.0
220
0.0
230
1.0
 70
     8
 71
     3
 72
    14
 73
    10
 74
     0
 42
0.000000001
 43
0.00000001
 40
0.0
 40
0.0
 40
0.0
 40
0.0
 40
0.1180561172344111
 40
0.2363225680682436
 40
0.4046189993274015
 40
0.5729153936174173
 40
0.7412117511305336
 40
0.9095080720590509
 40
1.0
 40
1.0
 40
1.0
 40
1.0
 10
51.90623807807474
 20
1.398590785480174
 30
0.0
 10
51.4531774491895
 20
1.591522168643992
 30
0.0
 10
50.54624900010138
 20
1.977728669402449
 30
0.0
 10
48.992920016298
 20
2.571865118386322
 30
0.0
 10
47.24662930313659
 20
3.147500107976335
 30
0.0
 10
45.30829574206161
 20
3.630550027650953
 30
0.0
 10
43.36995425057653
 20
3.923186409865776
 30
0.0
 10
41.73031722846178
 20
4.035701945154111
 30
0.0
 10
40.73679300176342
 20
3.97091746289985
 30
0.0
 10
40.38938185337189
 20
3.948263912263549
 30
0.0
  0
SPLINE
  5
BD
330
1F
100
AcDbEntity
  8
0
  6
Continuous
 62
     1
370
    15
100
AcDbSpline
210
0.0
220
0.0
230
1.0
 70
     8
 71
     3
 72
    11
 73
     7
 74
     0
 42
0.000000001
 43
0.00000001
 40
0.0
 40
0.0
 40
0.0
 40
0.0
 40
0.1357629646648461
 40
0.4045187541888378
 40
0.7022279460824049
 40
1.0
 40
1.0
 40
1.0
 40
1.0
 10
17.21240342817158
 20
-3.735216292482537
 30
0.0
 10
16.88601788854398
 20
-3.791269318433526
 30
0.0
 10
15.91352091780278
 20
-3.958284677019611
 30
0.0
 10
14.22531721449026
 20
-4.02812337207255
 30
0.0
 10
12.1475753980658
 20
-3.940953693733466
 30
0.0
 10
10.71590884401896
 20
-3.674223350723026
 30
0.0
 10
9.999999999999986
 20
-3.540844100513103
 30
0.0
  0
SPLINE
  5
BE
330
1F
100
AcDbEntity
  8
0
  6
Continuous
 62
     1
370
    15
100
AcDbSpline
210
0.0
220
0.0
230
1.0
 70
    24
 71
     3
 72
    10
 73
     6
 74
     0
 42
0.000000001
 43
0.00000001
 40
0.0
 40
0.0
 40
0.0
 40
0.0
 40
0.5
 40
0.5
 40
1.0
 40
1.0
 40
1.0
 40
1.0
 10
54.99999999999998
 20
-3.944861321841069
 30
0.0
 10
54.99999999999998
 20
-3.642456945019014
 30
0.0
 10
54.99999999999999
 20
-3.260357419532334
 30
0.0
 10
54.99999999999996
 20
-2.372012795753393
 30
0.0
 10
54.99999999999999
 20
-1.866537215256542
 30
0.0
 10
54.99999999999998
 20
-1.336214730148378
 30
0.0
  0
SPLINE
  5
BF
330
1F
100
AcDbEntity
  8
0
  6
Continuous
 62
   131
370
    15
100
AcDbSpline
210
0.0
220
0.0
230
1.0
 70
    24
 71
     3
 72
    10
 73
     6
 74
     0
 42
0.000000001
 43
0.00000001
 40
0.0
 40
0.0
 40
0.0
 40
0.0
 40
0.3081922891512096
 40
0.6204096504383401
 40
1.0
 40
1.0
 40
1.0
 40
1.0
 10
9.999999999999979
 20
-3.540844100513102
 30
0.0
 10
9.999999999999979
 20
-3.608620984321523
 30
0.0
 10
9.999999999999979
 20
-3.745059935818948
 30
0.0
 10
9.999999999999979
 20
-3.880894146903971
 30
0.0
 10
9.999999999999979
 20
-3.892451021993486
 30
0.0
 10
9.999999999999979
 20
-3.89879220348984
 30
0.0
  0
SPLINE
  5
C0
330
1F
100
AcDbEntity
  8
0
  6
Continuous
 62
     1
370
    15
100
AcDbSpline
210
0.0
220
0.0
230
1.0
 70
     8
 71
     3
 72
    24
 73
    20
 74
     0
 42
0.000000001
 43
0.00000001
 40
0.0
 40
0.0
 40
0.0
 40
0.0
 40
0.0335919792009773
 40
0.0956444097623079
 40
0.1576968269054797
 40
0.2197492307014398
 40
0.281801621221158
 40
0.3438539985356256
 40
0.4059063627158548
 40
0.4679587138328802
 40
0.5300110519577573
 40
0.5920633771615638
 40
0.654115689515397
 40
0.7161679890903764
 40
0.7782202759576423
 40
0.8402725501883557
 40
0.9023248118536984
 40
0.964377061024873
 40
1.0
 40
1.0
 40
1.0
 40
1.0
 10
44.41927122151785
 20
-3.735386342068419
 30
0.0
 10
44.06949897924234
 20
-3.794396859736929
 30
0.0
 10
43.07361363817535
 20
-3.962413936027825
 30
0.0
 10
41.43161539934617
 20
-4.027777556945101
 30
0.0
 10
39.493276639055
 20
-3.938073577174374
 30
0.0
 10
37.55493835365068
 20
-3.64278861232299
 30
0.0
 10
35.61660053713826
 20
-3.168226434347805
 30
0.0
 10
33.67826318799702
 20
-2.534959809762977
 30
0.0
 10
31.73992630324511
 20
-1.775410977241399
 30
0.0
 10
29.80158988126598
 20
-0.9272465654321186
 30
0.0
 10
27.86325391643843
 20
-0.0328424963209237
 30
0.0
 10
25.92491841778993
 20
0.8632180175332401
 30
0.0
 10
23.98658333975317
 20
1.716160262927645
 30
0.0
 10
22.04824884048676
 20
2.483696679979818
 30
0.0
 10
20.10991431783587
 20
3.126564515273605
 30
0.0
 10
18.17158200716828
 20
3.616326969117287
 30
0.0
 10
16.23324355407315
 20
3.914993656811717
 30
0.0
 10
14.57011898370952
 20
4.03792492056562
 30
0.0
 10
13.55306115441072
 20
3.967992963114235
 30
0.0
 10
13.18213185624527
 20
3.942488206993671
 30
0.0
  0
SPLINE
  5
C1
330
1F
100
AcDbEntity
  8
0
  6
Continuous
 62
   131
370
    15
100
AcDbSpline
210
0.0
220
0.0
230
1.0
 70
    24
 71
     3
 72
    10
 73
     6
 74
     0
 42
0.000000001
 43
0.00000001
 40
0.0
 40
0.0
 40
0.0
 40
0.0
 40
0.0937955497939334
 40
0.6912658599302601
 40
1.0
 40
1.0
 40
1.0
 40
1.0
 10
9.999999999999979
 20
3.898818173641534
 30
0.0
 10
9.999999999999979
 20
3.902088452298896
 30
0.0
 10
9.999999999999979
 20
3.926190150015471
 30
0.0
 10
9.999999999999979
 20
3.854169532115591
 30
0.0
 10
9.999999999999979
 20
3.718557227291126
 30
0.0
 10
9.999999999999979
 20
3.672355569041339
 30
0.0
  0
SPLINE
  5
C2
330
1F
100
AcDbEntity
  8
0
  6
Continuous
 62
     1
370
    15
100
AcDbSpline
210
0.0
220
0.0
230
1.0
 70
     8
 71
     3
 72
    10
 73
     6
 74
     0
 42
0.000000001
 43
0.00000001
 40
0.0
 40
0.0
 40
0.0
 40
0.0
 40
0.5
 40
0.5
 40
1.0
 40
1.0
 40
1.0
 40
1.0
 10
54.99999999999998
 20
3.50000000000001
 30
0.0
 10
54.3779440423794
 20
3.331259597696507
 30
0.0
 10
53.75992598838912
 20
3.137513090688786
 30
0.0
 10
52.53546675442311
 20
2.694268711486143
 30
0.0
 10
51.92868690417812
 20
2.44510170823393
 30
0.0
 10
51.3339800193677
 20
2.153947629457846
 30
0.0
  0
SPLINE
  5
C3
330
1F
100
AcDbEntity
  8
0
  6
Continuous
 62
   131
370
    15
100
AcDbSpline
210
0.0
220
0.0
230
1.0
 70
    24
 71
     3
 72
    14
 73
    10
 74
     0
 42
0.000000001
 43
0.00000001
 40
0.0
 40
0.0
 40
0.0
 40
0.0
 40
0.25
 40
0.25
 40
0.5
 40
0.5
 40
0.75
 40
0.75
 40
1.0
 40
1.0
 40
1.0
 40
1.0
 10
9.999999999999996
 20
1.628163889829269
 30
0.0
 10
9.999999999999996
 20
1.201206630240625
 30
0.0
 10
9.999999999999996
 20
0.7460936805150291
 30
0.0
 10
9.999999999999996
 20
-0.1829196439594427
 30
0.0
 10
9.999999999999996
 20
-0.6564049225447691
 30
0.0
 10
9.999999999999996
 20
-1.575086670667014
 30
0.0
 10
9.999999999999996
 20
-2.019793628160082
 30
0.0
 10
9.999999999999996
 20
-2.839152250811546
 30
0.0
 10
9.999999999999996
 20
-3.213542835751794
 30
0.0
 10
9.999999999999996
 20
-3.540844100513105
 30
0.0
  0
LINE
  5
C4
330
1F
100
AcDbEntity
  8
0
  6
Continuous
 62
     1
370
    15
100
AcDbLine
 10
54.99999999999998
 20
0.0000000000000105
 30
0.0
 11
54.99999999999998
 21
3.500000000000009
 31
0.0
  0
LINE
  5
C5
330
1F
100
AcDbEntity
  8
0
  6
Continuous
 62
   131
370
    15
100
AcDbLine
 10
9.09591144060535
 20
-3.930266088339825
 30
0.0
 11
8.479879959384062
 21
-4.152984476821249
 31
0.0
  0
LINE
  5
C6
330
1F
100
AcDbEntity
  8
0
  6
Continuous
 62
   131
370
    15
100
AcDbLine
 10
8.4799413124156
 20
4.153103803300571
 30
0.0
 11
8.4799413124156
 21
5.000000000000005
 31
0.0
  0
SPLINE
  5
C7
330
1F
100
AcDbEntity
  8
0
  6
Continuous
 62
   131
370
    15
100
AcDbSpline
210
0.0
220
0.0
230
1.0
 70
     8
 71
     3
 72
     8
 73
     4
 74
     0
 42
0.000000001
 43
0.00000001
 40
0.0
 40
0.0
 40
0.0
 40
0.0
 40
1.0
 40
1.0
 40
1.0
 40
1.0
 10
9.999999999999979
 20
3.603404307520333
 30
0.0
 10
9.49453857863532
 20
3.805897335066332
 30
0.0
 10
8.983937941048385
 20
3.9904802639245
 30
0.0
 10
8.479879959384062
 20
4.15298447682126
 30
0.0
  0
SPLINE
  5
C8
330
1F
100
AcDbEntity
  8
0
  6
Continuous
 62
   131
370
    15
100
AcDbSpline
210
0.0
220
0.0
230
1.0
 70
     8
 71
     3
 72
     8
 73
     4
 74
     0
 42
0.000000001
 43
0.00000001
 40
0.0
 40
0.0
 40
0.0
 40
0.0
 40
1.0
 40
1.0
 40
1.0
 40
1.0
 10
8.4799413124156
 20
3.222440277071891
 30
0.0
 10
8.983979372002889
 20
2.999323323231405
 30
0.0
 10
9.494559086576455
 20
2.758660456958153
 30
0.0
 10
9.999999999999979
 20
2.505917393907266
 30
0.0
  0
LINE
  5
C9
330
1F
100
AcDbEntity
  8
0
  6
Continuous
 62
   131
370
    15
100
AcDbLine
 10
8.479941312415603
 20
-4.999999999999995
 30
0.0
 11
8.4799413124156
 21
3.222437730450449
 31
0.0
  0
LINE
  5
CA
330
1F
100
AcDbEntity
  8
0
  6
Continuous
 62
   131
370
    15
100
AcDbLine
 10
-44.00000000000003
 20
4.999999999999999
 30
0.0
 11
-44.00000000000003
 21
-4.999999999999998
 31
0.0
  0
LINE
  5
CB
330
1F
100
AcDbEntity
  8
0
  6
Continuous
 62
   131
370
    15
100
AcDbLine
 10
-45.00000000000003
 20
3.999999999999999
 30
0.0
 11
-45.00000000000003
 21
-3.999999999999996
 31
0.0
  0
SPLINE
  5
CC
330
1F
100
AcDbEntity
  8
0
  6
Continuous
 62
   131
370
    15
100
AcDbSpline
210
0.0
220
0.0
230
1.0
 70
    24
 71
     3
 72
    10
 73
     6
 74
     0
 42
0.000000001
 43
0.00000001
 40
0.0
 40
0.0
 40
0.0
 40
0.0
 40
0.5
 40
0.5
 40
1.0
 40
1.0
 40
1.0
 40
1.0
 10
9.999999999999979
 20
2.505917393907266
 30
0.0
 10
9.999999999999979
 20
2.446148275849643
 30
0.0
 10
9.999999999999979
 20
2.334283516785394
 30
0.0
 10
9.999999999999979
 20
2.028289496235102
 30
0.0
 10
9.999999999999979
 20
1.835289845400834
 30
0.0
 10
9.999999999999979
 20
1.628163889829276
 30
0.0
  0
SPLINE
  5
CD
330
1F
100
AcDbEntity
  8
0
  6
Continuous
 62
   131
370
    15
100
AcDbSpline
210
0.0
220
0.0
230
1.0
 70
     8
 71
     3
 72
     8
 73
     4
 74
     0
 42
0.000000001
 43
0.00000001
 40
0.0
 40
0.0
 40
0.0
 40
0.0
 40
1.0
 40
1.0
 40
1.0
 40
1.0
 10
9.999999999999973
 20
1.628163889829275
 30
0.0
 10
9.494554142061977
 20
1.809148249116829
 30
0.0
 10
8.983969382900499
 20
1.982339648213284
 30
0.0
 10
8.47992652004462
 20
2.14380217069378
 30
0.0
  0
SPLINE
  5
CE
330
1F
100
AcDbEntity
  8
0
  6
Continuous
 62
   131
370
    15
100
AcDbSpline
210
0.0
220
0.0
230
1.0
 70
     8
 71
     3
 72
     8
 73
     4
 74
     0
 42
0.000000001
 43
0.00000001
 40
0.0
 40
0.0
 40
0.0
 40
0.0
 40
1.0
 40
1.0
 40
1.0
 40
1.0
 10
9.999999999999963
 20
-3.540844100513099
 30
0.0
 10
9.494551593162878
 20
-3.432146879340332
 30
0.0
 10
8.983964233514051
 20
-3.304823319476016
 30
0.0
 10
8.479918894573222
 20
-3.16183398695712
 30
0.0
  0
SPLINE
  5
CF
330
1F
100
AcDbEntity
  8
0
  6
Continuous
 62
   131
370
    15
100
AcDbSpline
210
0.0
220
0.0
230
1.0
 70
    24
 71
     3
 72
    14
 73
    10
 74
     0
 42
0.000000001
 43
0.00000001
 40
0.0
 40
0.0
 40
0.0
 40
0.0
 40
0.25
 40
0.25
 40
0.5
 40
0.5
 40
0.75
 40
0.75
 40
1.0
 40
1.0
 40
1.0
 40
1.0
 10
9.99999999999999
 20
1.628163889829272
 30
0.0
 10
9.99999999999999
 20
1.201206630240627
 30
0.0
 10
9.99999999999999
 20
0.7460936805150327
 30
0.0
 10
9.99999999999999
 20
-0.1829196439594403
 30
0.0
 10
9.99999999999999
 20
-0.6564049225447667
 30
0.0
 10
9.99999999999999
 20
-1.575086670667011
 30
0.0
 10
9.99999999999999
 20
-2.019793628160081
 30
0.0
 10
9.999999999999993
 20
-2.839152250811546
 30
0.0
 10
9.99999999999999
 20
-3.213542835751794
 30
0.0
 10
9.99999999999999
 20
-3.540844100513104
 30
0.0
  0
SPLINE
  5
D0
330
1F
100
AcDbEntity
  8
0
  6
Continuous
 62
   131
370
    15
100
AcDbSpline
210
0.0
220
0.0
230
1.0
 70
    24
 71
     3
 72
    10
 73
     6
 74
     0
 42
0.000000001
 43
0.00000001
 40
0.0
 40
0.0
 40
0.0
 40
0.0
 40
0.0884007400617386
 40
0.6894279060964078
 40
1.0
 40
1.0
 40
1.0
 40
1.0
 10
9.999999999999979
 20
3.899351352452262
 30
0.0
 10
9.999999999999979
 20
3.902392504477169
 30
0.0
 10
9.999999999999979
 20
3.926110123483387
 30
0.0
 10
9.999999999999979
 20
3.854105265152052
 30
0.0
 10
9.999999999999979
 20
3.718540896090618
 30
0.0
 10
9.999999999999979
 20
3.672355569041339
 30
0.0
  0
SPLINE
  5
D1
330
1F
100
AcDbEntity
  8
0
  6
Continuous
 62
   131
370
    15
100
AcDbSpline
210
0.0
220
0.0
230
1.0
 70
    24
 71
     3
 72
    10
 73
     6
 74
     0
 42
0.000000001
 43
0.00000001
 40
0.0
 40
0.0
 40
0.0
 40
0.0
 40
0.3066758608449331
 40
0.6173569888743441
 40
1.0
 40
1.0
 40
1.0
 40
1.0
 10
9.999999999999977
 20
-3.540844100513101
 30
0.0
 10
9.999999999999977
 20
-3.608631301654412
 30
0.0
 10
9.999999999999979
 20
-3.745091022564691
 30
0.0
 10
9.999999999999979
 20
-3.881427366215852
 30
0.0
 10
9.999999999999979
 20
-3.892984749666689
 30
0.0
 10
9.999999999999979
 20
-3.899363226564597
 30
0.0
  0
LINE
  5
D2
330
1F
100
AcDbEntity
  8
중심선
 62
     1
100
AcDbLine
 10
-48.00000000000003
 20
-0.0000000000000004
 30
0.0
 11
58.02192776102889
 21
0.0
 31
0.0
  0
CIRCLE
  5
D3
330
1F
100
AcDbEntity
  8
외형선
100
AcDbCircle
 10
0.0000000000000104
 20
0.0
 30
0.0
 40
3.000000000000005
  0
INSERT
  5
D4
330
1F
100
AcDbEntity
  8
0
  6
Continuous
 62
     7
100
AcDbBlockReference
 66
     1
  2
블럭10
 10
-22.93944368806589
 20
-52.04609937292004
 30
0.0
  0
ATTRIB
  5
D5
330
D4
100
AcDbEntity
  8
FORMAT
 62
     2
100
AcDbText
 10
-39.05870472750145
 20
-49.97073246008785
 30
0.0
 40
4.233333333333333
  1
SEME7010045E [ 2 FLUTE ]
 41
0.75
  7
SLDTEXTSTYLE0
 11
-39.05870472750145
 21
-52.08739912675452
 31
0.0
100
AcDbAttribute
  2
AUTOATTR0
 70
     0
 74
     1
  0
SEQEND
  5
D6
330
D4
100
AcDbEntity
  8
0
  6
Continuous
 62
     7
  0
HATCH
  5
D7
330
1F
100
AcDbEntity
  8
중심선
100
AcDbHatch
 10
0.0
 20
0.0
 30
0.0
210
0.0
220
0.0
230
1.0
  2
SOLID
 70
     1
 71
     0
 91
        1
 92
        0
 93
        4
 72
     1
 10
-17.22453438368504
 20
-35.7989250712761
 11
-20.67080962752232
 21
-35.7989250712761
 72
     1
 10
-20.67080962752232
 20
-35.7989250712761
 11
-22.79903948672635
 21
-38.3352506518487
 72
     1
 10
-22.79903948672635
 20
-38.3352506518487
 11
-19.35273115777591
 21
-38.33521122254621
 72
     1
 10
-19.35273115777591
 20
-38.33521122254621
 11
-17.22453438368504
 21
-35.7989250712761
 97
        0
 75
     0
 76
     1
 98
        1
 10
0.0
 20
0.0
  0
HATCH
  5
D8
330
1F
100
AcDbEntity
  8
중심선
100
AcDbHatch
 10
0.0
 20
0.0
 30
0.0
210
0.0
220
0.0
230
1.0
  2
SOLID
 70
     1
 71
     0
 91
        1
 92
        0
 93
        4
 72
     1
 10
-12.21177039264909
 20
-35.7989250712761
 11
-15.65804563648637
 21
-35.7989250712761
 72
     1
 10
-15.65804563648637
 20
-35.7989250712761
 11
-20.18918364484376
 21
-41.19892507127612
 72
     1
 10
-20.18918364484376
 20
-41.19892507127612
 11
-16.74290840100648
 21
-41.19892507127612
 72
     1
 10
-16.74290840100648
 20
-41.19892507127612
 11
-12.21177039264909
 21
-35.7989250712761
 97
        0
 75
     0
 76
     1
 98
        1
 10
0.0
 20
0.0
  0
HATCH
  5
D9
330
1F
100
AcDbEntity
  8
중심선
100
AcDbHatch
 10
0.0
 20
0.0
 30
0.0
210
0.0
220
0.0
230
1.0
  2
SOLID
 70
     1
 71
     0
 91
        1
 92
        0
 93
        4
 72
     1
 10
-7.199006401613195
 20
-35.79892507127613
 11
-10.64528164545031
 21
-35.7989250712761
 72
     1
 10
-10.64528164545031
 20
-35.7989250712761
 11
-17.69371854733956
 21
-44.19892507127612
 72
     1
 10
-17.69371854733956
 20
-44.19892507127612
 11
-14.24744330350228
 21
-44.19892507127612
 72
     1
 10
-14.24744330350228
 20
-44.19892507127612
 11
-7.199006401613195
 21
-35.79892507127613
 97
        0
 75
     0
 76
     1
 98
        1
 10
0.0
 20
0.0
  0
HATCH
  5
DA
330
1F
100
AcDbEntity
  8
중심선
100
AcDbHatch
 10
0.0
 20
0.0
 30
0.0
210
0.0
220
0.0
230
1.0
  2
SOLID
 70
     1
 71
     0
 91
        1
 92
        0
 93
        6
 72
     3
 10
-2.399115970600996
 20
-39.99892507132738
 11
3.960054785062284
 21
1.540850780301639E-10
 40
0.3939339440162633
 50
17.09539180608433
 51
320.0019657685079
 73
     0
 72
     1
 10
-0.7161163149004002
 20
-38.58681907591441
 11
1.589185558800638
 21
-36.65249236586649
 72
     3
 10
-2.399115970653842
 20
-39.99892507127625
 11
6.600054785286829
 21
-1.249000902703301E-13
 40
0.6363583540795982
 50
39.99873849337408
 51
368.4976242363725
 73
     1
 72
     1
 10
4.026216521246767
 20
-39.03892507120613
 11
-3.71904866381792
 21
-39.0389250712061
 72
     1
 10
-3.71904866381792
 20
-39.0389250712061
 11
-3.719073708263854
 21
-40.95892507120602
 72
     1
 10
-3.719073708263854
 20
-40.95892507120602
 11
0.7223060612081831
 21
-40.95892507120599
 97
        0
 75
     0
 76
     1
 98
        1
 10
0.0
 20
0.0
  0
DIMENSION
  5
DB
330
1F
100
AcDbEntity
  8
치수문자_일반주서
100
AcDbDimension
  2
_D
 10
69.7681820187449
 20
5.000000000000222
 30
0.0
 11
69.76818201874487
 21
15.32275000000022
 31
0.0
 70
   160
  1
%%c<>
 71
     2
 42
9.999999999999993
 52
-270.0
  3
SLDDIMSTYLE0
100
AcDbAlignedDimension
 13
54.99999999999971
 23
-4.999999999999825
 33
0.0
 14
54.99999999999998
 24
5.000000000000169
 34
0.0
 50
90.0000000000002
100
AcDbRotatedDimension
  0
DIMENSION
  5
E9
330
1F
100
AcDbEntity
  8
치수문자_일반주서
100
AcDbDimension
  2
_D_1
 10
54.99999999999999
 20
25.7884104402427
 30
0.0
 11
4.999999999999977
 21
25.7884104402427
 31
0.0
 70
   160
  1
<>
 71
     2
 42
100.0
  3
SLDDIMSTYLE1
100
AcDbAlignedDimension
 13
-45.00000000000003
 23
3.999999999999999
 33
0.0
 14
54.99999999999998
 24
5.000000000000169
 34
0.0
 50
-0.0000000000000041
100
AcDbRotatedDimension
  0
DIMENSION
  5
F4
330
1F
100
AcDbEntity
  8
치수문자_일반주서
100
AcDbDimension
  2
_D_2
 10
54.99999999999998
 20
17.25610144683154
 30
0.0
 11
32.5
 21
17.25610144683154
 31
0.0
 70
   160
  1
<>
 71
     2
 42
45.0
  3
SLDDIMSTYLE1
100
AcDbAlignedDimension
 13
9.999999999999979
 23
3.90910364066405
 33
0.0
 14
54.99999999999998
 24
5.000000000000169
 34
0.0
 50
-0.0000000000000814
100
AcDbRotatedDimension
  0
DIMENSION
  5
FE
330
1F
100
AcDbEntity
  8
치수문자_일반주서
100
AcDbDimension
  2
_D_3
 10
-56.31127269152662
 20
-5.000000000000043
 30
0.0
 11
-56.31127269152669
 21
15.32274999999995
 31
0.0
 70
   160
  1
%%c<>
 71
     2
 42
9.999999999999995
 52
-270.0
  3
SLDDIMSTYLE0
100
AcDbAlignedDimension
 13
-44.00000000000003
 23
4.999999999999999
 33
0.0
 14
-44.00000000000003
 24
-4.999999999999996
 34
0.0
 50
90.0000000000002
100
AcDbRotatedDimension
  0
INSERT
  5
111
330
1F
100
AcDbEntity
  8
외형선
100
AcDbBlockReference
  2
SW_DOWELSYMBOL_0
 10
0.0000000000000104
 20
0.0
 30
0.0
  0
ENDSEC
  0
SECTION
  2
OBJECTS
  0
DICTIONARY
  5
C
330
0
100
AcDbDictionary
281
     1
  3
ACAD_GROUP
350
D
  3
ACAD_IMAGE_VARS
350
135
  3
ACAD_LAYOUT
350
1A
  3
ACAD_MLINESTYLE
350
17
  3
ACAD_PLOTSETTINGS
350
19
  3
ACAD_PLOTSTYLENAME
350
E
  3
ACAD_SCALELIST
350
47
  3
APPDATA
350
133
  3
DWGPROPS
350
144
  0
DICTIONARY
  5
D
102
{ACAD_REACTORS
330
C
102
}
330
C
100
AcDbDictionary
281
     1
  0
RASTERVARIABLES
  5
135
102
{ACAD_REACTORS
330
C
102
}
330
C
100
AcDbRasterVariables
 90
        0
 70
     1
 71
     1
 72
     1
  0
DICTIONARY
  5
1A
102
{ACAD_REACTORS
330
C
102
}
330
C
100
AcDbDictionary
281
     1
  3
Layout1
350
1E
  3
Layout2
350
26
  3
Model
350
22
  0
DICTIONARY
  5
17
102
{ACAD_REACTORS
330
C
102
}
330
C
100
AcDbDictionary
281
     1
  3
Standard
350
18
  0
DICTIONARY
  5
19
102
{ACAD_REACTORS
330
C
102
}
330
C
100
AcDbDictionary
281
     1
  0
ACDBDICTIONARYWDFLT
  5
E
102
{ACAD_REACTORS
330
C
102
}
330
C
100
AcDbDictionary
281
     1
  3
Normal
350
F
100
AcDbDictionaryWithDefault
340
F
  0
DICTIONARY
  5
47
102
{ACAD_REACTORS
330
C
102
}
330
C
100
AcDbDictionary
281
     1
  3
A0
350
48
  3
A1
350
49
  3
A2
350
4A
  3
A3
350
4B
  3
A4
350
4C
  3
A5
350
4D
  3
A6
350
4E
  3
A7
350
4F
  3
A8
350
50
  3
A9
350
51
  3
B0
350
52
  3
B1
350
53
  3
B2
350
54
  3
B3
350
55
  3
B4
350
56
  3
B5
350
57
  3
B6
350
58
  3
B7
350
59
  3
B8
350
5A
  3
B9
350
5B
  3
C0
350
5C
  3
C1
350
5D
  3
C2
350
5E
  3
C3
350
5F
  3
C4
350
60
  3
C5
350
61
  3
C6
350
62
  3
C7
350
63
  3
C8
350
64
  3
C9
350
65
  3
D0
350
66
  3
D1
350
67
  3
D2
350
68
  0
DICTIONARY
  5
133
102
{ACAD_REACTORS
330
C
102
}
330
C
100
AcDbDictionary
281
     1
  0
XRECORD
  5
144
102
{ACAD_REACTORS
330
C
102
}
330
C
100
AcDbXrecord
280
     1
  1
DWGPROPS COOKIE
  2

  3

  4

  6

  7

  8
12014102
  9

300
=
301
=
302
=
303
=
304
=
305
=
306
=
307
=
308
=
309
=
 40
0.0
 41
2458262.170859514
 42
2458266.107557592
  1

 90
        0
  0
LAYOUT
  5
1E
102
{ACAD_REACTORS
330
1A
102
}
330
1A
100
AcDbPlotSettings
  1

  2
none_device
  4

  6

 40
0.0
 41
0.0
 42
0.0
 43
0.0
 44
0.0
 45
0.0
 46
0.0
 47
0.0
 48
0.0
 49
0.0
140
0.0
141
0.0
142
1.0
143
1.0
 70
   688
 72
     1
 73
     0
 74
     5
  7

 75
    16
147
1.0
148
0.0
149
0.0
100
AcDbLayout
  1
Layout1
 70
     1
 71
     1
 10
0.0
 20
0.0
 11
420.0
 21
297.0
 12
0.0
 22
0.0
 32
0.0
 14
1.000000000000000E+20
 24
1.000000000000000E+20
 34
1.000000000000000E+20
 15
-1.000000000000000E+20
 25
-1.000000000000000E+20
 35
-1.000000000000000E+20
146
0.0
 13
0.0
 23
0.0
 33
0.0
 16
1.0
 26
0.0
 36
0.0
 17
0.0
 27
1.0
 37
0.0
 76
     0
330
1B
  0
LAYOUT
  5
26
102
{ACAD_REACTORS
330
1A
102
}
330
1A
100
AcDbPlotSettings
  1

  2
none_device
  4

  6

 40
0.0
 41
0.0
 42
0.0
 43
0.0
 44
0.0
 45
0.0
 46
0.0
 47
0.0
 48
0.0
 49
0.0
140
0.0
141
0.0
142
1.0
143
1.0
 70
   688
 72
     1
 73
     0
 74
     5
  7

 75
    16
147
1.0
148
0.0
149
0.0
100
AcDbLayout
  1
Layout2
 70
     1
 71
     2
 10
0.0
 20
0.0
 11
0.0
 21
0.0
 12
0.0
 22
0.0
 32
0.0
 14
0.0
 24
0.0
 34
0.0
 15
0.0
 25
0.0
 35
0.0
146
0.0
 13
0.0
 23
0.0
 33
0.0
 16
1.0
 26
0.0
 36
0.0
 17
0.0
 27
1.0
 37
0.0
 76
     0
330
23
  0
LAYOUT
  5
22
102
{ACAD_REACTORS
330
1A
102
}
330
1A
100
AcDbPlotSettings
  1

  2
none_device
  4
ANSI_A_(11.00_x_8.50_Inches)
  6

 40
6.35
 41
19.05
 42
6.35000508
 43
19.05000254
 44
279.4
 45
215.9
 46
128.6599267484561
 47
113.2253856159098
 48
0.0
 49
0.0
140
0.0
141
0.0
142
0.0938294292552811
143
1.0
 70
  1696
 72
     0
 73
     0
 74
     0
  7

 75
     0
147
0.0235690232323232
148
0.0
149
0.0
100
AcDbLayout
  1
Model
 70
     1
 71
     0
 10
0.0
 20
0.0
 11
420.0
 21
297.0
 12
0.0
 22
0.0
 32
0.0
 14
-60.6862726915267
 24
-49.97073246008785
 34
0.0
 15
70.31851535207826
 25
30.1634104402427
 35
0.0
146
0.0
 13
0.0
 23
0.0
 33
0.0
 16
1.0
 26
0.0
 36
0.0
 17
0.0
 27
1.0
 37
0.0
 76
     0
330
1F
331
29
  0
MLINESTYLE
  5
18
102
{ACAD_REACTORS
330
17
102
}
330
17
100
AcDbMlineStyle
  2
Standard
 70
     0
  3

 62
   256
 51
90.0
 52
90.0
 71
     2
 49
0.5
 62
   256
  6
BYLAYER
 49
-0.5
 62
   256
  6
BYLAYER
  0
ACDBPLACEHOLDER
  5
F
102
{ACAD_REACTORS
330
E
102
}
330
E
  0
SCALE
  5
48
102
{ACAD_REACTORS
330
47
102
}
330
47
100
AcDbScale
 70
     0
300
1:1
140
1.0
141
1.0
290
     1
  0
SCALE
  5
49
102
{ACAD_REACTORS
330
47
102
}
330
47
100
AcDbScale
 70
     0
300
1:2
140
1.0
141
2.0
290
     0
  0
SCALE
  5
4A
102
{ACAD_REACTORS
330
47
102
}
330
47
100
AcDbScale
 70
     0
300
1:4
140
1.0
141
4.0
290
     0
  0
SCALE
  5
4B
102
{ACAD_REACTORS
330
47
102
}
330
47
100
AcDbScale
 70
     0
300
1:5
140
1.0
141
5.0
290
     0
  0
SCALE
  5
4C
102
{ACAD_REACTORS
330
47
102
}
330
47
100
AcDbScale
 70
     0
300
1:8
140
1.0
141
8.0
290
     0
  0
SCALE
  5
4D
102
{ACAD_REACTORS
330
47
102
}
330
47
100
AcDbScale
 70
     0
300
1:10
140
1.0
141
10.0
290
     0
  0
SCALE
  5
4E
102
{ACAD_REACTORS
330
47
102
}
330
47
100
AcDbScale
 70
     0
300
1:16
140
1.0
141
16.0
290
     0
  0
SCALE
  5
4F
102
{ACAD_REACTORS
330
47
102
}
330
47
100
AcDbScale
 70
     0
300
1:20
140
1.0
141
20.0
290
     0
  0
SCALE
  5
50
102
{ACAD_REACTORS
330
47
102
}
330
47
100
AcDbScale
 70
     0
300
1:30
140
1.0
141
30.0
290
     0
  0
SCALE
  5
51
102
{ACAD_REACTORS
330
47
102
}
330
47
100
AcDbScale
 70
     0
300
1:40
140
1.0
141
40.0
290
     0
  0
SCALE
  5
52
102
{ACAD_REACTORS
330
47
102
}
330
47
100
AcDbScale
 70
     0
300
1:50
140
1.0
141
50.0
290
     0
  0
SCALE
  5
53
102
{ACAD_REACTORS
330
47
102
}
330
47
100
AcDbScale
 70
     0
300
1:100
140
1.0
141
100.0
290
     0
  0
SCALE
  5
54
102
{ACAD_REACTORS
330
47
102
}
330
47
100
AcDbScale
 70
     0
300
2:1
140
2.0
141
1.0
290
     0
  0
SCALE
  5
55
102
{ACAD_REACTORS
330
47
102
}
330
47
100
AcDbScale
 70
     0
300
4:1
140
4.0
141
1.0
290
     0
  0
SCALE
  5
56
102
{ACAD_REACTORS
330
47
102
}
330
47
100
AcDbScale
 70
     0
300
8:1
140
8.0
141
1.0
290
     0
  0
SCALE
  5
57
102
{ACAD_REACTORS
330
47
102
}
330
47
100
AcDbScale
 70
     0
300
10:1
140
10.0
141
1.0
290
     0
  0
SCALE
  5
58
102
{ACAD_REACTORS
330
47
102
}
330
47
100
AcDbScale
 70
     0
300
100:1
140
100.0
141
1.0
290
     0
  0
SCALE
  5
59
102
{ACAD_REACTORS
330
47
102
}
330
47
100
AcDbScale
 70
     0
300
1/128" = 1'-0"
140
0.0078125
141
12.0
290
     0
  0
SCALE
  5
5A
102
{ACAD_REACTORS
330
47
102
}
330
47
100
AcDbScale
 70
     0
300
1/64" = 1'-0"
140
0.015625
141
12.0
290
     0
  0
SCALE
  5
5B
102
{ACAD_REACTORS
330
47
102
}
330
47
100
AcDbScale
 70
     0
300
1/32" = 1'-0"
140
0.03125
141
12.0
290
     0
  0
SCALE
  5
5C
102
{ACAD_REACTORS
330
47
102
}
330
47
100
AcDbScale
 70
     0
300
1/16" = 1'-0"
140
0.0625
141
12.0
290
     0
  0
SCALE
  5
5D
102
{ACAD_REACTORS
330
47
102
}
330
47
100
AcDbScale
 70
     0
300
3/32" = 1'-0"
140
0.09375
141
12.0
290
     0
  0
SCALE
  5
5E
102
{ACAD_REACTORS
330
47
102
}
330
47
100
AcDbScale
 70
     0
300
1/8" = 1'-0"
140
0.125
141
12.0
290
     0
  0
SCALE
  5
5F
102
{ACAD_REACTORS
330
47
102
}
330
47
100
AcDbScale
 70
     0
300
3/16" = 1'-0"
140
0.1875
141
12.0
290
     0
  0
SCALE
  5
60
102
{ACAD_REACTORS
330
47
102
}
330
47
100
AcDbScale
 70
     0
300
1/4" = 1'-0"
140
0.25
141
12.0
290
     0
  0
SCALE
  5
61
102
{ACAD_REACTORS
330
47
102
}
330
47
100
AcDbScale
 70
     0
300
3/8" = 1'-0"
140
0.375
141
12.0
290
     0
  0
SCALE
  5
62
102
{ACAD_REACTORS
330
47
102
}
330
47
100
AcDbScale
 70
     0
300
1/2" = 1'-0"
140
0.5
141
12.0
290
     0
  0
SCALE
  5
63
102
{ACAD_REACTORS
330
47
102
}
330
47
100
AcDbScale
 70
     0
300
3/4" = 1'-0"
140
0.75
141
12.0
290
     0
  0
SCALE
  5
64
102
{ACAD_REACTORS
330
47
102
}
330
47
100
AcDbScale
 70
     0
300
1" = 1'-0"
140
1.0
141
12.0
290
     0
  0
SCALE
  5
65
102
{ACAD_REACTORS
330
47
102
}
330
47
100
AcDbScale
 70
     0
300
1-1/2" = 1'-0"
140
1.5
141
12.0
290
     0
  0
SCALE
  5
66
102
{ACAD_REACTORS
330
47
102
}
330
47
100
AcDbScale
 70
     0
300
3" = 1'-0"
140
3.0
141
12.0
290
     0
  0
SCALE
  5
67
102
{ACAD_REACTORS
330
47
102
}
330
47
100
AcDbScale
 70
     0
300
6" = 1'-0"
140
6.0
141
12.0
290
     0
  0
SCALE
  5
68
102
{ACAD_REACTORS
330
47
102
}
330
47
100
AcDbScale
 70
     0
300
1'-0" = 1'-0"
140
12.0
141
12.0
290
     0
  0
ENDSEC
  0
EOF
