  0
SECTION
  2
HEADER
  9
$ACADVER
  1
AC1015
  9
$ACADMAINTVER
 70
     6
  9
$DWGCODEPAGE
  3
ANSI_949
  9
$INSBASE
 10
0.0
 20
0.0
 30
0.0
  9
$EXTMIN
 10
-55.25170322146824
 20
-49.97073246008785
 30
0.0
  9
$EXTMAX
 10
76.14500944286434
 20
30.1634104402427
 30
0.0
  9
$LIMMIN
 10
0.0
 20
0.0
  9
$LIMMAX
 10
420.0
 20
297.0
  9
$ORTHOMODE
 70
     0
  9
$REGENMODE
 70
     1
  9
$FILLMODE
 70
     1
  9
$QTEXTMODE
 70
     0
  9
$MIRRTEXT
 70
     1
  9
$LTSCALE
 40
1.0
  9
$ATTMODE
 70
     1
  9
$TEXTSIZE
 40
3.5
  9
$TRACEWID
 40
1.0
  9
$TEXTSTYLE
  7
Standard
  9
$CLAYER
  8
0
  9
$CELTYPE
  6
ByLayer
  9
$CECOLOR
 62
   256
  9
$CELTSCALE
 40
1.0
  9
$DISPSILH
 70
     0
  9
$DIMSCALE
 40
1.0
  9
$DIMASZ
 40
3.302
  9
$DIMEXO
 40
1.0
  9
$DIMDLI
 40
3.75
  9
$DIMRND
 40
0.0
  9
$DIMDLE
 40
0.0
  9
$DIMEXE
 40
1.0
  9
$DIMTP
 40
0.0
  9
$DIMTM
 40
0.0
  9
$DIMTXT
 40
3.5
  9
$DIMCEN
 40
2.5
  9
$DIMTSZ
 40
0.0
  9
$DIMTOL
 70
     0
  9
$DIMLIM
 70
     0
  9
$DIMTIH
 70
     1
  9
$DIMTOH
 70
     1
  9
$DIMSE1
 70
     0
  9
$DIMSE2
 70
     0
  9
$DIMTAD
 70
     1
  9
$DIMZIN
 70
     0
  9
$DIMBLK
  1

  9
$DIMASO
 70
     1
  9
$DIMSHO
 70
     1
  9
$DIMPOST
  1

  9
$DIMAPOST
  1

  9
$DIMALT
 70
     0
  9
$DIMALTD
 70
     3
  9
$DIMALTF
 40
0.0393700787401575
  9
$DIMLFAC
 40
1.0
  9
$DIMTOFL
 70
     1
  9
$DIMTVP
 40
0.0
  9
$DIMTIX
 70
     0
  9
$DIMSOXD
 70
     0
  9
$DIMSAH
 70
     0
  9
$DIMBLK1
  1

  9
$DIMBLK2
  1

  9
$DIMSTYLE
  2
ISO-25
  9
$DIMCLRD
 70
     0
  9
$DIMCLRE
 70
     0
  9
$DIMCLRT
 70
     0
  9
$DIMTFAC
 40
1.0
  9
$DIMGAP
 40
1.524
  9
$DIMJUST
 70
     0
  9
$DIMSD1
 70
     0
  9
$DIMSD2
 70
     0
  9
$DIMTOLJ
 70
     0
  9
$DIMTZIN
 70
     0
  9
$DIMALTZ
 70
     0
  9
$DIMALTTZ
 70
     0
  9
$DIMUPT
 70
     0
  9
$DIMDEC
 70
     2
  9
$DIMTDEC
 70
     2
  9
$DIMALTU
 70
     2
  9
$DIMALTTD
 70
     3
  9
$DIMTXSTY
  7
Standard
  9
$DIMAUNIT
 70
     0
  9
$DIMADEC
 70
     2
  9
$DIMALTRND
 40
0.0
  9
$DIMAZIN
 70
     0
  9
$DIMDSEP
 70
    44
  9
$DIMATFIT
 70
     3
  9
$DIMFRAC
 70
     0
  9
$DIMLDRBLK
  1

  9
$DIMLUNIT
 70
     2
  9
$DIMLWD
 70
    -2
  9
$DIMLWE
 70
    -2
  9
$DIMTMOVE
 70
     0
  9
$LUNITS
 70
     2
  9
$LUPREC
 70
     2
  9
$SKETCHINC
 40
1.0
  9
$FILLETRAD
 40
10.0
  9
$AUNITS
 70
     0
  9
$AUPREC
 70
     2
  9
$MENU
  1
.
  9
$ELEVATION
 40
0.0
  9
$PELEVATION
 40
0.0
  9
$THICKNESS
 40
0.0
  9
$LIMCHECK
 70
     0
  9
$CHAMFERA
 40
0.0
  9
$CHAMFERB
 40
0.0
  9
$CHAMFERC
 40
0.0
  9
$CHAMFERD
 40
0.0
  9
$SKPOLY
 70
     0
  9
$TDCREATE
 40
2458262.546423079
  9
$TDUCREATE
 40
2458262.171423079
  9
$TDUPDATE
 40
2458266.483915162
  9
$TDUUPDATE
 40
2458266.108915162
  9
$TDINDWG
 40
0.0012582755
  9
$TDUSRTIMER
 40
2458266.107656921
  9
$USRTIMER
 70
     1
  9
$ANGBASE
 50
0.0
  9
$ANGDIR
 70
     0
  9
$PDMODE
 70
     0
  9
$PDSIZE
 40
-1.0
  9
$PLINEWID
 40
0.0
  9
$SPLFRAME
 70
     0
  9
$SPLINETYPE
 70
     6
  9
$SPLINESEGS
 70
     8
  9
$HANDSEED
  5
148
  9
$SURFTAB1
 70
     6
  9
$SURFTAB2
 70
     6
  9
$SURFTYPE
 70
     6
  9
$SURFU
 70
     6
  9
$SURFV
 70
     6
  9
$UCSBASE
  2

  9
$UCSNAME
  2

  9
$UCSORG
 10
0.0
 20
0.0
 30
0.0
  9
$UCSXDIR
 10
1.0
 20
0.0
 30
0.0
  9
$UCSYDIR
 10
0.0
 20
1.0
 30
0.0
  9
$UCSORTHOREF
  2

  9
$UCSORTHOVIEW
 70
     0
  9
$UCSORGTOP
 10
0.0
 20
0.0
 30
0.0
  9
$UCSORGBOTTOM
 10
0.0
 20
0.0
 30
0.0
  9
$UCSORGLEFT
 10
0.0
 20
0.0
 30
0.0
  9
$UCSORGRIGHT
 10
0.0
 20
0.0
 30
0.0
  9
$UCSORGFRONT
 10
0.0
 20
0.0
 30
0.0
  9
$UCSORGBACK
 10
0.0
 20
0.0
 30
0.0
  9
$PUCSBASE
  2

  9
$PUCSNAME
  2

  9
$PUCSORG
 10
0.0
 20
0.0
 30
0.0
  9
$PUCSXDIR
 10
1.0
 20
0.0
 30
0.0
  9
$PUCSYDIR
 10
0.0
 20
1.0
 30
0.0
  9
$PUCSORTHOREF
  2

  9
$PUCSORTHOVIEW
 70
     0
  9
$PUCSORGTOP
 10
0.0
 20
0.0
 30
0.0
  9
$PUCSORGBOTTOM
 10
0.0
 20
0.0
 30
0.0
  9
$PUCSORGLEFT
 10
0.0
 20
0.0
 30
0.0
  9
$PUCSORGRIGHT
 10
0.0
 20
0.0
 30
0.0
  9
$PUCSORGFRONT
 10
0.0
 20
0.0
 30
0.0
  9
$PUCSORGBACK
 10
0.0
 20
0.0
 30
0.0
  9
$USERI1
 70
     0
  9
$USERI2
 70
     0
  9
$USERI3
 70
     0
  9
$USERI4
 70
     0
  9
$USERI5
 70
     0
  9
$USERR1
 40
0.0
  9
$USERR2
 40
0.0
  9
$USERR3
 40
0.0
  9
$USERR4
 40
0.0
  9
$USERR5
 40
0.0
  9
$WORLDVIEW
 70
     1
  9
$SHADEDGE
 70
     3
  9
$SHADEDIF
 70
    70
  9
$TILEMODE
 70
     1
  9
$MAXACTVP
 70
    64
  9
$PINSBASE
 10
0.0
 20
0.0
 30
0.0
  9
$PLIMCHECK
 70
     0
  9
$PEXTMIN
 10
1.000000000000000E+20
 20
1.000000000000000E+20
 30
1.000000000000000E+20
  9
$PEXTMAX
 10
-1.000000000000000E+20
 20
-1.000000000000000E+20
 30
-1.000000000000000E+20
  9
$PLIMMIN
 10
0.0
 20
0.0
  9
$PLIMMAX
 10
0.0
 20
0.0
  9
$UNITMODE
 70
     0
  9
$VISRETAIN
 70
     1
  9
$PLINEGEN
 70
     0
  9
$PSLTSCALE
 70
     1
  9
$TREEDEPTH
 70
  3020
  9
$CMLSTYLE
  2
Standard
  9
$CMLJUST
 70
     0
  9
$CMLSCALE
 40
20.0
  9
$PROXYGRAPHICS
 70
     1
  9
$MEASUREMENT
 70
     1
  9
$CELWEIGHT
370
    -1
  9
$ENDCAPS
280
     0
  9
$JOINSTYLE
280
     0
  9
$LWDISPLAY
290
     1
  9
$INSUNITS
 70
     4
  9
$HYPERLINKBASE
  1

  9
$STYLESHEET
  1

  9
$XEDIT
290
     1
  9
$CEPSNTYPE
380
     0
  9
$PSTYLEMODE
290
     1
  9
$FINGERPRINTGUID
  2
{B8005D01-D29F-476C-ABAB-217E9E347049}
  9
$VERSIONGUID
  2
{FAEB1C32-E019-11D5-929B-00C0DF256EC4}
  9
$EXTNAMES
290
     1
  9
$PSVPSCALE
 40
0.0
  9
$OLESTARTUP
290
     0
  0
ENDSEC
  0
SECTION
  2
CLASSES
  0
CLASS
  1
ACDBDICTIONARYWDFLT
  2
AcDbDictionaryWithDefault
  3
ObjectDBX Classes
 90
        0
280
     0
281
     0
  0
CLASS
  1
VISUALSTYLE
  2
AcDbVisualStyle
  3
ObjectDBX Classes
 90
     4095
280
     0
281
     0
  0
CLASS
  1
MATERIAL
  2
AcDbMaterial
  3
ObjectDBX Classes
 90
     1153
280
     0
281
     0
  0
CLASS
  1
SCALE
  2
AcDbScale
  3
ObjectDBX Classes
 90
     1153
280
     0
281
     0
  0
CLASS
  1
SUN
  2
AcDbSun
  3
SCENEOE
 90
     1153
280
     0
281
     0
  0
CLASS
  1
ACDBPLACEHOLDER
  2
AcDbPlaceHolder
  3
ObjectDBX Classes
 90
        0
280
     0
281
     0
  0
CLASS
  1
LAYOUT
  2
AcDbLayout
  3
ObjectDBX Classes
 90
        0
280
     0
281
     0
  0
CLASS
  1
TABLESTYLE
  2
AcDbTableStyle
  3
ObjectDBX Classes
 90
     4095
280
     0
281
     0
  0
CLASS
  1
MLEADERSTYLE
  2
AcDbMLeaderStyle
  3
ACDB_MLEADERSTYLE_CLASS
 90
     4095
280
     0
281
     0
  0
CLASS
  1
RASTERVARIABLES
  2
AcDbRasterVariables
  3
ISM
 90
        0
280
     0
281
     0
  0
ENDSEC
  0
SECTION
  2
TABLES
  0
TABLE
  2
VPORT
  5
8
330
0
100
AcDbSymbolTable
 70
     1
  0
VPORT
  5
29
330
8
100
AcDbSymbolTableRecord
100
AcDbViewportTableRecord
  2
*Active
 70
     0
 10
0.0
 20
0.0
 11
1.0
 21
1.0
 12
10.44665311069804
 22
-9.90366100992258
 13
0.0
 23
0.0
 14
10.0
 24
10.0
 15
10.0
 25
10.0
 16
0.0
 26
0.0
 36
1.0
 17
0.0
 27
0.0
 37
0.0
 40
116.2949290518356
 41
1.152454780361757
 42
50.0
 43
0.0
 44
0.0
 50
0.0
 51
0.0
 71
    16
 72
  2000
 73
     1
 74
     3
 75
     0
 76
     0
 77
     0
 78
     0
281
     0
 65
     1
110
0.0
120
0.0
130
0.0
111
1.0
121
0.0
131
0.0
112
0.0
122
1.0
132
0.0
 79
     0
146
0.0
  0
ENDTAB
  0
TABLE
  2
LTYPE
  5
5
330
0
100
AcDbSymbolTable
 70
     6
  0
LTYPE
  5
14
330
5
100
AcDbSymbolTableRecord
100
AcDbLinetypeTableRecord
  2
ByBlock
 70
     0
  3

 72
    65
 73
     0
 40
0.0
  0
LTYPE
  5
15
330
5
100
AcDbSymbolTableRecord
100
AcDbLinetypeTableRecord
  2
ByLayer
 70
     0
  3

 72
    65
 73
     0
 40
0.0
  0
LTYPE
  5
16
330
5
100
AcDbSymbolTableRecord
100
AcDbLinetypeTableRecord
  2
Continuous
 70
     0
  3
Solid line
 72
    65
 73
     0
 40
0.0
  0
LTYPE
  5
6A
330
5
100
AcDbSymbolTableRecord
100
AcDbLinetypeTableRecord
  2
HIDDEN
 70
     0
  3
Hidden __ __ __ __ __ __ __ __ __ __ __ __ __ __
 72
    65
 73
     2
 40
1.905
 49
1.27
 74
     0
 49
-0.635
 74
     0
  0
LTYPE
  5
6B
330
5
100
AcDbSymbolTableRecord
100
AcDbLinetypeTableRecord
  2
PHANTOM
 70
     0
  3
Phantom ______  __  __  ______  __  __  ______
 72
    65
 73
     6
 40
12.7
 49
6.35
 74
     0
 49
-1.27
 74
     0
 49
1.27
 74
     0
 49
-1.27
 74
     0
 49
1.27
 74
     0
 49
-1.27
 74
     0
  0
LTYPE
  5
6C
330
5
100
AcDbSymbolTableRecord
100
AcDbLinetypeTableRecord
  2
CENTER
 70
     0
  3
Center ____ _ ____ _ ____ _ ____ _ ____ _ ____
 72
    65
 73
     4
 40
10.16
 49
6.35
 74
     0
 49
-1.27
 74
     0
 49
1.27
 74
     0
 49
-1.27
 74
     0
  0
LTYPE
  5
6D
330
5
100
AcDbSymbolTableRecord
100
AcDbLinetypeTableRecord
  2
CENTERX2
 70
     0
  3
Center (2x) ________  __  ________  __  _____
 72
    65
 73
     4
 40
20.32
 49
12.7
 74
     0
 49
-2.54
 74
     0
 49
2.54
 74
     0
 49
-2.54
 74
     0
  0
LTYPE
  5
6E
330
5
100
AcDbSymbolTableRecord
100
AcDbLinetypeTableRecord
  2
DOT2
 70
     0
  3
Dot (.5x) ........................................
 72
    65
 73
     2
 40
0.635
 49
0.0
 74
     0
 49
-0.635
 74
     0
  0
ENDTAB
  0
TABLE
  2
LAYER
  5
2
330
0
100
AcDbSymbolTable
 70
    17
  0
LAYER
  5
10
330
2
100
AcDbSymbolTableRecord
100
AcDbLayerTableRecord
  2
0
 70
     0
 62
     7
  6
Continuous
370
    -3
390
F
  0
LAYER
  5
6F
330
2
100
AcDbSymbolTableRecord
100
AcDbLayerTableRecord
  2
FORMAT
 70
     0
 62
     2
  6
Continuous
370
    -3
390
F
  0
LAYER
  5
70
330
2
100
AcDbSymbolTableRecord
100
AcDbLayerTableRecord
  2
외형선
 70
     0
 62
   100
  6
Continuous
370
    30
390
F
  0
LAYER
  5
71
330
2
100
AcDbSymbolTableRecord
100
AcDbLayerTableRecord
  2
숨은선
 70
     0
 62
     2
  6
HIDDEN
370
    15
390
F
  0
LAYER
  5
72
330
2
100
AcDbSymbolTableRecord
100
AcDbLayerTableRecord
  2
중심선
 70
     0
 62
     1
  6
CENTERX2
370
    -3
390
F
  0
LAYER
  5
73
330
2
100
AcDbSymbolTableRecord
100
AcDbLayerTableRecord
  2
파단선
 70
     0
 62
     4
  6
Continuous
370
    -3
390
F
  0
LAYER
  5
74
330
2
100
AcDbSymbolTableRecord
100
AcDbLayerTableRecord
  2
해칭선
 70
     0
 62
     4
  6
Continuous
370
    -3
390
F
  0
LAYER
  5
75
330
2
100
AcDbSymbolTableRecord
100
AcDbLayerTableRecord
  2
가는실선
 70
     0
 62
     4
  6
Continuous
370
    -3
390
F
  0
LAYER
  5
76
330
2
100
AcDbSymbolTableRecord
100
AcDbLayerTableRecord
  2
치수_보조선
 70
     0
 62
     4
  6
Continuous
370
    -3
390
F
  0
LAYER
  5
77
330
2
100
AcDbSymbolTableRecord
100
AcDbLayerTableRecord
  2
치수문자_일반주서
 70
     0
 62
     7
  6
Continuous
370
    15
390
F
  0
LAYER
  5
78
330
2
100
AcDbSymbolTableRecord
100
AcDbLayerTableRecord
  2
개별주서
 70
     0
 62
   100
  6
Continuous
370
    30
390
F
  0
LAYER
  5
79
330
2
100
AcDbSymbolTableRecord
100
AcDbLayerTableRecord
  2
중간선
 70
     0
 62
     2
  6
Continuous
370
    15
390
F
  0
LAYER
  5
7A
330
2
100
AcDbSymbolTableRecord
100
AcDbLayerTableRecord
  2
윤곽선
 70
     0
 62
     3
  6
Continuous
370
    40
390
F
  0
LAYER
  5
7B
330
2
100
AcDbSymbolTableRecord
100
AcDbLayerTableRecord
  2
중심마크
 70
     0
 62
   100
  6
Continuous
370
    30
390
F
  0
LAYER
  5
7C
330
2
100
AcDbSymbolTableRecord
100
AcDbLayerTableRecord
  2
가상선
 70
     0
 62
     4
  6
PHANTOM
370
    -3
390
F
  0
LAYER
  5
7D
330
2
100
AcDbSymbolTableRecord
100
AcDbLayerTableRecord
  2
특수지정선
 70
     0
 62
     5
  6
CENTERX2
370
    60
390
F
  0
LAYER
  5
138
330
2
100
AcDbSymbolTableRecord
100
AcDbLayerTableRecord
  2
Defpoints
 70
     0
 62
     7
  6
Continuous
290
     0
370
    -3
390
F
  0
ENDTAB
  0
TABLE
  2
STYLE
  5
3
330
0
100
AcDbSymbolTable
 70
     2
  0
STYLE
  5
11
330
3
100
AcDbSymbolTableRecord
100
AcDbTextStyleTableRecord
  2
Standard
 70
     0
 40
0.0
 41
1.0
 50
0.0
 71
     0
 42
3.5
  3
txt
  4

  0
STYLE
  5
93
330
3
100
AcDbSymbolTableRecord
100
AcDbTextStyleTableRecord
  2
SLDTEXTSTYLE0
 70
     0
 40
0.0
 41
0.75
 50
0.0
 71
     0
 42
3.5
  3
TXT
  4

  0
ENDTAB
  0
TABLE
  2
VIEW
  5
6
330
0
100
AcDbSymbolTable
 70
     0
  0
ENDTAB
  0
TABLE
  2
UCS
  5
7
330
0
100
AcDbSymbolTable
 70
     0
  0
ENDTAB
  0
TABLE
  2
APPID
  5
9
330
0
100
AcDbSymbolTable
 70
     1
  0
APPID
  5
12
330
9
100
AcDbSymbolTableRecord
100
AcDbRegAppTableRecord
  2
ACAD
 70
     0
  0
ENDTAB
  0
TABLE
  2
DIMSTYLE
  5
A
330
0
100
AcDbSymbolTable
 70
     3
100
AcDbDimStyleTable
  0
DIMSTYLE
105
27
330
A
100
AcDbSymbolTableRecord
100
AcDbDimStyleTableRecord
  2
ISO-25
 70
     0
 41
2.5
 42
0.625
 43
3.75
 44
1.25
 73
     0
 74
     0
 77
     1
 78
     8
140
2.5
141
2.5
143
0.03937007874016
147
0.625
171
     3
172
     1
178
     0
271
     2
272
     2
274
     3
278
    44
283
     0
284
     8
340
11
  0
DIMSTYLE
105
DE
102
{ACAD_REACTORS
330
DD
330
100
102
}
330
A
100
AcDbSymbolTableRecord
100
AcDbDimStyleTableRecord
  2
SLDDIMSTYLE0
 70
     0
 41
3.302
 44
0.0
 45
0.000000001
 73
     0
 74
     0
 77
     1
 78
    12
 79
     3
140
3.5
147
0.875
172
     1
173
     1
178
     0
271
     2
272
     2
276
     2
284
    12
289
     0
340
93
  0
DIMSTYLE
105
EC
102
{ACAD_REACTORS
330
EB
330
F6
102
}
330
A
100
AcDbSymbolTableRecord
100
AcDbDimStyleTableRecord
  2
SLDDIMSTYLE1
 70
     0
 41
3.302
 44
0.0
 45
0.000000001
 73
     0
 74
     0
 77
     1
 78
    12
 79
     3
140
3.5
147
0.875
173
     1
178
     0
271
     2
272
     2
276
     2
284
    12
340
93
  0
ENDTAB
  0
TABLE
  2
BLOCK_RECORD
  5
1
330
0
100
AcDbSymbolTable
 70
     7
  0
BLOCK_RECORD
  5
1F
330
1
100
AcDbSymbolTableRecord
100
AcDbBlockTableRecord
  2
*Model_Space
340
22
  0
BLOCK_RECORD
  5
1B
330
1
100
AcDbSymbolTableRecord
100
AcDbBlockTableRecord
  2
*Paper_Space
340
1E
  0
BLOCK_RECORD
  5
23
330
1
100
AcDbSymbolTableRecord
100
AcDbBlockTableRecord
  2
*Paper_Space0
340
26
  0
BLOCK_RECORD
  5
7E
330
1
100
AcDbSymbolTableRecord
100
AcDbBlockTableRecord
  2
블럭10
340
0
102
{BLKREFS
331
D6
102
}
  0
BLOCK_RECORD
  5
DF
330
1
100
AcDbSymbolTableRecord
100
AcDbBlockTableRecord
  2
_D
340
0
  0
BLOCK_RECORD
  5
ED
330
1
100
AcDbSymbolTableRecord
100
AcDbBlockTableRecord
  2
_D_1
340
0
  0
BLOCK_RECORD
  5
F7
330
1
100
AcDbSymbolTableRecord
100
AcDbBlockTableRecord
  2
_D_2
340
0
  0
BLOCK_RECORD
  5
101
330
1
100
AcDbSymbolTableRecord
100
AcDbBlockTableRecord
  2
_D_3
340
0
  0
BLOCK_RECORD
  5
10D
330
1
100
AcDbSymbolTableRecord
100
AcDbBlockTableRecord
  2
SW_DOWELSYMBOL_0
340
0
102
{BLKREFS
331
113
102
}
  0
ENDTAB
  0
ENDSEC
  0
SECTION
  2
BLOCKS
  0
BLOCK
  5
20
330
1F
100
AcDbEntity
  8
0
100
AcDbBlockBegin
  2
*Model_Space
 70
     0
 10
0.0
 20
0.0
 30
0.0
  3
*Model_Space
  1

  0
ENDBLK
  5
21
330
1F
100
AcDbEntity
  8
0
100
AcDbBlockEnd
  0
BLOCK
  5
1C
330
1B
100
AcDbEntity
 67
     1
  8
0
100
AcDbBlockBegin
  2
*Paper_Space
 70
     0
 10
0.0
 20
0.0
 30
0.0
  3
*Paper_Space
  1

  0
ENDBLK
  5
1D
330
1B
100
AcDbEntity
 67
     1
  8
0
100
AcDbBlockEnd
  0
BLOCK
  5
24
330
23
100
AcDbEntity
  8
0
100
AcDbBlockBegin
  2
*Paper_Space0
 70
     0
 10
0.0
 20
0.0
 30
0.0
  3
*Paper_Space0
  1

  0
ENDBLK
  5
25
330
23
100
AcDbEntity
  8
0
100
AcDbBlockEnd
  0
BLOCK
  5
7F
330
7E
100
AcDbEntity
  8
0
100
AcDbBlockBegin
  2
블럭10
 70
     2
 10
0.0
 20
0.0
 30
0.0
  3
블럭10
  1

  0
ELLIPSE
  5
81
330
7E
100
AcDbEntity
  8
중심선
100
AcDbEllipse
 10
20.54032771741204
 20
12.0471743016438
 30
0.0
 11
6.600054785286829
 21
-1.261213355974178E-13
 31
0.0
210
0.0
220
0.0
230
1.0
 40
0.636358354079598
 41
0.9219305317359503
 42
6.513795318482858
  0
ELLIPSE
  5
82
330
7E
100
AcDbEntity
  8
중심선
100
AcDbEllipse
 10
20.54032771746488
 20
12.04717430159265
 30
0.0
 11
3.960054785062283
 21
1.540847449632565E-10
 31
0.0
210
0.0
220
0.0
230
1.0
 40
0.3939339440162632
 41
1.131841032648279
 42
5.62031148352944
  0
LINE
  5
83
330
7E
100
AcDbEntity
  8
중심선
100
AcDbLine
 10
2.268634060543552
 20
16.24717430164393
 30
0.0
 11
5.714909304380834
 21
16.24717430164393
 31
0.0
  0
LINE
  5
84
330
7E
100
AcDbEntity
  8
중심선
100
AcDbLine
 10
5.245725140726316
 20
7.84717430164391
 30
0.0
 11
8.692000384563599
 21
7.84717430164391
 31
0.0
  0
LINE
  5
85
330
7E
100
AcDbEntity
  8
중심선
100
AcDbLine
 10
15.74043728645272
 20
16.24717430164393
 30
0.0
 11
8.692000384563599
 21
7.84717430164391
 31
0.0
  0
LINE
  5
86
330
7E
100
AcDbEntity
  8
중심선
100
AcDbLine
 10
0.1404042013395286
 20
13.71084872107135
 30
0.0
 11
3.58671253028996
 21
13.71088815037384
 31
0.0
  0
LINE
  5
87
330
7E
100
AcDbEntity
  8
중심선
100
AcDbLine
 10
2.750260043222114
 20
10.84717430164391
 30
0.0
 11
6.196535287059397
 21
10.84717430164391
 31
0.0
  0
LINE
  5
88
330
7E
100
AcDbEntity
  8
중심선
100
AcDbLine
 10
12.29416204261559
 20
16.24717430164393
 30
0.0
 11
5.245725140726316
 21
7.84717430164391
 31
0.0
  0
LINE
  5
89
330
7E
100
AcDbEntity
  8
중심선
100
AcDbLine
 10
10.72767329541681
 20
16.24717430164393
 30
0.0
 11
6.196535287059397
 21
10.84717430164391
 31
0.0
  0
LINE
  5
8A
330
7E
100
AcDbEntity
  8
중심선
100
AcDbLine
 10
7.28139805157953
 20
16.24717430164393
 30
0.0
 11
2.750260043222114
 21
10.84717430164391
 31
0.0
  0
LINE
  5
8B
330
7E
100
AcDbEntity
  8
중심선
100
AcDbLine
 10
5.714909304380834
 20
16.24717430164393
 30
0.0
 11
3.58671253028996
 21
13.71088815037384
 31
0.0
  0
LINE
  5
8C
330
7E
100
AcDbEntity
  8
중심선
100
AcDbLine
 10
2.268634060543552
 20
16.24717430164393
 30
0.0
 11
0.1404042013395286
 21
13.71084872107135
 31
0.0
  0
LINE
  5
8D
330
7E
100
AcDbEntity
  8
중심선
100
AcDbLine
 10
7.28139805157953
 20
16.24717430164393
 30
0.0
 11
10.72767329541681
 21
16.24717430164393
 31
0.0
  0
LINE
  5
8E
330
7E
100
AcDbEntity
  8
중심선
100
AcDbLine
 10
12.29416204261559
 20
16.24717430164393
 30
0.0
 11
15.74043728645272
 21
16.24717430164393
 31
0.0
  0
LINE
  5
8F
330
7E
100
AcDbEntity
  8
중심선
100
AcDbLine
 10
19.22036997980202
 20
11.08717430171403
 30
0.0
 11
23.66174974927406
 21
11.08717430171406
 31
0.0
  0
LINE
  5
90
330
7E
100
AcDbEntity
  8
중심선
100
AcDbLine
 10
19.22039502424796
 20
13.00717430171391
 30
0.0
 11
19.22036997980202
 21
11.08717430171403
 31
0.0
  0
LINE
  5
91
330
7E
100
AcDbEntity
  8
중심선
100
AcDbLine
 10
19.22039502424796
 20
13.00717430171391
 30
0.0
 11
26.96566020931264
 21
13.00717430171391
 31
0.0
  0
LINE
  5
92
330
7E
100
AcDbEntity
  8
중심선
100
AcDbLine
 10
22.22332737316547
 20
13.45928029700563
 30
0.0
 11
24.52862924686651
 21
15.39360700705356
 31
0.0
  0
ATTDEF
  5
94
330
7E
100
AcDbEntity
  8
FORMAT
 62
     2
100
AcDbText
 10
-16.11926103943555
 20
2.075366912832191
 30
0.0
 40
4.233333333333333
  1
SEME7010050E [ 2 FLUTE ]
 41
0.75
  7
SLDTEXTSTYLE0
 11
-16.11926103943555
 21
-0.0412997538344756
 31
0.0
100
AcDbAttributeDefinition
  3

  2
AUTOATTR0
 70
     0
 74
     1
  0
ENDBLK
  5
80
330
7E
100
AcDbEntity
  8
0
100
AcDbBlockEnd
  0
BLOCK
  5
E0
330
DF
100
AcDbEntity
  8
0
100
AcDbBlockBegin
  2
_D
 70
     0
 10
0.0
 20
0.0
 30
0.0
  3
_D
  1

  0
LINE
  5
E2
330
DF
100
AcDbEntity
  8
치수문자_일반주서
 62
     0
370
    -2
100
AcDbLine
 10
60.06250000000001
 20
-4.999999999999807
 30
0.0
 11
75.594676109531
 21
-4.999999999999748
 31
0.0
  0
LINE
  5
E3
330
DF
100
AcDbEntity
  8
치수문자_일반주서
 62
     0
370
    -2
100
AcDbLine
 10
60.06249999999969
 20
5.000000000000188
 30
0.0
 11
75.59467610953097
 21
5.000000000000249
 31
0.0
  0
LINE
  5
E4
330
DF
100
AcDbEntity
  8
치수문자_일반주서
 62
     0
370
    -2
100
AcDbLine
 10
75.594676109531
 20
-4.999999999999748
 30
0.0
 11
75.59467610953092
 21
19.04150000000025
 31
0.0
  0
LINE
  5
E5
330
DF
100
AcDbEntity
  8
치수문자_일반주서
 62
     0
370
    -2
100
AcDbLine
 10
75.594676109531
 20
-4.999999999999748
 30
0.0
 11
75.59467610953097
 21
5.000000000000249
 31
0.0
  0
LINE
  5
E6
330
DF
100
AcDbEntity
  8
치수문자_일반주서
 62
     0
370
    -2
100
AcDbLine
 10
75.59467610953101
 20
-8.301999999999747
 30
0.0
 11
75.59467610953102
 21
-11.60399999999975
 31
0.0
  0
LINE
  5
E7
330
DF
100
AcDbEntity
  8
치수문자_일반주서
 62
     0
370
    -2
100
AcDbLine
 10
75.59467610953095
 20
8.302000000000248
 30
0.0
 11
75.59467610953094
 21
11.60400000000025
 31
0.0
  0
SOLID
  5
E8
330
DF
100
AcDbEntity
  8
치수문자_일반주서
 62
     0
100
AcDbTrace
 10
76.14500944286434
 20
-8.301999999999746
 30
0.0
 11
75.04434277619768
 21
-8.30199999999975
 31
0.0
 12
75.594676109531
 22
-4.999999999999748
 32
0.0
 13
75.594676109531
 23
-4.999999999999748
 33
0.0
  0
SOLID
  5
E9
330
DF
100
AcDbEntity
  8
치수문자_일반주서
 62
     0
100
AcDbTrace
 10
75.04434277619762
 20
8.302000000000247
 30
0.0
 11
76.14500944286428
 21
8.30200000000025
 31
0.0
 12
75.59467610953097
 22
5.000000000000249
 32
0.0
 13
75.59467610953097
 23
5.000000000000249
 33
0.0
  0
MTEXT
  5
EA
330
DF
100
AcDbEntity
  8
치수문자_일반주서
 62
     0
100
AcDbMText
 10
71.21967610953094
 20
15.32275000000024
 30
0.0
 40
3.5
 41
0.0
 71
     2
 72
     1
  1
\A1;%%c10
  7
SLDTEXTSTYLE0
 11
-2.842170943040402E-15
 21
1.0
 31
0.0
 73
     1
 44
1.0
  0
POINT
  5
142
330
DF
100
AcDbEntity
  8
Defpoints
 62
     0
100
AcDbPoint
 10
60.00000000000001
 20
-4.999999999999807
 30
0.0
  0
POINT
  5
143
330
DF
100
AcDbEntity
  8
Defpoints
 62
     0
100
AcDbPoint
 10
59.99999999999969
 20
5.000000000000188
 30
0.0
  0
POINT
  5
144
330
DF
100
AcDbEntity
  8
Defpoints
 62
     0
100
AcDbPoint
 10
75.59467610953097
 20
5.000000000000247
 30
0.0
  0
ENDBLK
  5
E1
330
DF
100
AcDbEntity
  8
0
100
AcDbBlockEnd
  0
BLOCK
  5
EE
330
ED
100
AcDbEntity
  8
0
100
AcDbBlockBegin
  2
_D_1
 70
     0
 10
0.0
 20
0.0
 30
0.0
  3
_D_1
  1

  0
LINE
  5
F0
330
ED
100
AcDbEntity
  8
치수문자_일반주서
 62
     0
370
    -2
100
AcDbLine
 10
-40.00000000000001
 20
4.062499999999998
 30
0.0
 11
-40.00000000000001
 21
25.7884104402427
 31
0.0
  0
LINE
  5
F1
330
ED
100
AcDbEntity
  8
치수문자_일반주서
 62
     0
370
    -2
100
AcDbLine
 10
59.99999999999969
 20
5.062500000000188
 30
0.0
 11
59.99999999999969
 21
25.7884104402427
 31
0.0
  0
LINE
  5
F2
330
ED
100
AcDbEntity
  8
치수문자_일반주서
 62
     0
370
    -2
100
AcDbLine
 10
-36.69800000000001
 20
25.7884104402427
 30
0.0
 11
56.69799999999969
 21
25.7884104402427
 31
0.0
  0
SOLID
  5
F3
330
ED
100
AcDbEntity
  8
치수문자_일반주서
 62
     0
100
AcDbTrace
 10
-36.69800000000001
 20
26.33874377357603
 30
0.0
 11
-36.69800000000001
 21
25.23807710690936
 31
0.0
 12
-40.00000000000001
 22
25.7884104402427
 32
0.0
 13
-40.00000000000001
 23
25.7884104402427
 33
0.0
  0
SOLID
  5
F4
330
ED
100
AcDbEntity
  8
치수문자_일반주서
 62
     0
100
AcDbTrace
 10
56.69799999999969
 20
25.23807710690936
 30
0.0
 11
56.69799999999969
 21
26.33874377357603
 31
0.0
 12
59.99999999999969
 22
25.7884104402427
 32
0.0
 13
59.99999999999969
 23
25.7884104402427
 33
0.0
  0
MTEXT
  5
F5
330
ED
100
AcDbEntity
  8
치수문자_일반주서
 62
     0
100
AcDbMText
 10
9.999999999999856
 20
30.1634104402427
 30
0.0
 40
3.5
 41
0.0
 71
     2
 72
     1
  1
\A1;100
  7
SLDTEXTSTYLE0
 73
     1
 44
1.0
  0
POINT
  5
139
330
ED
100
AcDbEntity
  8
Defpoints
 62
     0
100
AcDbPoint
 10
-40.00000000000001
 20
3.999999999999999
 30
0.0
  0
POINT
  5
13A
330
ED
100
AcDbEntity
  8
Defpoints
 62
     0
100
AcDbPoint
 10
59.99999999999969
 20
5.000000000000188
 30
0.0
  0
POINT
  5
13B
330
ED
100
AcDbEntity
  8
Defpoints
 62
     0
100
AcDbPoint
 10
59.99999999999969
 20
25.7884104402427
 30
0.0
  0
ENDBLK
  5
EF
330
ED
100
AcDbEntity
  8
0
100
AcDbBlockEnd
  0
BLOCK
  5
F8
330
F7
100
AcDbEntity
  8
0
100
AcDbBlockBegin
  2
_D_2
 70
     0
 10
0.0
 20
0.0
 30
0.0
  3
_D_2
  1

  0
LINE
  5
FA
330
F7
100
AcDbEntity
  8
치수문자_일반주서
 62
     0
370
    -2
100
AcDbLine
 10
9.999999999999993
 20
4.97362004595352
 30
0.0
 11
9.999999999999993
 21
18.25811785212104
 31
0.0
  0
LINE
  5
FB
330
F7
100
AcDbEntity
  8
치수문자_일반주서
 62
     0
370
    -2
100
AcDbLine
 10
59.99999999999969
 20
5.062500000000188
 30
0.0
 11
59.99999999999969
 21
18.25811785212104
 31
0.0
  0
LINE
  5
FC
330
F7
100
AcDbEntity
  8
치수문자_일반주서
 62
     0
370
    -2
100
AcDbLine
 10
13.30199999999999
 20
18.25811785212104
 30
0.0
 11
56.69799999999969
 21
18.25811785212104
 31
0.0
  0
SOLID
  5
FD
330
F7
100
AcDbEntity
  8
치수문자_일반주서
 62
     0
100
AcDbTrace
 10
13.30199999999999
 20
18.80845118545438
 30
0.0
 11
13.30199999999999
 21
17.70778451878771
 31
0.0
 12
9.999999999999993
 22
18.25811785212104
 32
0.0
 13
9.999999999999993
 23
18.25811785212104
 33
0.0
  0
SOLID
  5
FE
330
F7
100
AcDbEntity
  8
치수문자_일반주서
 62
     0
100
AcDbTrace
 10
56.69799999999969
 20
17.70778451878771
 30
0.0
 11
56.69799999999969
 21
18.80845118545438
 31
0.0
 12
59.99999999999969
 22
18.25811785212104
 32
0.0
 13
59.99999999999969
 23
18.25811785212104
 33
0.0
  0
MTEXT
  5
FF
330
F7
100
AcDbEntity
  8
치수문자_일반주서
 62
     0
100
AcDbMText
 10
34.99999999999999
 20
22.63311785212104
 30
0.0
 40
3.5
 41
0.0
 71
     2
 72
     1
  1
\A1;50
  7
SLDTEXTSTYLE0
 73
     1
 44
1.0
  0
POINT
  5
13C
330
F7
100
AcDbEntity
  8
Defpoints
 62
     0
100
AcDbPoint
 10
9.999999999999993
 20
4.91112004595352
 30
0.0
  0
POINT
  5
13D
330
F7
100
AcDbEntity
  8
Defpoints
 62
     0
100
AcDbPoint
 10
59.99999999999969
 20
5.000000000000188
 30
0.0
  0
POINT
  5
13E
330
F7
100
AcDbEntity
  8
Defpoints
 62
     0
100
AcDbPoint
 10
59.99999999999969
 20
18.25811785212104
 30
0.0
  0
ENDBLK
  5
F9
330
F7
100
AcDbEntity
  8
0
100
AcDbBlockEnd
  0
BLOCK
  5
102
330
101
100
AcDbEntity
  8
0
100
AcDbBlockBegin
  2
_D_3
 70
     0
 10
0.0
 20
0.0
 30
0.0
  3
_D_3
  1

  0
LINE
  5
104
330
101
100
AcDbEntity
  8
치수문자_일반주서
 62
     0
370
    -2
100
AcDbLine
 10
-39.06250000000001
 20
4.999999999999999
 30
0.0
 11
-50.87670322146819
 21
4.999999999999956
 31
0.0
  0
LINE
  5
105
330
101
100
AcDbEntity
  8
치수문자_일반주서
 62
     0
370
    -2
100
AcDbLine
 10
-39.06250000000001
 20
-4.999999999999994
 30
0.0
 11
-50.87670322146815
 21
-5.000000000000039
 31
0.0
  0
LINE
  5
106
330
101
100
AcDbEntity
  8
치수문자_일반주서
 62
     0
370
    -2
100
AcDbLine
 10
-50.87670322146819
 20
4.999999999999956
 30
0.0
 11
-50.87670322146824
 21
19.04149999999996
 31
0.0
  0
LINE
  5
107
330
101
100
AcDbEntity
  8
치수문자_일반주서
 62
     0
370
    -2
100
AcDbLine
 10
-50.87670322146819
 20
4.999999999999956
 30
0.0
 11
-50.87670322146815
 21
-5.000000000000039
 31
0.0
  0
LINE
  5
108
330
101
100
AcDbEntity
  8
치수문자_일반주서
 62
     0
370
    -2
100
AcDbLine
 10
-50.8767032214682
 20
8.301999999999955
 30
0.0
 11
-50.87670322146822
 21
11.60399999999995
 31
0.0
  0
LINE
  5
109
330
101
100
AcDbEntity
  8
치수문자_일반주서
 62
     0
370
    -2
100
AcDbLine
 10
-50.87670322146814
 20
-8.302000000000039
 30
0.0
 11
-50.87670322146813
 21
-11.60400000000004
 31
0.0
  0
SOLID
  5
10A
330
101
100
AcDbEntity
  8
치수문자_일반주서
 62
     0
100
AcDbTrace
 10
-51.42703655480154
 20
8.301999999999953
 30
0.0
 11
-50.32636988813487
 21
8.301999999999957
 31
0.0
 12
-50.87670322146819
 22
4.999999999999956
 32
0.0
 13
-50.87670322146819
 23
4.999999999999956
 33
0.0
  0
SOLID
  5
10B
330
101
100
AcDbEntity
  8
치수문자_일반주서
 62
     0
100
AcDbTrace
 10
-50.32636988813481
 20
-8.302000000000037
 30
0.0
 11
-51.42703655480148
 21
-8.30200000000004
 31
0.0
 12
-50.87670322146815
 22
-5.000000000000039
 32
0.0
 13
-50.87670322146815
 23
-5.000000000000039
 33
0.0
  0
MTEXT
  5
10C
330
101
100
AcDbEntity
  8
치수문자_일반주서
 62
     0
100
AcDbMText
 10
-55.25170322146823
 20
15.32274999999994
 30
0.0
 40
3.5
 41
0.0
 71
     2
 72
     1
  1
\A1;%%c10
  7
SLDTEXTSTYLE0
 11
-3.552713678800503E-15
 21
1.0
 31
0.0
 73
     1
 44
1.0
  0
POINT
  5
13F
330
101
100
AcDbEntity
  8
Defpoints
 62
     0
100
AcDbPoint
 10
-39.00000000000001
 20
4.999999999999999
 30
0.0
  0
POINT
  5
140
330
101
100
AcDbEntity
  8
Defpoints
 62
     0
100
AcDbPoint
 10
-39.00000000000001
 20
-4.999999999999994
 30
0.0
  0
POINT
  5
141
330
101
100
AcDbEntity
  8
Defpoints
 62
     0
100
AcDbPoint
 10
-50.87670322146815
 20
-5.000000000000038
 30
0.0
  0
ENDBLK
  5
103
330
101
100
AcDbEntity
  8
0
100
AcDbBlockEnd
  0
BLOCK
  5
10E
330
10D
100
AcDbEntity
  8
0
100
AcDbBlockBegin
  2
SW_DOWELSYMBOL_0
 70
     0
 10
0.0
 20
0.0
 30
0.0
  3
SW_DOWELSYMBOL_0
  1

  0
CIRCLE
  5
110
330
10D
100
AcDbEntity
  8
외형선
 62
     0
100
AcDbCircle
 10
0.0
 20
0.0
 30
0.0
 40
3.000000000000004
  0
HATCH
  5
111
330
10D
100
AcDbEntity
  8
0
  6
Continuous
 62
     0
370
    30
100
AcDbHatch
 10
0.0
 20
0.0
 30
0.0
210
0.0
220
0.0
230
1.0
  2
SOLID
 70
     1
 71
     0
 91
        1
 92
        0
 93
        3
 72
     2
 10
0.0000000000000104
 20
0.0
 40
3.000000000000004
 50
0.0
 51
90.0
 73
     1
 72
     1
 10
0.0000000000000104
 20
3.000000000000004
 11
0.0000000000000104
 21
0.0
 72
     1
 10
0.0000000000000104
 20
0.0
 11
3.000000000000015
 21
0.0
 97
        0
 75
     0
 76
     1
 98
        1
 10
0.0
 20
0.0
  0
HATCH
  5
112
330
10D
100
AcDbEntity
  8
0
  6
Continuous
 62
     0
370
    30
100
AcDbHatch
 10
0.0
 20
0.0
 30
0.0
210
0.0
220
0.0
230
1.0
  2
SOLID
 70
     1
 71
     0
 91
        1
 92
        0
 93
        3
 72
     2
 10
0.0000000000000104
 20
0.0
 40
3.000000000000004
 50
180.0
 51
270.0000000000008
 73
     1
 72
     1
 10
0.0000000000000104
 20
-3.000000000000004
 11
0.0000000000000104
 21
0.0
 72
     1
 10
0.0000000000000104
 20
0.0
 11
-2.999999999999994
 21
0.0
 97
        0
 75
     0
 76
     1
 98
        1
 10
0.0
 20
0.0
  0
ENDBLK
  5
10F
330
10D
100
AcDbEntity
  8
0
100
AcDbBlockEnd
  0
ENDSEC
  0
SECTION
  2
ENTITIES
  0
LINE
  5
95
330
1F
100
AcDbEntity
  8
0
  6
Continuous
 62
     1
370
    15
100
AcDbLine
 10
18.50066860109746
 20
1.950007740378994
 30
0.0
 11
18.45270077884964
 21
1.975002995488273
 31
0.0
  0
SPLINE
  5
96
330
1F
100
AcDbEntity
  8
0
  6
Continuous
 62
     1
370
    15
100
AcDbSpline
210
0.0
220
0.0
230
1.0
 70
     8
 71
     3
 72
    10
 73
     6
 74
     0
 42
0.000000001
 43
0.00000001
 40
0.0
 40
0.0
 40
0.0
 40
0.0
 40
0.5167765429487942
 40
0.7108905479416593
 40
0.9999999999999999
 40
0.9999999999999999
 40
0.9999999999999999
 40
0.9999999999999999
 10
19.8385287277303
 20
1.281240404422372
 30
0.0
 10
19.60806925991312
 20
1.3913333586165
 30
0.0
 10
19.29104353653167
 20
1.542779939541003
 30
0.0
 10
18.84539923909656
 20
1.769272655914963
 30
0.0
 10
18.62971254663455
 20
1.88235269082613
 30
0.0
 10
18.50066860109746
 20
1.950007740378994
 30
0.0
  0
SPLINE
  5
97
330
1F
100
AcDbEntity
  8
0
  6
Continuous
 62
     1
370
    15
100
AcDbSpline
210
0.0
220
0.0
230
1.0
 70
     8
 71
     3
 72
     9
 73
     5
 74
     0
 42
0.000000001
 43
0.00000001
 40
0.0
 40
0.0
 40
0.0
 40
0.0
 40
0.5256698754131176
 40
1.0
 40
1.0
 40
1.0
 40
1.0
 10
47.045463827506
 20
1.281266273560304
 30
0.0
 10
46.80274089384351
 20
1.397274553489072
 30
0.0
 10
46.34100065531123
 20
1.617961120010691
 30
0.0
 10
45.87892971106459
 20
1.86011029926653
 30
0.0
 10
45.6597555425121
 20
1.974968949631563
 30
0.0
  0
LINE
  5
98
330
1F
100
AcDbEntity
  8
0
  6
Continuous
 62
     1
370
    15
100
AcDbLine
 10
33.14955618878149
 20
-4.999999999999998
 30
0.0
 11
35.5737016795698
 21
-4.999999999999998
 31
0.0
  0
LINE
  5
99
330
1F
100
AcDbEntity
  8
0
  6
Continuous
 62
     1
370
    15
100
AcDbLine
 10
35.57370167956983
 20
5.000000000000009
 30
0.0
 11
33.14955618878151
 21
5.000000000000009
 31
0.0
  0
LINE
  5
9A
330
1F
100
AcDbEntity
  8
0
  6
Continuous
 62
     1
370
    15
100
AcDbLine
 10
44.33356148334585
 20
1.379271704733569
 30
0.0
 11
44.22792788382635
 21
1.437410924069391
 31
0.0
  0
LINE
  5
9B
330
1F
100
AcDbEntity
  8
0
  6
Continuous
 62
     1
370
    15
100
AcDbLine
 10
17.10571074596405
 20
1.390860843763337
 30
0.0
 11
17.02078796431477
 21
1.437493703156295
 31
0.0
  0
SPLINE
  5
9C
330
1F
100
AcDbEntity
  8
0
  6
Continuous
 62
     1
370
    15
100
AcDbSpline
210
0.0
220
0.0
230
1.0
 70
     8
 71
     3
 72
    12
 73
     8
 74
     0
 42
0.000000001
 43
0.00000001
 40
0.0
 40
0.0
 40
0.0
 40
0.0
 40
0.2086101832575691
 40
0.5009172584808628
 40
0.6984083851671882
 40
0.792028282671297
 40
1.0
 40
1.0
 40
1.0
 40
1.0
 10
37.87354269990029
 20
-4.160701867024544
 30
0.0
 10
38.39660279438724
 20
-4.112675955300163
 30
0.0
 10
39.65258092766777
 20
-3.997355563642591
 30
0.0
 10
41.40272070222306
 20
-3.915181282053006
 30
0.0
 10
42.86509359096396
 20
-3.900642346417978
 30
0.0
 10
44.11564575807202
 20
-3.916185423212601
 30
0.0
 10
44.87191548039581
 20
-3.949931587759339
 30
0.0
 10
45.39342438574973
 20
-3.973202287105317
 30
0.0
  0
SPLINE
  5
9D
330
1F
100
AcDbEntity
  8
0
  6
Continuous
 62
     1
370
    15
100
AcDbSpline
210
0.0
220
0.0
230
1.0
 70
     8
 71
     3
 72
    15
 73
    11
 74
     0
 42
0.000000001
 43
0.00000001
 40
0.0
 40
0.0
 40
0.0
 40
0.0
 40
0.2015154568374928
 40
0.3534626711084082
 40
0.4567619874200253
 40
0.5345587148076965
 40
0.610983844121443
 40
0.7598823990186999
 40
0.9202318985029135
 40
1.0
 40
1.0
 40
1.0
 40
1.0
 10
18.18630348562176
 20
3.97319533920688
 30
0.0
 10
17.91116852281382
 20
3.95982660249516
 30
0.0
 10
17.42857557239896
 20
3.936377535800093
 30
0.0
 10
16.80604333945823
 20
3.91823899659272
 30
0.0
 10
16.3511421000608
 20
3.909597829984439
 30
0.0
 10
15.99904856216186
 20
3.90574722133928
 30
0.0
 10
15.58608626194652
 20
3.903923893348003
 30
0.0
 10
15.06349381463995
 20
3.907285137959176
 30
0.0
 10
14.53279504047603
 20
3.915639310261271
 30
0.0
 10
14.2054540189578
 20
3.9277521569781
 30
0.0
 10
14.09670992139096
 20
3.931776096840808
 30
0.0
  0
SPLINE
  5
9E
330
1F
100
AcDbEntity
  8
0
  6
Continuous
 62
     1
370
    15
100
AcDbSpline
210
0.0
220
0.0
230
1.0
 70
     8
 71
     3
 72
    19
 73
    15
 74
     0
 42
0.000000001
 43
0.00000001
 40
0.0
 40
0.0
 40
0.0
 40
0.0
 40
0.1046732132073777
 40
0.1818719314118582
 40
0.2321893075513232
 40
0.2747906856238977
 40
0.3190810856935539
 40
0.4969438743174664
 40
0.6072786801979922
 40
0.7107865901199295
 40
0.7526433924825802
 40
0.8092858314870428
 40
0.8915622936820402
 40
1.0
 40
1.0
 40
1.0
 40
1.0
 10
10.71000278740782
 20
-4.156308969431534
 30
0.0
 10
10.97131588446044
 20
-4.13136238816529
 30
0.0
 10
11.42535294139131
 20
-4.088017173300951
 30
0.0
 10
12.00361036528486
 20
-4.042495961941745
 30
0.0
 10
12.42530035417936
 20
-4.01298827395551
 30
0.0
 10
12.76557451615888
 20
-3.991510284345772
 30
0.0
 10
13.42504683152403
 20
-3.954029621346813
 30
0.0
 10
14.25475456046708
 20
-3.920937616164312
 30
0.0
 10
15.23116665841203
 20
-3.904273553183051
 30
0.0
 10
15.86539602376085
 20
-3.904146110527816
 30
0.0
 10
16.37088280288531
 20
-3.90990853417841
 30
0.0
 10
16.82242039658303
 20
-3.91865349217098
 30
0.0
 10
17.43916307601685
 20
-3.936841137239
 30
0.0
 10
17.91547719592924
 20
-3.960017530180456
 30
0.0
 10
18.18630348562176
 20
-3.97319533920687
 30
0.0
  0
SPLINE
  5
9F
330
1F
100
AcDbEntity
  8
0
  6
Continuous
 62
     1
370
    15
100
AcDbSpline
210
0.0
220
0.0
230
1.0
 70
     8
 71
     3
 72
    10
 73
     6
 74
     0
 42
0.000000001
 43
0.00000001
 40
0.0
 40
0.0
 40
0.0
 40
0.0
 40
0.3817410084151921
 40
0.9160573794060259
 40
0.9999999999999999
 40
0.9999999999999999
 40
0.9999999999999999
 40
0.9999999999999999
 10
45.39342438574973
 20
3.973202287105331
 30
0.0
 10
44.8719658374054
 20
3.950945372183144
 30
0.0
 10
43.62063066320368
 20
3.897535833496365
 30
0.0
 10
42.25538782832652
 20
3.892911542334306
 30
0.0
 10
41.41120325572886
 20
3.92938152859664
 30
0.0
 10
41.29658613530947
 20
3.934333152853715
 30
0.0
  0
SPLINE
  5
A0
330
1F
100
AcDbEntity
  8
0
  6
Continuous
 62
     1
370
    15
100
AcDbSpline
210
0.0
220
0.0
230
1.0
 70
     8
 71
     3
 72
    15
 73
    11
 74
     0
 42
0.000000001
 43
0.00000001
 40
0.0
 40
0.0
 40
0.0
 40
0.0
 40
0.1535263407287004
 40
0.2712719883001142
 40
0.3576143023224029
 40
0.4477266612615527
 40
0.5507038493071376
 40
0.6626561933411667
 40
0.9278367732545579
 40
1.0
 40
1.0
 40
1.0
 40
1.0
 10
49.40777191965979
 20
-3.760651778215214
 30
0.0
 10
49.59719165225363
 20
-3.731588923217823
 30
0.0
 10
49.93188514680395
 20
-3.680236572713022
 30
0.0
 10
50.37544392781874
 20
-3.6186912176971
 30
0.0
 10
50.74740968176002
 20
-3.570804796017711
 30
0.0
 10
51.09937703432439
 20
-3.528597219736013
 30
0.0
 10
51.48141972395039
 20
-3.486300869667479
 30
0.0
 10
52.08028590538924
 20
-3.427070012353987
 30
0.0
 10
52.64088117536179
 20
-3.37810149418028
 30
0.0
 10
53.06193824285987
 20
-3.356657216772075
 30
0.0
 10
53.15200907278138
 20
-3.352069943425255
 30
0.0
  0
SPLINE
  5
A1
330
1F
100
AcDbEntity
  8
0
  6
Continuous
 62
     1
370
    15
100
AcDbSpline
210
0.0
220
0.0
230
1.0
 70
     8
 71
     3
 72
    24
 73
    20
 74
     0
 42
0.000000001
 43
0.00000001
 40
0.0
 40
0.0
 40
0.0
 40
0.0
 40
0.0738006993260569
 40
0.1296917612690104
 40
0.1676459024179221
 40
0.201058444113855
 40
0.2362822154853939
 40
0.2735848813182593
 40
0.3733015280640651
 40
0.4808053223560908
 40
0.5587244320410796
 40
0.6248211427429808
 40
0.6895630877097126
 40
0.7393482532866039
 40
0.7875425665567644
 40
0.8202982812981805
 40
0.8666533526342147
 40
0.926385061691392
 40
1.0
 40
1.0
 40
1.0
 40
1.0
 10
30.93480982966798
 20
3.419767752707034
 30
0.0
 10
30.72014333793668
 20
3.402342796544012
 30
0.0
 10
30.34290469857
 20
3.37172149789163
 30
0.0
 10
29.85558014233047
 20
3.342512774157492
 30
0.0
 10
29.48426121976031
 20
3.32418930926393
 30
0.0
 10
29.1729499382724
 20
3.311702250029189
 30
0.0
 10
28.86428175664856
 20
3.301968403538025
 30
0.0
 10
28.36290890022583
 20
3.2908801061657
 30
0.0
 10
27.65059413623656
 20
3.28768075823876
 30
0.0
 10
26.82108587780694
 20
3.306103635308397
 30
0.0
 10
26.0887490354411
 20
3.339650487837039
 30
0.0
 10
25.48066365441538
 20
3.378366517555783
 30
0.0
 10
24.95492060242323
 20
3.42058736286209
 30
0.0
 10
24.48121974664742
 20
3.465143475769993
 30
0.0
 10
24.10494923070432
 20
3.504701736117678
 30
0.0
 10
23.73604727440122
 20
3.546872788380271
 30
0.0
 10
23.33148805575754
 20
3.596926463775712
 30
0.0
 10
22.80694849001492
 20
3.66798226150051
 30
0.0
 10
22.41625149752328
 20
3.727711763117001
 30
0.0
 10
22.20056452250145
 20
3.760685847307062
 30
0.0
  0
SPLINE
  5
A2
330
1F
100
AcDbEntity
  8
0
  6
Continuous
 62
     1
370
    15
100
AcDbSpline
210
0.0
220
0.0
230
1.0
 70
     8
 71
     3
 72
    16
 73
    12
 74
     0
 42
0.000000001
 43
0.00000001
 40
0.0
 40
0.0
 40
0.0
 40
0.0
 40
0.1715682782342999
 40
0.3107800566368056
 40
0.4456124136945665
 40
0.5294478286573765
 40
0.6029171301862885
 40
0.6782312643900328
 40
0.7543866998484391
 40
0.8285374040193142
 40
0.9999999999999999
 40
0.9999999999999999
 40
0.9999999999999999
 40
0.9999999999999999
 10
22.20056452250145
 20
-3.760685847307052
 30
0.0
 10
22.41626395575231
 20
-3.727711114148984
 30
0.0
 10
22.80698351517275
 20
-3.667980436987013
 30
0.0
 10
23.36494034181558
 20
-3.592385868585583
 30
0.0
 10
23.81272590748666
 20
-3.537585892726399
 30
0.0
 10
24.1742355607876
 20
-3.497363195581123
 30
0.0
 10
24.46247578894786
 20
-3.467463444353255
 30
0.0
 10
24.74265884310719
 20
-3.440437199203497
 30
0.0
 10
25.02459134343952
 20
-3.415409466458271
 30
0.0
 10
25.42640055898593
 20
-3.382598794338616
 30
0.0
 10
25.73336178401894
 20
-3.363163577130199
 30
0.0
 10
25.94765135415661
 20
-3.349595855862876
 30
0.0
  0
SPLINE
  5
A3
330
1F
100
AcDbEntity
  8
0
  6
Continuous
 62
     1
370
    15
100
AcDbSpline
210
0.0
220
0.0
230
1.0
 70
     8
 71
     3
 72
    23
 73
    19
 74
     0
 42
0.000000001
 43
0.00000001
 40
0.0
 40
0.0
 40
0.0
 40
0.0
 40
0.070400009081639
 40
0.1237726114867923
 40
0.1613223210140984
 40
0.1991806874842621
 40
0.2414957922779996
 40
0.2874364124711413
 40
0.400065532435754
 40
0.5041650194277069
 40
0.6096700832231009
 40
0.707828221177986
 40
0.7373702285847589
 40
0.7645852805654282
 40
0.7986319364695148
 40
0.8493225745900507
 40
0.9162997151104382
 40
1.0
 40
1.0
 40
1.0
 40
1.0
 10
58.16921123193307
 20
3.422115944268885
 30
0.0
 10
57.96467894893981
 20
3.405285119785161
 30
0.0
 10
57.6050838987449
 20
3.375694284116222
 30
0.0
 10
57.13493266680833
 20
3.346539322861801
 30
0.0
 10
56.75454315989467
 20
3.327007638692095
 30
0.0
 10
56.40801081511164
 20
3.312556558770036
 30
0.0
 10
56.03909599961226
 20
3.300874151129971
 30
0.0
 10
55.45277627467308
 20
3.289077181765056
 30
0.0
 10
54.68910353092625
 20
3.289161399123584
 30
0.0
 10
53.73322873613662
 20
3.316123424006789
 30
0.0
 10
52.84262780522228
 20
3.365404846856082
 30
0.0
 10
52.16748641453943
 20
3.419719200520136
 30
0.0
 10
51.71496550748744
 20
3.463002835534139
 30
0.0
 10
51.44999569539628
 20
3.490089255085064
 30
0.0
 10
51.12352698856079
 20
3.525764539330133
 30
0.0
 10
50.68103091346129
 20
3.578512240600171
 30
0.0
 10
50.09359949919949
 20
3.656173865648056
 30
0.0
 10
49.65269266625825
 20
3.723340930543903
 30
0.0
 10
49.40777191965979
 20
3.760651778215227
 30
0.0
  0
LINE
  5
A4
330
1F
100
AcDbEntity
  8
0
  6
Continuous
 62
   131
370
    15
100
AcDbLine
 10
8.479993814073104
 20
5.000000000000005
 30
0.0
 11
-39.00000000000001
 21
5.000000000000003
 31
0.0
  0
LINE
  5
A5
330
1F
100
AcDbEntity
  8
0
  6
Continuous
 62
   131
370
    15
100
AcDbLine
 10
-39.00000000000001
 20
-4.999999999999997
 30
0.0
 11
8.479993814073104
 21
-4.999999999999995
 31
0.0
  0
LINE
  5
A6
330
1F
100
AcDbEntity
  8
0
  6
Continuous
 62
   131
370
    15
100
AcDbLine
 10
-39.00000000000001
 20
4.999999999999999
 30
0.0
 11
-40.00000000000001
 21
3.999999999999998
 31
0.0
  0
LINE
  5
A7
330
1F
100
AcDbEntity
  8
0
  6
Continuous
 62
   131
370
    15
100
AcDbLine
 10
-40.00000000000001
 20
-3.999999999999995
 30
0.0
 11
-39.00000000000001
 21
-4.999999999999994
 31
0.0
  0
SPLINE
  5
A8
330
1F
100
AcDbEntity
  8
0
  6
Continuous
 62
     1
370
    15
100
AcDbSpline
210
0.0
220
0.0
230
1.0
 70
     8
 71
     3
 72
    24
 73
    20
 74
     0
 42
0.000000001
 43
0.00000001
 40
0.0
 40
0.0
 40
0.0
 40
0.0
 40
0.0488055060635336
 40
0.1076086071377408
 40
0.1664132436220804
 40
0.2252200048034029
 40
0.2840294785226971
 40
0.3428422507770199
 40
0.4016589053240945
 40
0.4604800232901547
 40
0.5193059672989321
 40
0.5781300626352001
 40
0.6369493448526263
 40
0.6974598948059779
 40
0.7579695126158259
 40
0.8184782650602108
 40
0.8789862190560331
 40
0.9394934416484118
 40
0.9999999999999999
 40
0.9999999999999999
 40
0.9999999999999999
 40
0.9999999999999999
 10
41.28745799837747
 20
-3.937259158987053
 30
0.0
 10
40.77848131189069
 20
-4.110817375347982
 30
0.0
 10
39.65626628502208
 20
-4.493486451570608
 30
0.0
 10
37.92079072387683
 20
-4.850562680381202
 30
0.0
 10
36.0810056867238
 20
-5.029948452903746
 30
0.0
 10
34.24114082120518
 20
-4.978057803860875
 30
0.0
 10
32.40117410495932
 20
-4.703660661894406
 30
0.0
 10
30.56108379685146
 20
-4.217354297691422
 30
0.0
 10
28.72084696591174
 20
-3.541458159622559
 30
0.0
 10
26.8804479347908
 20
-2.70622233402794
 30
0.0
 10
25.03992841740011
 20
-1.749302890316259
 30
0.0
 10
23.19944364761119
 20
-0.7136693140867855
 30
0.0
 10
21.3414394802699
 20
0.3642687538083461
 30
0.0
 10
19.46582139760156
 20
1.436167541267099
 30
0.0
 10
17.57260032150375
 20
2.44942659300043
 30
0.0
 10
15.67940867070897
 20
3.347307081343672
 30
0.0
 10
13.78624787811655
 20
4.081359870413915
 30
0.0
 10
11.89311405674218
 20
4.637932418393046
 30
0.0
 10
10.63103570974382
 20
4.820057836660339
 30
0.0
 10
9.999999999998568
 20
4.911120045953675
 30
0.0
  0
SPLINE
  5
A9
330
1F
100
AcDbEntity
  8
0
  6
Continuous
 62
     1
370
    15
100
AcDbSpline
210
0.0
220
0.0
230
1.0
 70
     8
 71
     3
 72
    17
 73
    13
 74
     0
 42
0.000000001
 43
0.00000001
 40
0.0
 40
0.0
 40
0.0
 40
0.0
 40
0.0826224710665456
 40
0.2013961775592431
 40
0.3032156724562775
 40
0.4050411336821145
 40
0.5068736170126046
 40
0.6087141734080783
 40
0.7105634585709181
 40
0.8124094000975759
 40
0.9142466361617911
 40
1.0
 40
1.0
 40
1.0
 40
1.0
 10
37.88098680169939
 20
-4.132778223879215
 30
0.0
 10
37.38326115718497
 20
-4.181665545746629
 30
0.0
 10
36.17003137859749
 20
-4.300830702974567
 30
0.0
 10
34.34321584408511
 20
-4.195218548528353
 30
0.0
 10
32.40119135114508
 20
-3.899601081196914
 30
0.0
 10
30.56107581343638
 20
-3.436751235382234
 30
0.0
 10
28.72084536269929
 20
-2.821275700919966
 30
0.0
 10
26.88044371413566
 20
-2.07846533507993
 30
0.0
 10
25.03992995029548
 20
-1.241908376837024
 30
0.0
 10
23.19944775707015
 20
-0.3510411733476584
 30
0.0
 10
21.45596147820475
 20
0.513567241566641
 30
0.0
 10
20.3259527113923
 20
1.047036220369892
 30
0.0
 10
19.80939136465511
 20
1.290901101976476
 30
0.0
  0
SPLINE
  5
AA
330
1F
100
AcDbEntity
  8
0
  6
Continuous
 62
     1
370
    15
100
AcDbSpline
210
0.0
220
0.0
230
1.0
 70
     8
 71
     3
 72
    21
 73
    17
 74
     0
 42
0.000000001
 43
0.00000001
 40
0.0
 40
0.0
 40
0.0
 40
0.0
 40
0.0753468104387243
 40
0.1506873095781347
 40
0.2260222386969163
 40
0.3013523428437409
 40
0.3766783703388246
 40
0.4520010722707476
 40
0.5273212019892665
 40
0.6026395145948461
 40
0.6779567664256481
 40
0.7532737145427183
 40
0.828591116214121
 40
0.9039097283987743
 40
0.9792303072307336
 40
0.9999999999999999
 40
0.9999999999999999
 40
0.9999999999999999
 40
0.9999999999999999
 10
60.00000000000001
 20
-4.74470434615949
 30
0.0
 10
59.38648167469076
 20
-4.612300695967017
 30
0.0
 10
58.15949641440663
 20
-4.347504486151951
 30
0.0
 10
56.31912953973368
 20
-3.697575374021608
 30
0.0
 10
54.47892339915593
 20
-2.896684679629908
 30
0.0
 10
52.63885929860086
 20
-1.961436239999738
 30
0.0
 10
50.7989144813593
 20
-0.9390976005612024
 30
0.0
 10
48.95906716677711
 20
0.1257421348673588
 30
0.0
 10
47.11929522293602
 20
1.184857518081901
 30
0.0
 10
45.279576530989
 20
2.190614806514197
 30
0.0
 10
43.43988894892971
 20
3.098186312459241
 30
0.0
 10
41.60021018658668
 20
3.865207010482265
 30
0.0
 10
39.76051843659336
 20
4.463033320306848
 30
0.0
 10
37.92079007040717
 20
4.84296544071366
 30
0.0
 10
36.52518261933254
 20
5.014688863973179
 30
0.0
 10
35.74280978174271
 20
4.984107486408559
 30
0.0
 10
35.57370167956982
 20
4.977497391485382
 30
0.0
  0
SPLINE
  5
AB
330
1F
100
AcDbEntity
  8
0
  6
Continuous
 62
     1
370
    15
100
AcDbSpline
210
0.0
220
0.0
230
1.0
 70
     8
 71
     3
 72
    10
 73
     6
 74
     0
 42
0.000000001
 43
0.00000001
 40
0.0
 40
0.0
 40
0.0
 40
0.0
 40
0.0747090932917601
 40
0.5373570860920422
 40
0.9999999999999999
 40
0.9999999999999999
 40
0.9999999999999999
 40
0.9999999999999999
 10
14.09194762186736
 20
-3.933616900163163
 30
0.0
 10
13.9900453769354
 20
-3.973585421677083
 30
0.0
 10
13.25709720436111
 20
-4.261065396467462
 30
0.0
 10
11.893114312697
 20
-4.628657539141364
 30
0.0
 10
10.63103579506178
 20
-4.816966221556352
 30
0.0
 10
9.999999999998568
 20
-4.911120045953665
 30
0.0
  0
SPLINE
  5
AC
330
1F
100
AcDbEntity
  8
0
  6
Continuous
 62
   131
370
    15
100
AcDbSpline
210
0.0
220
0.0
230
1.0
 70
    24
 71
     3
 72
     8
 73
     4
 74
     0
 42
0.000000001
 43
0.00000001
 40
0.0
 40
0.0
 40
0.0
 40
0.0
 40
1.0
 40
1.0
 40
1.0
 40
1.0
 10
9.999999999999993
 20
-4.214946505395343
 30
0.0
 10
9.999999999999993
 20
-4.456226518910895
 30
0.0
 10
9.999999999999993
 20
-4.68981673038254
 30
0.0
 10
9.999999999999993
 20
-4.911120045945466
 30
0.0
  0
SPLINE
  5
AD
330
1F
100
AcDbEntity
  8
0
  6
Continuous
 62
     1
370
    15
100
AcDbSpline
210
0.0
220
0.0
230
1.0
 70
     8
 71
     3
 72
    15
 73
    11
 74
     0
 42
0.000000001
 43
0.00000001
 40
0.0
 40
0.0
 40
0.0
 40
0.0
 40
0.1416831191414223
 40
0.2833538404275017
 40
0.4250136197883084
 40
0.5666639206465978
 40
0.7083062129273248
 40
0.8499419720576933
 40
0.9915726779591699
 40
1.0
 40
1.0
 40
1.0
 40
1.0
 10
60.0
 20
-3.944861321841069
 30
0.0
 10
59.38648219141183
 20
-3.815656445569541
 30
0.0
 10
58.15950025956577
 20
-3.557257998984279
 30
0.0
 10
56.31913225147942
 20
-2.962152681582562
 30
0.0
 10
54.47892694533856
 20
-2.246399447326916
 30
0.0
 10
52.63885820893486
 20
-1.426892781983997
 30
0.0
 10
50.7989286535597
 20
-0.5416498032348848
 30
0.0
 10
48.95902247316364
 20
0.3588539147571619
 30
0.0
 10
47.6961497548273
 20
0.9898206545875099
 30
0.0
 10
47.04628968194215
 20
1.279365783419677
 30
0.0
 10
47.0097932665835
 20
1.295626759786503
 30
0.0
  0
LINE
  5
AE
330
1F
100
AcDbEntity
  8
0
  6
Continuous
 62
     1
370
    15
100
AcDbLine
 10
10.71567346703897
 20
-4.132367294976753
 30
0.0
 11
9.999999999999993
 21
-4.214946505395343
 31
0.0
  0
LINE
  5
AF
330
1F
100
AcDbEntity
  8
0
  6
Continuous
 62
     1
370
    15
100
AcDbLine
 10
59.99999999999994
 20
-4.74470434615948
 30
0.0
 11
60.0
 21
-3.944861321841069
 31
0.0
  0
SPLINE
  5
B0
330
1F
100
AcDbEntity
  8
0
  6
Continuous
 62
     1
370
    15
100
AcDbSpline
210
0.0
220
0.0
230
1.0
 70
     8
 71
     3
 72
    20
 73
    16
 74
     0
 42
0.000000001
 43
0.00000001
 40
0.0
 40
0.0
 40
0.0
 40
0.0
 40
0.0817778572044883
 40
0.163556612135266
 40
0.2453363555618416
 40
0.32711717809488
 40
0.4088991701717636
 40
0.4906824220422122
 40
0.5701797909649592
 40
0.6496836650672376
 40
0.7291900382277398
 40
0.8086898887987547
 40
0.8881837067656129
 40
0.967672277556359
 40
1.0
 40
1.0
 40
1.0
 40
1.0
 10
9.999999999999993
 20
4.460892535609198
 30
0.0
 10
10.63103597929683
 20
4.275736224047829
 30
0.0
 10
11.89311486516408
 20
3.90542156834935
 30
0.0
 10
13.78624949429426
 20
3.107172666200416
 30
0.0
 10
15.67941109364446
 20
2.176272381965417
 30
0.0
 10
17.57260355026501
 20
1.137692927023757
 30
0.0
 10
19.46582543039772
 20
0.0460640535368
 30
0.0
 10
21.34144397175962
 20
-1.037910509632537
 30
0.0
 10
23.19944824269729
 20
-2.063171050222769
 30
0.0
 10
25.03993279514994
 20
-2.986194373540799
 30
0.0
 10
26.8804520193582
 20
-3.773886283930375
 30
0.0
 10
28.72085107232351
 20
-4.39555690130081
 30
0.0
 10
30.56108676150889
 20
-4.805715161570783
 30
0.0
 10
32.03730455747696
 20
-5.00265387114107
 30
0.0
 10
32.90010731742067
 20
-4.979493360506013
 30
0.0
 10
33.1495561887815
 20
-4.97279731883082
 30
0.0
  0
SPLINE
  5
B1
330
1F
100
AcDbEntity
  8
0
  6
Continuous
 62
     1
370
    15
100
AcDbSpline
210
0.0
220
0.0
230
1.0
 70
     8
 71
     3
 72
    11
 73
     7
 74
     0
 42
0.000000001
 43
0.00000001
 40
0.0
 40
0.0
 40
0.0
 40
0.0
 40
0.1936906869400295
 40
0.4624397059661071
 40
0.7312085955035184
 40
1.0
 40
1.0
 40
1.0
 40
1.0
 10
53.15265133925055
 20
3.352331489066577
 30
0.0
 10
53.59472950514534
 20
3.539774680656799
 30
0.0
 10
54.65019840909795
 20
3.987298388552828
 30
0.0
 10
56.31913046589975
 20
4.494330971439662
 30
0.0
 10
58.15949652805995
 20
4.887599262021157
 30
0.0
 10
59.38648171250205
 20
4.959714797953175
 30
0.0
 10
59.99999999999969
 20
5.000000000000188
 30
0.0
  0
LINE
  5
B2
330
1F
100
AcDbEntity
  8
0
  6
Continuous
 62
   131
370
    15
100
AcDbLine
 10
9.999999999999993
 20
4.460892535609197
 30
0.0
 11
9.999999999999993
 21
4.911120045946602
 31
0.0
  0
SPLINE
  5
B3
330
1F
100
AcDbEntity
  8
0
  6
Continuous
 62
     1
370
    15
100
AcDbSpline
210
0.0
220
0.0
230
1.0
 70
     8
 71
     3
 72
    26
 73
    22
 74
     0
 42
0.000000001
 43
0.00000001
 40
0.0
 40
0.0
 40
0.0
 40
0.0
 40
0.027356551413059
 40
0.0814027147831147
 40
0.1354447770245838
 40
0.18948327209284
 40
0.2435187363611633
 40
0.2975517082604139
 40
0.3515827279157263
 40
0.4056123367807463
 40
0.4596410772699374
 40
0.5136694923894904
 40
0.5676981253673727
 40
0.6217275192830521
 40
0.6757582166974403
 40
0.7297907592835877
 40
0.783825687458673
 40
0.8378635400178135
 40
0.8919048537702352
 40
0.945950163178311
 40
1.0
 40
1.0
 40
1.0
 40
1.0
 10
25.94892556770692
 20
3.350137649707598
 30
0.0
 10
26.25944954640931
 20
3.486153449343568
 30
0.0
 10
27.18345105851373
 20
3.890884849021335
 30
0.0
 10
28.72085044308159
 20
4.388327225665273
 30
0.0
 10
30.56108760179848
 20
4.815674542507039
 30
0.0
 10
32.40117753469568
 20
5.018592132399915
 30
0.0
 10
34.24114406837121
 20
4.997909577129165
 30
0.0
 10
36.08100867595487
 20
4.751907987438718
 30
0.0
 10
37.92079355714058
 20
4.292373288978833
 30
0.0
 10
39.76052079316225
 20
3.63978464949761
 30
0.0
 10
41.60021255332439
 20
2.823540672859438
 30
0.0
 10
43.43989101954813
 20
1.88032980882527
 30
0.0
 10
45.2795783870021
 20
0.8525672879178544
 30
0.0
 10
47.11929684213562
 20
-0.2135448811499979
 30
0.0
 10
48.95906855493655
 20
-1.270042444876185
 30
0.0
 10
50.7989156369429
 20
-2.269525011089057
 30
0.0
 10
52.63886022222028
 20
-3.166653188425786
 30
0.0
 10
54.47892409103451
 20
-3.922546629904213
 30
0.0
 10
56.31913000038961
 20
-4.497722522790228
 30
0.0
 10
58.15949664445245
 20
-4.886751265194633
 30
0.0
 10
59.38648175130064
 20
-4.959432124451733
 30
0.0
 10
60.00000000000001
 20
-4.999999999999807
 30
0.0
  0
LINE
  5
B4
330
1F
100
AcDbEntity
  8
0
  6
Continuous
 62
     1
370
    15
100
AcDbLine
 10
60.00000000000001
 20
-4.999999999999807
 30
0.0
 11
59.99999999999994
 21
-4.74470434615948
 31
0.0
  0
SPLINE
  5
B5
330
1F
100
AcDbEntity
  8
0
  6
Continuous
 62
     1
370
    15
100
AcDbSpline
210
0.0
220
0.0
230
1.0
 70
     8
 71
     3
 72
    16
 73
    12
 74
     0
 42
0.000000001
 43
0.00000001
 40
0.0
 40
0.0
 40
0.0
 40
0.0
 40
0.0607487016450182
 40
0.195255605980733
 40
0.3186160013316619
 40
0.4419859871498313
 40
0.5653641303003769
 40
0.6887489912102254
 40
0.8121391249961579
 40
0.9355330826017898
 40
1.0
 40
1.0
 40
1.0
 40
1.0
 10
47.57055115594499
 20
-0.4691340612078224
 30
0.0
 10
47.23353596465682
 20
-0.335143166863662
 30
0.0
 10
46.15031766339662
 20
0.0955240336297483
 30
0.0
 10
44.38285051038297
 20
0.8164048527698555
 30
0.0
 10
42.26801323272017
 20
1.621059807897611
 30
0.0
 10
40.21488636465069
 20
2.313474874435653
 30
0.0
 10
38.16161183316976
 20
2.875299545527347
 30
0.0
 10
36.10821348658865
 20
3.278961544878378
 30
0.0
 10
34.05471836554427
 20
3.489518573578301
 30
0.0
 10
32.32806269707991
 20
3.532545279952079
 30
0.0
 10
31.28590777950932
 20
3.430280147325234
 30
0.0
 10
30.92827868305277
 20
3.395186528935365
 30
0.0
  0
SPLINE
  5
B6
330
1F
100
AcDbEntity
  8
0
  6
Continuous
 62
     1
370
    15
100
AcDbSpline
210
0.0
220
0.0
230
1.0
 70
    24
 71
     3
 72
    10
 73
     6
 74
     0
 42
0.000000001
 43
0.00000001
 40
0.0
 40
0.0
 40
0.0
 40
0.0
 40
0.5
 40
0.5
 40
1.0
 40
1.0
 40
1.0
 40
1.0
 10
60.0
 20
3.500000000000011
 30
0.0
 10
60.00000000000001
 20
3.71216128403658
 30
0.0
 10
60.00000000000001
 20
3.958712344335597
 30
0.0
 10
60.00000000000001
 20
4.47597580480429
 30
0.0
 10
60.00000000000001
 20
4.745367179007378
 30
0.0
 10
59.99999999999969
 20
5.000000000000188
 30
0.0
  0
LINE
  5
B7
330
1F
100
AcDbEntity
  8
0
  6
Continuous
 62
     1
370
    15
100
AcDbLine
 10
60.0
 20
3.50000000000001
 30
0.0
 11
58.1651169301326
 21
3.4046165463973
 31
0.0
  0
SPLINE
  5
B8
330
1F
100
AcDbEntity
  8
0
  6
Continuous
 62
     1
370
    15
100
AcDbSpline
210
0.0
220
0.0
230
1.0
 70
     8
 71
     3
 72
    13
 73
     9
 74
     0
 42
0.000000001
 43
0.00000001
 40
0.0
 40
0.0
 40
0.0
 40
0.0
 40
0.0663804659436112
 40
0.2531044621390905
 40
0.4398284129354285
 40
0.6265523190395856
 40
0.8132761811586829
 40
0.9999999999999999
 40
0.9999999999999999
 40
0.9999999999999999
 40
0.9999999999999999
 10
20.36800958416761
 20
-0.4715708197535968
 30
0.0
 10
20.13858773891883
 20
-0.3807531635003679
 30
0.0
 10
19.26381694725284
 20
-0.0344712609564369
 30
0.0
 10
17.74380703957594
 20
0.587236984653633
 30
0.0
 10
15.80784518996026
 20
1.343234316831866
 30
0.0
 10
13.87189864043757
 20
2.031438086281193
 30
0.0
 10
11.93594864724885
 20
2.628936475533715
 30
0.0
 10
10.64531616589371
 20
2.912980450903636
 30
0.0
 10
9.999999999999993
 20
3.055002422130075
 30
0.0
  0
SPLINE
  5
B9
330
1F
100
AcDbEntity
  8
0
  6
Continuous
 62
   131
370
    15
100
AcDbSpline
210
0.0
220
0.0
230
1.0
 70
    24
 71
     3
 72
    10
 73
     6
 74
     0
 42
0.000000001
 43
0.00000001
 40
0.0
 40
0.0
 40
0.0
 40
0.0
 40
0.4999999999999996
 40
0.4999999999999996
 40
1.0
 40
1.0
 40
1.0
 40
1.0
 10
9.999999999999993
 20
4.460892535609198
 30
0.0
 10
9.999999999999993
 20
4.273588612271418
 30
0.0
 10
9.999999999999993
 20
4.04586441875291
 30
0.0
 10
9.999999999999993
 20
3.558332478014814
 30
0.0
 10
9.999999999999993
 20
3.299961739335501
 30
0.0
 10
9.999999999999993
 20
3.055002422130076
 30
0.0
  0
SPLINE
  5
BA
330
1F
100
AcDbEntity
  8
0
  6
Continuous
 62
     1
370
    15
100
AcDbSpline
210
0.0
220
0.0
230
1.0
 70
     8
 71
     3
 72
     8
 73
     4
 74
     0
 42
0.000000001
 43
0.00000001
 40
0.0
 40
0.0
 40
0.0
 40
0.0
 40
1.0
 40
1.0
 40
1.0
 40
1.0
 10
56.90623807966213
 20
1.398590784794528
 30
0.0
 10
56.682140429232
 20
1.664076176022792
 30
0.0
 10
56.48755699161192
 20
1.91788240449736
 30
0.0
 10
56.33398001936778
 20
2.153947629457782
 30
0.0
  0
LINE
  5
BB
330
1F
100
AcDbEntity
  8
0
  6
Continuous
 62
     1
370
    15
100
AcDbLine
 10
56.33398001936778
 20
2.153947629457785
 30
0.0
 11
60.0
 21
0.0000000000000111
 31
0.0
  0
LINE
  5
BC
330
1F
100
AcDbEntity
  8
0
  6
Continuous
 62
     1
370
    15
100
AcDbLine
 10
60.0
 20
0.0000000000000111
 30
0.0
 11
60.0
 21
-1.336214730148213
 31
0.0
  0
SPLINE
  5
BD
330
1F
100
AcDbEntity
  8
0
  6
Continuous
 62
     1
370
    15
100
AcDbSpline
210
0.0
220
0.0
230
1.0
 70
     8
 71
     3
 72
    12
 73
     8
 74
     0
 42
0.000000001
 43
0.00000001
 40
0.0
 40
0.0
 40
0.0
 40
0.0
 40
0.5
 40
0.5
 40
0.75
 40
0.75
 40
1.0
 40
1.0
 40
1.0
 40
1.0
 10
60.00000000000001
 20
-1.336214730148218
 30
0.0
 10
59.46446038354476
 20
-0.9151902182568659
 30
0.0
 10
58.93786580922748
 20
-0.4769025407149404
 30
0.0
 10
58.16173639957132
 20
0.20708932957468
 30
0.0
 10
57.9053602658824
 20
0.4395904021068335
 30
0.0
 10
57.39784408881694
 20
0.9146977532763602
 30
0.0
 10
57.14808896088165
 20
1.156071134681107
 30
0.0
 10
56.90623807966236
 20
1.398590784794262
 30
0.0
  0
SPLINE
  5
BE
330
1F
100
AcDbEntity
  8
0
  6
Continuous
 62
     1
370
    15
100
AcDbSpline
210
0.0
220
0.0
230
1.0
 70
     8
 71
     3
 72
    23
 73
    19
 74
     0
 42
0.000000001
 43
0.00000001
 40
0.0
 40
0.0
 40
0.0
 40
0.0
 40
0.0107896931291517
 40
0.073467896914996
 40
0.1422127464675688
 40
0.210947015751091
 40
0.2796659778488417
 40
0.3483693469713383
 40
0.4170862040685008
 40
0.4858189207474163
 40
0.5545627742736757
 40
0.6233130118820213
 40
0.69206486355975
 40
0.7608135549297778
 40
0.8295543201589481
 40
0.8982824148169289
 40
0.9589082677511409
 40
1.0
 40
1.0
 40
1.0
 40
1.0
 10
49.4136255855807
 20
-3.746219181591169
 30
0.0
 10
49.30130756647995
 20
-3.768163550689171
 30
0.0
 10
48.53652505133167
 20
-3.917584542320602
 30
0.0
 10
47.05618887901851
 20
-4.014032481573134
 30
0.0
 10
44.97231803698563
 20
-3.990015552108248
 30
0.0
 10
42.82571507755909
 20
-3.701756005313267
 30
0.0
 10
40.67957061912746
 20
-3.192535340747046
 30
0.0
 10
38.5337217383785
 20
-2.486677062726576
 30
0.0
 10
36.38763299527175
 20
-1.62929995865353
 30
0.0
 10
34.24106020354549
 20
-0.6721939218848723
 30
0.0
 10
32.09409301403809
 20
0.3260479848705939
 30
0.0
 10
29.94690006869558
 20
1.30435500449765
 30
0.0
 10
27.79965119554881
 20
2.203091614007672
 30
0.0
 10
25.65250962133492
 20
2.966503528079315
 30
0.0
 10
23.5056647318745
 20
3.550858676756565
 30
0.0
 10
21.44337452563513
 20
3.895405650383253
 30
0.0
 10
19.66916307059698
 20
4.031125045906038
 30
0.0
 10
18.61033001371751
 20
3.974957262742137
 30
0.0
 10
18.18258406997314
 20
3.952266677799237
 30
0.0
  0
SPLINE
  5
BF
330
1F
100
AcDbEntity
  8
0
  6
Continuous
 62
   131
370
    15
100
AcDbSpline
210
0.0
220
0.0
230
1.0
 70
    24
 71
     3
 72
    14
 73
    10
 74
     0
 42
0.000000001
 43
0.00000001
 40
0.0
 40
0.0
 40
0.0
 40
0.0
 40
0.25
 40
0.25
 40
0.5
 40
0.5
 40
0.75
 40
0.75
 40
1.0
 40
1.0
 40
1.0
 40
1.0
 10
9.999999999999993
 20
-1.951898358270219
 30
0.0
 10
9.999999999999993
 20
-2.264476756066668
 30
0.0
 10
9.999999999999993
 20
-2.560464782699135
 30
0.0
 10
9.999999999999993
 20
-3.093718374005083
 30
0.0
 10
9.999999999999993
 20
-3.330776843616357
 30
0.0
 10
9.999999999999993
 20
-3.726300577216478
 30
0.0
 10
9.999999999999993
 20
-3.884651625957619
 30
0.0
 10
9.999999999999993
 20
-4.114158197362564
 30
0.0
 10
9.999999999999993
 20
-4.185345808058973
 30
0.0
 10
9.999999999999993
 20
-4.214946505395342
 30
0.0
  0
SPLINE
  5
C0
330
1F
100
AcDbEntity
  8
0
  6
Continuous
 62
     1
370
    15
100
AcDbSpline
210
0.0
220
0.0
230
1.0
 70
     8
 71
     3
 72
    13
 73
     9
 74
     0
 42
0.000000001
 43
0.00000001
 40
0.0
 40
0.0
 40
0.0
 40
0.0
 40
0.1699747059576963
 40
0.3399493539071254
 40
0.5099239396272086
 40
0.6798984588976638
 40
0.8498729074990532
 40
1.0
 40
1.0
 40
1.0
 40
1.0
 10
56.90623807966202
 20
1.398590784794604
 30
0.0
 10
56.25377394048446
 20
1.674041109441253
 30
0.0
 10
54.9488458847996
 20
2.224941664729998
 30
0.0
 10
52.99145274410742
 20
2.918634544001925
 30
0.0
 10
51.03406648144108
 20
3.470655035112824
 30
0.0
 10
49.07665831635811
 20
3.838461844145549
 30
0.0
 10
47.19551915180293
 20
4.027275489903176
 30
0.0
 10
45.96663353788447
 20
3.977303727650745
 30
0.0
 10
45.39028822071264
 20
3.953867053936927
 30
0.0
  0
SPLINE
  5
C1
330
1F
100
AcDbEntity
  8
0
  6
Continuous
 62
     1
370
    15
100
AcDbSpline
210
0.0
220
0.0
230
1.0
 70
     8
 71
     3
 72
    14
 73
    10
 74
     0
 42
0.000000001
 43
0.00000001
 40
0.0
 40
0.0
 40
0.0
 40
0.0
 40
0.0700344169638111
 40
0.2250343991361467
 40
0.3800318520465653
 40
0.5350269568637029
 40
0.6900198951384671
 40
0.8450108487747461
 40
1.0
 40
1.0
 40
1.0
 40
1.0
 10
22.21458603222737
 20
-3.730865298700925
 30
0.0
 10
21.92941184936809
 20
-3.782957076498011
 30
0.0
 10
21.01309093643696
 20
-3.950338236000746
 30
0.0
 10
19.46584222199936
 20
-4.022392572385667
 30
0.0
 10
17.57259851188558
 20
-3.963923714061201
 30
0.0
 10
15.67941220240242
 20
-3.705214267249545
 30
0.0
 10
13.78624923700696
 20
-3.271586353513837
 30
0.0
 10
11.89311531949379
 20
-2.688053306272572
 30
0.0
 10
10.63103599366815
 20
-2.197282389725107
 30
0.0
 10
9.999999999999993
 20
-1.951898358270219
 30
0.0
  0
LINE
  5
C2
330
1F
100
AcDbEntity
  8
0
  6
Continuous
 62
     1
370
    15
100
AcDbLine
 10
60.0
 20
-3.944861321841068
 30
0.0
 11
60.00000000000001
 21
-1.336214730148217
 31
0.0
  0
SPLINE
  5
C3
330
1F
100
AcDbEntity
  8
0
  6
Continuous
 62
   131
370
    15
100
AcDbSpline
210
0.0
220
0.0
230
1.0
 70
    24
 71
     3
 72
    14
 73
    10
 74
     0
 42
0.000000001
 43
0.00000001
 40
0.0
 40
0.0
 40
0.0
 40
0.0
 40
0.25
 40
0.25
 40
0.5
 40
0.5
 40
0.75
 40
0.75
 40
1.0
 40
1.0
 40
1.0
 40
1.0
 10
9.999999999999993
 20
3.055002422130075
 30
0.0
 10
9.999999999999993
 20
2.761515152266401
 30
0.0
 10
9.999999999999996
 20
2.41794120506609
 30
0.0
 10
9.999999999999996
 20
1.650190934944771
 30
0.0
 10
10.0
 20
1.226231109411253
 30
0.0
 10
10.0
 20
0.336360486226533
 30
0.0
 10
10.0
 20
-0.1290761511527309
 30
0.0
 10
9.999999999999996
 20
-1.054866475832273
 30
0.0
 10
9.999999999999996
 20
-1.514781689960987
 30
0.0
 10
9.999999999999993
 20
-1.951898358270219
 30
0.0
  0
SPLINE
  5
C4
330
1F
100
AcDbEntity
  8
0
  6
Continuous
 62
     1
370
    15
100
AcDbSpline
210
0.0
220
0.0
230
1.0
 70
     8
 71
     3
 72
    10
 73
     6
 74
     0
 42
0.000000001
 43
0.00000001
 40
0.0
 40
0.0
 40
0.0
 40
0.0
 40
0.5
 40
0.5
 40
1.0
 40
1.0
 40
1.0
 40
1.0
 10
60.0
 20
3.50000000000001
 30
0.0
 10
59.37778486821061
 20
3.331216419726824
 30
0.0
 10
58.76026279451117
 20
3.137623633046196
 30
0.0
 10
57.53581778859242
 20
2.694407155383059
 30
0.0
 10
56.92880705278056
 20
2.445160530077928
 30
0.0
 10
56.33398001936776
 20
2.153947629457782
 30
0.0
  0
LINE
  5
C5
330
1F
100
AcDbEntity
  8
0
  6
Continuous
 62
     1
370
    15
100
AcDbLine
 10
60.0
 20
0.0000000000000111
 30
0.0
 11
60.0
 21
3.50000000000001
 31
0.0
  0
SPLINE
  5
C6
330
1F
100
AcDbEntity
  8
0
  6
Continuous
 62
   131
370
    15
100
AcDbSpline
210
0.0
220
0.0
230
1.0
 70
     8
 71
     3
 72
    10
 73
     6
 74
     0
 42
0.000000001
 43
0.00000001
 40
0.0
 40
0.0
 40
0.0
 40
0.0
 40
0.5
 40
0.5
 40
1.0
 40
1.0
 40
1.0
 40
1.0
 10
9.999999999999993
 20
-4.91112004595351
 30
0.0
 10
9.74619194016836
 20
-4.938605102971539
 30
0.0
 10
9.494478322279178
 20
-4.959711293141607
 30
0.0
 10
8.988640672217137
 20
-4.989231224164825
 30
0.0
 10
8.734294530672502
 20
-4.99762263222729
 30
0.0
 10
8.479987329272724
 20
-4.999561979277974
 30
0.0
  0
LINE
  5
C7
330
1F
100
AcDbEntity
  8
0
  6
Continuous
 62
   131
370
    15
100
AcDbLine
 10
8.479993814073104
 20
4.999564811047353
 30
0.0
 11
8.479993814073104
 21
5.000000000000005
 31
0.0
  0
SPLINE
  5
C8
330
1F
100
AcDbEntity
  8
0
  6
Continuous
 62
   131
370
    15
100
AcDbSpline
210
0.0
220
0.0
230
1.0
 70
     8
 71
     3
 72
    10
 73
     6
 74
     0
 42
0.000000001
 43
0.00000001
 40
0.0
 40
0.0
 40
0.0
 40
0.0
 40
0.5
 40
0.5
 40
1.0
 40
1.0
 40
1.0
 40
1.0
 10
9.999999999999993
 20
4.91112004595352
 30
0.0
 10
9.74619194016836
 20
4.938605102971549
 30
0.0
 10
9.494478322279178
 20
4.959711293141618
 30
0.0
 10
8.988640672217137
 20
4.989231224164835
 30
0.0
 10
8.734294530672498
 20
4.997622632227301
 30
0.0
 10
8.479987329272724
 20
4.999561979277985
 30
0.0
  0
SPLINE
  5
C9
330
1F
100
AcDbEntity
  8
0
  6
Continuous
 62
   131
370
    15
100
AcDbSpline
210
0.0
220
0.0
230
1.0
 70
     8
 71
     3
 72
    10
 73
     6
 74
     0
 42
0.000000001
 43
0.00000001
 40
0.0
 40
0.0
 40
0.0
 40
0.0
 40
0.5
 40
0.5
 40
1.0
 40
1.0
 40
1.0
 40
1.0
 10
9.999999999999993
 20
4.460892535609194
 30
0.0
 10
9.746193018847078
 20
4.527028127521437
 30
0.0
 10
9.494480459968937
 20
4.587256324332473
 30
0.0
 10
8.988644983924177
 20
4.695998123925423
 30
0.0
 10
8.734299935364628
 20
4.74450291255029
 30
0.0
 10
8.479993814073104
 20
4.786828361164408
 30
0.0
  0
LINE
  5
CA
330
1F
100
AcDbEntity
  8
0
  6
Continuous
 62
   131
370
    15
100
AcDbLine
 10
8.479993814073104
 20
-4.999999999999995
 30
0.0
 11
8.479993814073104
 21
4.786827399025054
 31
0.0
  0
LINE
  5
CB
330
1F
100
AcDbEntity
  8
0
  6
Continuous
 62
   131
370
    15
100
AcDbLine
 10
-39.00000000000001
 20
4.999999999999999
 30
0.0
 11
-39.00000000000001
 21
-4.999999999999997
 31
0.0
  0
LINE
  5
CC
330
1F
100
AcDbEntity
  8
0
  6
Continuous
 62
   131
370
    15
100
AcDbLine
 10
-40.00000000000001
 20
3.999999999999999
 30
0.0
 11
-40.00000000000001
 21
-3.999999999999995
 31
0.0
  0
SPLINE
  5
CD
330
1F
100
AcDbEntity
  8
0
  6
Continuous
 62
   131
370
    15
100
AcDbSpline
210
0.0
220
0.0
230
1.0
 70
    24
 71
     3
 72
    14
 73
    10
 74
     0
 42
0.000000001
 43
0.00000001
 40
0.0
 40
0.0
 40
0.0
 40
0.0
 40
0.25
 40
0.25
 40
0.5
 40
0.5
 40
0.75
 40
0.75
 40
1.0
 40
1.0
 40
1.0
 40
1.0
 10
9.999999999999993
 20
3.055002422130075
 30
0.0
 10
9.999999999999993
 20
2.761515152266401
 30
0.0
 10
9.999999999999996
 20
2.41794120506609
 30
0.0
 10
9.999999999999996
 20
1.650190934944771
 30
0.0
 10
10.0
 20
1.226231109411253
 30
0.0
 10
10.0
 20
0.336360486226533
 30
0.0
 10
10.0
 20
-0.1290761511527309
 30
0.0
 10
9.999999999999996
 20
-1.054866475832273
 30
0.0
 10
9.999999999999996
 20
-1.514781689960987
 30
0.0
 10
9.999999999999993
 20
-1.951898358270219
 30
0.0
  0
SPLINE
  5
CE
330
1F
100
AcDbEntity
  8
0
  6
Continuous
 62
   131
370
    15
100
AcDbSpline
210
0.0
220
0.0
230
1.0
 70
     8
 71
     3
 72
    10
 73
     6
 74
     0
 42
0.000000001
 43
0.00000001
 40
0.0
 40
0.0
 40
0.0
 40
0.0
 40
0.5
 40
0.5
 40
1.0
 40
1.0
 40
1.0
 40
1.0
 10
9.999999999999993
 20
-1.951898358270219
 30
0.0
 10
9.746192625065998
 20
-1.849654860757807
 30
0.0
 10
9.494479679586643
 20
-1.745187732323652
 30
0.0
 10
8.98864340989791
 20
-1.531719743488827
 30
0.0
 10
8.734297962334615
 20
-1.42267847911685
 30
0.0
 10
8.479991446740122
 20
-1.311949260356631
 30
0.0
  0
SPLINE
  5
CF
330
1F
100
AcDbEntity
  8
0
  6
Continuous
 62
   131
370
    15
100
AcDbSpline
210
0.0
220
0.0
230
1.0
 70
     8
 71
     3
 72
    10
 73
     6
 74
     0
 42
0.000000001
 43
0.00000001
 40
0.0
 40
0.0
 40
0.0
 40
0.0
 40
0.5
 40
0.5
 40
1.0
 40
1.0
 40
1.0
 40
1.0
 10
9.999999999999993
 20
3.055002422130075
 30
0.0
 10
9.746192759052182
 20
3.105017069821211
 30
0.0
 10
9.494479945116023
 20
3.150973079955016
 30
0.0
 10
8.988643945469033
 20
3.234841134704812
 30
0.0
 10
8.734298633668958
 20
3.272748458307456
 30
0.0
 10
8.47999225223822
 20
3.306387338075948
 30
0.0
  0
SPLINE
  5
D0
330
1F
100
AcDbEntity
  8
0
  6
Continuous
 62
   131
370
    15
100
AcDbSpline
210
0.0
220
0.0
230
1.0
 70
     8
 71
     3
 72
    10
 73
     6
 74
     0
 42
0.000000001
 43
0.00000001
 40
0.0
 40
0.0
 40
0.0
 40
0.0
 40
0.5
 40
0.5
 40
1.0
 40
1.0
 40
1.0
 40
1.0
 10
9.999999999999993
 20
-4.214946505395343
 30
0.0
 10
9.74619194016836
 20
-4.230898358168207
 30
0.0
 10
9.494478322279178
 20
-4.241396605867155
 30
0.0
 10
8.988640672217137
 20
-4.251534334588847
 30
0.0
 10
8.734294530672502
 20
-4.251152521070543
 30
0.0
 10
8.479987329272724
 20
-4.245292397445684
 30
0.0
  0
SPLINE
  5
D1
330
1F
100
AcDbEntity
  8
0
  6
Continuous
 62
   131
370
    15
100
AcDbSpline
210
0.0
220
0.0
230
1.0
 70
    24
 71
     3
 72
    14
 73
    10
 74
     0
 42
0.000000001
 43
0.00000001
 40
0.0
 40
0.0
 40
0.0
 40
0.0
 40
0.25
 40
0.25
 40
0.5
 40
0.5
 40
0.75
 40
0.75
 40
1.0
 40
1.0
 40
1.0
 40
1.0
 10
9.999999999999993
 20
-1.951898358270219
 30
0.0
 10
9.999999999999993
 20
-2.264476756066668
 30
0.0
 10
9.999999999999993
 20
-2.560464782699135
 30
0.0
 10
9.999999999999993
 20
-3.093718374005083
 30
0.0
 10
9.999999999999993
 20
-3.330776843616357
 30
0.0
 10
9.999999999999993
 20
-3.726300577216478
 30
0.0
 10
9.999999999999993
 20
-3.884651625957619
 30
0.0
 10
9.999999999999993
 20
-4.114158197362564
 30
0.0
 10
9.999999999999993
 20
-4.185345808058973
 30
0.0
 10
9.999999999999993
 20
-4.214946505395342
 30
0.0
  0
SPLINE
  5
D2
330
1F
100
AcDbEntity
  8
0
  6
Continuous
 62
   131
370
    15
100
AcDbSpline
210
0.0
220
0.0
230
1.0
 70
    24
 71
     3
 72
    10
 73
     6
 74
     0
 42
0.000000001
 43
0.00000001
 40
0.0
 40
0.0
 40
0.0
 40
0.0
 40
0.5
 40
0.5
 40
1.0
 40
1.0
 40
1.0
 40
1.0
 10
9.999999999999993
 20
4.460892535609195
 30
0.0
 10
9.999999999999993
 20
4.273588612271414
 30
0.0
 10
9.999999999999993
 20
4.045864418752908
 30
0.0
 10
9.999999999999993
 20
3.558332478014814
 30
0.0
 10
9.999999999999993
 20
3.299961739335498
 30
0.0
 10
9.999999999999993
 20
3.055002422130076
 30
0.0
  0
SPLINE
  5
D3
330
1F
100
AcDbEntity
  8
0
  6
Continuous
 62
   131
370
    15
100
AcDbSpline
210
0.0
220
0.0
230
1.0
 70
    24
 71
     3
 72
     8
 73
     4
 74
     0
 42
0.000000001
 43
0.00000001
 40
0.0
 40
0.0
 40
0.0
 40
0.0
 40
1.0
 40
1.0
 40
1.0
 40
1.0
 10
9.999999999999993
 20
-4.214946505395343
 30
0.0
 10
9.999999999999993
 20
-4.456226518913409
 30
0.0
 10
9.999999999999993
 20
-4.689816730387409
 30
0.0
 10
9.999999999999993
 20
-4.911120045952386
 30
0.0
  0
LINE
  5
D4
330
1F
100
AcDbEntity
  8
중심선
 62
     1
100
AcDbLine
 10
-43.00000000000001
 20
-0.0000000000000004
 30
0.0
 11
63.0
 21
0.0000000000000114
 31
0.0
  0
CIRCLE
  5
D5
330
1F
100
AcDbEntity
  8
외형선
100
AcDbCircle
 10
0.0000000000000104
 20
0.0
 30
0.0
 40
3.000000000000005
  0
INSERT
  5
D6
330
1F
100
AcDbEntity
  8
0
  6
Continuous
 62
     7
100
AcDbBlockReference
 66
     1
  2
블럭10
 10
-22.93944368806589
 20
-52.04609937292004
 30
0.0
  0
ATTRIB
  5
D7
330
D6
100
AcDbEntity
  8
FORMAT
 62
     2
100
AcDbText
 10
-39.05870472750145
 20
-49.97073246008785
 30
0.0
 40
4.233333333333333
  1
SEME7010050E [ 2 FLUTE ]
 41
0.75
  7
SLDTEXTSTYLE0
 11
-39.05870472750145
 21
-52.08739912675452
 31
0.0
100
AcDbAttribute
  2
AUTOATTR0
 70
     0
 74
     1
  0
SEQEND
  5
D8
330
D6
100
AcDbEntity
  8
0
  6
Continuous
 62
     7
  0
HATCH
  5
D9
330
1F
100
AcDbEntity
  8
중심선
100
AcDbHatch
 10
0.0
 20
0.0
 30
0.0
210
0.0
220
0.0
230
1.0
  2
SOLID
 70
     1
 71
     0
 91
        1
 92
        0
 93
        4
 72
     1
 10
-17.22453438368504
 20
-35.7989250712761
 11
-20.67080962752232
 21
-35.7989250712761
 72
     1
 10
-20.67080962752232
 20
-35.7989250712761
 11
-22.79903948672635
 21
-38.3352506518487
 72
     1
 10
-22.79903948672635
 20
-38.3352506518487
 11
-19.35273115777591
 21
-38.33521122254621
 72
     1
 10
-19.35273115777591
 20
-38.33521122254621
 11
-17.22453438368504
 21
-35.7989250712761
 97
        0
 75
     0
 76
     1
 98
        1
 10
0.0
 20
0.0
  0
HATCH
  5
DA
330
1F
100
AcDbEntity
  8
중심선
100
AcDbHatch
 10
0.0
 20
0.0
 30
0.0
210
0.0
220
0.0
230
1.0
  2
SOLID
 70
     1
 71
     0
 91
        1
 92
        0
 93
        4
 72
     1
 10
-12.21177039264909
 20
-35.7989250712761
 11
-15.65804563648637
 21
-35.7989250712761
 72
     1
 10
-15.65804563648637
 20
-35.7989250712761
 11
-20.18918364484376
 21
-41.19892507127612
 72
     1
 10
-20.18918364484376
 20
-41.19892507127612
 11
-16.74290840100648
 21
-41.19892507127612
 72
     1
 10
-16.74290840100648
 20
-41.19892507127612
 11
-12.21177039264909
 21
-35.7989250712761
 97
        0
 75
     0
 76
     1
 98
        1
 10
0.0
 20
0.0
  0
HATCH
  5
DB
330
1F
100
AcDbEntity
  8
중심선
100
AcDbHatch
 10
0.0
 20
0.0
 30
0.0
210
0.0
220
0.0
230
1.0
  2
SOLID
 70
     1
 71
     0
 91
        1
 92
        0
 93
        4
 72
     1
 10
-7.199006401613195
 20
-35.79892507127613
 11
-10.64528164545031
 21
-35.7989250712761
 72
     1
 10
-10.64528164545031
 20
-35.7989250712761
 11
-17.69371854733956
 21
-44.19892507127612
 72
     1
 10
-17.69371854733956
 20
-44.19892507127612
 11
-14.24744330350228
 21
-44.19892507127612
 72
     1
 10
-14.24744330350228
 20
-44.19892507127612
 11
-7.199006401613195
 21
-35.79892507127613
 97
        0
 75
     0
 76
     1
 98
        1
 10
0.0
 20
0.0
  0
HATCH
  5
DC
330
1F
100
AcDbEntity
  8
중심선
100
AcDbHatch
 10
0.0
 20
0.0
 30
0.0
210
0.0
220
0.0
230
1.0
  2
SOLID
 70
     1
 71
     0
 91
        1
 92
        0
 93
        6
 72
     3
 10
-2.399115970600996
 20
-39.99892507132738
 11
3.960054785062284
 21
1.540850780301639E-10
 40
0.3939339440162633
 50
17.09539180608433
 51
320.0019657685079
 73
     0
 72
     1
 10
-0.7161163149004002
 20
-38.58681907591441
 11
1.589185558800638
 21
-36.65249236586649
 72
     3
 10
-2.399115970653842
 20
-39.99892507127625
 11
6.600054785286829
 21
-1.249000902703301E-13
 40
0.6363583540795982
 50
39.99873849337408
 51
368.4976242363725
 73
     1
 72
     1
 10
4.026216521246767
 20
-39.03892507120613
 11
-3.71904866381792
 21
-39.0389250712061
 72
     1
 10
-3.71904866381792
 20
-39.0389250712061
 11
-3.719073708263854
 21
-40.95892507120602
 72
     1
 10
-3.719073708263854
 20
-40.95892507120602
 11
0.7223060612081831
 21
-40.95892507120599
 97
        0
 75
     0
 76
     1
 98
        1
 10
0.0
 20
0.0
  0
DIMENSION
  5
DD
330
1F
100
AcDbEntity
  8
치수문자_일반주서
100
AcDbDimension
  2
_D
 10
75.59467610953097
 20
5.000000000000249
 30
0.0
 11
75.59467610953094
 21
15.32275000000025
 31
0.0
 70
   160
  1
%%c<>
 71
     2
 42
9.999999999999996
 52
-270.0
  3
SLDDIMSTYLE0
100
AcDbAlignedDimension
 13
60.00000000000001
 23
-4.999999999999807
 33
0.0
 14
59.99999999999969
 24
5.000000000000188
 34
0.0
 50
90.0000000000002
100
AcDbRotatedDimension
  0
DIMENSION
  5
EB
330
1F
100
AcDbEntity
  8
치수문자_일반주서
100
AcDbDimension
  2
_D_1
 10
59.99999999999969
 20
25.7884104402427
 30
0.0
 11
9.999999999999856
 21
25.7884104402427
 31
0.0
 70
   160
  1
<>
 71
     2
 42
99.9999999999997
  3
SLDDIMSTYLE1
100
AcDbAlignedDimension
 13
-40.00000000000001
 23
3.999999999999999
 33
0.0
 14
59.99999999999969
 24
5.000000000000188
 34
0.0
 50
-0.0000000000000041
100
AcDbRotatedDimension
  0
DIMENSION
  5
F6
330
1F
100
AcDbEntity
  8
치수문자_일반주서
100
AcDbDimension
  2
_D_2
 10
59.99999999999969
 20
18.25811785212104
 30
0.0
 11
34.99999999999999
 21
18.25811785212104
 31
0.0
 70
   160
  1
<>
 71
     2
 42
49.9999999999997
  3
SLDDIMSTYLE1
100
AcDbAlignedDimension
 13
9.999999999999993
 23
4.91112004595352
 33
0.0
 14
59.99999999999969
 24
5.000000000000188
 34
0.0
 50
-0.0000000000000041
100
AcDbRotatedDimension
  0
DIMENSION
  5
100
330
1F
100
AcDbEntity
  8
치수문자_일반주서
100
AcDbDimension
  2
_D_3
 10
-50.87670322146815
 20
-5.000000000000039
 30
0.0
 11
-50.87670322146823
 21
15.32274999999995
 31
0.0
 70
   160
  1
%%c<>
 71
     2
 42
9.999999999999993
 52
-270.0
  3
SLDDIMSTYLE0
100
AcDbAlignedDimension
 13
-39.00000000000001
 23
4.999999999999999
 33
0.0
 14
-39.00000000000001
 24
-4.999999999999994
 34
0.0
 50
90.0000000000002
100
AcDbRotatedDimension
  0
INSERT
  5
113
330
1F
100
AcDbEntity
  8
외형선
100
AcDbBlockReference
  2
SW_DOWELSYMBOL_0
 10
0.0000000000000104
 20
0.0
 30
0.0
  0
ENDSEC
  0
SECTION
  2
OBJECTS
  0
DICTIONARY
  5
C
330
0
100
AcDbDictionary
281
     1
  3
ACAD_GROUP
350
D
  3
ACAD_IMAGE_VARS
350
137
  3
ACAD_LAYOUT
350
1A
  3
ACAD_MLINESTYLE
350
17
  3
ACAD_PLOTSETTINGS
350
19
  3
ACAD_PLOTSTYLENAME
350
E
  3
ACAD_SCALELIST
350
47
  3
APPDATA
350
135
  3
DWGPROPS
350
147
  0
DICTIONARY
  5
D
102
{ACAD_REACTORS
330
C
102
}
330
C
100
AcDbDictionary
281
     1
  0
RASTERVARIABLES
  5
137
102
{ACAD_REACTORS
330
C
102
}
330
C
100
AcDbRasterVariables
 90
        0
 70
     1
 71
     1
 72
     1
  0
DICTIONARY
  5
1A
102
{ACAD_REACTORS
330
C
102
}
330
C
100
AcDbDictionary
281
     1
  3
Layout1
350
1E
  3
Layout2
350
26
  3
Model
350
22
  0
DICTIONARY
  5
17
102
{ACAD_REACTORS
330
C
102
}
330
C
100
AcDbDictionary
281
     1
  3
Standard
350
18
  0
DICTIONARY
  5
19
102
{ACAD_REACTORS
330
C
102
}
330
C
100
AcDbDictionary
281
     1
  0
ACDBDICTIONARYWDFLT
  5
E
102
{ACAD_REACTORS
330
C
102
}
330
C
100
AcDbDictionary
281
     1
  3
Normal
350
F
100
AcDbDictionaryWithDefault
340
F
  0
DICTIONARY
  5
47
102
{ACAD_REACTORS
330
C
102
}
330
C
100
AcDbDictionary
281
     1
  3
A0
350
48
  3
A1
350
49
  3
A2
350
4A
  3
A3
350
4B
  3
A4
350
4C
  3
A5
350
4D
  3
A6
350
4E
  3
A7
350
4F
  3
A8
350
50
  3
A9
350
51
  3
B0
350
52
  3
B1
350
53
  3
B2
350
54
  3
B3
350
55
  3
B4
350
56
  3
B5
350
57
  3
B6
350
58
  3
B7
350
59
  3
B8
350
5A
  3
B9
350
5B
  3
C0
350
5C
  3
C1
350
5D
  3
C2
350
5E
  3
C3
350
5F
  3
C4
350
60
  3
C5
350
61
  3
C6
350
62
  3
C7
350
63
  3
C8
350
64
  3
C9
350
65
  3
D0
350
66
  3
D1
350
67
  3
D2
350
68
  0
DICTIONARY
  5
135
102
{ACAD_REACTORS
330
C
102
}
330
C
100
AcDbDictionary
281
     1
  0
XRECORD
  5
147
102
{ACAD_REACTORS
330
C
102
}
330
C
100
AcDbXrecord
280
     1
  1
DWGPROPS COOKIE
  2

  3

  4

  6

  7

  8
12014102
  9

300
=
301
=
302
=
303
=
304
=
305
=
306
=
307
=
308
=
309
=
 40
0.0
 41
2458262.171423079
 42
2458266.108915162
  1

 90
        0
  0
LAYOUT
  5
1E
102
{ACAD_REACTORS
330
1A
102
}
330
1A
100
AcDbPlotSettings
  1

  2
none_device
  4

  6

 40
0.0
 41
0.0
 42
0.0
 43
0.0
 44
0.0
 45
0.0
 46
0.0
 47
0.0
 48
0.0
 49
0.0
140
0.0
141
0.0
142
1.0
143
1.0
 70
   688
 72
     1
 73
     0
 74
     5
  7

 75
    16
147
1.0
148
0.0
149
0.0
100
AcDbLayout
  1
Layout1
 70
     1
 71
     1
 10
0.0
 20
0.0
 11
420.0
 21
297.0
 12
0.0
 22
0.0
 32
0.0
 14
1.000000000000000E+20
 24
1.000000000000000E+20
 34
1.000000000000000E+20
 15
-1.000000000000000E+20
 25
-1.000000000000000E+20
 35
-1.000000000000000E+20
146
0.0
 13
0.0
 23
0.0
 33
0.0
 16
1.0
 26
0.0
 36
0.0
 17
0.0
 27
1.0
 37
0.0
 76
     0
330
1B
  0
LAYOUT
  5
26
102
{ACAD_REACTORS
330
1A
102
}
330
1A
100
AcDbPlotSettings
  1

  2
none_device
  4

  6

 40
0.0
 41
0.0
 42
0.0
 43
0.0
 44
0.0
 45
0.0
 46
0.0
 47
0.0
 48
0.0
 49
0.0
140
0.0
141
0.0
142
1.0
143
1.0
 70
   688
 72
     1
 73
     0
 74
     5
  7

 75
    16
147
1.0
148
0.0
149
0.0
100
AcDbLayout
  1
Layout2
 70
     1
 71
     2
 10
0.0
 20
0.0
 11
0.0
 21
0.0
 12
0.0
 22
0.0
 32
0.0
 14
0.0
 24
0.0
 34
0.0
 15
0.0
 25
0.0
 35
0.0
146
0.0
 13
0.0
 23
0.0
 33
0.0
 16
1.0
 26
0.0
 36
0.0
 17
0.0
 27
1.0
 37
0.0
 76
     0
330
23
  0
LAYOUT
  5
22
102
{ACAD_REACTORS
330
1A
102
}
330
1A
100
AcDbPlotSettings
  1

  2
none_device
  4
ANSI_A_(11.00_x_8.50_Inches)
  6

 40
6.35
 41
19.05
 42
6.35000508
 43
19.05000254
 44
279.4
 45
215.9
 46
116.7435892330353
 47
113.2253856159098
 48
0.0
 49
0.0
140
0.0
141
0.0
142
0.0938294292552811
143
1.0
 70
  1696
 72
     0
 73
     0
 74
     0
  7

 75
     0
147
0.0235690232323232
148
0.0
149
0.0
100
AcDbLayout
  1
Model
 70
     1
 71
     0
 10
0.0
 20
0.0
 11
420.0
 21
297.0
 12
0.0
 22
0.0
 32
0.0
 14
-55.25170322146824
 24
-49.97073246008785
 34
0.0
 15
76.14500944286434
 25
30.1634104402427
 35
0.0
146
0.0
 13
0.0
 23
0.0
 33
0.0
 16
1.0
 26
0.0
 36
0.0
 17
0.0
 27
1.0
 37
0.0
 76
     0
330
1F
331
29
  0
MLINESTYLE
  5
18
102
{ACAD_REACTORS
330
17
102
}
330
17
100
AcDbMlineStyle
  2
Standard
 70
     0
  3

 62
   256
 51
90.0
 52
90.0
 71
     2
 49
0.5
 62
   256
  6
BYLAYER
 49
-0.5
 62
   256
  6
BYLAYER
  0
ACDBPLACEHOLDER
  5
F
102
{ACAD_REACTORS
330
E
102
}
330
E
  0
SCALE
  5
48
102
{ACAD_REACTORS
330
47
102
}
330
47
100
AcDbScale
 70
     0
300
1:1
140
1.0
141
1.0
290
     1
  0
SCALE
  5
49
102
{ACAD_REACTORS
330
47
102
}
330
47
100
AcDbScale
 70
     0
300
1:2
140
1.0
141
2.0
290
     0
  0
SCALE
  5
4A
102
{ACAD_REACTORS
330
47
102
}
330
47
100
AcDbScale
 70
     0
300
1:4
140
1.0
141
4.0
290
     0
  0
SCALE
  5
4B
102
{ACAD_REACTORS
330
47
102
}
330
47
100
AcDbScale
 70
     0
300
1:5
140
1.0
141
5.0
290
     0
  0
SCALE
  5
4C
102
{ACAD_REACTORS
330
47
102
}
330
47
100
AcDbScale
 70
     0
300
1:8
140
1.0
141
8.0
290
     0
  0
SCALE
  5
4D
102
{ACAD_REACTORS
330
47
102
}
330
47
100
AcDbScale
 70
     0
300
1:10
140
1.0
141
10.0
290
     0
  0
SCALE
  5
4E
102
{ACAD_REACTORS
330
47
102
}
330
47
100
AcDbScale
 70
     0
300
1:16
140
1.0
141
16.0
290
     0
  0
SCALE
  5
4F
102
{ACAD_REACTORS
330
47
102
}
330
47
100
AcDbScale
 70
     0
300
1:20
140
1.0
141
20.0
290
     0
  0
SCALE
  5
50
102
{ACAD_REACTORS
330
47
102
}
330
47
100
AcDbScale
 70
     0
300
1:30
140
1.0
141
30.0
290
     0
  0
SCALE
  5
51
102
{ACAD_REACTORS
330
47
102
}
330
47
100
AcDbScale
 70
     0
300
1:40
140
1.0
141
40.0
290
     0
  0
SCALE
  5
52
102
{ACAD_REACTORS
330
47
102
}
330
47
100
AcDbScale
 70
     0
300
1:50
140
1.0
141
50.0
290
     0
  0
SCALE
  5
53
102
{ACAD_REACTORS
330
47
102
}
330
47
100
AcDbScale
 70
     0
300
1:100
140
1.0
141
100.0
290
     0
  0
SCALE
  5
54
102
{ACAD_REACTORS
330
47
102
}
330
47
100
AcDbScale
 70
     0
300
2:1
140
2.0
141
1.0
290
     0
  0
SCALE
  5
55
102
{ACAD_REACTORS
330
47
102
}
330
47
100
AcDbScale
 70
     0
300
4:1
140
4.0
141
1.0
290
     0
  0
SCALE
  5
56
102
{ACAD_REACTORS
330
47
102
}
330
47
100
AcDbScale
 70
     0
300
8:1
140
8.0
141
1.0
290
     0
  0
SCALE
  5
57
102
{ACAD_REACTORS
330
47
102
}
330
47
100
AcDbScale
 70
     0
300
10:1
140
10.0
141
1.0
290
     0
  0
SCALE
  5
58
102
{ACAD_REACTORS
330
47
102
}
330
47
100
AcDbScale
 70
     0
300
100:1
140
100.0
141
1.0
290
     0
  0
SCALE
  5
59
102
{ACAD_REACTORS
330
47
102
}
330
47
100
AcDbScale
 70
     0
300
1/128" = 1'-0"
140
0.0078125
141
12.0
290
     0
  0
SCALE
  5
5A
102
{ACAD_REACTORS
330
47
102
}
330
47
100
AcDbScale
 70
     0
300
1/64" = 1'-0"
140
0.015625
141
12.0
290
     0
  0
SCALE
  5
5B
102
{ACAD_REACTORS
330
47
102
}
330
47
100
AcDbScale
 70
     0
300
1/32" = 1'-0"
140
0.03125
141
12.0
290
     0
  0
SCALE
  5
5C
102
{ACAD_REACTORS
330
47
102
}
330
47
100
AcDbScale
 70
     0
300
1/16" = 1'-0"
140
0.0625
141
12.0
290
     0
  0
SCALE
  5
5D
102
{ACAD_REACTORS
330
47
102
}
330
47
100
AcDbScale
 70
     0
300
3/32" = 1'-0"
140
0.09375
141
12.0
290
     0
  0
SCALE
  5
5E
102
{ACAD_REACTORS
330
47
102
}
330
47
100
AcDbScale
 70
     0
300
1/8" = 1'-0"
140
0.125
141
12.0
290
     0
  0
SCALE
  5
5F
102
{ACAD_REACTORS
330
47
102
}
330
47
100
AcDbScale
 70
     0
300
3/16" = 1'-0"
140
0.1875
141
12.0
290
     0
  0
SCALE
  5
60
102
{ACAD_REACTORS
330
47
102
}
330
47
100
AcDbScale
 70
     0
300
1/4" = 1'-0"
140
0.25
141
12.0
290
     0
  0
SCALE
  5
61
102
{ACAD_REACTORS
330
47
102
}
330
47
100
AcDbScale
 70
     0
300
3/8" = 1'-0"
140
0.375
141
12.0
290
     0
  0
SCALE
  5
62
102
{ACAD_REACTORS
330
47
102
}
330
47
100
AcDbScale
 70
     0
300
1/2" = 1'-0"
140
0.5
141
12.0
290
     0
  0
SCALE
  5
63
102
{ACAD_REACTORS
330
47
102
}
330
47
100
AcDbScale
 70
     0
300
3/4" = 1'-0"
140
0.75
141
12.0
290
     0
  0
SCALE
  5
64
102
{ACAD_REACTORS
330
47
102
}
330
47
100
AcDbScale
 70
     0
300
1" = 1'-0"
140
1.0
141
12.0
290
     0
  0
SCALE
  5
65
102
{ACAD_REACTORS
330
47
102
}
330
47
100
AcDbScale
 70
     0
300
1-1/2" = 1'-0"
140
1.5
141
12.0
290
     0
  0
SCALE
  5
66
102
{ACAD_REACTORS
330
47
102
}
330
47
100
AcDbScale
 70
     0
300
3" = 1'-0"
140
3.0
141
12.0
290
     0
  0
SCALE
  5
67
102
{ACAD_REACTORS
330
47
102
}
330
47
100
AcDbScale
 70
     0
300
6" = 1'-0"
140
6.0
141
12.0
290
     0
  0
SCALE
  5
68
102
{ACAD_REACTORS
330
47
102
}
330
47
100
AcDbScale
 70
     0
300
1'-0" = 1'-0"
140
12.0
141
12.0
290
     0
  0
ENDSEC
  0
EOF
