  0
SECTION
  2
HEADER
  9
$ACADVER
  1
AC1015
  9
$ACADMAINTVER
 70
     6
  9
$DWGCODEPAGE
  3
ANSI_949
  9
$INSBASE
 10
0.0
 20
0.0
 30
0.0
  9
$EXTMIN
 10
-100.5921145077235
 20
-49.97073246008785
 30
0.0
  9
$EXTMAX
 10
83.06727862909156
 20
30.16341044024269
 30
0.0
  9
$LIMMIN
 10
0.0
 20
0.0
  9
$LIMMAX
 10
420.0
 20
297.0
  9
$ORTHOMODE
 70
     0
  9
$REGENMODE
 70
     1
  9
$FILLMODE
 70
     1
  9
$QTEXTMODE
 70
     0
  9
$MIRRTEXT
 70
     1
  9
$LTSCALE
 40
1.0
  9
$ATTMODE
 70
     1
  9
$TEXTSIZE
 40
3.5
  9
$TRACEWID
 40
1.0
  9
$TEXTSTYLE
  7
Standard
  9
$CLAYER
  8
0
  9
$CELTYPE
  6
ByLayer
  9
$CECOLOR
 62
   256
  9
$CELTSCALE
 40
1.0
  9
$DISPSILH
 70
     0
  9
$DIMSCALE
 40
1.0
  9
$DIMASZ
 40
3.302
  9
$DIMEXO
 40
1.0
  9
$DIMDLI
 40
3.75
  9
$DIMRND
 40
0.0
  9
$DIMDLE
 40
0.0
  9
$DIMEXE
 40
1.0
  9
$DIMTP
 40
0.0
  9
$DIMTM
 40
0.0
  9
$DIMTXT
 40
3.5
  9
$DIMCEN
 40
2.5
  9
$DIMTSZ
 40
0.0
  9
$DIMTOL
 70
     0
  9
$DIMLIM
 70
     0
  9
$DIMTIH
 70
     1
  9
$DIMTOH
 70
     1
  9
$DIMSE1
 70
     0
  9
$DIMSE2
 70
     0
  9
$DIMTAD
 70
     1
  9
$DIMZIN
 70
     0
  9
$DIMBLK
  1

  9
$DIMASO
 70
     1
  9
$DIMSHO
 70
     1
  9
$DIMPOST
  1

  9
$DIMAPOST
  1

  9
$DIMALT
 70
     0
  9
$DIMALTD
 70
     3
  9
$DIMALTF
 40
0.0393700787401575
  9
$DIMLFAC
 40
1.0
  9
$DIMTOFL
 70
     1
  9
$DIMTVP
 40
0.0
  9
$DIMTIX
 70
     0
  9
$DIMSOXD
 70
     0
  9
$DIMSAH
 70
     0
  9
$DIMBLK1
  1

  9
$DIMBLK2
  1

  9
$DIMSTYLE
  2
ISO-25
  9
$DIMCLRD
 70
     0
  9
$DIMCLRE
 70
     0
  9
$DIMCLRT
 70
     0
  9
$DIMTFAC
 40
1.0
  9
$DIMGAP
 40
1.524
  9
$DIMJUST
 70
     0
  9
$DIMSD1
 70
     0
  9
$DIMSD2
 70
     0
  9
$DIMTOLJ
 70
     0
  9
$DIMTZIN
 70
     0
  9
$DIMALTZ
 70
     0
  9
$DIMALTTZ
 70
     0
  9
$DIMUPT
 70
     0
  9
$DIMDEC
 70
     2
  9
$DIMTDEC
 70
     2
  9
$DIMALTU
 70
     2
  9
$DIMALTTD
 70
     3
  9
$DIMTXSTY
  7
Standard
  9
$DIMAUNIT
 70
     0
  9
$DIMADEC
 70
     2
  9
$DIMALTRND
 40
0.0
  9
$DIMAZIN
 70
     0
  9
$DIMDSEP
 70
    44
  9
$DIMATFIT
 70
     3
  9
$DIMFRAC
 70
     0
  9
$DIMLDRBLK
  1

  9
$DIMLUNIT
 70
     2
  9
$DIMLWD
 70
    -2
  9
$DIMLWE
 70
    -2
  9
$DIMTMOVE
 70
     0
  9
$LUNITS
 70
     2
  9
$LUPREC
 70
     2
  9
$SKETCHINC
 40
1.0
  9
$FILLETRAD
 40
10.0
  9
$AUNITS
 70
     0
  9
$AUPREC
 70
     2
  9
$MENU
  1
.
  9
$ELEVATION
 40
0.0
  9
$PELEVATION
 40
0.0
  9
$THICKNESS
 40
0.0
  9
$LIMCHECK
 70
     0
  9
$CHAMFERA
 40
0.0
  9
$CHAMFERB
 40
0.0
  9
$CHAMFERC
 40
0.0
  9
$CHAMFERD
 40
0.0
  9
$SKPOLY
 70
     0
  9
$TDCREATE
 40
2458262.546610637
  9
$TDUCREATE
 40
2458262.171610637
  9
$TDUPDATE
 40
2458266.485478576
  9
$TDUUPDATE
 40
2458266.110478576
  9
$TDINDWG
 40
0.0013804051
  9
$TDUSRTIMER
 40
2458266.109098217
  9
$USRTIMER
 70
     1
  9
$ANGBASE
 50
0.0
  9
$ANGDIR
 70
     0
  9
$PDMODE
 70
     0
  9
$PDSIZE
 40
-1.0
  9
$PLINEWID
 40
0.0
  9
$SPLFRAME
 70
     0
  9
$SPLINETYPE
 70
     6
  9
$SPLINESEGS
 70
     8
  9
$HANDSEED
  5
14E
  9
$SURFTAB1
 70
     6
  9
$SURFTAB2
 70
     6
  9
$SURFTYPE
 70
     6
  9
$SURFU
 70
     6
  9
$SURFV
 70
     6
  9
$UCSBASE
  2

  9
$UCSNAME
  2

  9
$UCSORG
 10
0.0
 20
0.0
 30
0.0
  9
$UCSXDIR
 10
1.0
 20
0.0
 30
0.0
  9
$UCSYDIR
 10
0.0
 20
1.0
 30
0.0
  9
$UCSORTHOREF
  2

  9
$UCSORTHOVIEW
 70
     0
  9
$UCSORGTOP
 10
0.0
 20
0.0
 30
0.0
  9
$UCSORGBOTTOM
 10
0.0
 20
0.0
 30
0.0
  9
$UCSORGLEFT
 10
0.0
 20
0.0
 30
0.0
  9
$UCSORGRIGHT
 10
0.0
 20
0.0
 30
0.0
  9
$UCSORGFRONT
 10
0.0
 20
0.0
 30
0.0
  9
$UCSORGBACK
 10
0.0
 20
0.0
 30
0.0
  9
$PUCSBASE
  2

  9
$PUCSNAME
  2

  9
$PUCSORG
 10
0.0
 20
0.0
 30
0.0
  9
$PUCSXDIR
 10
1.0
 20
0.0
 30
0.0
  9
$PUCSYDIR
 10
0.0
 20
1.0
 30
0.0
  9
$PUCSORTHOREF
  2

  9
$PUCSORTHOVIEW
 70
     0
  9
$PUCSORGTOP
 10
0.0
 20
0.0
 30
0.0
  9
$PUCSORGBOTTOM
 10
0.0
 20
0.0
 30
0.0
  9
$PUCSORGLEFT
 10
0.0
 20
0.0
 30
0.0
  9
$PUCSORGRIGHT
 10
0.0
 20
0.0
 30
0.0
  9
$PUCSORGFRONT
 10
0.0
 20
0.0
 30
0.0
  9
$PUCSORGBACK
 10
0.0
 20
0.0
 30
0.0
  9
$USERI1
 70
     0
  9
$USERI2
 70
     0
  9
$USERI3
 70
     0
  9
$USERI4
 70
     0
  9
$USERI5
 70
     0
  9
$USERR1
 40
0.0
  9
$USERR2
 40
0.0
  9
$USERR3
 40
0.0
  9
$USERR4
 40
0.0
  9
$USERR5
 40
0.0
  9
$WORLDVIEW
 70
     1
  9
$SHADEDGE
 70
     3
  9
$SHADEDIF
 70
    70
  9
$TILEMODE
 70
     1
  9
$MAXACTVP
 70
    64
  9
$PINSBASE
 10
0.0
 20
0.0
 30
0.0
  9
$PLIMCHECK
 70
     0
  9
$PEXTMIN
 10
1.000000000000000E+20
 20
1.000000000000000E+20
 30
1.000000000000000E+20
  9
$PEXTMAX
 10
-1.000000000000000E+20
 20
-1.000000000000000E+20
 30
-1.000000000000000E+20
  9
$PLIMMIN
 10
0.0
 20
0.0
  9
$PLIMMAX
 10
0.0
 20
0.0
  9
$UNITMODE
 70
     0
  9
$VISRETAIN
 70
     1
  9
$PLINEGEN
 70
     0
  9
$PSLTSCALE
 70
     1
  9
$TREEDEPTH
 70
  3020
  9
$CMLSTYLE
  2
Standard
  9
$CMLJUST
 70
     0
  9
$CMLSCALE
 40
20.0
  9
$PROXYGRAPHICS
 70
     1
  9
$MEASUREMENT
 70
     1
  9
$CELWEIGHT
370
    -1
  9
$ENDCAPS
280
     0
  9
$JOINSTYLE
280
     0
  9
$LWDISPLAY
290
     1
  9
$INSUNITS
 70
     4
  9
$HYPERLINKBASE
  1

  9
$STYLESHEET
  1

  9
$XEDIT
290
     1
  9
$CEPSNTYPE
380
     0
  9
$PSTYLEMODE
290
     1
  9
$FINGERPRINTGUID
  2
{95E48B09-9505-4137-BEA3-5DB9ED1A9856}
  9
$VERSIONGUID
  2
{FAEB1C32-E019-11D5-929B-00C0DF256EC4}
  9
$EXTNAMES
290
     1
  9
$PSVPSCALE
 40
0.0
  9
$OLESTARTUP
290
     0
  0
ENDSEC
  0
SECTION
  2
CLASSES
  0
CLASS
  1
ACDBDICTIONARYWDFLT
  2
AcDbDictionaryWithDefault
  3
ObjectDBX Classes
 90
        0
280
     0
281
     0
  0
CLASS
  1
VISUALSTYLE
  2
AcDbVisualStyle
  3
ObjectDBX Classes
 90
     4095
280
     0
281
     0
  0
CLASS
  1
MATERIAL
  2
AcDbMaterial
  3
ObjectDBX Classes
 90
     1153
280
     0
281
     0
  0
CLASS
  1
SCALE
  2
AcDbScale
  3
ObjectDBX Classes
 90
     1153
280
     0
281
     0
  0
CLASS
  1
SUN
  2
AcDbSun
  3
SCENEOE
 90
     1153
280
     0
281
     0
  0
CLASS
  1
ACDBPLACEHOLDER
  2
AcDbPlaceHolder
  3
ObjectDBX Classes
 90
        0
280
     0
281
     0
  0
CLASS
  1
LAYOUT
  2
AcDbLayout
  3
ObjectDBX Classes
 90
        0
280
     0
281
     0
  0
CLASS
  1
TABLESTYLE
  2
AcDbTableStyle
  3
ObjectDBX Classes
 90
     4095
280
     0
281
     0
  0
CLASS
  1
MLEADERSTYLE
  2
AcDbMLeaderStyle
  3
ACDB_MLEADERSTYLE_CLASS
 90
     4095
280
     0
281
     0
  0
CLASS
  1
RASTERVARIABLES
  2
AcDbRasterVariables
  3
ISM
 90
        0
280
     0
281
     0
  0
ENDSEC
  0
SECTION
  2
TABLES
  0
TABLE
  2
VPORT
  5
8
330
0
100
AcDbSymbolTable
 70
     1
  0
VPORT
  5
29
330
8
100
AcDbSymbolTableRecord
100
AcDbViewportTableRecord
  2
*Active
 70
     0
 10
0.0
 20
0.0
 11
1.0
 21
1.0
 12
-8.76241793931598
 22
-9.90366100992258
 13
0.0
 23
0.0
 14
10.0
 24
10.0
 15
10.0
 25
10.0
 16
0.0
 26
0.0
 36
1.0
 17
0.0
 27
0.0
 37
0.0
 40
162.5509166969202
 41
1.152454780361757
 42
50.0
 43
0.0
 44
0.0
 50
0.0
 51
0.0
 71
    16
 72
  2000
 73
     1
 74
     3
 75
     0
 76
     0
 77
     0
 78
     0
281
     0
 65
     1
110
0.0
120
0.0
130
0.0
111
1.0
121
0.0
131
0.0
112
0.0
122
1.0
132
0.0
 79
     0
146
0.0
  0
ENDTAB
  0
TABLE
  2
LTYPE
  5
5
330
0
100
AcDbSymbolTable
 70
     6
  0
LTYPE
  5
14
330
5
100
AcDbSymbolTableRecord
100
AcDbLinetypeTableRecord
  2
ByBlock
 70
     0
  3

 72
    65
 73
     0
 40
0.0
  0
LTYPE
  5
15
330
5
100
AcDbSymbolTableRecord
100
AcDbLinetypeTableRecord
  2
ByLayer
 70
     0
  3

 72
    65
 73
     0
 40
0.0
  0
LTYPE
  5
16
330
5
100
AcDbSymbolTableRecord
100
AcDbLinetypeTableRecord
  2
Continuous
 70
     0
  3
Solid line
 72
    65
 73
     0
 40
0.0
  0
LTYPE
  5
6A
330
5
100
AcDbSymbolTableRecord
100
AcDbLinetypeTableRecord
  2
HIDDEN
 70
     0
  3
Hidden __ __ __ __ __ __ __ __ __ __ __ __ __ __
 72
    65
 73
     2
 40
1.905
 49
1.27
 74
     0
 49
-0.635
 74
     0
  0
LTYPE
  5
6B
330
5
100
AcDbSymbolTableRecord
100
AcDbLinetypeTableRecord
  2
PHANTOM
 70
     0
  3
Phantom ______  __  __  ______  __  __  ______
 72
    65
 73
     6
 40
12.7
 49
6.35
 74
     0
 49
-1.27
 74
     0
 49
1.27
 74
     0
 49
-1.27
 74
     0
 49
1.27
 74
     0
 49
-1.27
 74
     0
  0
LTYPE
  5
6C
330
5
100
AcDbSymbolTableRecord
100
AcDbLinetypeTableRecord
  2
CENTER
 70
     0
  3
Center ____ _ ____ _ ____ _ ____ _ ____ _ ____
 72
    65
 73
     4
 40
10.16
 49
6.35
 74
     0
 49
-1.27
 74
     0
 49
1.27
 74
     0
 49
-1.27
 74
     0
  0
LTYPE
  5
6D
330
5
100
AcDbSymbolTableRecord
100
AcDbLinetypeTableRecord
  2
CENTERX2
 70
     0
  3
Center (2x) ________  __  ________  __  _____
 72
    65
 73
     4
 40
20.32
 49
12.7
 74
     0
 49
-2.54
 74
     0
 49
2.54
 74
     0
 49
-2.54
 74
     0
  0
LTYPE
  5
6E
330
5
100
AcDbSymbolTableRecord
100
AcDbLinetypeTableRecord
  2
DOT2
 70
     0
  3
Dot (.5x) ........................................
 72
    65
 73
     2
 40
0.635
 49
0.0
 74
     0
 49
-0.635
 74
     0
  0
ENDTAB
  0
TABLE
  2
LAYER
  5
2
330
0
100
AcDbSymbolTable
 70
    17
  0
LAYER
  5
10
330
2
100
AcDbSymbolTableRecord
100
AcDbLayerTableRecord
  2
0
 70
     0
 62
     7
  6
Continuous
370
    -3
390
F
  0
LAYER
  5
6F
330
2
100
AcDbSymbolTableRecord
100
AcDbLayerTableRecord
  2
FORMAT
 70
     0
 62
     2
  6
Continuous
370
    -3
390
F
  0
LAYER
  5
70
330
2
100
AcDbSymbolTableRecord
100
AcDbLayerTableRecord
  2
외형선
 70
     0
 62
   100
  6
Continuous
370
    30
390
F
  0
LAYER
  5
71
330
2
100
AcDbSymbolTableRecord
100
AcDbLayerTableRecord
  2
숨은선
 70
     0
 62
     2
  6
HIDDEN
370
    15
390
F
  0
LAYER
  5
72
330
2
100
AcDbSymbolTableRecord
100
AcDbLayerTableRecord
  2
중심선
 70
     0
 62
     1
  6
CENTERX2
370
    -3
390
F
  0
LAYER
  5
73
330
2
100
AcDbSymbolTableRecord
100
AcDbLayerTableRecord
  2
파단선
 70
     0
 62
     4
  6
Continuous
370
    -3
390
F
  0
LAYER
  5
74
330
2
100
AcDbSymbolTableRecord
100
AcDbLayerTableRecord
  2
해칭선
 70
     0
 62
     4
  6
Continuous
370
    -3
390
F
  0
LAYER
  5
75
330
2
100
AcDbSymbolTableRecord
100
AcDbLayerTableRecord
  2
가는실선
 70
     0
 62
     4
  6
Continuous
370
    -3
390
F
  0
LAYER
  5
76
330
2
100
AcDbSymbolTableRecord
100
AcDbLayerTableRecord
  2
치수_보조선
 70
     0
 62
     4
  6
Continuous
370
    -3
390
F
  0
LAYER
  5
77
330
2
100
AcDbSymbolTableRecord
100
AcDbLayerTableRecord
  2
치수문자_일반주서
 70
     0
 62
     7
  6
Continuous
370
    15
390
F
  0
LAYER
  5
78
330
2
100
AcDbSymbolTableRecord
100
AcDbLayerTableRecord
  2
개별주서
 70
     0
 62
   100
  6
Continuous
370
    30
390
F
  0
LAYER
  5
79
330
2
100
AcDbSymbolTableRecord
100
AcDbLayerTableRecord
  2
중간선
 70
     0
 62
     2
  6
Continuous
370
    15
390
F
  0
LAYER
  5
7A
330
2
100
AcDbSymbolTableRecord
100
AcDbLayerTableRecord
  2
윤곽선
 70
     0
 62
     3
  6
Continuous
370
    40
390
F
  0
LAYER
  5
7B
330
2
100
AcDbSymbolTableRecord
100
AcDbLayerTableRecord
  2
중심마크
 70
     0
 62
   100
  6
Continuous
370
    30
390
F
  0
LAYER
  5
7C
330
2
100
AcDbSymbolTableRecord
100
AcDbLayerTableRecord
  2
가상선
 70
     0
 62
     4
  6
PHANTOM
370
    -3
390
F
  0
LAYER
  5
7D
330
2
100
AcDbSymbolTableRecord
100
AcDbLayerTableRecord
  2
특수지정선
 70
     0
 62
     5
  6
CENTERX2
370
    60
390
F
  0
LAYER
  5
140
330
2
100
AcDbSymbolTableRecord
100
AcDbLayerTableRecord
  2
Defpoints
 70
     0
 62
     7
  6
Continuous
290
     0
370
    -3
390
F
  0
ENDTAB
  0
TABLE
  2
STYLE
  5
3
330
0
100
AcDbSymbolTable
 70
     2
  0
STYLE
  5
11
330
3
100
AcDbSymbolTableRecord
100
AcDbTextStyleTableRecord
  2
Standard
 70
     0
 40
0.0
 41
1.0
 50
0.0
 71
     0
 42
3.5
  3
txt
  4

  0
STYLE
  5
93
330
3
100
AcDbSymbolTableRecord
100
AcDbTextStyleTableRecord
  2
SLDTEXTSTYLE0
 70
     0
 40
0.0
 41
0.75
 50
0.0
 71
     0
 42
3.5
  3
TXT
  4

  0
ENDTAB
  0
TABLE
  2
VIEW
  5
6
330
0
100
AcDbSymbolTable
 70
     0
  0
ENDTAB
  0
TABLE
  2
UCS
  5
7
330
0
100
AcDbSymbolTable
 70
     0
  0
ENDTAB
  0
TABLE
  2
APPID
  5
9
330
0
100
AcDbSymbolTable
 70
     1
  0
APPID
  5
12
330
9
100
AcDbSymbolTableRecord
100
AcDbRegAppTableRecord
  2
ACAD
 70
     0
  0
ENDTAB
  0
TABLE
  2
DIMSTYLE
  5
A
330
0
100
AcDbSymbolTable
 70
     3
100
AcDbDimStyleTable
  0
DIMSTYLE
105
27
330
A
100
AcDbSymbolTableRecord
100
AcDbDimStyleTableRecord
  2
ISO-25
 70
     0
 41
2.5
 42
0.625
 43
3.75
 44
1.25
 73
     0
 74
     0
 77
     1
 78
     8
140
2.5
141
2.5
143
0.03937007874016
147
0.625
171
     3
172
     1
178
     0
271
     2
272
     2
274
     3
278
    44
283
     0
284
     8
340
11
  0
DIMSTYLE
105
E2
102
{ACAD_REACTORS
330
E1
330
104
102
}
330
A
100
AcDbSymbolTableRecord
100
AcDbDimStyleTableRecord
  2
SLDDIMSTYLE0
 70
     0
 41
3.302
 44
0.0
 45
0.000000001
 73
     0
 74
     0
 77
     1
 78
    12
 79
     3
140
3.5
147
0.875
172
     1
173
     1
178
     0
271
     2
272
     2
276
     2
284
    12
289
     0
340
93
  0
DIMSTYLE
105
F0
102
{ACAD_REACTORS
330
EF
330
FA
102
}
330
A
100
AcDbSymbolTableRecord
100
AcDbDimStyleTableRecord
  2
SLDDIMSTYLE1
 70
     0
 41
3.302
 44
0.0
 45
0.000000001
 73
     0
 74
     0
 77
     1
 78
    12
 79
     3
140
3.5
147
0.875
173
     1
178
     0
271
     2
272
     2
276
     2
284
    12
340
93
  0
ENDTAB
  0
TABLE
  2
BLOCK_RECORD
  5
1
330
0
100
AcDbSymbolTable
 70
     7
  0
BLOCK_RECORD
  5
1F
330
1
100
AcDbSymbolTableRecord
100
AcDbBlockTableRecord
  2
*Model_Space
340
22
  0
BLOCK_RECORD
  5
1B
330
1
100
AcDbSymbolTableRecord
100
AcDbBlockTableRecord
  2
*Paper_Space
340
1E
  0
BLOCK_RECORD
  5
23
330
1
100
AcDbSymbolTableRecord
100
AcDbBlockTableRecord
  2
*Paper_Space0
340
26
  0
BLOCK_RECORD
  5
7E
330
1
100
AcDbSymbolTableRecord
100
AcDbBlockTableRecord
  2
블럭10
340
0
102
{BLKREFS
331
DA
102
}
  0
BLOCK_RECORD
  5
E3
330
1
100
AcDbSymbolTableRecord
100
AcDbBlockTableRecord
  2
_D
340
0
  0
BLOCK_RECORD
  5
F1
330
1
100
AcDbSymbolTableRecord
100
AcDbBlockTableRecord
  2
_D_1
340
0
  0
BLOCK_RECORD
  5
FB
330
1
100
AcDbSymbolTableRecord
100
AcDbBlockTableRecord
  2
_D_2
340
0
  0
BLOCK_RECORD
  5
105
330
1
100
AcDbSymbolTableRecord
100
AcDbBlockTableRecord
  2
_D_3
340
0
  0
BLOCK_RECORD
  5
111
330
1
100
AcDbSymbolTableRecord
100
AcDbBlockTableRecord
  2
SW_DOWELSYMBOL_0
340
0
102
{BLKREFS
331
117
102
}
  0
ENDTAB
  0
ENDSEC
  0
SECTION
  2
BLOCKS
  0
BLOCK
  5
20
330
1F
100
AcDbEntity
  8
0
100
AcDbBlockBegin
  2
*Model_Space
 70
     0
 10
0.0
 20
0.0
 30
0.0
  3
*Model_Space
  1

  0
ENDBLK
  5
21
330
1F
100
AcDbEntity
  8
0
100
AcDbBlockEnd
  0
BLOCK
  5
1C
330
1B
100
AcDbEntity
 67
     1
  8
0
100
AcDbBlockBegin
  2
*Paper_Space
 70
     0
 10
0.0
 20
0.0
 30
0.0
  3
*Paper_Space
  1

  0
ENDBLK
  5
1D
330
1B
100
AcDbEntity
 67
     1
  8
0
100
AcDbBlockEnd
  0
BLOCK
  5
24
330
23
100
AcDbEntity
  8
0
100
AcDbBlockBegin
  2
*Paper_Space0
 70
     0
 10
0.0
 20
0.0
 30
0.0
  3
*Paper_Space0
  1

  0
ENDBLK
  5
25
330
23
100
AcDbEntity
  8
0
100
AcDbBlockEnd
  0
BLOCK
  5
7F
330
7E
100
AcDbEntity
  8
0
100
AcDbBlockBegin
  2
블럭10
 70
     2
 10
0.0
 20
0.0
 30
0.0
  3
블럭10
  1

  0
ELLIPSE
  5
81
330
7E
100
AcDbEntity
  8
중심선
100
AcDbEllipse
 10
20.54032771741204
 20
12.0471743016438
 30
0.0
 11
6.600054785286829
 21
-1.261213355974178E-13
 31
0.0
210
0.0
220
0.0
230
1.0
 40
0.636358354079598
 41
0.9219305317359503
 42
6.513795318482858
  0
ELLIPSE
  5
82
330
7E
100
AcDbEntity
  8
중심선
100
AcDbEllipse
 10
20.54032771746488
 20
12.04717430159265
 30
0.0
 11
3.960054785062283
 21
1.540847449632565E-10
 31
0.0
210
0.0
220
0.0
230
1.0
 40
0.3939339440162632
 41
1.131841032648279
 42
5.62031148352944
  0
LINE
  5
83
330
7E
100
AcDbEntity
  8
중심선
100
AcDbLine
 10
2.268634060543552
 20
16.24717430164393
 30
0.0
 11
5.714909304380834
 21
16.24717430164393
 31
0.0
  0
LINE
  5
84
330
7E
100
AcDbEntity
  8
중심선
100
AcDbLine
 10
5.245725140726316
 20
7.84717430164391
 30
0.0
 11
8.692000384563599
 21
7.84717430164391
 31
0.0
  0
LINE
  5
85
330
7E
100
AcDbEntity
  8
중심선
100
AcDbLine
 10
15.74043728645272
 20
16.24717430164393
 30
0.0
 11
8.692000384563599
 21
7.84717430164391
 31
0.0
  0
LINE
  5
86
330
7E
100
AcDbEntity
  8
중심선
100
AcDbLine
 10
0.1404042013395286
 20
13.71084872107135
 30
0.0
 11
3.58671253028996
 21
13.71088815037384
 31
0.0
  0
LINE
  5
87
330
7E
100
AcDbEntity
  8
중심선
100
AcDbLine
 10
2.750260043222114
 20
10.84717430164391
 30
0.0
 11
6.196535287059397
 21
10.84717430164391
 31
0.0
  0
LINE
  5
88
330
7E
100
AcDbEntity
  8
중심선
100
AcDbLine
 10
12.29416204261559
 20
16.24717430164393
 30
0.0
 11
5.245725140726316
 21
7.84717430164391
 31
0.0
  0
LINE
  5
89
330
7E
100
AcDbEntity
  8
중심선
100
AcDbLine
 10
10.72767329541681
 20
16.24717430164393
 30
0.0
 11
6.196535287059397
 21
10.84717430164391
 31
0.0
  0
LINE
  5
8A
330
7E
100
AcDbEntity
  8
중심선
100
AcDbLine
 10
7.28139805157953
 20
16.24717430164393
 30
0.0
 11
2.750260043222114
 21
10.84717430164391
 31
0.0
  0
LINE
  5
8B
330
7E
100
AcDbEntity
  8
중심선
100
AcDbLine
 10
5.714909304380834
 20
16.24717430164393
 30
0.0
 11
3.58671253028996
 21
13.71088815037384
 31
0.0
  0
LINE
  5
8C
330
7E
100
AcDbEntity
  8
중심선
100
AcDbLine
 10
2.268634060543552
 20
16.24717430164393
 30
0.0
 11
0.1404042013395286
 21
13.71084872107135
 31
0.0
  0
LINE
  5
8D
330
7E
100
AcDbEntity
  8
중심선
100
AcDbLine
 10
7.28139805157953
 20
16.24717430164393
 30
0.0
 11
10.72767329541681
 21
16.24717430164393
 31
0.0
  0
LINE
  5
8E
330
7E
100
AcDbEntity
  8
중심선
100
AcDbLine
 10
12.29416204261559
 20
16.24717430164393
 30
0.0
 11
15.74043728645272
 21
16.24717430164393
 31
0.0
  0
LINE
  5
8F
330
7E
100
AcDbEntity
  8
중심선
100
AcDbLine
 10
19.22036997980202
 20
11.08717430171403
 30
0.0
 11
23.66174974927406
 21
11.08717430171406
 31
0.0
  0
LINE
  5
90
330
7E
100
AcDbEntity
  8
중심선
100
AcDbLine
 10
19.22039502424796
 20
13.00717430171391
 30
0.0
 11
19.22036997980202
 21
11.08717430171403
 31
0.0
  0
LINE
  5
91
330
7E
100
AcDbEntity
  8
중심선
100
AcDbLine
 10
19.22039502424796
 20
13.00717430171391
 30
0.0
 11
26.96566020931264
 21
13.00717430171391
 31
0.0
  0
LINE
  5
92
330
7E
100
AcDbEntity
  8
중심선
100
AcDbLine
 10
22.22332737316547
 20
13.45928029700563
 30
0.0
 11
24.52862924686651
 21
15.39360700705356
 31
0.0
  0
ATTDEF
  5
94
330
7E
100
AcDbEntity
  8
FORMAT
 62
     2
100
AcDbText
 10
-16.11926103943555
 20
2.075366912832191
 30
0.0
 40
4.233333333333333
  1
SEME7010055E [ 2 FLUTE ]
 41
0.75
  7
SLDTEXTSTYLE0
 11
-16.11926103943555
 21
-0.0412997538344756
 31
0.0
100
AcDbAttributeDefinition
  3

  2
AUTOATTR0
 70
     0
 74
     1
  0
ENDBLK
  5
80
330
7E
100
AcDbEntity
  8
0
100
AcDbBlockEnd
  0
BLOCK
  5
E4
330
E3
100
AcDbEntity
  8
0
100
AcDbBlockBegin
  2
_D
 70
     0
 10
0.0
 20
0.0
 30
0.0
  3
_D
  1

  0
LINE
  5
E6
330
E3
100
AcDbEntity
  8
치수문자_일반주서
 62
     0
370
    -2
100
AcDbLine
 10
65.06249999999999
 20
-4.999999999999789
 30
0.0
 11
82.51694529575822
 21
-4.999999999999726
 31
0.0
  0
LINE
  5
E7
330
E3
100
AcDbEntity
  8
치수문자_일반주서
 62
     0
370
    -2
100
AcDbLine
 10
65.0625
 20
5.000000000000206
 30
0.0
 11
82.51694529575819
 21
5.000000000000272
 31
0.0
  0
LINE
  5
E8
330
E3
100
AcDbEntity
  8
치수문자_일반주서
 62
     0
370
    -2
100
AcDbLine
 10
82.51694529575822
 20
-4.999999999999726
 30
0.0
 11
82.51694529575815
 21
19.04150000000027
 31
0.0
  0
LINE
  5
E9
330
E3
100
AcDbEntity
  8
치수문자_일반주서
 62
     0
370
    -2
100
AcDbLine
 10
82.51694529575822
 20
-4.999999999999726
 30
0.0
 11
82.51694529575819
 21
5.000000000000272
 31
0.0
  0
LINE
  5
EA
330
E3
100
AcDbEntity
  8
치수문자_일반주서
 62
     0
370
    -2
100
AcDbLine
 10
82.51694529575823
 20
-8.301999999999726
 30
0.0
 11
82.51694529575825
 21
-11.60399999999973
 31
0.0
  0
LINE
  5
EB
330
E3
100
AcDbEntity
  8
치수문자_일반주서
 62
     0
370
    -2
100
AcDbLine
 10
82.51694529575818
 20
8.302000000000271
 30
0.0
 11
82.51694529575816
 21
11.60400000000027
 31
0.0
  0
SOLID
  5
EC
330
E3
100
AcDbEntity
  8
치수문자_일반주서
 62
     0
100
AcDbTrace
 10
83.06727862909156
 20
-8.301999999999724
 30
0.0
 11
81.9666119624249
 21
-8.301999999999728
 31
0.0
 12
82.51694529575822
 22
-4.999999999999726
 32
0.0
 13
82.51694529575822
 23
-4.999999999999726
 33
0.0
  0
SOLID
  5
ED
330
E3
100
AcDbEntity
  8
치수문자_일반주서
 62
     0
100
AcDbTrace
 10
81.96661196242485
 20
8.30200000000027
 30
0.0
 11
83.0672786290915
 21
8.302000000000273
 31
0.0
 12
82.51694529575819
 22
5.000000000000272
 32
0.0
 13
82.51694529575819
 23
5.000000000000272
 33
0.0
  0
MTEXT
  5
EE
330
E3
100
AcDbEntity
  8
치수문자_일반주서
 62
     0
100
AcDbMText
 10
78.14194529575816
 20
15.32275000000026
 30
0.0
 40
3.5
 41
0.0
 71
     2
 72
     1
  1
\A1;%%c10
  7
SLDTEXTSTYLE0
 11
-2.842170943040402E-15
 21
1.0
 31
0.0
 73
     1
 44
1.0
  0
POINT
  5
14A
330
E3
100
AcDbEntity
  8
Defpoints
 62
     0
100
AcDbPoint
 10
64.99999999999999
 20
-4.999999999999789
 30
0.0
  0
POINT
  5
14B
330
E3
100
AcDbEntity
  8
Defpoints
 62
     0
100
AcDbPoint
 10
65.0
 20
5.000000000000206
 30
0.0
  0
POINT
  5
14C
330
E3
100
AcDbEntity
  8
Defpoints
 62
     0
100
AcDbPoint
 10
82.51694529575819
 20
5.000000000000272
 30
0.0
  0
ENDBLK
  5
E5
330
E3
100
AcDbEntity
  8
0
100
AcDbBlockEnd
  0
BLOCK
  5
F2
330
F1
100
AcDbEntity
  8
0
100
AcDbBlockBegin
  2
_D_1
 70
     0
 10
0.0
 20
0.0
 30
0.0
  3
_D_1
  1

  0
LINE
  5
F4
330
F1
100
AcDbEntity
  8
치수문자_일반주서
 62
     0
370
    -2
100
AcDbLine
 10
-85.0
 20
4.062499999999991
 30
0.0
 11
-85.0
 21
25.78841044024269
 31
0.0
  0
LINE
  5
F5
330
F1
100
AcDbEntity
  8
치수문자_일반주서
 62
     0
370
    -2
100
AcDbLine
 10
65.0
 20
5.062500000000206
 30
0.0
 11
65.0
 21
25.78841044024269
 31
0.0
  0
LINE
  5
F6
330
F1
100
AcDbEntity
  8
치수문자_일반주서
 62
     0
370
    -2
100
AcDbLine
 10
-81.69800000000001
 20
25.78841044024269
 30
0.0
 11
61.698
 21
25.78841044024269
 31
0.0
  0
SOLID
  5
F7
330
F1
100
AcDbEntity
  8
치수문자_일반주서
 62
     0
100
AcDbTrace
 10
-81.69800000000001
 20
26.33874377357602
 30
0.0
 11
-81.69800000000001
 21
25.23807710690935
 31
0.0
 12
-85.0
 22
25.78841044024269
 32
0.0
 13
-85.0
 23
25.78841044024269
 33
0.0
  0
SOLID
  5
F8
330
F1
100
AcDbEntity
  8
치수문자_일반주서
 62
     0
100
AcDbTrace
 10
61.698
 20
25.23807710690935
 30
0.0
 11
61.698
 21
26.33874377357602
 31
0.0
 12
65.0
 22
25.78841044024269
 32
0.0
 13
65.0
 23
25.78841044024269
 33
0.0
  0
MTEXT
  5
F9
330
F1
100
AcDbEntity
  8
치수문자_일반주서
 62
     0
100
AcDbMText
 10
-10.0
 20
30.16341044024269
 30
0.0
 40
3.5
 41
0.0
 71
     2
 72
     1
  1
\A1;150
  7
SLDTEXTSTYLE0
 73
     1
 44
1.0
  0
POINT
  5
141
330
F1
100
AcDbEntity
  8
Defpoints
 62
     0
100
AcDbPoint
 10
-85.0
 20
3.999999999999992
 30
0.0
  0
POINT
  5
142
330
F1
100
AcDbEntity
  8
Defpoints
 62
     0
100
AcDbPoint
 10
65.0
 20
5.000000000000206
 30
0.0
  0
POINT
  5
143
330
F1
100
AcDbEntity
  8
Defpoints
 62
     0
100
AcDbPoint
 10
65.0
 20
25.78841044024269
 30
0.0
  0
ENDBLK
  5
F3
330
F1
100
AcDbEntity
  8
0
100
AcDbBlockEnd
  0
BLOCK
  5
FC
330
FB
100
AcDbEntity
  8
0
100
AcDbBlockBegin
  2
_D_2
 70
     0
 10
0.0
 20
0.0
 30
0.0
  3
_D_2
  1

  0
LINE
  5
FE
330
FB
100
AcDbEntity
  8
치수문자_일반주서
 62
     0
370
    -2
100
AcDbLine
 10
9.999999999999995
 20
5.03290115494165
 30
0.0
 11
9.999999999999993
 21
18.31739896110924
 31
0.0
  0
LINE
  5
FF
330
FB
100
AcDbEntity
  8
치수문자_일반주서
 62
     0
370
    -2
100
AcDbLine
 10
65.0
 20
5.062500000000206
 30
0.0
 11
65.0
 21
18.31739896110924
 31
0.0
  0
LINE
  5
100
330
FB
100
AcDbEntity
  8
치수문자_일반주서
 62
     0
370
    -2
100
AcDbLine
 10
13.30199999999999
 20
18.31739896110924
 30
0.0
 11
61.698
 21
18.31739896110924
 31
0.0
  0
SOLID
  5
101
330
FB
100
AcDbEntity
  8
치수문자_일반주서
 62
     0
100
AcDbTrace
 10
13.30199999999999
 20
18.86773229444258
 30
0.0
 11
13.30199999999999
 21
17.76706562777591
 31
0.0
 12
9.999999999999993
 22
18.31739896110924
 32
0.0
 13
9.999999999999993
 23
18.31739896110924
 33
0.0
  0
SOLID
  5
102
330
FB
100
AcDbEntity
  8
치수문자_일반주서
 62
     0
100
AcDbTrace
 10
61.698
 20
17.76706562777591
 30
0.0
 11
61.698
 21
18.86773229444258
 31
0.0
 12
65.0
 22
18.31739896110924
 32
0.0
 13
65.0
 23
18.31739896110924
 33
0.0
  0
MTEXT
  5
103
330
FB
100
AcDbEntity
  8
치수문자_일반주서
 62
     0
100
AcDbMText
 10
37.49999999999996
 20
22.69239896110924
 30
0.0
 40
3.5
 41
0.0
 71
     2
 72
     1
  1
\A1;55
  7
SLDTEXTSTYLE0
 73
     1
 44
1.0
  0
POINT
  5
144
330
FB
100
AcDbEntity
  8
Defpoints
 62
     0
100
AcDbPoint
 10
9.999999999999995
 20
4.97040115494165
 30
0.0
  0
POINT
  5
145
330
FB
100
AcDbEntity
  8
Defpoints
 62
     0
100
AcDbPoint
 10
65.0
 20
5.000000000000206
 30
0.0
  0
POINT
  5
146
330
FB
100
AcDbEntity
  8
Defpoints
 62
     0
100
AcDbPoint
 10
65.0
 20
18.31739896110924
 30
0.0
  0
ENDBLK
  5
FD
330
FB
100
AcDbEntity
  8
0
100
AcDbBlockEnd
  0
BLOCK
  5
106
330
105
100
AcDbEntity
  8
0
100
AcDbBlockBegin
  2
_D_3
 70
     0
 10
0.0
 20
0.0
 30
0.0
  3
_D_3
  1

  0
LINE
  5
108
330
105
100
AcDbEntity
  8
치수문자_일반주서
 62
     0
370
    -2
100
AcDbLine
 10
-84.0625
 20
4.999999999999996
 30
0.0
 11
-96.21711450772348
 21
4.99999999999995
 31
0.0
  0
LINE
  5
109
330
105
100
AcDbEntity
  8
치수문자_일반주서
 62
     0
370
    -2
100
AcDbLine
 10
-84.0625
 20
-4.999999999999997
 30
0.0
 11
-96.21711450772345
 21
-5.000000000000043
 31
0.0
  0
LINE
  5
10A
330
105
100
AcDbEntity
  8
치수문자_일반주서
 62
     0
370
    -2
100
AcDbLine
 10
-96.21711450772348
 20
4.99999999999995
 30
0.0
 11
-96.21711450772354
 21
22.51359990641762
 31
0.0
  0
LINE
  5
10B
330
105
100
AcDbEntity
  8
치수문자_일반주서
 62
     0
370
    -2
100
AcDbLine
 10
-96.21711450772348
 20
4.99999999999995
 30
0.0
 11
-96.21711450772345
 21
-5.000000000000043
 31
0.0
  0
LINE
  5
10C
330
105
100
AcDbEntity
  8
치수문자_일반주서
 62
     0
370
    -2
100
AcDbLine
 10
-96.2171145077235
 20
8.30199999999995
 30
0.0
 11
-96.21711450772351
 21
11.60399999999995
 31
0.0
  0
LINE
  5
10D
330
105
100
AcDbEntity
  8
치수문자_일반주서
 62
     0
370
    -2
100
AcDbLine
 10
-96.21711450772344
 20
-8.302000000000042
 30
0.0
 11
-96.21711450772342
 21
-11.60400000000004
 31
0.0
  0
SOLID
  5
10E
330
105
100
AcDbEntity
  8
치수문자_일반주서
 62
     0
100
AcDbTrace
 10
-96.76744784105682
 20
8.301999999999948
 30
0.0
 11
-95.66678117439017
 21
8.301999999999952
 31
0.0
 12
-96.21711450772348
 22
4.99999999999995
 32
0.0
 13
-96.21711450772348
 23
4.99999999999995
 33
0.0
  0
SOLID
  5
10F
330
105
100
AcDbEntity
  8
치수문자_일반주서
 62
     0
100
AcDbTrace
 10
-95.66678117439011
 20
-8.30200000000004
 30
0.0
 11
-96.76744784105676
 21
-8.302000000000044
 31
0.0
 12
-96.21711450772345
 22
-5.000000000000043
 32
0.0
 13
-96.21711450772345
 23
-5.000000000000043
 33
0.0
  0
MTEXT
  5
110
330
105
100
AcDbEntity
  8
치수문자_일반주서
 62
     0
100
AcDbMText
 10
-100.5921145077235
 20
18.79484990641761
 30
0.0
 40
3.5
 41
0.0
 71
     2
 72
     1
  1
\A1;%%c10
  7
SLDTEXTSTYLE0
 11
-2.842170943040403E-15
 21
1.0
 31
0.0
 73
     1
 44
1.0
  0
POINT
  5
147
330
105
100
AcDbEntity
  8
Defpoints
 62
     0
100
AcDbPoint
 10
-84.0
 20
4.999999999999996
 30
0.0
  0
POINT
  5
148
330
105
100
AcDbEntity
  8
Defpoints
 62
     0
100
AcDbPoint
 10
-84.0
 20
-4.999999999999997
 30
0.0
  0
POINT
  5
149
330
105
100
AcDbEntity
  8
Defpoints
 62
     0
100
AcDbPoint
 10
-96.21711450772345
 20
-5.000000000000043
 30
0.0
  0
ENDBLK
  5
107
330
105
100
AcDbEntity
  8
0
100
AcDbBlockEnd
  0
BLOCK
  5
112
330
111
100
AcDbEntity
  8
0
100
AcDbBlockBegin
  2
SW_DOWELSYMBOL_0
 70
     0
 10
0.0
 20
0.0
 30
0.0
  3
SW_DOWELSYMBOL_0
  1

  0
CIRCLE
  5
114
330
111
100
AcDbEntity
  8
외형선
 62
     0
100
AcDbCircle
 10
0.0
 20
0.0
 30
0.0
 40
3.000000000000004
  0
HATCH
  5
115
330
111
100
AcDbEntity
  8
0
  6
Continuous
 62
     0
370
    30
100
AcDbHatch
 10
0.0
 20
0.0
 30
0.0
210
0.0
220
0.0
230
1.0
  2
SOLID
 70
     1
 71
     0
 91
        1
 92
        0
 93
        3
 72
     2
 10
0.0000000000000104
 20
0.0
 40
3.000000000000004
 50
0.0
 51
90.0
 73
     1
 72
     1
 10
0.0000000000000104
 20
3.000000000000004
 11
0.0000000000000104
 21
0.0
 72
     1
 10
0.0000000000000104
 20
0.0
 11
3.000000000000015
 21
0.0
 97
        0
 75
     0
 76
     1
 98
        1
 10
0.0
 20
0.0
  0
HATCH
  5
116
330
111
100
AcDbEntity
  8
0
  6
Continuous
 62
     0
370
    30
100
AcDbHatch
 10
0.0
 20
0.0
 30
0.0
210
0.0
220
0.0
230
1.0
  2
SOLID
 70
     1
 71
     0
 91
        1
 92
        0
 93
        3
 72
     2
 10
0.0000000000000104
 20
0.0
 40
3.000000000000004
 50
180.0
 51
270.0000000000008
 73
     1
 72
     1
 10
0.0000000000000104
 20
-3.000000000000004
 11
0.0000000000000104
 21
0.0
 72
     1
 10
0.0000000000000104
 20
0.0
 11
-2.999999999999994
 21
0.0
 97
        0
 75
     0
 76
     1
 98
        1
 10
0.0
 20
0.0
  0
ENDBLK
  5
113
330
111
100
AcDbEntity
  8
0
100
AcDbBlockEnd
  0
ENDSEC
  0
SECTION
  2
ENTITIES
  0
SPLINE
  5
95
330
1F
100
AcDbEntity
  8
0
  6
Continuous
 62
     1
370
    15
100
AcDbSpline
210
0.0
220
0.0
230
1.0
 70
     8
 71
     3
 72
     9
 73
     5
 74
     0
 42
0.000000001
 43
0.00000001
 40
0.0
 40
0.0
 40
0.0
 40
0.0
 40
0.4389379993821125
 40
1.0
 40
1.0
 40
1.0
 40
1.0
 10
52.04537606010536
 20
1.281307283467979
 30
0.0
 10
51.84246615673643
 20
1.377910948112644
 30
0.0
 10
51.38019152192568
 20
1.597995936836914
 30
0.0
 10
50.9189900508094
 20
1.839320850370642
 30
0.0
 10
50.66022743073698
 20
1.974719089156814
 30
0.0
  0
LINE
  5
96
330
1F
100
AcDbEntity
  8
0
  6
Continuous
 62
     1
370
    15
100
AcDbLine
 10
23.5221794953926
 20
1.939169967401176
 30
0.0
 11
23.45264366360322
 21
1.97503323696207
 31
0.0
  0
SPLINE
  5
97
330
1F
100
AcDbEntity
  8
0
  6
Continuous
 62
     1
370
    15
100
AcDbSpline
210
0.0
220
0.0
230
1.0
 70
     8
 71
     3
 72
     9
 73
     5
 74
     0
 42
0.000000001
 43
0.00000001
 40
0.0
 40
0.0
 40
0.0
 40
0.0
 40
0.5135980239062377
 40
0.9999999999999999
 40
0.9999999999999999
 40
0.9999999999999999
 40
0.9999999999999999
 10
24.83857653037127
 20
1.281218068228709
 30
0.0
 10
24.61321408612044
 20
1.388658817579097
 30
0.0
 10
24.17442259207069
 20
1.597851112621887
 30
0.0
 10
23.73561592525492
 20
1.827478669816254
 30
0.0
 10
23.5221794953926
 20
1.939169967401176
 30
0.0
  0
LINE
  5
98
330
1F
100
AcDbEntity
  8
0
  6
Continuous
 62
     1
370
    15
100
AcDbLine
 10
38.15008052752241
 20
-4.999999999999999
 30
0.0
 11
40.57389070667047
 21
-4.999999999999999
 31
0.0
  0
LINE
  5
99
330
1F
100
AcDbEntity
  8
0
  6
Continuous
 62
     1
370
    15
100
AcDbLine
 10
13.3666378353626
 20
5.00000000000001
 30
0.0
 11
10.94256768128388
 21
5.00000000000001
 31
0.0
  0
LINE
  5
9A
330
1F
100
AcDbEntity
  8
0
  6
Continuous
 62
     1
370
    15
100
AcDbLine
 10
10.94256768128386
 20
-4.999999999999999
 30
0.0
 11
13.36663783536257
 21
-4.999999999999999
 31
0.0
  0
LINE
  5
9B
330
1F
100
AcDbEntity
  8
0
  6
Continuous
 62
     1
370
    15
100
AcDbLine
 10
40.57389070667048
 20
5.00000000000001
 30
0.0
 11
38.15008052752235
 21
5.00000000000001
 31
0.0
  0
LINE
  5
9C
330
1F
100
AcDbEntity
  8
0
  6
Continuous
 62
     1
370
    15
100
AcDbLine
 10
22.12585012350845
 20
1.379919449886493
 30
0.0
 11
22.02078545157774
 21
1.437495094879436
 31
0.0
  0
LINE
  5
9D
330
1F
100
AcDbEntity
  8
0
  6
Continuous
 62
     1
370
    15
100
AcDbLine
 10
49.38840826397126
 20
1.349407251204746
 30
0.0
 11
49.22830532903043
 21
1.437201866302281
 31
0.0
  0
SPLINE
  5
9E
330
1F
100
AcDbEntity
  8
0
  6
Continuous
 62
     1
370
    15
100
AcDbSpline
210
0.0
220
0.0
230
1.0
 70
     8
 71
     3
 72
    12
 73
     8
 74
     0
 42
0.000000001
 43
0.00000001
 40
0.0
 40
0.0
 40
0.0
 40
0.0
 40
0.2203796020747272
 40
0.5109662840239799
 40
0.6834312124917411
 40
0.7860634041275255
 40
1.0
 40
1.0
 40
1.0
 40
1.0
 10
15.66662335976078
 20
-4.160694762118287
 30
0.0
 10
16.21920895825387
 20
-4.11020377757329
 30
0.0
 10
17.50041923002594
 20
-3.993136723695401
 30
0.0
 10
19.21301777657569
 20
-3.915773049466385
 30
0.0
 10
20.63076603940911
 20
-3.901153966519016
 30
0.0
 10
21.85598893818501
 20
-3.914219697153433
 30
0.0
 10
22.6499189913593
 20
-3.949417096431153
 30
0.0
 10
23.18645543980032
 20
-3.973203433183771
 30
0.0
  0
SPLINE
  5
9F
330
1F
100
AcDbEntity
  8
0
  6
Continuous
 62
     1
370
    15
100
AcDbSpline
210
0.0
220
0.0
230
1.0
 70
     8
 71
     3
 72
    16
 73
    12
 74
     0
 42
0.000000001
 43
0.00000001
 40
0.0
 40
0.0
 40
0.0
 40
0.0
 40
0.2111116257393595
 40
0.3646527799118841
 40
0.4656278188693594
 40
0.5585754072577305
 40
0.6555580717804322
 40
0.7534462590119445
 40
0.8516652828459605
 40
0.9501562349642094
 40
1.0
 40
1.0
 40
1.0
 40
1.0
 10
50.39328191117728
 20
3.97319469794207
 30
0.0
 10
50.10530146427066
 20
3.959247087805077
 30
0.0
 10
49.60787329016143
 20
3.935155402698824
 30
0.0
 10
48.97471468770885
 20
3.917274233772587
 30
0.0
 10
48.50563366064478
 20
3.908788709909587
 30
0.0
 10
48.11220007103551
 20
3.904964421450672
 30
0.0
 10
47.72138878117303
 20
3.904349937010051
 30
0.0
 10
47.32352779263689
 20
3.907059544995205
 30
0.0
 10
46.92344221756614
 20
3.913386519081279
 30
0.0
 10
46.58854228651982
 20
3.920834441724632
 30
0.0
 10
46.38706491636363
 20
3.927713709917816
 30
0.0
 10
46.31936403762959
 20
3.930025297077032
 30
0.0
  0
SPLINE
  5
A0
330
1F
100
AcDbEntity
  8
0
  6
Continuous
 62
     1
370
    15
100
AcDbSpline
210
0.0
220
0.0
230
1.0
 70
     8
 71
     3
 72
    22
 73
    18
 74
     0
 42
0.000000001
 43
0.00000001
 40
0.0
 40
0.0
 40
0.0
 40
0.0
 40
0.1080558938178394
 40
0.1867544514400975
 40
0.2440074694804192
 40
0.3028365166438126
 40
0.3635029622848714
 40
0.4242507528418036
 40
0.4852217908180094
 40
0.5385824846558719
 40
0.5917958524540451
 40
0.6448299787048795
 40
0.6973735084187836
 40
0.7477309036951004
 40
0.8024374328045681
 40
0.8856233736763305
 40
1.0
 40
1.0
 40
1.0
 40
1.0
 10
42.87391917075698
 20
-4.16066425607906
 30
0.0
 10
43.14579059051625
 20
-4.134546242748847
 30
0.0
 10
43.61566961391294
 20
-4.089406129795715
 30
0.0
 10
44.22750224892102
 20
-4.041166134201693
 30
0.0
 10
44.71296423780178
 20
-4.007454103860433
 30
0.0
 10
45.15552487992194
 20
-3.980552035613719
 30
0.0
 10
45.60734912904874
 20
-3.957058533278896
 30
0.0
 10
46.06442132755353
 20
-3.937650168323468
 30
0.0
 10
46.50339322100869
 20
-3.923254293030799
 30
0.0
 10
46.92343975418649
 20
-3.913253987032487
 30
0.0
 10
47.32352844971178
 20
-3.907094896217488
 30
0.0
 10
47.72138860697142
 20
-3.904340564807098
 30
0.0
 10
48.11220011520556
 20
-3.904966797839834
 30
0.0
 10
48.50563364807544
 20
-3.908788033668972
 30
0.0
 10
48.97471469319041
 20
-3.91727452868595
 30
0.0
 10
49.60787328786014
 20
-3.935155278887101
 30
0.0
 10
50.10530146342686
 20
-3.959247042407864
 30
0.0
 10
50.39328191117726
 20
-3.973194697942056
 30
0.0
  0
SPLINE
  5
A1
330
1F
100
AcDbEntity
  8
0
  6
Continuous
 62
     1
370
    15
100
AcDbSpline
210
0.0
220
0.0
230
1.0
 70
     8
 71
     3
 72
    10
 73
     6
 74
     0
 42
0.000000001
 43
0.00000001
 40
0.0
 40
0.0
 40
0.0
 40
0.0
 40
0.4004857778126176
 40
0.9219373259686412
 40
1.0
 40
1.0
 40
1.0
 40
1.0
 10
23.18645543980032
 20
3.973203433183782
 30
0.0
 10
22.6348294674452
 20
3.949848681338536
 30
0.0
 10
21.36496021849055
 20
3.896084930769242
 30
0.0
 10
19.98853287338994
 20
3.895461363408383
 30
0.0
 10
19.16318770036023
 20
3.930066952030497
 30
0.0
 10
19.05571960565765
 20
3.93457294152048
 30
0.0
  0
SPLINE
  5
A2
330
1F
100
AcDbEntity
  8
0
  6
Continuous
 62
     1
370
    15
100
AcDbSpline
210
0.0
220
0.0
230
1.0
 70
     8
 71
     3
 72
    13
 73
     9
 74
     0
 42
0.000000001
 43
0.00000001
 40
0.0
 40
0.0
 40
0.0
 40
0.0
 40
0.2115331918532454
 40
0.3770611220892695
 40
0.4974473927494762
 40
0.6673178764839028
 40
0.8383586082407635
 40
0.9999999999999999
 40
0.9999999999999999
 40
0.9999999999999999
 40
0.9999999999999999
 10
54.40748602250341
 20
-3.760696677425056
 30
0.0
 10
54.67153167397514
 20
-3.720547465326186
 30
0.0
 10
55.14219705161383
 20
-3.648980885952189
 30
0.0
 10
55.76093475997698
 20
-3.568414926794379
 30
0.0
 10
56.32717281728169
 20
-3.502256920687266
 30
0.0
 10
56.89785646740123
 20
-3.444036946682583
 30
0.0
 10
57.52258129581444
 20
-3.389740860589629
 30
0.0
 10
57.93631147871008
 20
-3.363595333269398
 30
0.0
 10
58.13733196598258
 20
-3.350891917228719
 30
0.0
  0
SPLINE
  5
A3
330
1F
100
AcDbEntity
  8
0
  6
Continuous
 62
     1
370
    15
100
AcDbSpline
210
0.0
220
0.0
230
1.0
 70
     8
 71
     3
 72
    20
 73
    16
 74
     0
 42
0.000000001
 43
0.00000001
 40
0.0
 40
0.0
 40
0.0
 40
0.0
 40
0.118290729574767
 40
0.1981580754224269
 40
0.2467146602966101
 40
0.2943096334024027
 40
0.3900818803739431
 40
0.4789592145218515
 40
0.5291676077442486
 40
0.5856615444622735
 40
0.6497553163629235
 40
0.712752248608681
 40
0.7769098903694213
 40
0.8713022512505252
 40
1.0
 40
1.0
 40
1.0
 40
1.0
 10
35.9345495594666
 20
3.419745287468819
 30
0.0
 10
35.58784850253927
 20
3.392677145297346
 30
0.0
 10
35.00706237978384
 20
3.347333178130676
 30
0.0
 10
34.28711967062482
 20
3.314925254580016
 30
0.0
 10
33.78152279461861
 20
3.299476575698848
 30
0.0
 10
33.22509454139775
 20
3.289418854215481
 30
0.0
 10
32.54761837655553
 20
3.289572868583401
 30
0.0
 10
31.86443327820037
 20
3.30605623998063
 30
0.0
 10
31.2951215554334
 20
3.329856064482289
 30
0.0
 10
30.79790833369567
 20
3.35726191354545
 30
0.0
 10
30.2633653803852
 20
3.394771323452429
 30
0.0
 10
29.70701744385907
 20
3.442734477406661
 30
0.0
 10
29.06214933716561
 20
3.507981234245138
 30
0.0
 10
28.22675911354062
 20
3.606592758545731
 30
0.0
 10
27.57606871588624
 20
3.704299678725586
 30
0.0
 10
27.20069398748753
 20
3.760665515316078
 30
0.0
  0
SPLINE
  5
A4
330
1F
100
AcDbEntity
  8
0
  6
Continuous
 62
     1
370
    15
100
AcDbSpline
210
0.0
220
0.0
230
1.0
 70
     8
 71
     3
 72
    12
 73
     8
 74
     0
 42
0.000000001
 43
0.00000001
 40
0.0
 40
0.0
 40
0.0
 40
0.0
 40
0.2683314053455437
 40
0.4443636162700295
 40
0.5652159918811263
 40
0.6906530330659392
 40
0.9999999999999999
 40
0.9999999999999999
 40
0.9999999999999999
 40
0.9999999999999999
 10
27.20069398748753
 20
-3.760665515316068
 30
0.0
 10
27.54078645803062
 20
-3.709356119145195
 30
0.0
 10
28.10398821923381
 20
-3.624386457089573
 30
0.0
 10
28.81584246237206
 20
-3.536635776561293
 30
0.0
 10
29.34302740461124
 20
-3.479172594034818
 30
0.0
 10
30.04300611070095
 20
-3.409834924825592
 30
0.0
 10
30.59101918905902
 20
-3.376181581547162
 30
0.0
 10
30.980928156419
 20
-3.352237371373895
 30
0.0
  0
SPLINE
  5
A5
330
1F
100
AcDbEntity
  8
0
  6
Continuous
 62
     1
370
    15
100
AcDbSpline
210
0.0
220
0.0
230
1.0
 70
     8
 71
     3
 72
    23
 73
    19
 74
     0
 42
0.000000001
 43
0.00000001
 40
0.0
 40
0.0
 40
0.0
 40
0.0
 40
0.097839966989077
 40
0.1679440695611338
 40
0.2150400182791978
 40
0.2598249655923197
 40
0.3047320521241775
 40
0.3498554194926909
 40
0.3952366526347871
 40
0.4443594995489829
 40
0.4987652625108219
 40
0.5578511015947499
 40
0.6197299366030008
 40
0.6808061887380773
 40
0.7359857085897993
 40
0.7977635077004446
 40
0.8857577477193539
 40
1.0
 40
1.0
 40
1.0
 40
1.0
 10
63.16883849293477
 20
3.422084249366588
 30
0.0
 10
62.88126926082452
 20
3.399039465723718
 30
0.0
 10
62.38765148265664
 20
3.359482678592223
 30
0.0
 10
61.75802757048276
 20
3.326536444990928
 30
0.0
 10
61.28765048530442
 20
3.308156216274034
 30
0.0
 10
60.88937581301736
 20
3.297324159892718
 30
0.0
 10
60.49558710092885
 20
3.291194163078648
 30
0.0
 10
60.10024733169336
 20
3.289627656006705
 30
0.0
 10
59.69256989913098
 20
3.292748656408467
 30
0.0
 10
59.25804153015194
 20
3.301372575331867
 30
0.0
 10
58.78372346014467
 20
3.317165035602529
 30
0.0
 10
58.27177572237075
 20
3.341508387886448
 30
0.0
 10
57.74035641828549
 20
3.374799735575733
 30
0.0
 10
57.22061600188521
 20
3.415482096500425
 30
0.0
 10
56.70113166710321
 20
3.463477968311814
 30
0.0
 10
56.10314864691456
 20
3.526912962078031
 30
0.0
 10
55.33313462772603
 20
3.621024777759004
 30
0.0
 10
54.74162593961329
 20
3.710278023182323
 30
0.0
 10
54.40748602250341
 20
3.760696677425072
 30
0.0
  0
LINE
  5
A6
330
1F
100
AcDbEntity
  8
0
  6
Continuous
 62
   131
370
    15
100
AcDbLine
 10
8.480073473861037
 20
5.000000000000005
 30
0.0
 11
-84.0
 21
4.999999999999999
 31
0.0
  0
LINE
  5
A7
330
1F
100
AcDbEntity
  8
0
  6
Continuous
 62
   131
370
    15
100
AcDbLine
 10
-84.0
 20
-5.000000000000001
 30
0.0
 11
8.480073473861037
 21
-4.999999999999995
 31
0.0
  0
LINE
  5
A8
330
1F
100
AcDbEntity
  8
0
  6
Continuous
 62
   131
370
    15
100
AcDbLine
 10
-84.0
 20
4.999999999999996
 30
0.0
 11
-85.0
 21
3.999999999999992
 31
0.0
  0
LINE
  5
A9
330
1F
100
AcDbEntity
  8
0
  6
Continuous
 62
   131
370
    15
100
AcDbLine
 10
-85.0
 20
-3.999999999999995
 30
0.0
 11
-84.0
 21
-4.999999999999997
 31
0.0
  0
SPLINE
  5
AA
330
1F
100
AcDbEntity
  8
0
  6
Continuous
 62
   131
370
    15
100
AcDbSpline
210
0.0
220
0.0
230
1.0
 70
     8
 71
     3
 72
     9
 73
     5
 74
     0
 42
0.000000001
 43
0.00000001
 40
0.0
 40
0.0
 40
0.0
 40
0.0
 40
0.4982583792327731
 40
1.0
 40
1.0
 40
1.0
 40
1.0
 10
8.781573673762194
 20
3.424339497765243
 30
0.0
 10
8.731255159850416
 20
3.4195995458864
 30
0.0
 10
8.630266363657444
 20
3.410086505912759
 30
0.0
 10
8.530266227060451
 20
3.399294415700681
 30
0.0
 10
8.480091996447328
 20
3.393879574866207
 30
0.0
  0
SPLINE
  5
AB
330
1F
100
AcDbEntity
  8
0
  6
Continuous
 62
     1
370
    15
100
AcDbSpline
210
0.0
220
0.0
230
1.0
 70
     8
 71
     3
 72
    18
 73
    14
 74
     0
 42
0.000000001
 43
0.00000001
 40
0.0
 40
0.0
 40
0.0
 40
0.0
 40
0.0963734695990192
 40
0.1928117662032221
 40
0.2892672890095287
 40
0.38569224744223
 40
0.482047911891599
 40
0.5784442494279598
 40
0.674892166915812
 40
0.7713439575996482
 40
0.8677518720435959
 40
0.9641035331988775
 40
1.0
 40
1.0
 40
1.0
 40
1.0
 10
65.00000000000003
 20
-4.744704346159493
 30
0.0
 10
64.21540987411015
 20
-4.567769974068132
 30
0.0
 10
62.64570185645905
 20
-4.213782212426513
 30
0.0
 10
60.29026905087606
 20
-3.279936017880645
 30
0.0
 10
57.93438598589667
 20
-2.130006264618484
 30
0.0
 10
55.57926249503952
 20
-0.8170201956091925
 30
0.0
 10
53.2251990344614
 20
0.5547843734835356
 30
0.0
 10
50.87057758631804
 20
1.886230744144459
 30
0.0
 10
48.51488897843925
 20
3.077203032755071
 30
0.0
 10
46.1591056866414
 20
4.04847615416749
 30
0.0
 10
43.80427901513341
 20
4.698412812552471
 30
0.0
 10
41.94297661947611
 20
5.009632231053403
 30
0.0
 10
40.86617097347168
 20
4.968137989760647
 30
0.0
 10
40.57389070667047
 20
4.956875095699157
 30
0.0
  0
SPLINE
  5
AC
330
1F
100
AcDbEntity
  8
0
  6
Continuous
 62
     1
370
    15
100
AcDbSpline
210
0.0
220
0.0
230
1.0
 70
     8
 71
     3
 72
    12
 73
     8
 74
     0
 42
0.000000001
 43
0.00000001
 40
0.0
 40
0.0
 40
0.0
 40
0.0
 40
0.0702324475779121
 40
0.3026249759350569
 40
0.5350533005280873
 40
0.76751406609338
 40
1.0
 40
1.0
 40
1.0
 40
1.0
 10
19.0406709538779
 20
-3.940179793088487
 30
0.0
 10
18.82902572207114
 20
-4.021462652167618
 30
0.0
 10
17.917066429876
 20
-4.371702806413516
 30
0.0
 10
16.30475015385218
 20
-4.751835092213751
 30
0.0
 10
14.20346066760905
 20
-5.025231268257787
 30
0.0
 10
12.10184574037398
 20
-5.007140278220688
 30
0.0
 10
10.7006405299815
 20
-4.753749860843929
 30
0.0
 10
9.999999999996195
 20
-4.627047793932316
 30
0.0
  0
SPLINE
  5
AD
330
1F
100
AcDbEntity
  8
0
  6
Continuous
 62
   131
370
    15
100
AcDbSpline
210
0.0
220
0.0
230
1.0
 70
    24
 71
     3
 72
     8
 73
     4
 74
     0
 42
0.000000001
 43
0.00000001
 40
0.0
 40
0.0
 40
0.0
 40
0.0
 40
1.0
 40
1.0
 40
1.0
 40
1.0
 10
10.00000000000019
 20
-3.828765455241413
 30
0.0
 10
10.00000000000019
 20
-4.09208753558821
 30
0.0
 10
10.00000000000019
 20
-4.359879543126772
 30
0.0
 10
10.00000000000019
 20
-4.627047793921613
 30
0.0
  0
SPLINE
  5
AE
330
1F
100
AcDbEntity
  8
0
  6
Continuous
 62
     1
370
    15
100
AcDbSpline
210
0.0
220
0.0
230
1.0
 70
     8
 71
     3
 72
    13
 73
     9
 74
     0
 42
0.000000001
 43
0.00000001
 40
0.0
 40
0.0
 40
0.0
 40
0.0
 40
0.1814191146944747
 40
0.362965721988676
 40
0.5445462081127079
 40
0.7260665834009562
 40
0.9074506819258519
 40
0.9999999999999999
 40
0.9999999999999999
 40
0.9999999999999999
 40
0.9999999999999999
 10
65.0
 20
-3.944861321841068
 30
0.0
 10
64.21540412242115
 20
-3.773267418857052
 30
0.0
 10
62.64566099114007
 20
-3.429959024973982
 30
0.0
 10
60.29026103694419
 20
-2.58582086986483
 30
0.0
 10
57.93440254083564
 20
-1.571093933313697
 30
0.0
 10
55.57930113094891
 20
-0.4403779493872583
 30
0.0
 10
53.60970923090801
 20
0.5471707836378614
 30
0.0
 10
52.42491617515207
 20
1.094722498326901
 30
0.0
 10
52.02462989124209
 20
1.279714670636331
 30
0.0
  0
SPLINE
  5
AF
330
1F
100
AcDbEntity
  8
0
  6
Continuous
 62
     1
370
    15
100
AcDbSpline
210
0.0
220
0.0
230
1.0
 70
     8
 71
     3
 72
    11
 73
     7
 74
     0
 42
0.000000001
 43
0.00000001
 40
0.0
 40
0.0
 40
0.0
 40
0.0
 40
0.0217997158440938
 40
0.347860186120378
 40
0.6739260704261508
 40
1.0
 40
1.0
 40
1.0
 40
1.0
 10
15.66836238014831
 20
-4.153019920263608
 30
0.0
 10
15.62716060496579
 20
-4.159638577839739
 30
0.0
 10
14.96969987079909
 20
-4.265253140559997
 30
0.0
 10
13.69661509088003
 20
-4.262841486358176
 30
0.0
 10
11.84826625303138
 20
-4.176053548325261
 30
0.0
 10
10.61609381800037
 20
-3.944529105020295
 30
0.0
 10
10.00000000000002
 20
-3.828765455241378
 30
0.0
  0
LINE
  5
B0
330
1F
100
AcDbEntity
  8
0
  6
Continuous
 62
     1
370
    15
100
AcDbLine
 10
65.0
 20
-4.744704346159495
 30
0.0
 11
65.0
 21
-3.944861321841068
 31
0.0
  0
SPLINE
  5
B1
330
1F
100
AcDbEntity
  8
0
  6
Continuous
 62
     1
370
    15
100
AcDbSpline
210
0.0
220
0.0
230
1.0
 70
     8
 71
     3
 72
    23
 73
    19
 74
     0
 42
0.000000001
 43
0.00000001
 40
0.0
 40
0.0
 40
0.0
 40
0.0
 40
0.0048725995214916
 40
0.0763312718176245
 40
0.1477482485191213
 40
0.2192125612727208
 40
0.2907052539674497
 40
0.3621909176432369
 40
0.4336342207902749
 40
0.5050584626467212
 40
0.5765342560093646
 40
0.648028553178784
 40
0.7195059275065414
 40
0.7832870120912825
 40
0.8470583769478021
 40
0.9108241650734032
 40
0.9745997752669053
 40
0.9999999999999999
 40
0.9999999999999999
 40
0.9999999999999999
 40
0.9999999999999999
 10
46.3193640376296
 20
-3.930025297077016
 30
0.0
 10
46.26583500232722
 20
-3.951895474468966
 30
0.0
 10
45.42728068942325
 20
-4.294500781521474
 30
0.0
 10
43.8043028491351
 20
-4.694779124488897
 30
0.0
 10
41.45028124449554
 20
-5.041075592239748
 30
0.0
 10
39.09534341161647
 20
-4.987140037352897
 30
0.0
 10
36.73950206672701
 20
-4.574681825346871
 30
0.0
 10
34.38390971172398
 20
-3.82394826934992
 30
0.0
 10
32.02942288427665
 20
-2.792675615214696
 30
0.0
 10
29.67528440994448
 20
-1.55565971865007
 30
0.0
 10
27.32002518078513
 20
-0.2048845515702939
 30
0.0
 10
24.96414905445513
 20
1.161016413589212
 30
0.0
 10
22.69276996693063
 20
2.396312930870119
 30
0.0
 10
20.50697989368249
 20
3.426492649034243
 30
0.0
 10
18.40578098086051
 20
4.22097540991651
 30
0.0
 10
16.30474721008793
 20
4.749924169842185
 30
0.0
 10
14.6250321633814
 20
5.004502919677575
 30
0.0
 10
13.64560971508568
 20
4.973573474107468
 30
0.0
 10
13.36663783536259
 20
4.964763745900298
 30
0.0
  0
SPLINE
  5
B2
330
1F
100
AcDbEntity
  8
0
  6
Continuous
 62
     1
370
    15
100
AcDbSpline
210
0.0
220
0.0
230
1.0
 70
     8
 71
     3
 72
    16
 73
    12
 74
     0
 42
0.000000001
 43
0.00000001
 40
0.0
 40
0.0
 40
0.0
 40
0.0
 40
0.0792892788551219
 40
0.2095039508584861
 40
0.3397726465340216
 40
0.4700279617578978
 40
0.6002026408949358
 40
0.7303410363259227
 40
0.8605775625239738
 40
0.9908493124898748
 40
1.0
 40
1.0
 40
1.0
 40
1.0
 10
42.88460026454973
 20
-4.122859427881989
 30
0.0
 10
42.40664563876415
 20
-4.174385440417469
 30
0.0
 10
41.14375885408128
 20
-4.310531251730638
 30
0.0
 10
39.09532419391064
 20
-4.18015214366438
 30
0.0
 10
36.73950619227502
 20
-3.772309635918242
 30
0.0
 10
34.38394345777743
 20
-3.0738712073603
 30
0.0
 10
32.02944222753479
 20
-2.153886892359654
 30
0.0
 10
29.67523430880606
 20
-1.070906427011026
 30
0.0
 10
27.32002928836672
 20
0.0772129769987176
 30
0.0
 10
25.69418043039433
 20
0.8987091664872876
 30
0.0
 10
24.85362007926069
 20
1.271698433060883
 30
0.0
 10
24.79845173443852
 20
1.29617876983331
 30
0.0
  0
SPLINE
  5
B3
330
1F
100
AcDbEntity
  8
0
  6
Continuous
 62
     1
370
    15
100
AcDbSpline
210
0.0
220
0.0
230
1.0
 70
     8
 71
     3
 72
    20
 73
    16
 74
     0
 42
0.000000001
 43
0.00000001
 40
0.0
 40
0.0
 40
0.0
 40
0.0
 40
0.074673001446284
 40
0.1493379200705359
 40
0.2239924203641873
 40
0.298635422998823
 40
0.3732849488689912
 40
0.4479458518392269
 40
0.5316163776081972
 40
0.6153067188250584
 40
0.6989754045782075
 40
0.7825837452384414
 40
0.8662143855929166
 40
0.9498946175398525
 40
1.0
 40
1.0
 40
1.0
 40
1.0
 10
9.999999999998481
 20
4.970401154941564
 30
0.0
 10
10.70063729508833
 20
4.98603973229319
 30
0.0
 10
12.10183604625719
 20
5.017315194231516
 30
0.0
 10
14.20344170122258
 20
4.692125889429827
 30
0.0
 10
16.30472039086931
 20
4.112908817422787
 30
0.0
 10
18.40574207732114
 20
3.287013805741062
 30
0.0
 10
20.50693197481956
 20
2.270033502610541
 30
0.0
 10
22.69271639269319
 20
1.073402623276922
 30
0.0
 10
24.96409434426746
 20
-0.2447464209347589
 30
0.0
 10
27.31997372486993
 20
-1.593978931589829
 30
0.0
 10
29.6752361164418
 20
-2.824777090760183
 30
0.0
 10
32.0293785871029
 20
-3.852755964010697
 30
0.0
 10
34.38386591001499
 20
-4.581184533924214
 30
0.0
 10
36.42429701982685
 20
-4.972487658170706
 30
0.0
 10
37.67985064041742
 20
-4.960234155507428
 30
0.0
 10
38.15008052752241
 20
-4.955644974225562
 30
0.0
  0
SPLINE
  5
B4
330
1F
100
AcDbEntity
  8
0
  6
Continuous
 62
     1
370
    15
100
AcDbSpline
210
0.0
220
0.0
230
1.0
 70
     8
 71
     3
 72
    10
 73
     6
 74
     0
 42
0.000000001
 43
0.00000001
 40
0.0
 40
0.0
 40
0.0
 40
0.0
 40
0.3136143040477728
 40
0.6569225410102699
 40
1.0
 40
1.0
 40
1.0
 40
1.0
 10
58.13832712998939
 20
3.351269888088438
 30
0.0
 10
58.8556843721446
 20
3.64075303433641
 30
0.0
 10
60.35832036880158
 20
4.24712845012069
 30
0.0
 10
62.64569958717372
 20
4.82903345165936
 30
0.0
 10
64.21540911935165
 20
4.94020632757424
 30
0.0
 10
65.0
 20
5.000000000000206
 30
0.0
  0
LINE
  5
B5
330
1F
100
AcDbEntity
  8
0
  6
Continuous
 62
     1
370
    15
100
AcDbLine
 10
9.999999999998481
 20
-4.970401154941554
 30
0.0
 11
10.94256768128386
 21
-4.96362459327597
 31
0.0
  0
SPLINE
  5
B6
330
1F
100
AcDbEntity
  8
0
  6
Continuous
 62
     1
370
    15
100
AcDbSpline
210
0.0
220
0.0
230
1.0
 70
     8
 71
     3
 72
    22
 73
    18
 74
     0
 42
0.000000001
 43
0.00000001
 40
0.0
 40
0.0
 40
0.0
 40
0.0
 40
0.0310471077635884
 40
0.1002383399659324
 40
0.169470601429498
 40
0.2387096736507339
 40
0.3079212630795993
 40
0.3770870053639104
 40
0.4462931252298373
 40
0.5155307440997696
 40
0.5847655844432342
 40
0.6539633993479834
 40
0.723132013837988
 40
0.7923503709110818
 40
0.8615906696391209
 40
0.9308186029506281
 40
1.0
 40
1.0
 40
1.0
 40
1.0
 10
30.9728777167207
 20
3.348777532832059
 30
0.0
 10
31.32498664216458
 20
3.505481265748247
 30
0.0
 10
32.4618015249691
 20
4.011413160390144
 30
0.0
 10
34.38386288137752
 20
4.582487971077772
 30
0.0
 10
36.73946495211796
 20
4.997484247570551
 30
0.0
 10
39.09530704672729
 20
5.031223609533071
 30
0.0
 10
41.45025157303814
 20
4.699071055350422
 30
0.0
 10
43.80426534960176
 20
4.020206472019836
 30
0.0
 10
46.15907589554152
 20
3.046470192984818
 30
0.0
 10
48.51486753370119
 20
1.848736157050054
 30
0.0
 10
50.87055800646329
 20
0.5152276501557252
 30
0.0
 10
53.22518308736848
 20
-0.856322120218002
 30
0.0
 10
55.57924964364663
 20
-2.164912207466026
 30
0.0
 10
57.93437634273809
 20
-3.31563687232274
 30
0.0
 10
60.29026260951054
 20
-4.215833603711517
 30
0.0
 10
62.64569864025763
 20
-4.8325254796742
 30
0.0
 10
64.21540880378373
 20
-4.941370075972897
 30
0.0
 10
64.99999999999999
 20
-4.999999999999789
 30
0.0
  0
LINE
  5
B7
330
1F
100
AcDbEntity
  8
0
  6
Continuous
 62
   131
370
    15
100
AcDbLine
 10
9.999999999999995
 20
-4.970401154931295
 30
0.0
 11
9.999999999999995
 21
-4.627047793912129
 31
0.0
  0
LINE
  5
B8
330
1F
100
AcDbEntity
  8
0
  6
Continuous
 62
     1
370
    15
100
AcDbLine
 10
64.99999999999999
 20
-4.999999999999789
 30
0.0
 11
65.0
 21
-4.744704346159502
 31
0.0
  0
SPLINE
  5
B9
330
1F
100
AcDbEntity
  8
0
  6
Continuous
 62
     1
370
    15
100
AcDbSpline
210
0.0
220
0.0
230
1.0
 70
    24
 71
     3
 72
    10
 73
     6
 74
     0
 42
0.000000001
 43
0.00000001
 40
0.0
 40
0.0
 40
0.0
 40
0.0
 40
0.5
 40
0.5
 40
1.0
 40
1.0
 40
1.0
 40
1.0
 10
65.0
 20
3.500000000000012
 30
0.0
 10
65.0
 20
3.712161284036581
 30
0.0
 10
65.0
 20
3.958712344335597
 30
0.0
 10
64.99999999999997
 20
4.475975804804292
 30
0.0
 10
65.00000000000003
 20
4.745367179007381
 30
0.0
 10
65.0
 20
5.000000000000206
 30
0.0
  0
LINE
  5
BA
330
1F
100
AcDbEntity
  8
0
  6
Continuous
 62
     1
370
    15
100
AcDbLine
 10
65.0
 20
3.500000000000011
 30
0.0
 11
63.16302511538536
 21
3.399660552260403
 31
0.0
  0
SPLINE
  5
BB
330
1F
100
AcDbEntity
  8
0
  6
Continuous
 62
     1
370
    15
100
AcDbSpline
210
0.0
220
0.0
230
1.0
 70
     8
 71
     3
 72
    14
 73
    10
 74
     0
 42
0.000000001
 43
0.00000001
 40
0.0
 40
0.0
 40
0.0
 40
0.0
 40
0.0267087946364768
 40
0.1799273924546858
 40
0.3330270352108354
 40
0.4861599058323822
 40
0.639395186966787
 40
0.8197960452652908
 40
1.0
 40
1.0
 40
1.0
 40
1.0
 10
25.37455021701031
 20
-0.4739146082158242
 30
0.0
 10
25.23767191864858
 20
-0.4203264645854202
 30
0.0
 10
24.31557282570689
 20
-0.0593227172752538
 30
0.0
 10
22.60887363330827
 20
0.6455578457697894
 30
0.0
 10
20.25458914939227
 20
1.554302856388641
 30
0.0
 10
17.90006916697515
 20
2.354446713270311
 30
0.0
 10
15.40561422652951
 20
3.01158054043289
 30
0.0
 10
12.77157441644747
 20
3.463662849320535
 30
0.0
 10
10.92352177045271
 20
3.482538597408149
 30
0.0
 10
10.00000000000001
 20
3.491971318023698
 30
0.0
  0
SPLINE
  5
BC
330
1F
100
AcDbEntity
  8
0
  6
Continuous
 62
   131
370
    15
100
AcDbSpline
210
0.0
220
0.0
230
1.0
 70
    24
 71
     3
 72
    10
 73
     6
 74
     0
 42
0.000000001
 43
0.00000001
 40
0.0
 40
0.0
 40
0.0
 40
0.0
 40
0.5
 40
0.5
 40
1.0
 40
1.0
 40
1.0
 40
1.0
 10
9.999999999999995
 20
4.970401154941649
 30
0.0
 10
9.999999999999995
 20
4.716231314822283
 30
0.0
 10
9.999999999999995
 20
4.446429085999101
 30
0.0
 10
9.999999999999995
 20
3.935351086246732
 30
0.0
 10
9.999999999999995
 20
3.695353921122525
 30
0.0
 10
9.999999999999995
 20
3.491971318023698
 30
0.0
  0
SPLINE
  5
BD
330
1F
100
AcDbEntity
  8
0
  6
Continuous
 62
     1
370
    15
100
AcDbSpline
210
0.0
220
0.0
230
1.0
 70
     8
 71
     3
 72
    15
 73
    11
 74
     0
 42
0.000000001
 43
0.00000001
 40
0.0
 40
0.0
 40
0.0
 40
0.0
 40
0.1024612176518336
 40
0.2439539081447321
 40
0.3854527755748479
 40
0.5268816315612567
 40
0.6682207421381047
 40
0.8096617513985234
 40
0.9511638483123419
 40
1.0
 40
1.0
 40
1.0
 40
1.0
 10
52.57694204164849
 20
-0.4729349681189236
 30
0.0
 10
52.00828053390403
 20
-0.2443701335465545
 30
0.0
 10
50.65433217758901
 20
0.2998287929961242
 30
0.0
 10
48.51486555785427
 20
1.15801456820196
 30
0.0
 10
46.15912886713777
 20
2.014411887292575
 30
0.0
 10
43.80434910453614
 20
2.722550667225194
 30
0.0
 10
41.45017199821338
 20
3.235141650406184
 30
0.0
 10
39.09528187479523
 20
3.492778015029298
 30
0.0
 10
37.25372829514374
 20
3.54305373058966
 30
0.0
 10
36.19727771016477
 20
3.421795580593774
 30
0.0
 10
35.92621825996161
 20
3.390683697143786
 30
0.0
  0
SPLINE
  5
BE
330
1F
100
AcDbEntity
  8
0
  6
Continuous
 62
     1
370
    15
100
AcDbSpline
210
0.0
220
0.0
230
1.0
 70
     8
 71
     3
 72
     8
 73
     4
 74
     0
 42
0.000000001
 43
0.00000001
 40
0.0
 40
0.0
 40
0.0
 40
0.0
 40
1.0
 40
1.0
 40
1.0
 40
1.0
 10
61.90623807966325
 20
1.398590784793818
 30
0.0
 10
61.68214042923288
 20
1.664076176022318
 30
0.0
 10
61.48755699161207
 20
1.917882404497134
 30
0.0
 10
61.33398001936779
 20
2.153947629457785
 30
0.0
  0
LINE
  5
BF
330
1F
100
AcDbEntity
  8
0
  6
Continuous
 62
     1
370
    15
100
AcDbLine
 10
61.33398001936779
 20
2.153947629457786
 30
0.0
 11
65.0
 21
0.0000000000000117
 31
0.0
  0
LINE
  5
C0
330
1F
100
AcDbEntity
  8
0
  6
Continuous
 62
     1
370
    15
100
AcDbLine
 10
65.0
 20
0.0000000000000117
 30
0.0
 11
65.0
 21
-1.336214730148212
 31
0.0
  0
SPLINE
  5
C1
330
1F
100
AcDbEntity
  8
0
  6
Continuous
 62
     1
370
    15
100
AcDbSpline
210
0.0
220
0.0
230
1.0
 70
     8
 71
     3
 72
    12
 73
     8
 74
     0
 42
0.000000001
 43
0.00000001
 40
0.0
 40
0.0
 40
0.0
 40
0.0
 40
0.4999999999999982
 40
0.4999999999999982
 40
0.7499999999999991
 40
0.7499999999999991
 40
1.0
 40
1.0
 40
1.0
 40
1.0
 10
65.0
 20
-1.336214730148217
 30
0.0
 10
64.46446038354472
 20
-0.9151902182568147
 30
0.0
 10
63.93786580922741
 20
-0.4769025407148285
 30
0.0
 10
63.16173639957112
 20
0.2070893295748807
 30
0.0
 10
62.90536026588213
 20
0.4395904021070527
 30
0.0
 10
62.39784408881663
 20
0.9146977532766432
 30
0.0
 10
62.14808896088133
 20
1.156071134681428
 30
0.0
 10
61.90623807966202
 20
1.398590784794614
 30
0.0
  0
SPLINE
  5
C2
330
1F
100
AcDbEntity
  8
0
  6
Continuous
 62
     1
370
    15
100
AcDbSpline
210
0.0
220
0.0
230
1.0
 70
     8
 71
     3
 72
    13
 73
     9
 74
     0
 42
0.000000001
 43
0.00000001
 40
0.0
 40
0.0
 40
0.0
 40
0.0
 40
0.1724763751958431
 40
0.3449521338500862
 40
0.549466859664487
 40
0.7538259002597231
 40
0.9582763283164828
 40
1.0
 40
1.0
 40
1.0
 40
1.0
 10
61.90623807966343
 20
1.398590784793998
 30
0.0
 10
61.24421271853708
 20
1.678003347533433
 30
0.0
 10
59.92016436278917
 20
2.236827474211925
 30
0.0
 10
57.81128012109836
 20
2.98054954080334
 30
0.0
 10
55.57927684585677
 20
3.590679059741457
 30
0.0
 10
53.22515575045197
 20
3.943915931685358
 30
0.0
 10
51.49566204591387
 20
4.059201407671304
 30
0.0
 10
50.55057864974207
 20
3.965288752345584
 30
0.0
 10
50.39039791026941
 20
3.949371640017879
 30
0.0
  0
SPLINE
  5
C3
330
1F
100
AcDbEntity
  8
0
  6
Continuous
 62
     1
370
    15
100
AcDbSpline
210
0.0
220
0.0
230
1.0
 70
     8
 71
     3
 72
    15
 73
    11
 74
     0
 42
0.000000001
 43
0.00000001
 40
0.0
 40
0.0
 40
0.0
 40
0.0
 40
0.1301999851611528
 40
0.2671065007720067
 40
0.4039094916853969
 40
0.5407413964688262
 40
0.6776624289774114
 40
0.7851061834923152
 40
0.8925517473057321
 40
1.0
 40
1.0
 40
1.0
 40
1.0
 10
27.2042036217632
 20
-3.753475738725773
 30
0.0
 10
26.45744168770336
 20
-3.84946043468823
 30
0.0
 10
24.92545251835304
 20
-4.046373946118077
 30
0.0
 10
22.60885813447462
 20
-3.978655925265322
 30
0.0
 10
20.25458138765444
 20
-3.639688585760562
 30
0.0
 10
17.90019000663233
 20
-3.027212173009673
 30
0.0
 10
15.71358324870132
 20
-2.253861253333929
 30
0.0
 10
13.69654414164189
 20
-1.416645498816433
 30
0.0
 10
11.84826212065964
 20
-0.5845696715364809
 30
0.0
 10
10.61609251276927
 20
-0.0143400537253027
 30
0.0
 10
9.999999999999984
 20
0.2707783227084847
 30
0.0
  0
SPLINE
  5
C4
330
1F
100
AcDbEntity
  8
0
  6
Continuous
 62
     1
370
    15
100
AcDbSpline
210
0.0
220
0.0
230
1.0
 70
    24
 71
     3
 72
    10
 73
     6
 74
     0
 42
0.000000001
 43
0.00000001
 40
0.0
 40
0.0
 40
0.0
 40
0.0
 40
0.5
 40
0.5
 40
1.0
 40
1.0
 40
1.0
 40
1.0
 10
65.0
 20
-3.944861321841068
 30
0.0
 10
65.0
 20
-3.642456945019013
 30
0.0
 10
65.0
 20
-3.260357419532333
 30
0.0
 10
65.0
 20
-2.372012795753391
 30
0.0
 10
65.0
 20
-1.866537215256541
 30
0.0
 10
65.00000000000003
 20
-1.336214730148376
 30
0.0
  0
SPLINE
  5
C5
330
1F
100
AcDbEntity
  8
0
  6
Continuous
 62
   131
370
    15
100
AcDbSpline
210
0.0
220
0.0
230
1.0
 70
    24
 71
     3
 72
    14
 73
    10
 74
     0
 42
0.000000001
 43
0.00000001
 40
0.0
 40
0.0
 40
0.0
 40
0.0
 40
0.25
 40
0.25
 40
0.4999999999999999
 40
0.4999999999999999
 40
0.75
 40
0.75
 40
1.0
 40
1.0
 40
1.0
 40
1.0
 10
9.999999999999995
 20
0.2707783227084791
 30
0.0
 10
9.999999999999995
 20
-0.1143846324728135
 30
0.0
 10
9.999999999999995
 20
-0.5067215005762709
 30
0.0
 10
9.999999999999995
 20
-1.27835042142341
 30
0.0
 10
9.999999999999995
 20
-1.657420371629908
 30
0.0
 10
9.999999999999995
 20
-2.373917218226703
 30
0.0
 10
9.999999999999995
 20
-2.711137212077754
 30
0.0
 10
9.999999999999995
 20
-3.321259131610135
 30
0.0
 10
9.999999999999995
 20
-3.594066132115299
 30
0.0
 10
9.999999999999995
 20
-3.828765455241372
 30
0.0
  0
SPLINE
  5
C6
330
1F
100
AcDbEntity
  8
0
  6
Continuous
 62
     1
370
    15
100
AcDbSpline
210
0.0
220
0.0
230
1.0
 70
     8
 71
     3
 72
    21
 73
    17
 74
     0
 42
0.000000001
 43
0.00000001
 40
0.0
 40
0.0
 40
0.0
 40
0.0
 40
0.0383982673361411
 40
0.1137625630243111
 40
0.1891695766615146
 40
0.2645797968155188
 40
0.33995367639316
 40
0.4152809705965235
 40
0.490661157635435
 40
0.5660730538560178
 40
0.6414770935200397
 40
0.7168337982590409
 40
0.7921692132298342
 40
0.8675622287954721
 40
0.9429759172412434
 40
1.0
 40
1.0
 40
1.0
 40
1.0
 10
54.4250201276708
 20
-3.723194979659262
 30
0.0
 10
54.02516912528409
 20
-3.792929843503343
 30
0.0
 10
52.84053038986551
 20
-3.999533354375491
 30
0.0
 10
50.87052858766297
 20
-4.033190249809301
 30
0.0
 10
48.51487289948566
 20
-3.829865907645757
 30
0.0
 10
46.15911642382291
 20
-3.330924557671409
 30
0.0
 10
43.80432785274542
 20
-2.591086161064508
 30
0.0
 10
41.45020482855242
 20
-1.659282966255422
 30
0.0
 10
39.09529463885043
 20
-0.6063380862133189
 30
0.0
 10
36.73948319337631
 20
0.4913101430523817
 30
0.0
 10
34.38392813593953
 20
1.55293912509733
 30
0.0
 10
32.02941929376264
 20
2.499933986252081
 30
0.0
 10
29.67519036414031
 20
3.265909611508377
 30
0.0
 10
27.31998683833329
 20
3.781956061860584
 30
0.0
 10
25.15542470683455
 20
4.033625578848976
 30
0.0
 10
23.7761616980958
 20
3.972279222058388
 30
0.0
 10
23.18228876259506
 20
3.94586515834561
 30
0.0
  0
SPLINE
  5
C7
330
1F
100
AcDbEntity
  8
0
  6
Continuous
 62
     1
370
    15
100
AcDbSpline
210
0.0
220
0.0
230
1.0
 70
     8
 71
     3
 72
    10
 73
     6
 74
     0
 42
0.000000001
 43
0.00000001
 40
0.0
 40
0.0
 40
0.0
 40
0.0
 40
0.5
 40
0.5
 40
1.0
 40
1.0
 40
1.0
 40
1.0
 10
65.0
 20
3.500000000000011
 30
0.0
 10
64.3777848682106
 20
3.331216419726826
 30
0.0
 10
63.76026279451123
 20
3.137623633046197
 30
0.0
 10
62.53581778859246
 20
2.694407155383062
 30
0.0
 10
61.92880705278058
 20
2.445160530077932
 30
0.0
 10
61.33398001936779
 20
2.153947629457784
 30
0.0
  0
SPLINE
  5
C8
330
1F
100
AcDbEntity
  8
0
  6
Continuous
 62
   131
370
    15
100
AcDbSpline
210
0.0
220
0.0
230
1.0
 70
    24
 71
     3
 72
    14
 73
    10
 74
     0
 42
0.000000001
 43
0.00000001
 40
0.0
 40
0.0
 40
0.0
 40
0.0
 40
0.25
 40
0.25
 40
0.5
 40
0.5
 40
0.75
 40
0.75
 40
1.0
 40
1.0
 40
1.0
 40
1.0
 10
9.999999999999984
 20
3.491971318023696
 30
0.0
 10
9.999999999999984
 20
3.427187596396069
 30
0.0
 10
9.999999999999984
 20
3.306615845699207
 30
0.0
 10
9.999999999999984
 20
2.949159059505947
 30
0.0
 10
9.999999999999984
 20
2.712221620029217
 30
0.0
 10
9.999999999999984
 20
2.139722754191848
 30
0.0
 10
9.999999999999984
 20
1.804466379162085
 30
0.0
 10
9.999999999999984
 20
1.072382681028362
 30
0.0
 10
9.999999999999984
 20
0.6760291376558207
 30
0.0
 10
9.999999999999984
 20
0.2707783227084844
 30
0.0
  0
LINE
  5
C9
330
1F
100
AcDbEntity
  8
0
  6
Continuous
 62
     1
370
    15
100
AcDbLine
 10
65.0
 20
0.0000000000000117
 30
0.0
 11
65.0
 21
3.500000000000011
 31
0.0
  0
SPLINE
  5
CA
330
1F
100
AcDbEntity
  8
0
  6
Continuous
 62
   131
370
    15
100
AcDbSpline
210
0.0
220
0.0
230
1.0
 70
     8
 71
     3
 72
    10
 73
     6
 74
     0
 42
0.000000001
 43
0.00000001
 40
0.0
 40
0.0
 40
0.0
 40
0.0
 40
0.5
 40
0.5
 40
1.0
 40
1.0
 40
1.0
 40
1.0
 10
9.999999999999789
 20
-4.627047793933099
 30
0.0
 10
9.746309199171652
 20
-4.571602473347603
 30
0.0
 10
9.49187505241688
 20
-4.510149067134429
 30
0.0
 10
8.98445687782863
 20
-4.375934572136709
 30
0.0
 10
8.732559727353177
 20
-4.303288800377432
 30
0.0
 10
8.480150305885891
 20
-4.225189952507363
 30
0.0
  0
SPLINE
  5
CB
330
1F
100
AcDbEntity
  8
0
  6
Continuous
 62
   131
370
    15
100
AcDbSpline
210
0.0
220
0.0
230
1.0
 70
     8
 71
     3
 72
    10
 73
     6
 74
     0
 42
0.000000001
 43
0.00000001
 40
0.0
 40
0.0
 40
0.0
 40
0.0
 40
0.5
 40
0.5
 40
1.0
 40
1.0
 40
1.0
 40
1.0
 10
9.999999999999789
 20
-4.970401154941626
 30
0.0
 10
9.746296328834749
 20
-4.954504436734092
 30
0.0
 10
9.491849236362647
 20
-4.932195672769073
 30
0.0
 10
8.98440546630634
 20
-4.875010669443584
 30
0.0
 10
8.73249601570056
 20
-4.84019644907207
 30
0.0
 10
8.480073473861037
 20
-4.799219662716312
 30
0.0
  0
LINE
  5
CC
330
1F
100
AcDbEntity
  8
0
  6
Continuous
 62
   131
370
    15
100
AcDbLine
 10
8.480073473861037
 20
-4.999999999999995
 30
0.0
 11
8.480073473861037
 21
-4.799220597062135
 31
0.0
  0
SPLINE
  5
CD
330
1F
100
AcDbEntity
  8
0
  6
Continuous
 62
   131
370
    15
100
AcDbSpline
210
0.0
220
0.0
230
1.0
 70
     8
 71
     3
 72
    10
 73
     6
 74
     0
 42
0.000000001
 43
0.00000001
 40
0.0
 40
0.0
 40
0.0
 40
0.0
 40
0.5000000000000001
 40
0.5000000000000001
 40
1.0
 40
1.0
 40
1.0
 40
1.0
 10
9.999999999999789
 20
4.970401154941637
 30
0.0
 10
9.746296328834749
 20
4.954504436734103
 30
0.0
 10
9.491849236362647
 20
4.932195672769086
 30
0.0
 10
8.98440546630634
 20
4.875010669443595
 30
0.0
 10
8.73249601570056
 20
4.84019644907208
 30
0.0
 10
8.480073473861037
 20
4.799219662716323
 30
0.0
  0
LINE
  5
CE
330
1F
100
AcDbEntity
  8
0
  6
Continuous
 62
   131
370
    15
100
AcDbLine
 10
8.480073473861037
 20
-4.225075368594637
 30
0.0
 11
8.480073473861037
 21
5.000000000000005
 31
0.0
  0
LINE
  5
CF
330
1F
100
AcDbEntity
  8
0
  6
Continuous
 62
   131
370
    15
100
AcDbLine
 10
-84.0
 20
4.999999999999996
 30
0.0
 11
-84.0
 21
-5.000000000000001
 31
0.0
  0
LINE
  5
D0
330
1F
100
AcDbEntity
  8
0
  6
Continuous
 62
   131
370
    15
100
AcDbLine
 10
-85.0
 20
3.999999999999992
 30
0.0
 11
-85.0
 21
-3.999999999999995
 31
0.0
  0
SPLINE
  5
D1
330
1F
100
AcDbEntity
  8
0
  6
Continuous
 62
   131
370
    15
100
AcDbSpline
210
0.0
220
0.0
230
1.0
 70
     8
 71
     3
 72
    10
 73
     6
 74
     0
 42
0.000000001
 43
0.00000001
 40
0.0
 40
0.0
 40
0.0
 40
0.0
 40
0.5
 40
0.5
 40
1.0
 40
1.0
 40
1.0
 40
1.0
 10
9.999999999999657
 20
-3.828765455241301
 30
0.0
 10
9.746309199171542
 20
-3.77478628125241
 30
0.0
 10
9.491875052416797
 20
-3.715827679304149
 30
0.0
 10
8.984456877828592
 20
-3.588631458762703
 30
0.0
 10
8.732559727353157
 20
-3.520500740537114
 30
0.0
 10
8.480150305885891
 20
-3.447914166032474
 30
0.0
  0
SPLINE
  5
D2
330
1F
100
AcDbEntity
  8
0
  6
Continuous
 62
   131
370
    15
100
AcDbSpline
210
0.0
220
0.0
230
1.0
 70
     8
 71
     3
 72
    10
 73
     6
 74
     0
 42
0.000000001
 43
0.00000001
 40
0.0
 40
0.0
 40
0.0
 40
0.0
 40
0.5
 40
0.5
 40
1.0
 40
1.0
 40
1.0
 40
1.0
 10
9.99999999999961
 20
0.2707783227086574
 30
0.0
 10
9.746301031145917
 20
0.3875582881195065
 30
0.0
 10
9.491858668526628
 20
0.5041035338432656
 30
0.0
 10
8.984424250037122
 20
0.7353791913447562
 30
0.0
 10
8.732519293425684
 20
0.8499462291468759
 30
0.0
 10
8.480101545250792
 20
0.9633579766368976
 30
0.0
  0
SPLINE
  5
D3
330
1F
100
AcDbEntity
  8
0
  6
Continuous
 62
   131
370
    15
100
AcDbSpline
210
0.0
220
0.0
230
1.0
 70
    24
 71
     3
 72
    14
 73
    10
 74
     0
 42
0.000000001
 43
0.00000001
 40
0.0
 40
0.0
 40
0.0
 40
0.0
 40
0.25
 40
0.25
 40
0.4999999999999999
 40
0.4999999999999999
 40
0.75
 40
0.75
 40
1.0
 40
1.0
 40
1.0
 40
1.0
 10
9.999999999999995
 20
0.2707783227084791
 30
0.0
 10
9.999999999999995
 20
-0.1143846324728135
 30
0.0
 10
9.999999999999995
 20
-0.5067215005762709
 30
0.0
 10
9.999999999999995
 20
-1.27835042142341
 30
0.0
 10
9.999999999999995
 20
-1.657420371629908
 30
0.0
 10
9.999999999999995
 20
-2.373917218226703
 30
0.0
 10
9.999999999999995
 20
-2.711137212077754
 30
0.0
 10
9.999999999999995
 20
-3.321259131610135
 30
0.0
 10
9.999999999999995
 20
-3.594066132115299
 30
0.0
 10
9.999999999999995
 20
-3.828765455241372
 30
0.0
  0
LINE
  5
D4
330
1F
100
AcDbEntity
  8
0
  6
Continuous
 62
   131
370
    15
100
AcDbLine
 10
9.999999999999984
 20
3.491971318023696
 30
0.0
 11
8.781031499490023
 21
3.415785268893014
 31
0.0
  0
SPLINE
  5
D5
330
1F
100
AcDbEntity
  8
0
  6
Continuous
 62
   131
370
    15
100
AcDbSpline
210
0.0
220
0.0
230
1.0
 70
    24
 71
     3
 72
    14
 73
    10
 74
     0
 42
0.000000001
 43
0.00000001
 40
0.0
 40
0.0
 40
0.0
 40
0.0
 40
0.25
 40
0.25
 40
0.5
 40
0.5
 40
0.75
 40
0.75
 40
1.0
 40
1.0
 40
1.0
 40
1.0
 10
9.999999999999984
 20
3.491971318023696
 30
0.0
 10
9.999999999999984
 20
3.427187596396069
 30
0.0
 10
9.999999999999984
 20
3.306615845699207
 30
0.0
 10
9.999999999999984
 20
2.949159059505947
 30
0.0
 10
9.999999999999984
 20
2.712221620029217
 30
0.0
 10
9.999999999999984
 20
2.139722754191848
 30
0.0
 10
9.999999999999984
 20
1.804466379162085
 30
0.0
 10
9.999999999999984
 20
1.072382681028362
 30
0.0
 10
9.999999999999984
 20
0.6760291376558207
 30
0.0
 10
9.999999999999984
 20
0.2707783227084844
 30
0.0
  0
SPLINE
  5
D6
330
1F
100
AcDbEntity
  8
0
  6
Continuous
 62
   131
370
    15
100
AcDbSpline
210
0.0
220
0.0
230
1.0
 70
    24
 71
     3
 72
     8
 73
     4
 74
     0
 42
0.000000001
 43
0.00000001
 40
0.0
 40
0.0
 40
0.0
 40
0.0
 40
1.0
 40
1.0
 40
1.0
 40
1.0
 10
10.00000000000019
 20
-3.828765455241413
 30
0.0
 10
10.00000000000019
 20
-4.092087535588205
 30
0.0
 10
10.00000000000019
 20
-4.359879543126764
 30
0.0
 10
10.00000000000019
 20
-4.6270477939216
 30
0.0
  0
SPLINE
  5
D7
330
1F
100
AcDbEntity
  8
0
  6
Continuous
 62
   131
370
    15
100
AcDbSpline
210
0.0
220
0.0
230
1.0
 70
    24
 71
     3
 72
    10
 73
     6
 74
     0
 42
0.000000001
 43
0.00000001
 40
0.0
 40
0.0
 40
0.0
 40
0.0
 40
0.5
 40
0.5
 40
1.0
 40
1.0
 40
1.0
 40
1.0
 10
9.999999999999995
 20
4.97040115494165
 30
0.0
 10
9.999999999999995
 20
4.716231314822285
 30
0.0
 10
9.999999999999995
 20
4.446429085999102
 30
0.0
 10
9.999999999999995
 20
3.93535108624673
 30
0.0
 10
9.999999999999995
 20
3.695353921122524
 30
0.0
 10
9.999999999999995
 20
3.491971318023698
 30
0.0
  0
LINE
  5
D8
330
1F
100
AcDbEntity
  8
중심선
 62
     1
100
AcDbLine
 10
-88.0
 20
-0.0000000000000004
 30
0.0
 11
68.0
 21
0.0000000000000119
 31
0.0
  0
CIRCLE
  5
D9
330
1F
100
AcDbEntity
  8
외형선
100
AcDbCircle
 10
0.0000000000000104
 20
0.0
 30
0.0
 40
3.000000000000005
  0
INSERT
  5
DA
330
1F
100
AcDbEntity
  8
0
  6
Continuous
 62
     7
100
AcDbBlockReference
 66
     1
  2
블럭10
 10
-22.93944368806589
 20
-52.04609937292004
 30
0.0
  0
ATTRIB
  5
DB
330
DA
100
AcDbEntity
  8
FORMAT
 62
     2
100
AcDbText
 10
-39.05870472750145
 20
-49.97073246008785
 30
0.0
 40
4.233333333333333
  1
SEME7010055E [ 2 FLUTE ]
 41
0.75
  7
SLDTEXTSTYLE0
 11
-39.05870472750145
 21
-52.08739912675452
 31
0.0
100
AcDbAttribute
  2
AUTOATTR0
 70
     0
 74
     1
  0
SEQEND
  5
DC
330
DA
100
AcDbEntity
  8
0
  6
Continuous
 62
     7
  0
HATCH
  5
DD
330
1F
100
AcDbEntity
  8
중심선
100
AcDbHatch
 10
0.0
 20
0.0
 30
0.0
210
0.0
220
0.0
230
1.0
  2
SOLID
 70
     1
 71
     0
 91
        1
 92
        0
 93
        4
 72
     1
 10
-17.22453438368504
 20
-35.7989250712761
 11
-20.67080962752232
 21
-35.7989250712761
 72
     1
 10
-20.67080962752232
 20
-35.7989250712761
 11
-22.79903948672635
 21
-38.3352506518487
 72
     1
 10
-22.79903948672635
 20
-38.3352506518487
 11
-19.35273115777591
 21
-38.33521122254621
 72
     1
 10
-19.35273115777591
 20
-38.33521122254621
 11
-17.22453438368504
 21
-35.7989250712761
 97
        0
 75
     0
 76
     1
 98
        1
 10
0.0
 20
0.0
  0
HATCH
  5
DE
330
1F
100
AcDbEntity
  8
중심선
100
AcDbHatch
 10
0.0
 20
0.0
 30
0.0
210
0.0
220
0.0
230
1.0
  2
SOLID
 70
     1
 71
     0
 91
        1
 92
        0
 93
        4
 72
     1
 10
-12.21177039264909
 20
-35.7989250712761
 11
-15.65804563648637
 21
-35.7989250712761
 72
     1
 10
-15.65804563648637
 20
-35.7989250712761
 11
-20.18918364484376
 21
-41.19892507127612
 72
     1
 10
-20.18918364484376
 20
-41.19892507127612
 11
-16.74290840100648
 21
-41.19892507127612
 72
     1
 10
-16.74290840100648
 20
-41.19892507127612
 11
-12.21177039264909
 21
-35.7989250712761
 97
        0
 75
     0
 76
     1
 98
        1
 10
0.0
 20
0.0
  0
HATCH
  5
DF
330
1F
100
AcDbEntity
  8
중심선
100
AcDbHatch
 10
0.0
 20
0.0
 30
0.0
210
0.0
220
0.0
230
1.0
  2
SOLID
 70
     1
 71
     0
 91
        1
 92
        0
 93
        4
 72
     1
 10
-7.199006401613195
 20
-35.79892507127613
 11
-10.64528164545031
 21
-35.7989250712761
 72
     1
 10
-10.64528164545031
 20
-35.7989250712761
 11
-17.69371854733956
 21
-44.19892507127612
 72
     1
 10
-17.69371854733956
 20
-44.19892507127612
 11
-14.24744330350228
 21
-44.19892507127612
 72
     1
 10
-14.24744330350228
 20
-44.19892507127612
 11
-7.199006401613195
 21
-35.79892507127613
 97
        0
 75
     0
 76
     1
 98
        1
 10
0.0
 20
0.0
  0
HATCH
  5
E0
330
1F
100
AcDbEntity
  8
중심선
100
AcDbHatch
 10
0.0
 20
0.0
 30
0.0
210
0.0
220
0.0
230
1.0
  2
SOLID
 70
     1
 71
     0
 91
        1
 92
        0
 93
        6
 72
     3
 10
-2.399115970600996
 20
-39.99892507132738
 11
3.960054785062284
 21
1.540850780301639E-10
 40
0.3939339440162633
 50
17.09539180608433
 51
320.0019657685079
 73
     0
 72
     1
 10
-0.7161163149004002
 20
-38.58681907591441
 11
1.589185558800638
 21
-36.65249236586649
 72
     3
 10
-2.399115970653842
 20
-39.99892507127625
 11
6.600054785286829
 21
-1.249000902703301E-13
 40
0.6363583540795982
 50
39.99873849337408
 51
368.4976242363725
 73
     1
 72
     1
 10
4.026216521246767
 20
-39.03892507120613
 11
-3.71904866381792
 21
-39.0389250712061
 72
     1
 10
-3.71904866381792
 20
-39.0389250712061
 11
-3.719073708263854
 21
-40.95892507120602
 72
     1
 10
-3.719073708263854
 20
-40.95892507120602
 11
0.7223060612081831
 21
-40.95892507120599
 97
        0
 75
     0
 76
     1
 98
        1
 10
0.0
 20
0.0
  0
DIMENSION
  5
E1
330
1F
100
AcDbEntity
  8
치수문자_일반주서
100
AcDbDimension
  2
_D
 10
82.51694529575819
 20
5.000000000000272
 30
0.0
 11
82.51694529575816
 21
15.32275000000027
 31
0.0
 70
   160
  1
%%c<>
 71
     2
 42
9.999999999999995
 52
-270.0
  3
SLDDIMSTYLE0
100
AcDbAlignedDimension
 13
64.99999999999999
 23
-4.999999999999789
 33
0.0
 14
65.0
 24
5.000000000000206
 34
0.0
 50
90.0000000000002
100
AcDbRotatedDimension
  0
DIMENSION
  5
EF
330
1F
100
AcDbEntity
  8
치수문자_일반주서
100
AcDbDimension
  2
_D_1
 10
65.0
 20
25.78841044024269
 30
0.0
 11
-10.0
 21
25.78841044024269
 31
0.0
 70
   160
  1
<>
 71
     2
 42
150.0
  3
SLDDIMSTYLE1
100
AcDbAlignedDimension
 13
-85.0
 23
3.999999999999992
 33
0.0
 14
65.0
 24
5.000000000000206
 34
0.0
 50
-0.0000000000000027
100
AcDbRotatedDimension
  0
DIMENSION
  5
FA
330
1F
100
AcDbEntity
  8
치수문자_일반주서
100
AcDbDimension
  2
_D_2
 10
65.0
 20
18.31739896110924
 30
0.0
 11
37.49999999999996
 21
18.31739896110924
 31
0.0
 70
   160
  1
<>
 71
     2
 42
55.00000000000001
  3
SLDDIMSTYLE1
100
AcDbAlignedDimension
 13
9.999999999999995
 23
4.97040115494165
 33
0.0
 14
65.0
 24
5.000000000000206
 34
0.0
 50
0.0000000000001406
100
AcDbRotatedDimension
  0
DIMENSION
  5
104
330
1F
100
AcDbEntity
  8
치수문자_일반주서
100
AcDbDimension
  2
_D_3
 10
-96.21711450772345
 20
-5.000000000000043
 30
0.0
 11
-96.21711450772352
 21
18.79484990641762
 31
0.0
 70
   160
  1
%%c<>
 71
     2
 42
9.999999999999993
 52
-270.0
  3
SLDDIMSTYLE0
100
AcDbAlignedDimension
 13
-84.0
 23
4.999999999999996
 33
0.0
 14
-84.0
 24
-4.999999999999997
 34
0.0
 50
90.0000000000002
100
AcDbRotatedDimension
  0
INSERT
  5
117
330
1F
100
AcDbEntity
  8
외형선
100
AcDbBlockReference
  2
SW_DOWELSYMBOL_0
 10
0.0000000000000104
 20
0.0
 30
0.0
  0
ENDSEC
  0
SECTION
  2
OBJECTS
  0
DICTIONARY
  5
C
330
0
100
AcDbDictionary
281
     1
  3
ACAD_GROUP
350
D
  3
ACAD_IMAGE_VARS
350
13B
  3
ACAD_LAYOUT
350
1A
  3
ACAD_MLINESTYLE
350
17
  3
ACAD_PLOTSETTINGS
350
19
  3
ACAD_PLOTSTYLENAME
350
E
  3
ACAD_SCALELIST
350
47
  3
APPDATA
350
139
  3
DWGPROPS
350
14D
  0
DICTIONARY
  5
D
102
{ACAD_REACTORS
330
C
102
}
330
C
100
AcDbDictionary
281
     1
  0
RASTERVARIABLES
  5
13B
102
{ACAD_REACTORS
330
C
102
}
330
C
100
AcDbRasterVariables
 90
        0
 70
     1
 71
     1
 72
     1
  0
DICTIONARY
  5
1A
102
{ACAD_REACTORS
330
C
102
}
330
C
100
AcDbDictionary
281
     1
  3
Layout1
350
1E
  3
Layout2
350
26
  3
Model
350
22
  0
DICTIONARY
  5
17
102
{ACAD_REACTORS
330
C
102
}
330
C
100
AcDbDictionary
281
     1
  3
Standard
350
18
  0
DICTIONARY
  5
19
102
{ACAD_REACTORS
330
C
102
}
330
C
100
AcDbDictionary
281
     1
  0
ACDBDICTIONARYWDFLT
  5
E
102
{ACAD_REACTORS
330
C
102
}
330
C
100
AcDbDictionary
281
     1
  3
Normal
350
F
100
AcDbDictionaryWithDefault
340
F
  0
DICTIONARY
  5
47
102
{ACAD_REACTORS
330
C
102
}
330
C
100
AcDbDictionary
281
     1
  3
A0
350
48
  3
A1
350
49
  3
A2
350
4A
  3
A3
350
4B
  3
A4
350
4C
  3
A5
350
4D
  3
A6
350
4E
  3
A7
350
4F
  3
A8
350
50
  3
A9
350
51
  3
B0
350
52
  3
B1
350
53
  3
B2
350
54
  3
B3
350
55
  3
B4
350
56
  3
B5
350
57
  3
B6
350
58
  3
B7
350
59
  3
B8
350
5A
  3
B9
350
5B
  3
C0
350
5C
  3
C1
350
5D
  3
C2
350
5E
  3
C3
350
5F
  3
C4
350
60
  3
C5
350
61
  3
C6
350
62
  3
C7
350
63
  3
C8
350
64
  3
C9
350
65
  3
D0
350
66
  3
D1
350
67
  3
D2
350
68
  0
DICTIONARY
  5
139
102
{ACAD_REACTORS
330
C
102
}
330
C
100
AcDbDictionary
281
     1
  0
XRECORD
  5
14D
102
{ACAD_REACTORS
330
C
102
}
330
C
100
AcDbXrecord
280
     1
  1
DWGPROPS COOKIE
  2

  3

  4

  6

  7

  8
12014102
  9

300
=
301
=
302
=
303
=
304
=
305
=
306
=
307
=
308
=
309
=
 40
0.0
 41
2458262.171610637
 42
2458266.110478576
  1

 90
        0
  0
LAYOUT
  5
1E
102
{ACAD_REACTORS
330
1A
102
}
330
1A
100
AcDbPlotSettings
  1

  2
none_device
  4

  6

 40
0.0
 41
0.0
 42
0.0
 43
0.0
 44
0.0
 45
0.0
 46
0.0
 47
0.0
 48
0.0
 49
0.0
140
0.0
141
0.0
142
1.0
143
1.0
 70
   688
 72
     1
 73
     0
 74
     5
  7

 75
    16
147
1.0
148
0.0
149
0.0
100
AcDbLayout
  1
Layout1
 70
     1
 71
     1
 10
0.0
 20
0.0
 11
420.0
 21
297.0
 12
0.0
 22
0.0
 32
0.0
 14
1.000000000000000E+20
 24
1.000000000000000E+20
 34
1.000000000000000E+20
 15
-1.000000000000000E+20
 25
-1.000000000000000E+20
 35
-1.000000000000000E+20
146
0.0
 13
0.0
 23
0.0
 33
0.0
 16
1.0
 26
0.0
 36
0.0
 17
0.0
 27
1.0
 37
0.0
 76
     0
330
1B
  0
LAYOUT
  5
26
102
{ACAD_REACTORS
330
1A
102
}
330
1A
100
AcDbPlotSettings
  1

  2
none_device
  4

  6

 40
0.0
 41
0.0
 42
0.0
 43
0.0
 44
0.0
 45
0.0
 46
0.0
 47
0.0
 48
0.0
 49
0.0
140
0.0
141
0.0
142
1.0
143
1.0
 70
   688
 72
     1
 73
     0
 74
     5
  7

 75
    16
147
1.0
148
0.0
149
0.0
100
AcDbLayout
  1
Layout2
 70
     1
 71
     2
 10
0.0
 20
0.0
 11
0.0
 21
0.0
 12
0.0
 22
0.0
 32
0.0
 14
0.0
 24
0.0
 34
0.0
 15
0.0
 25
0.0
 35
0.0
146
0.0
 13
0.0
 23
0.0
 33
0.0
 16
1.0
 26
0.0
 36
0.0
 17
0.0
 27
1.0
 37
0.0
 76
     0
330
23
  0
LAYOUT
  5
22
102
{ACAD_REACTORS
330
1A
102
}
330
1A
100
AcDbPlotSettings
  1

  2
none_device
  4
ANSI_A_(11.00_x_8.50_Inches)
  6

 40
6.35
 41
19.05
 42
6.35000508
 43
19.05000254
 44
279.4
 45
215.9
 46
155.0573103661252
 47
105.9011827209095
 48
0.0
 49
0.0
140
0.0
141
0.0
142
0.065578048070227
143
1.0
 70
  1696
 72
     0
 73
     0
 74
     0
  7

 75
     0
147
0.0235690232323232
148
0.0
149
0.0
100
AcDbLayout
  1
Model
 70
     1
 71
     0
 10
0.0
 20
0.0
 11
420.0
 21
297.0
 12
0.0
 22
0.0
 32
0.0
 14
-100.5921145077235
 24
-49.97073246008785
 34
0.0
 15
83.06727862909156
 25
30.16341044024269
 35
0.0
146
0.0
 13
0.0
 23
0.0
 33
0.0
 16
1.0
 26
0.0
 36
0.0
 17
0.0
 27
1.0
 37
0.0
 76
     0
330
1F
331
29
  0
MLINESTYLE
  5
18
102
{ACAD_REACTORS
330
17
102
}
330
17
100
AcDbMlineStyle
  2
Standard
 70
     0
  3

 62
   256
 51
90.0
 52
90.0
 71
     2
 49
0.5
 62
   256
  6
BYLAYER
 49
-0.5
 62
   256
  6
BYLAYER
  0
ACDBPLACEHOLDER
  5
F
102
{ACAD_REACTORS
330
E
102
}
330
E
  0
SCALE
  5
48
102
{ACAD_REACTORS
330
47
102
}
330
47
100
AcDbScale
 70
     0
300
1:1
140
1.0
141
1.0
290
     1
  0
SCALE
  5
49
102
{ACAD_REACTORS
330
47
102
}
330
47
100
AcDbScale
 70
     0
300
1:2
140
1.0
141
2.0
290
     0
  0
SCALE
  5
4A
102
{ACAD_REACTORS
330
47
102
}
330
47
100
AcDbScale
 70
     0
300
1:4
140
1.0
141
4.0
290
     0
  0
SCALE
  5
4B
102
{ACAD_REACTORS
330
47
102
}
330
47
100
AcDbScale
 70
     0
300
1:5
140
1.0
141
5.0
290
     0
  0
SCALE
  5
4C
102
{ACAD_REACTORS
330
47
102
}
330
47
100
AcDbScale
 70
     0
300
1:8
140
1.0
141
8.0
290
     0
  0
SCALE
  5
4D
102
{ACAD_REACTORS
330
47
102
}
330
47
100
AcDbScale
 70
     0
300
1:10
140
1.0
141
10.0
290
     0
  0
SCALE
  5
4E
102
{ACAD_REACTORS
330
47
102
}
330
47
100
AcDbScale
 70
     0
300
1:16
140
1.0
141
16.0
290
     0
  0
SCALE
  5
4F
102
{ACAD_REACTORS
330
47
102
}
330
47
100
AcDbScale
 70
     0
300
1:20
140
1.0
141
20.0
290
     0
  0
SCALE
  5
50
102
{ACAD_REACTORS
330
47
102
}
330
47
100
AcDbScale
 70
     0
300
1:30
140
1.0
141
30.0
290
     0
  0
SCALE
  5
51
102
{ACAD_REACTORS
330
47
102
}
330
47
100
AcDbScale
 70
     0
300
1:40
140
1.0
141
40.0
290
     0
  0
SCALE
  5
52
102
{ACAD_REACTORS
330
47
102
}
330
47
100
AcDbScale
 70
     0
300
1:50
140
1.0
141
50.0
290
     0
  0
SCALE
  5
53
102
{ACAD_REACTORS
330
47
102
}
330
47
100
AcDbScale
 70
     0
300
1:100
140
1.0
141
100.0
290
     0
  0
SCALE
  5
54
102
{ACAD_REACTORS
330
47
102
}
330
47
100
AcDbScale
 70
     0
300
2:1
140
2.0
141
1.0
290
     0
  0
SCALE
  5
55
102
{ACAD_REACTORS
330
47
102
}
330
47
100
AcDbScale
 70
     0
300
4:1
140
4.0
141
1.0
290
     0
  0
SCALE
  5
56
102
{ACAD_REACTORS
330
47
102
}
330
47
100
AcDbScale
 70
     0
300
8:1
140
8.0
141
1.0
290
     0
  0
SCALE
  5
57
102
{ACAD_REACTORS
330
47
102
}
330
47
100
AcDbScale
 70
     0
300
10:1
140
10.0
141
1.0
290
     0
  0
SCALE
  5
58
102
{ACAD_REACTORS
330
47
102
}
330
47
100
AcDbScale
 70
     0
300
100:1
140
100.0
141
1.0
290
     0
  0
SCALE
  5
59
102
{ACAD_REACTORS
330
47
102
}
330
47
100
AcDbScale
 70
     0
300
1/128" = 1'-0"
140
0.0078125
141
12.0
290
     0
  0
SCALE
  5
5A
102
{ACAD_REACTORS
330
47
102
}
330
47
100
AcDbScale
 70
     0
300
1/64" = 1'-0"
140
0.015625
141
12.0
290
     0
  0
SCALE
  5
5B
102
{ACAD_REACTORS
330
47
102
}
330
47
100
AcDbScale
 70
     0
300
1/32" = 1'-0"
140
0.03125
141
12.0
290
     0
  0
SCALE
  5
5C
102
{ACAD_REACTORS
330
47
102
}
330
47
100
AcDbScale
 70
     0
300
1/16" = 1'-0"
140
0.0625
141
12.0
290
     0
  0
SCALE
  5
5D
102
{ACAD_REACTORS
330
47
102
}
330
47
100
AcDbScale
 70
     0
300
3/32" = 1'-0"
140
0.09375
141
12.0
290
     0
  0
SCALE
  5
5E
102
{ACAD_REACTORS
330
47
102
}
330
47
100
AcDbScale
 70
     0
300
1/8" = 1'-0"
140
0.125
141
12.0
290
     0
  0
SCALE
  5
5F
102
{ACAD_REACTORS
330
47
102
}
330
47
100
AcDbScale
 70
     0
300
3/16" = 1'-0"
140
0.1875
141
12.0
290
     0
  0
SCALE
  5
60
102
{ACAD_REACTORS
330
47
102
}
330
47
100
AcDbScale
 70
     0
300
1/4" = 1'-0"
140
0.25
141
12.0
290
     0
  0
SCALE
  5
61
102
{ACAD_REACTORS
330
47
102
}
330
47
100
AcDbScale
 70
     0
300
3/8" = 1'-0"
140
0.375
141
12.0
290
     0
  0
SCALE
  5
62
102
{ACAD_REACTORS
330
47
102
}
330
47
100
AcDbScale
 70
     0
300
1/2" = 1'-0"
140
0.5
141
12.0
290
     0
  0
SCALE
  5
63
102
{ACAD_REACTORS
330
47
102
}
330
47
100
AcDbScale
 70
     0
300
3/4" = 1'-0"
140
0.75
141
12.0
290
     0
  0
SCALE
  5
64
102
{ACAD_REACTORS
330
47
102
}
330
47
100
AcDbScale
 70
     0
300
1" = 1'-0"
140
1.0
141
12.0
290
     0
  0
SCALE
  5
65
102
{ACAD_REACTORS
330
47
102
}
330
47
100
AcDbScale
 70
     0
300
1-1/2" = 1'-0"
140
1.5
141
12.0
290
     0
  0
SCALE
  5
66
102
{ACAD_REACTORS
330
47
102
}
330
47
100
AcDbScale
 70
     0
300
3" = 1'-0"
140
3.0
141
12.0
290
     0
  0
SCALE
  5
67
102
{ACAD_REACTORS
330
47
102
}
330
47
100
AcDbScale
 70
     0
300
6" = 1'-0"
140
6.0
141
12.0
290
     0
  0
SCALE
  5
68
102
{ACAD_REACTORS
330
47
102
}
330
47
100
AcDbScale
 70
     0
300
1'-0" = 1'-0"
140
12.0
141
12.0
290
     0
  0
ENDSEC
  0
EOF
