  0
SECTION
  2
HEADER
  9
$ACADVER
  1
AC1015
  9
$ACADMAINTVER
 70
     6
  9
$DWGCODEPAGE
  3
ANSI_949
  9
$INSBASE
 10
0.0
 20
0.0
 30
0.0
  9
$EXTMIN
 10
-55.14666638955492
 20
-49.97073246008785
 30
0.0
  9
$EXTMAX
 10
84.45819232251279
 20
30.01367321460949
 30
0.0
  9
$LIMMIN
 10
0.0
 20
0.0
  9
$LIMMAX
 10
420.0
 20
297.0
  9
$ORTHOMODE
 70
     0
  9
$REGENMODE
 70
     1
  9
$FILLMODE
 70
     1
  9
$QTEXTMODE
 70
     0
  9
$MIRRTEXT
 70
     1
  9
$LTSCALE
 40
1.0
  9
$ATTMODE
 70
     1
  9
$TEXTSIZE
 40
3.5
  9
$TRACEWID
 40
1.0
  9
$TEXTSTYLE
  7
Standard
  9
$CLAYER
  8
0
  9
$CELTYPE
  6
ByLayer
  9
$CECOLOR
 62
   256
  9
$CELTSCALE
 40
1.0
  9
$DISPSILH
 70
     0
  9
$DIMSCALE
 40
1.0
  9
$DIMASZ
 40
3.302
  9
$DIMEXO
 40
1.0
  9
$DIMDLI
 40
3.75
  9
$DIMRND
 40
0.0
  9
$DIMDLE
 40
0.0
  9
$DIMEXE
 40
1.0
  9
$DIMTP
 40
0.0
  9
$DIMTM
 40
0.0
  9
$DIMTXT
 40
3.5
  9
$DIMCEN
 40
2.5
  9
$DIMTSZ
 40
0.0
  9
$DIMTOL
 70
     0
  9
$DIMLIM
 70
     0
  9
$DIMTIH
 70
     1
  9
$DIMTOH
 70
     1
  9
$DIMSE1
 70
     0
  9
$DIMSE2
 70
     0
  9
$DIMTAD
 70
     1
  9
$DIMZIN
 70
     0
  9
$DIMBLK
  1

  9
$DIMASO
 70
     1
  9
$DIMSHO
 70
     1
  9
$DIMPOST
  1

  9
$DIMAPOST
  1

  9
$DIMALT
 70
     0
  9
$DIMALTD
 70
     3
  9
$DIMALTF
 40
0.0393700787401575
  9
$DIMLFAC
 40
1.0
  9
$DIMTOFL
 70
     1
  9
$DIMTVP
 40
0.0
  9
$DIMTIX
 70
     0
  9
$DIMSOXD
 70
     0
  9
$DIMSAH
 70
     0
  9
$DIMBLK1
  1

  9
$DIMBLK2
  1

  9
$DIMSTYLE
  2
ISO-25
  9
$DIMCLRD
 70
     0
  9
$DIMCLRE
 70
     0
  9
$DIMCLRT
 70
     0
  9
$DIMTFAC
 40
1.0
  9
$DIMGAP
 40
1.524
  9
$DIMJUST
 70
     0
  9
$DIMSD1
 70
     0
  9
$DIMSD2
 70
     0
  9
$DIMTOLJ
 70
     0
  9
$DIMTZIN
 70
     0
  9
$DIMALTZ
 70
     0
  9
$DIMALTTZ
 70
     0
  9
$DIMUPT
 70
     0
  9
$DIMDEC
 70
     2
  9
$DIMTDEC
 70
     2
  9
$DIMALTU
 70
     2
  9
$DIMALTTD
 70
     3
  9
$DIMTXSTY
  7
Standard
  9
$DIMAUNIT
 70
     0
  9
$DIMADEC
 70
     2
  9
$DIMALTRND
 40
0.0
  9
$DIMAZIN
 70
     0
  9
$DIMDSEP
 70
    44
  9
$DIMATFIT
 70
     3
  9
$DIMFRAC
 70
     0
  9
$DIMLDRBLK
  1

  9
$DIMLUNIT
 70
     2
  9
$DIMLWD
 70
    -2
  9
$DIMLWE
 70
    -2
  9
$DIMTMOVE
 70
     0
  9
$LUNITS
 70
     2
  9
$LUPREC
 70
     2
  9
$SKETCHINC
 40
1.0
  9
$FILLETRAD
 40
10.0
  9
$AUNITS
 70
     0
  9
$AUPREC
 70
     2
  9
$MENU
  1
.
  9
$ELEVATION
 40
0.0
  9
$PELEVATION
 40
0.0
  9
$THICKNESS
 40
0.0
  9
$LIMCHECK
 70
     0
  9
$CHAMFERA
 40
0.0
  9
$CHAMFERB
 40
0.0
  9
$CHAMFERC
 40
0.0
  9
$CHAMFERD
 40
0.0
  9
$SKPOLY
 70
     0
  9
$TDCREATE
 40
2458262.546985926
  9
$TDUCREATE
 40
2458262.171985926
  9
$TDUPDATE
 40
2458266.486837824
  9
$TDUUPDATE
 40
2458266.111837824
  9
$TDINDWG
 40
0.0012610301
  9
$TDUSRTIMER
 40
2458266.11057684
  9
$USRTIMER
 70
     1
  9
$ANGBASE
 50
0.0
  9
$ANGDIR
 70
     0
  9
$PDMODE
 70
     0
  9
$PDSIZE
 40
-1.0
  9
$PLINEWID
 40
0.0
  9
$SPLFRAME
 70
     0
  9
$SPLINETYPE
 70
     6
  9
$SPLINESEGS
 70
     8
  9
$HANDSEED
  5
14B
  9
$SURFTAB1
 70
     6
  9
$SURFTAB2
 70
     6
  9
$SURFTYPE
 70
     6
  9
$SURFU
 70
     6
  9
$SURFV
 70
     6
  9
$UCSBASE
  2

  9
$UCSNAME
  2

  9
$UCSORG
 10
0.0
 20
0.0
 30
0.0
  9
$UCSXDIR
 10
1.0
 20
0.0
 30
0.0
  9
$UCSYDIR
 10
0.0
 20
1.0
 30
0.0
  9
$UCSORTHOREF
  2

  9
$UCSORTHOVIEW
 70
     0
  9
$UCSORGTOP
 10
0.0
 20
0.0
 30
0.0
  9
$UCSORGBOTTOM
 10
0.0
 20
0.0
 30
0.0
  9
$UCSORGLEFT
 10
0.0
 20
0.0
 30
0.0
  9
$UCSORGRIGHT
 10
0.0
 20
0.0
 30
0.0
  9
$UCSORGFRONT
 10
0.0
 20
0.0
 30
0.0
  9
$UCSORGBACK
 10
0.0
 20
0.0
 30
0.0
  9
$PUCSBASE
  2

  9
$PUCSNAME
  2

  9
$PUCSORG
 10
0.0
 20
0.0
 30
0.0
  9
$PUCSXDIR
 10
1.0
 20
0.0
 30
0.0
  9
$PUCSYDIR
 10
0.0
 20
1.0
 30
0.0
  9
$PUCSORTHOREF
  2

  9
$PUCSORTHOVIEW
 70
     0
  9
$PUCSORGTOP
 10
0.0
 20
0.0
 30
0.0
  9
$PUCSORGBOTTOM
 10
0.0
 20
0.0
 30
0.0
  9
$PUCSORGLEFT
 10
0.0
 20
0.0
 30
0.0
  9
$PUCSORGRIGHT
 10
0.0
 20
0.0
 30
0.0
  9
$PUCSORGFRONT
 10
0.0
 20
0.0
 30
0.0
  9
$PUCSORGBACK
 10
0.0
 20
0.0
 30
0.0
  9
$USERI1
 70
     0
  9
$USERI2
 70
     0
  9
$USERI3
 70
     0
  9
$USERI4
 70
     0
  9
$USERI5
 70
     0
  9
$USERR1
 40
0.0
  9
$USERR2
 40
0.0
  9
$USERR3
 40
0.0
  9
$USERR4
 40
0.0
  9
$USERR5
 40
0.0
  9
$WORLDVIEW
 70
     1
  9
$SHADEDGE
 70
     3
  9
$SHADEDIF
 70
    70
  9
$TILEMODE
 70
     1
  9
$MAXACTVP
 70
    64
  9
$PINSBASE
 10
0.0
 20
0.0
 30
0.0
  9
$PLIMCHECK
 70
     0
  9
$PEXTMIN
 10
1.000000000000000E+20
 20
1.000000000000000E+20
 30
1.000000000000000E+20
  9
$PEXTMAX
 10
-1.000000000000000E+20
 20
-1.000000000000000E+20
 30
-1.000000000000000E+20
  9
$PLIMMIN
 10
0.0
 20
0.0
  9
$PLIMMAX
 10
0.0
 20
0.0
  9
$UNITMODE
 70
     0
  9
$VISRETAIN
 70
     1
  9
$PLINEGEN
 70
     0
  9
$PSLTSCALE
 70
     1
  9
$TREEDEPTH
 70
  3020
  9
$CMLSTYLE
  2
Standard
  9
$CMLJUST
 70
     0
  9
$CMLSCALE
 40
20.0
  9
$PROXYGRAPHICS
 70
     1
  9
$MEASUREMENT
 70
     1
  9
$CELWEIGHT
370
    -1
  9
$ENDCAPS
280
     0
  9
$JOINSTYLE
280
     0
  9
$LWDISPLAY
290
     1
  9
$INSUNITS
 70
     4
  9
$HYPERLINKBASE
  1

  9
$STYLESHEET
  1

  9
$XEDIT
290
     1
  9
$CEPSNTYPE
380
     0
  9
$PSTYLEMODE
290
     1
  9
$FINGERPRINTGUID
  2
{1C65BCB3-0DFC-4A98-9304-ACE299E59C18}
  9
$VERSIONGUID
  2
{FAEB1C32-E019-11D5-929B-00C0DF256EC4}
  9
$EXTNAMES
290
     1
  9
$PSVPSCALE
 40
0.0
  9
$OLESTARTUP
290
     0
  0
ENDSEC
  0
SECTION
  2
CLASSES
  0
CLASS
  1
ACDBDICTIONARYWDFLT
  2
AcDbDictionaryWithDefault
  3
ObjectDBX Classes
 90
        0
280
     0
281
     0
  0
CLASS
  1
VISUALSTYLE
  2
AcDbVisualStyle
  3
ObjectDBX Classes
 90
     4095
280
     0
281
     0
  0
CLASS
  1
MATERIAL
  2
AcDbMaterial
  3
ObjectDBX Classes
 90
     1153
280
     0
281
     0
  0
CLASS
  1
SCALE
  2
AcDbScale
  3
ObjectDBX Classes
 90
     1153
280
     0
281
     0
  0
CLASS
  1
SUN
  2
AcDbSun
  3
SCENEOE
 90
     1153
280
     0
281
     0
  0
CLASS
  1
ACDBPLACEHOLDER
  2
AcDbPlaceHolder
  3
ObjectDBX Classes
 90
        0
280
     0
281
     0
  0
CLASS
  1
LAYOUT
  2
AcDbLayout
  3
ObjectDBX Classes
 90
        0
280
     0
281
     0
  0
CLASS
  1
TABLESTYLE
  2
AcDbTableStyle
  3
ObjectDBX Classes
 90
     4095
280
     0
281
     0
  0
CLASS
  1
MLEADERSTYLE
  2
AcDbMLeaderStyle
  3
ACDB_MLEADERSTYLE_CLASS
 90
     4095
280
     0
281
     0
  0
CLASS
  1
RASTERVARIABLES
  2
AcDbRasterVariables
  3
ISM
 90
        0
280
     0
281
     0
  0
ENDSEC
  0
SECTION
  2
TABLES
  0
TABLE
  2
VPORT
  5
8
330
0
100
AcDbSymbolTable
 70
     1
  0
VPORT
  5
29
330
8
100
AcDbSymbolTableRecord
100
AcDbViewportTableRecord
  2
*Active
 70
     0
 10
0.0
 20
0.0
 11
1.0
 21
1.0
 12
14.65576296647893
 22
-9.978529622739181
 13
0.0
 23
0.0
 14
10.0
 24
10.0
 15
10.0
 25
10.0
 16
0.0
 26
0.0
 36
1.0
 17
0.0
 27
0.0
 37
0.0
 40
123.5596904215283
 41
1.152454780361757
 42
50.0
 43
0.0
 44
0.0
 50
0.0
 51
0.0
 71
    16
 72
  2000
 73
     1
 74
     3
 75
     0
 76
     0
 77
     0
 78
     0
281
     0
 65
     1
110
0.0
120
0.0
130
0.0
111
1.0
121
0.0
131
0.0
112
0.0
122
1.0
132
0.0
 79
     0
146
0.0
  0
ENDTAB
  0
TABLE
  2
LTYPE
  5
5
330
0
100
AcDbSymbolTable
 70
     6
  0
LTYPE
  5
14
330
5
100
AcDbSymbolTableRecord
100
AcDbLinetypeTableRecord
  2
ByBlock
 70
     0
  3

 72
    65
 73
     0
 40
0.0
  0
LTYPE
  5
15
330
5
100
AcDbSymbolTableRecord
100
AcDbLinetypeTableRecord
  2
ByLayer
 70
     0
  3

 72
    65
 73
     0
 40
0.0
  0
LTYPE
  5
16
330
5
100
AcDbSymbolTableRecord
100
AcDbLinetypeTableRecord
  2
Continuous
 70
     0
  3
Solid line
 72
    65
 73
     0
 40
0.0
  0
LTYPE
  5
6A
330
5
100
AcDbSymbolTableRecord
100
AcDbLinetypeTableRecord
  2
HIDDEN
 70
     0
  3
Hidden __ __ __ __ __ __ __ __ __ __ __ __ __ __
 72
    65
 73
     2
 40
1.905
 49
1.27
 74
     0
 49
-0.635
 74
     0
  0
LTYPE
  5
6B
330
5
100
AcDbSymbolTableRecord
100
AcDbLinetypeTableRecord
  2
PHANTOM
 70
     0
  3
Phantom ______  __  __  ______  __  __  ______
 72
    65
 73
     6
 40
12.7
 49
6.35
 74
     0
 49
-1.27
 74
     0
 49
1.27
 74
     0
 49
-1.27
 74
     0
 49
1.27
 74
     0
 49
-1.27
 74
     0
  0
LTYPE
  5
6C
330
5
100
AcDbSymbolTableRecord
100
AcDbLinetypeTableRecord
  2
CENTER
 70
     0
  3
Center ____ _ ____ _ ____ _ ____ _ ____ _ ____
 72
    65
 73
     4
 40
10.16
 49
6.35
 74
     0
 49
-1.27
 74
     0
 49
1.27
 74
     0
 49
-1.27
 74
     0
  0
LTYPE
  5
6D
330
5
100
AcDbSymbolTableRecord
100
AcDbLinetypeTableRecord
  2
CENTERX2
 70
     0
  3
Center (2x) ________  __  ________  __  _____
 72
    65
 73
     4
 40
20.32
 49
12.7
 74
     0
 49
-2.54
 74
     0
 49
2.54
 74
     0
 49
-2.54
 74
     0
  0
LTYPE
  5
6E
330
5
100
AcDbSymbolTableRecord
100
AcDbLinetypeTableRecord
  2
DOT2
 70
     0
  3
Dot (.5x) ........................................
 72
    65
 73
     2
 40
0.635
 49
0.0
 74
     0
 49
-0.635
 74
     0
  0
ENDTAB
  0
TABLE
  2
LAYER
  5
2
330
0
100
AcDbSymbolTable
 70
    17
  0
LAYER
  5
10
330
2
100
AcDbSymbolTableRecord
100
AcDbLayerTableRecord
  2
0
 70
     0
 62
     7
  6
Continuous
370
    -3
390
F
  0
LAYER
  5
6F
330
2
100
AcDbSymbolTableRecord
100
AcDbLayerTableRecord
  2
FORMAT
 70
     0
 62
     2
  6
Continuous
370
    -3
390
F
  0
LAYER
  5
70
330
2
100
AcDbSymbolTableRecord
100
AcDbLayerTableRecord
  2
외형선
 70
     0
 62
   100
  6
Continuous
370
    30
390
F
  0
LAYER
  5
71
330
2
100
AcDbSymbolTableRecord
100
AcDbLayerTableRecord
  2
숨은선
 70
     0
 62
     2
  6
HIDDEN
370
    15
390
F
  0
LAYER
  5
72
330
2
100
AcDbSymbolTableRecord
100
AcDbLayerTableRecord
  2
중심선
 70
     0
 62
     1
  6
CENTERX2
370
    -3
390
F
  0
LAYER
  5
73
330
2
100
AcDbSymbolTableRecord
100
AcDbLayerTableRecord
  2
파단선
 70
     0
 62
     4
  6
Continuous
370
    -3
390
F
  0
LAYER
  5
74
330
2
100
AcDbSymbolTableRecord
100
AcDbLayerTableRecord
  2
해칭선
 70
     0
 62
     4
  6
Continuous
370
    -3
390
F
  0
LAYER
  5
75
330
2
100
AcDbSymbolTableRecord
100
AcDbLayerTableRecord
  2
가는실선
 70
     0
 62
     4
  6
Continuous
370
    -3
390
F
  0
LAYER
  5
76
330
2
100
AcDbSymbolTableRecord
100
AcDbLayerTableRecord
  2
치수_보조선
 70
     0
 62
     4
  6
Continuous
370
    -3
390
F
  0
LAYER
  5
77
330
2
100
AcDbSymbolTableRecord
100
AcDbLayerTableRecord
  2
치수문자_일반주서
 70
     0
 62
     7
  6
Continuous
370
    15
390
F
  0
LAYER
  5
78
330
2
100
AcDbSymbolTableRecord
100
AcDbLayerTableRecord
  2
개별주서
 70
     0
 62
   100
  6
Continuous
370
    30
390
F
  0
LAYER
  5
79
330
2
100
AcDbSymbolTableRecord
100
AcDbLayerTableRecord
  2
중간선
 70
     0
 62
     2
  6
Continuous
370
    15
390
F
  0
LAYER
  5
7A
330
2
100
AcDbSymbolTableRecord
100
AcDbLayerTableRecord
  2
윤곽선
 70
     0
 62
     3
  6
Continuous
370
    40
390
F
  0
LAYER
  5
7B
330
2
100
AcDbSymbolTableRecord
100
AcDbLayerTableRecord
  2
중심마크
 70
     0
 62
   100
  6
Continuous
370
    30
390
F
  0
LAYER
  5
7C
330
2
100
AcDbSymbolTableRecord
100
AcDbLayerTableRecord
  2
가상선
 70
     0
 62
     4
  6
PHANTOM
370
    -3
390
F
  0
LAYER
  5
7D
330
2
100
AcDbSymbolTableRecord
100
AcDbLayerTableRecord
  2
특수지정선
 70
     0
 62
     5
  6
CENTERX2
370
    60
390
F
  0
LAYER
  5
13C
330
2
100
AcDbSymbolTableRecord
100
AcDbLayerTableRecord
  2
Defpoints
 70
     0
 62
     7
  6
Continuous
290
     0
370
    -3
390
F
  0
ENDTAB
  0
TABLE
  2
STYLE
  5
3
330
0
100
AcDbSymbolTable
 70
     2
  0
STYLE
  5
11
330
3
100
AcDbSymbolTableRecord
100
AcDbTextStyleTableRecord
  2
Standard
 70
     0
 40
0.0
 41
1.0
 50
0.0
 71
     0
 42
3.5
  3
txt
  4

  0
STYLE
  5
93
330
3
100
AcDbSymbolTableRecord
100
AcDbTextStyleTableRecord
  2
SLDTEXTSTYLE0
 70
     0
 40
0.0
 41
0.75
 50
0.0
 71
     0
 42
3.5
  3
TXT
  4

  0
ENDTAB
  0
TABLE
  2
VIEW
  5
6
330
0
100
AcDbSymbolTable
 70
     0
  0
ENDTAB
  0
TABLE
  2
UCS
  5
7
330
0
100
AcDbSymbolTable
 70
     0
  0
ENDTAB
  0
TABLE
  2
APPID
  5
9
330
0
100
AcDbSymbolTable
 70
     1
  0
APPID
  5
12
330
9
100
AcDbSymbolTableRecord
100
AcDbRegAppTableRecord
  2
ACAD
 70
     0
  0
ENDTAB
  0
TABLE
  2
DIMSTYLE
  5
A
330
0
100
AcDbSymbolTable
 70
     3
100
AcDbDimStyleTable
  0
DIMSTYLE
105
27
330
A
100
AcDbSymbolTableRecord
100
AcDbDimStyleTableRecord
  2
ISO-25
 70
     0
 41
2.5
 42
0.625
 43
3.75
 44
1.25
 73
     0
 74
     0
 77
     1
 78
     8
140
2.5
141
2.5
143
0.03937007874016
147
0.625
171
     3
172
     1
178
     0
271
     2
272
     2
274
     3
278
    44
283
     0
284
     8
340
11
  0
DIMSTYLE
105
E2
102
{ACAD_REACTORS
330
E1
330
104
102
}
330
A
100
AcDbSymbolTableRecord
100
AcDbDimStyleTableRecord
  2
SLDDIMSTYLE0
 70
     0
 41
3.302
 44
0.0
 45
0.000000001
 73
     0
 74
     0
 77
     1
 78
    12
 79
     3
140
3.5
147
0.875
172
     1
173
     1
178
     0
271
     2
272
     2
276
     2
284
    12
289
     0
340
93
  0
DIMSTYLE
105
F0
102
{ACAD_REACTORS
330
EF
330
FA
102
}
330
A
100
AcDbSymbolTableRecord
100
AcDbDimStyleTableRecord
  2
SLDDIMSTYLE1
 70
     0
 41
3.302
 44
0.0
 45
0.000000001
 73
     0
 74
     0
 77
     1
 78
    12
 79
     3
140
3.5
147
0.875
173
     1
178
     0
271
     2
272
     2
276
     2
284
    12
340
93
  0
ENDTAB
  0
TABLE
  2
BLOCK_RECORD
  5
1
330
0
100
AcDbSymbolTable
 70
     7
  0
BLOCK_RECORD
  5
1F
330
1
100
AcDbSymbolTableRecord
100
AcDbBlockTableRecord
  2
*Model_Space
340
22
  0
BLOCK_RECORD
  5
1B
330
1
100
AcDbSymbolTableRecord
100
AcDbBlockTableRecord
  2
*Paper_Space
340
1E
  0
BLOCK_RECORD
  5
23
330
1
100
AcDbSymbolTableRecord
100
AcDbBlockTableRecord
  2
*Paper_Space0
340
26
  0
BLOCK_RECORD
  5
7E
330
1
100
AcDbSymbolTableRecord
100
AcDbBlockTableRecord
  2
블럭10
340
0
102
{BLKREFS
331
DA
102
}
  0
BLOCK_RECORD
  5
E3
330
1
100
AcDbSymbolTableRecord
100
AcDbBlockTableRecord
  2
_D
340
0
  0
BLOCK_RECORD
  5
F1
330
1
100
AcDbSymbolTableRecord
100
AcDbBlockTableRecord
  2
_D_1
340
0
  0
BLOCK_RECORD
  5
FB
330
1
100
AcDbSymbolTableRecord
100
AcDbBlockTableRecord
  2
_D_2
340
0
  0
BLOCK_RECORD
  5
105
330
1
100
AcDbSymbolTableRecord
100
AcDbBlockTableRecord
  2
_D_3
340
0
  0
BLOCK_RECORD
  5
111
330
1
100
AcDbSymbolTableRecord
100
AcDbBlockTableRecord
  2
SW_DOWELSYMBOL_0
340
0
102
{BLKREFS
331
117
102
}
  0
ENDTAB
  0
ENDSEC
  0
SECTION
  2
BLOCKS
  0
BLOCK
  5
20
330
1F
100
AcDbEntity
  8
0
100
AcDbBlockBegin
  2
*Model_Space
 70
     0
 10
0.0
 20
0.0
 30
0.0
  3
*Model_Space
  1

  0
ENDBLK
  5
21
330
1F
100
AcDbEntity
  8
0
100
AcDbBlockEnd
  0
BLOCK
  5
1C
330
1B
100
AcDbEntity
 67
     1
  8
0
100
AcDbBlockBegin
  2
*Paper_Space
 70
     0
 10
0.0
 20
0.0
 30
0.0
  3
*Paper_Space
  1

  0
ENDBLK
  5
1D
330
1B
100
AcDbEntity
 67
     1
  8
0
100
AcDbBlockEnd
  0
BLOCK
  5
24
330
23
100
AcDbEntity
  8
0
100
AcDbBlockBegin
  2
*Paper_Space0
 70
     0
 10
0.0
 20
0.0
 30
0.0
  3
*Paper_Space0
  1

  0
ENDBLK
  5
25
330
23
100
AcDbEntity
  8
0
100
AcDbBlockEnd
  0
BLOCK
  5
7F
330
7E
100
AcDbEntity
  8
0
100
AcDbBlockBegin
  2
블럭10
 70
     2
 10
0.0
 20
0.0
 30
0.0
  3
블럭10
  1

  0
ELLIPSE
  5
81
330
7E
100
AcDbEntity
  8
중심선
100
AcDbEllipse
 10
20.54032771741204
 20
12.0471743016438
 30
0.0
 11
6.600054785286829
 21
-1.261213355974178E-13
 31
0.0
210
0.0
220
0.0
230
1.0
 40
0.636358354079598
 41
0.9219305317359503
 42
6.513795318482858
  0
ELLIPSE
  5
82
330
7E
100
AcDbEntity
  8
중심선
100
AcDbEllipse
 10
20.54032771746488
 20
12.04717430159265
 30
0.0
 11
3.960054785062283
 21
1.540847449632565E-10
 31
0.0
210
0.0
220
0.0
230
1.0
 40
0.3939339440162632
 41
1.131841032648279
 42
5.62031148352944
  0
LINE
  5
83
330
7E
100
AcDbEntity
  8
중심선
100
AcDbLine
 10
2.268634060543552
 20
16.24717430164393
 30
0.0
 11
5.714909304380834
 21
16.24717430164393
 31
0.0
  0
LINE
  5
84
330
7E
100
AcDbEntity
  8
중심선
100
AcDbLine
 10
5.245725140726316
 20
7.84717430164391
 30
0.0
 11
8.692000384563599
 21
7.84717430164391
 31
0.0
  0
LINE
  5
85
330
7E
100
AcDbEntity
  8
중심선
100
AcDbLine
 10
15.74043728645272
 20
16.24717430164393
 30
0.0
 11
8.692000384563599
 21
7.84717430164391
 31
0.0
  0
LINE
  5
86
330
7E
100
AcDbEntity
  8
중심선
100
AcDbLine
 10
0.1404042013395286
 20
13.71084872107135
 30
0.0
 11
3.58671253028996
 21
13.71088815037384
 31
0.0
  0
LINE
  5
87
330
7E
100
AcDbEntity
  8
중심선
100
AcDbLine
 10
2.750260043222114
 20
10.84717430164391
 30
0.0
 11
6.196535287059397
 21
10.84717430164391
 31
0.0
  0
LINE
  5
88
330
7E
100
AcDbEntity
  8
중심선
100
AcDbLine
 10
12.29416204261559
 20
16.24717430164393
 30
0.0
 11
5.245725140726316
 21
7.84717430164391
 31
0.0
  0
LINE
  5
89
330
7E
100
AcDbEntity
  8
중심선
100
AcDbLine
 10
10.72767329541681
 20
16.24717430164393
 30
0.0
 11
6.196535287059397
 21
10.84717430164391
 31
0.0
  0
LINE
  5
8A
330
7E
100
AcDbEntity
  8
중심선
100
AcDbLine
 10
7.28139805157953
 20
16.24717430164393
 30
0.0
 11
2.750260043222114
 21
10.84717430164391
 31
0.0
  0
LINE
  5
8B
330
7E
100
AcDbEntity
  8
중심선
100
AcDbLine
 10
5.714909304380834
 20
16.24717430164393
 30
0.0
 11
3.58671253028996
 21
13.71088815037384
 31
0.0
  0
LINE
  5
8C
330
7E
100
AcDbEntity
  8
중심선
100
AcDbLine
 10
2.268634060543552
 20
16.24717430164393
 30
0.0
 11
0.1404042013395286
 21
13.71084872107135
 31
0.0
  0
LINE
  5
8D
330
7E
100
AcDbEntity
  8
중심선
100
AcDbLine
 10
7.28139805157953
 20
16.24717430164393
 30
0.0
 11
10.72767329541681
 21
16.24717430164393
 31
0.0
  0
LINE
  5
8E
330
7E
100
AcDbEntity
  8
중심선
100
AcDbLine
 10
12.29416204261559
 20
16.24717430164393
 30
0.0
 11
15.74043728645272
 21
16.24717430164393
 31
0.0
  0
LINE
  5
8F
330
7E
100
AcDbEntity
  8
중심선
100
AcDbLine
 10
19.22036997980202
 20
11.08717430171403
 30
0.0
 11
23.66174974927406
 21
11.08717430171406
 31
0.0
  0
LINE
  5
90
330
7E
100
AcDbEntity
  8
중심선
100
AcDbLine
 10
19.22039502424796
 20
13.00717430171391
 30
0.0
 11
19.22036997980202
 21
11.08717430171403
 31
0.0
  0
LINE
  5
91
330
7E
100
AcDbEntity
  8
중심선
100
AcDbLine
 10
19.22039502424796
 20
13.00717430171391
 30
0.0
 11
26.96566020931264
 21
13.00717430171391
 31
0.0
  0
LINE
  5
92
330
7E
100
AcDbEntity
  8
중심선
100
AcDbLine
 10
22.22332737316547
 20
13.45928029700563
 30
0.0
 11
24.52862924686651
 21
15.39360700705356
 31
0.0
  0
ATTDEF
  5
94
330
7E
100
AcDbEntity
  8
FORMAT
 62
     2
100
AcDbText
 10
-16.11926103943555
 20
2.075366912832191
 30
0.0
 40
4.233333333333333
  1
SEME7010060E [ 2 FLUTE ]
 41
0.75
  7
SLDTEXTSTYLE0
 11
-16.11926103943555
 21
-0.0412997538344756
 31
0.0
100
AcDbAttributeDefinition
  3

  2
AUTOATTR0
 70
     0
 74
     1
  0
ENDBLK
  5
80
330
7E
100
AcDbEntity
  8
0
100
AcDbBlockEnd
  0
BLOCK
  5
E4
330
E3
100
AcDbEntity
  8
0
100
AcDbBlockBegin
  2
_D
 70
     0
 10
0.0
 20
0.0
 30
0.0
  3
_D
  1

  0
LINE
  5
E6
330
E3
100
AcDbEntity
  8
치수문자_일반주서
 62
     0
370
    -2
100
AcDbLine
 10
70.0625
 20
-5.149737225632967
 30
0.0
 11
83.90785898917946
 21
-5.149737225632919
 31
0.0
  0
LINE
  5
E7
330
E3
100
AcDbEntity
  8
치수문자_일반주서
 62
     0
370
    -2
100
AcDbLine
 10
70.06249999999972
 20
4.850262774367029
 30
0.0
 11
83.90785898917943
 21
4.85026277436708
 31
0.0
  0
LINE
  5
E8
330
E3
100
AcDbEntity
  8
치수문자_일반주서
 62
     0
370
    -2
100
AcDbLine
 10
83.90785898917946
 20
-5.149737225632919
 30
0.0
 11
83.90785898917939
 21
18.89176277436708
 31
0.0
  0
LINE
  5
E9
330
E3
100
AcDbEntity
  8
치수문자_일반주서
 62
     0
370
    -2
100
AcDbLine
 10
83.90785898917946
 20
-5.149737225632919
 30
0.0
 11
83.90785898917943
 21
4.85026277436708
 31
0.0
  0
LINE
  5
EA
330
E3
100
AcDbEntity
  8
치수문자_일반주서
 62
     0
370
    -2
100
AcDbLine
 10
83.90785898917947
 20
-8.451737225632918
 30
0.0
 11
83.90785898917949
 21
-11.75373722563292
 31
0.0
  0
LINE
  5
EB
330
E3
100
AcDbEntity
  8
치수문자_일반주서
 62
     0
370
    -2
100
AcDbLine
 10
83.90785898917942
 20
8.15226277436708
 30
0.0
 11
83.9078589891794
 21
11.45426277436708
 31
0.0
  0
SOLID
  5
EC
330
E3
100
AcDbEntity
  8
치수문자_일반주서
 62
     0
100
AcDbTrace
 10
84.4581923225128
 20
-8.451737225632916
 30
0.0
 11
83.35752565584615
 21
-8.45173722563292
 31
0.0
 12
83.90785898917946
 22
-5.149737225632919
 32
0.0
 13
83.90785898917946
 23
-5.149737225632919
 33
0.0
  0
SOLID
  5
ED
330
E3
100
AcDbEntity
  8
치수문자_일반주서
 62
     0
100
AcDbTrace
 10
83.35752565584609
 20
8.152262774367077
 30
0.0
 11
84.45819232251274
 21
8.152262774367081
 31
0.0
 12
83.90785898917943
 22
4.85026277436708
 32
0.0
 13
83.90785898917943
 23
4.85026277436708
 33
0.0
  0
MTEXT
  5
EE
330
E3
100
AcDbEntity
  8
치수문자_일반주서
 62
     0
100
AcDbMText
 10
79.5328589891794
 20
15.17301277436707
 30
0.0
 40
3.5
 41
0.0
 71
     2
 72
     1
  1
\A1;%%c10
  7
SLDTEXTSTYLE0
 11
-2.842170943040402E-15
 21
1.0
 31
0.0
 73
     1
 44
1.0
  0
POINT
  5
146
330
E3
100
AcDbEntity
  8
Defpoints
 62
     0
100
AcDbPoint
 10
70.0
 20
-5.149737225632967
 30
0.0
  0
POINT
  5
147
330
E3
100
AcDbEntity
  8
Defpoints
 62
     0
100
AcDbPoint
 10
69.99999999999972
 20
4.850262774367029
 30
0.0
  0
POINT
  5
148
330
E3
100
AcDbEntity
  8
Defpoints
 62
     0
100
AcDbPoint
 10
83.90785898917943
 20
4.850262774367081
 30
0.0
  0
ENDBLK
  5
E5
330
E3
100
AcDbEntity
  8
0
100
AcDbBlockEnd
  0
BLOCK
  5
F2
330
F1
100
AcDbEntity
  8
0
100
AcDbBlockBegin
  2
_D_1
 70
     0
 10
0.0
 20
0.0
 30
0.0
  3
_D_1
  1

  0
LINE
  5
F4
330
F1
100
AcDbEntity
  8
치수문자_일반주서
 62
     0
370
    -2
100
AcDbLine
 10
-39.99999999999999
 20
3.912762774366803
 30
0.0
 11
-40.0
 21
25.6386732146095
 31
0.0
  0
LINE
  5
F5
330
F1
100
AcDbEntity
  8
치수문자_일반주서
 62
     0
370
    -2
100
AcDbLine
 10
69.99999999999972
 20
4.912762774367029
 30
0.0
 11
69.99999999999972
 21
25.6386732146095
 31
0.0
  0
LINE
  5
F6
330
F1
100
AcDbEntity
  8
치수문자_일반주서
 62
     0
370
    -2
100
AcDbLine
 10
-36.698
 20
25.6386732146095
 30
0.0
 11
66.69799999999972
 21
25.6386732146095
 31
0.0
  0
SOLID
  5
F7
330
F1
100
AcDbEntity
  8
치수문자_일반주서
 62
     0
100
AcDbTrace
 10
-36.698
 20
26.18900654794284
 30
0.0
 11
-36.698
 21
25.08833988127617
 31
0.0
 12
-40.0
 22
25.6386732146095
 32
0.0
 13
-40.0
 23
25.6386732146095
 33
0.0
  0
SOLID
  5
F8
330
F1
100
AcDbEntity
  8
치수문자_일반주서
 62
     0
100
AcDbTrace
 10
66.69799999999972
 20
25.08833988127617
 30
0.0
 11
66.69799999999972
 21
26.18900654794284
 31
0.0
 12
69.99999999999972
 22
25.6386732146095
 32
0.0
 13
69.99999999999972
 23
25.6386732146095
 33
0.0
  0
MTEXT
  5
F9
330
F1
100
AcDbEntity
  8
치수문자_일반주서
 62
     0
100
AcDbMText
 10
14.99999999999986
 20
30.0136732146095
 30
0.0
 40
3.5
 41
0.0
 71
     2
 72
     1
  1
\A1;110
  7
SLDTEXTSTYLE0
 73
     1
 44
1.0
  0
POINT
  5
13D
330
F1
100
AcDbEntity
  8
Defpoints
 62
     0
100
AcDbPoint
 10
-39.99999999999999
 20
3.850262774366803
 30
0.0
  0
POINT
  5
13E
330
F1
100
AcDbEntity
  8
Defpoints
 62
     0
100
AcDbPoint
 10
69.99999999999972
 20
4.850262774367029
 30
0.0
  0
POINT
  5
13F
330
F1
100
AcDbEntity
  8
Defpoints
 62
     0
100
AcDbPoint
 10
69.99999999999972
 20
25.6386732146095
 30
0.0
  0
ENDBLK
  5
F3
330
F1
100
AcDbEntity
  8
0
100
AcDbBlockEnd
  0
BLOCK
  5
FC
330
FB
100
AcDbEntity
  8
0
100
AcDbBlockBegin
  2
_D_2
 70
     0
 10
0.0
 20
0.0
 30
0.0
  3
_D_2
  1

  0
LINE
  5
FE
330
FB
100
AcDbEntity
  8
치수문자_일반주서
 62
     0
370
    -2
100
AcDbLine
 10
9.999999999999998
 20
3.781511238192814
 30
0.0
 11
10.0
 21
17.06600904436034
 31
0.0
  0
LINE
  5
FF
330
FB
100
AcDbEntity
  8
치수문자_일반주서
 62
     0
370
    -2
100
AcDbLine
 10
69.99999999999972
 20
4.912762774367029
 30
0.0
 11
69.99999999999972
 21
17.06600904436034
 31
0.0
  0
LINE
  5
100
330
FB
100
AcDbEntity
  8
치수문자_일반주서
 62
     0
370
    -2
100
AcDbLine
 10
13.302
 20
17.06600904436034
 30
0.0
 11
66.69799999999972
 21
17.06600904436034
 31
0.0
  0
SOLID
  5
101
330
FB
100
AcDbEntity
  8
치수문자_일반주서
 62
     0
100
AcDbTrace
 10
13.302
 20
17.61634237769367
 30
0.0
 11
13.302
 21
16.515675711027
 31
0.0
 12
10.0
 22
17.06600904436034
 32
0.0
 13
10.0
 23
17.06600904436034
 33
0.0
  0
SOLID
  5
102
330
FB
100
AcDbEntity
  8
치수문자_일반주서
 62
     0
100
AcDbTrace
 10
66.69799999999972
 20
16.515675711027
 30
0.0
 11
66.69799999999972
 21
17.61634237769367
 31
0.0
 12
69.99999999999972
 22
17.06600904436034
 32
0.0
 13
69.99999999999972
 23
17.06600904436034
 33
0.0
  0
MTEXT
  5
103
330
FB
100
AcDbEntity
  8
치수문자_일반주서
 62
     0
100
AcDbMText
 10
40.0
 20
21.44100904436034
 30
0.0
 40
3.5
 41
0.0
 71
     2
 72
     1
  1
\A1;60
  7
SLDTEXTSTYLE0
 73
     1
 44
1.0
  0
POINT
  5
140
330
FB
100
AcDbEntity
  8
Defpoints
 62
     0
100
AcDbPoint
 10
9.999999999999998
 20
3.719011238192814
 30
0.0
  0
POINT
  5
141
330
FB
100
AcDbEntity
  8
Defpoints
 62
     0
100
AcDbPoint
 10
69.99999999999972
 20
4.850262774367029
 30
0.0
  0
POINT
  5
142
330
FB
100
AcDbEntity
  8
Defpoints
 62
     0
100
AcDbPoint
 10
69.99999999999972
 20
17.06600904436034
 30
0.0
  0
ENDBLK
  5
FD
330
FB
100
AcDbEntity
  8
0
100
AcDbBlockEnd
  0
BLOCK
  5
106
330
105
100
AcDbEntity
  8
0
100
AcDbBlockBegin
  2
_D_3
 70
     0
 10
0.0
 20
0.0
 30
0.0
  3
_D_3
  1

  0
LINE
  5
108
330
105
100
AcDbEntity
  8
치수문자_일반주서
 62
     0
370
    -2
100
AcDbLine
 10
-39.0625
 20
4.850262774366803
 30
0.0
 11
-50.77166638955488
 21
4.85026277436676
 31
0.0
  0
LINE
  5
109
330
105
100
AcDbEntity
  8
치수문자_일반주서
 62
     0
370
    -2
100
AcDbLine
 10
-39.0625
 20
-5.149737225633189
 30
0.0
 11
-50.77166638955485
 21
-5.149737225633235
 31
0.0
  0
LINE
  5
10A
330
105
100
AcDbEntity
  8
치수문자_일반주서
 62
     0
370
    -2
100
AcDbLine
 10
-50.77166638955488
 20
4.85026277436676
 30
0.0
 11
-50.77166638955493
 21
19.33209164434243
 31
0.0
  0
LINE
  5
10B
330
105
100
AcDbEntity
  8
치수문자_일반주서
 62
     0
370
    -2
100
AcDbLine
 10
-50.77166638955488
 20
4.85026277436676
 30
0.0
 11
-50.77166638955485
 21
-5.149737225633235
 31
0.0
  0
LINE
  5
10C
330
105
100
AcDbEntity
  8
치수문자_일반주서
 62
     0
370
    -2
100
AcDbLine
 10
-50.77166638955489
 20
8.15226277436676
 30
0.0
 11
-50.77166638955491
 21
11.45426277436676
 31
0.0
  0
LINE
  5
10D
330
105
100
AcDbEntity
  8
치수문자_일반주서
 62
     0
370
    -2
100
AcDbLine
 10
-50.77166638955483
 20
-8.451737225633234
 30
0.0
 11
-50.77166638955482
 21
-11.75373722563323
 31
0.0
  0
SOLID
  5
10E
330
105
100
AcDbEntity
  8
치수문자_일반주서
 62
     0
100
AcDbTrace
 10
-51.32199972288823
 20
8.152262774366758
 30
0.0
 11
-50.22133305622156
 21
8.152262774366761
 31
0.0
 12
-50.77166638955488
 22
4.85026277436676
 32
0.0
 13
-50.77166638955488
 23
4.85026277436676
 33
0.0
  0
SOLID
  5
10F
330
105
100
AcDbEntity
  8
치수문자_일반주서
 62
     0
100
AcDbTrace
 10
-50.2213330562215
 20
-8.451737225633233
 30
0.0
 11
-51.32199972288817
 21
-8.451737225633236
 31
0.0
 12
-50.77166638955485
 22
-5.149737225633235
 32
0.0
 13
-50.77166638955485
 23
-5.149737225633235
 33
0.0
  0
MTEXT
  5
110
330
105
100
AcDbEntity
  8
치수문자_일반주서
 62
     0
100
AcDbMText
 10
-55.14666638955492
 20
15.61334164434242
 30
0.0
 40
3.5
 41
0.0
 71
     2
 72
     1
  1
\A1;%%c10
  7
SLDTEXTSTYLE0
 11
-3.552713678800503E-15
 21
1.0
 31
0.0
 73
     1
 44
1.0
  0
POINT
  5
143
330
105
100
AcDbEntity
  8
Defpoints
 62
     0
100
AcDbPoint
 10
-39.0
 20
4.850262774366803
 30
0.0
  0
POINT
  5
144
330
105
100
AcDbEntity
  8
Defpoints
 62
     0
100
AcDbPoint
 10
-39.0
 20
-5.149737225633189
 30
0.0
  0
POINT
  5
145
330
105
100
AcDbEntity
  8
Defpoints
 62
     0
100
AcDbPoint
 10
-50.77166638955485
 20
-5.149737225633234
 30
0.0
  0
ENDBLK
  5
107
330
105
100
AcDbEntity
  8
0
100
AcDbBlockEnd
  0
BLOCK
  5
112
330
111
100
AcDbEntity
  8
0
100
AcDbBlockBegin
  2
SW_DOWELSYMBOL_0
 70
     0
 10
0.0
 20
0.0
 30
0.0
  3
SW_DOWELSYMBOL_0
  1

  0
CIRCLE
  5
114
330
111
100
AcDbEntity
  8
외형선
 62
     0
100
AcDbCircle
 10
0.0
 20
0.0
 30
0.0
 40
3.000000000000004
  0
HATCH
  5
115
330
111
100
AcDbEntity
  8
0
  6
Continuous
 62
     0
370
    30
100
AcDbHatch
 10
0.0
 20
0.0
 30
0.0
210
0.0
220
0.0
230
1.0
  2
SOLID
 70
     1
 71
     0
 91
        1
 92
        0
 93
        3
 72
     2
 10
0.0000000000000104
 20
0.0
 40
3.000000000000004
 50
0.0
 51
90.0
 73
     1
 72
     1
 10
0.0000000000000104
 20
3.000000000000004
 11
0.0000000000000104
 21
0.0
 72
     1
 10
0.0000000000000104
 20
0.0
 11
3.000000000000015
 21
0.0
 97
        0
 75
     0
 76
     1
 98
        1
 10
0.0
 20
0.0
  0
HATCH
  5
116
330
111
100
AcDbEntity
  8
0
  6
Continuous
 62
     0
370
    30
100
AcDbHatch
 10
0.0
 20
0.0
 30
0.0
210
0.0
220
0.0
230
1.0
  2
SOLID
 70
     1
 71
     0
 91
        1
 92
        0
 93
        3
 72
     2
 10
0.0000000000000104
 20
0.0
 40
3.000000000000004
 50
180.0
 51
270.0000000000008
 73
     1
 72
     1
 10
0.0000000000000104
 20
-3.000000000000004
 11
0.0000000000000104
 21
0.0
 72
     1
 10
0.0000000000000104
 20
0.0
 11
-2.999999999999994
 21
0.0
 97
        0
 75
     0
 76
     1
 98
        1
 10
0.0
 20
0.0
  0
ENDBLK
  5
113
330
111
100
AcDbEntity
  8
0
100
AcDbBlockEnd
  0
ENDSEC
  0
SECTION
  2
ENTITIES
  0
LINE
  5
95
330
1F
100
AcDbEntity
  8
0
  6
Continuous
 62
     1
370
    15
100
AcDbLine
 10
28.50083783612838
 20
1.800181340134626
 30
0.0
 11
28.45281106994884
 21
1.825207372486539
 31
0.0
  0
SPLINE
  5
96
330
1F
100
AcDbEntity
  8
0
  6
Continuous
 62
     1
370
    15
100
AcDbSpline
210
0.0
220
0.0
230
1.0
 70
     8
 71
     3
 72
    11
 73
     7
 74
     0
 42
0.000000001
 43
0.00000001
 40
0.0
 40
0.0
 40
0.0
 40
0.0
 40
0.3235011760440967
 40
0.5169499847040708
 40
0.7111453273178151
 40
1.0
 40
1.0
 40
1.0
 40
1.0
 10
29.83852737420572
 20
1.131503811234639
 30
0.0
 10
29.69416926658501
 20
1.199826852804606
 30
0.0
 10
29.46348719476389
 20
1.30900603949701
 30
0.0
 10
29.14686628554674
 20
1.466661780692867
 30
0.0
 10
28.84536689726949
 20
1.619415973923634
 30
0.0
 10
28.62976415402144
 20
1.732537081066942
 30
0.0
 10
28.50083783612838
 20
1.800181340134626
 30
0.0
  0
LINE
  5
97
330
1F
100
AcDbEntity
  8
0
  6
Continuous
 62
     1
370
    15
100
AcDbLine
 10
55.70800839641471
 20
1.800305237830464
 30
0.0
 11
55.65980021319087
 21
1.825208071551004
 31
0.0
  0
SPLINE
  5
98
330
1F
100
AcDbEntity
  8
0
  6
Continuous
 62
     1
370
    15
100
AcDbSpline
210
0.0
220
0.0
230
1.0
 70
     8
 71
     3
 72
     9
 73
     5
 74
     0
 42
0.000000001
 43
0.00000001
 40
0.0
 40
0.0
 40
0.0
 40
0.0
 40
0.5374457069982587
 40
1.0
 40
1.0
 40
1.0
 40
1.0
 10
57.04550009833577
 20
1.131512100104385
 30
0.0
 10
56.80626411274879
 20
1.2457421089768
 30
0.0
 10
56.36112894379717
 20
1.458284524675704
 30
0.0
 10
55.91456736963364
 20
1.692136159990245
 30
0.0
 10
55.70800839641471
 20
1.800305237830464
 30
0.0
  0
LINE
  5
99
330
1F
100
AcDbEntity
  8
0
  6
Continuous
 62
     1
370
    15
100
AcDbLine
 10
43.14953917577623
 20
-5.149737225633195
 30
0.0
 11
45.57101350046325
 21
-5.149737225633195
 31
0.0
  0
LINE
  5
9A
330
1F
100
AcDbEntity
  8
0
  6
Continuous
 62
     1
370
    15
100
AcDbLine
 10
18.36378551429884
 20
4.850262774366814
 30
0.0
 11
15.94155124548672
 21
4.850262774366814
 31
0.0
  0
LINE
  5
9B
330
1F
100
AcDbEntity
  8
0
  6
Continuous
 62
     1
370
    15
100
AcDbLine
 10
15.94155968663151
 20
-5.149737225633195
 30
0.0
 11
18.36378551429891
 21
-5.149737225633195
 31
0.0
  0
LINE
  5
9C
330
1F
100
AcDbEntity
  8
0
  6
Continuous
 62
     1
370
    15
100
AcDbLine
 10
45.57101350046324
 20
4.850262774366814
 30
0.0
 11
43.14953917577625
 21
4.850262774366814
 31
0.0
  0
SPLINE
  5
9D
330
1F
100
AcDbEntity
  8
0
  6
Continuous
 62
     1
370
    15
100
AcDbSpline
210
0.0
220
0.0
230
1.0
 70
     8
 71
     3
 72
    21
 73
    17
 74
     0
 42
0.000000001
 43
0.00000001
 40
0.0
 40
0.0
 40
0.0
 40
0.0
 40
0.080359027006169
 40
0.1364984058095904
 40
0.1767262491831858
 40
0.2295316417841041
 40
0.2887063117964469
 40
0.3398742401854936
 40
0.388986628167439
 40
0.4417159107106607
 40
0.5495717683717721
 40
0.6504916010370073
 40
0.6972377030799027
 40
0.7634431702454318
 40
0.8643949780032302
 40
1.0
 40
1.0
 40
1.0
 40
1.0
 10
20.66695335369421
 20
-4.310399019158488
 30
0.0
 10
20.86806896514579
 20
-4.290903941609755
 30
0.0
 10
21.2096853506261
 20
-4.25778946641418
 30
0.0
 10
21.65147824163607
 20
-4.220211534142483
 30
0.0
 10
22.02642595442648
 20
-4.190885399502409
 30
0.0
 10
22.41114028581163
 20
-4.163494715417605
 30
0.0
 10
22.82393803882002
 20
-4.137407756715153
 30
0.0
 10
23.22144509042809
 20
-4.115797485380901
 30
0.0
 10
23.60038479513868
 20
-4.097980817300986
 30
0.0
 10
24.12533377619035
 20
-4.077475757963922
 30
0.0
 10
24.7814842870086
 20
-4.06016068083124
 30
0.0
 10
25.42168981133395
 20
-4.053838971494698
 30
0.0
 10
25.95792936910237
 20
-4.054897730918837
 30
0.0
 10
26.49379290410736
 20
-4.060899976637773
 30
0.0
 10
27.25215147500345
 20
-4.078536626921797
 30
0.0
 10
27.84601132583753
 20
-4.106760540251287
 30
0.0
 10
28.18643852136136
 20
-4.122939757701284
 30
0.0
  0
SPLINE
  5
9E
330
1F
100
AcDbEntity
  8
0
  6
Continuous
 62
     1
370
    15
100
AcDbSpline
210
0.0
220
0.0
230
1.0
 70
     8
 71
     3
 72
    14
 73
    10
 74
     0
 42
0.000000001
 43
0.00000001
 40
0.0
 40
0.0
 40
0.0
 40
0.0
 40
0.2167335135692598
 40
0.3749626896750021
 40
0.4771372020243273
 40
0.5634549979549505
 40
0.6506258895797654
 40
0.99825439695332
 40
1.0
 40
1.0
 40
1.0
 40
1.0
 10
55.39340034324127
 20
3.823463780880004
 30
0.0
 10
55.09657160293847
 20
3.809144122143012
 30
0.0
 10
54.58303910395459
 20
3.784370206624243
 30
0.0
 10
53.93110124605496
 20
3.766500804262257
 30
0.0
 10
53.45701193690473
 20
3.758433830625479
 30
0.0
 10
53.07998167976216
 20
3.755082402810386
 30
0.0
 10
52.36735136649433
 20
3.754741086940552
 30
0.0
 10
51.77078648700899
 20
3.760693546843948
 30
0.0
 10
51.29248746521503
 20
3.780661246377757
 30
0.0
 10
51.29009770534227
 20
3.780761012433975
 30
0.0
  0
SPLINE
  5
9F
330
1F
100
AcDbEntity
  8
0
  6
Continuous
 62
     1
370
    15
100
AcDbSpline
210
0.0
220
0.0
230
1.0
 70
     8
 71
     3
 72
    20
 73
    16
 74
     0
 42
0.000000001
 43
0.00000001
 40
0.0
 40
0.0
 40
0.0
 40
0.0
 40
0.088363251362913
 40
0.1471935558589917
 40
0.1971759626199487
 40
0.2625605892941309
 40
0.3234996120998766
 40
0.3791076671739972
 40
0.4390446850938911
 40
0.5469055498600345
 40
0.6478362992421999
 40
0.6945762745549531
 40
0.7611087905510622
 40
0.8629606069141716
 40
1.0
 40
1.0
 40
1.0
 40
1.0
 10
47.87401745758198
 20
-4.310391661168397
 30
0.0
 10
48.09494573649691
 20
-4.289029479135849
 30
0.0
 10
48.46296319241578
 20
-4.253444827306284
 30
0.0
 10
48.95631951390985
 20
-4.212166160869307
 30
0.0
 10
49.3955987947085
 20
-4.178852653468369
 30
0.0
 10
49.84176756817939
 20
-4.148764160744448
 30
0.0
 10
50.29863111318951
 20
-4.122374835427875
 30
0.0
 10
50.73496717206216
 20
-4.101019906915885
 30
0.0
 10
51.29430625272537
 20
-4.078593190286465
 30
0.0
 10
51.96849727238444
 20
-4.060533266423977
 30
0.0
 10
52.60873597703785
 20
-4.05393526959155
 30
0.0
 10
53.14578175192935
 20
-4.054768125524694
 30
0.0
 10
53.68467943988733
 20
-4.060592328609643
 30
0.0
 10
54.44968034349515
 20
-4.078143135253465
 30
0.0
 10
55.04938255076532
 20
-4.106608907398581
 30
0.0
 10
55.39340034324127
 20
-4.12293823214638
 30
0.0
  0
SPLINE
  5
A0
330
1F
100
AcDbEntity
  8
0
  6
Continuous
 62
     1
370
    15
100
AcDbSpline
210
0.0
220
0.0
230
1.0
 70
     8
 71
     3
 72
    13
 73
     9
 74
     0
 42
0.000000001
 43
0.00000001
 40
0.0
 40
0.0
 40
0.0
 40
0.0
 40
0.2180394746468125
 40
0.3772217830032319
 40
0.4800114112987758
 40
0.5668475258811732
 40
0.6545401372060128
 40
1.0
 40
1.0
 40
1.0
 40
1.0
 10
28.18643852136136
 20
3.823465306434906
 30
0.0
 10
27.88960313656355
 20
3.809142846849881
 30
0.0
 10
27.37605955325938
 20
3.784364105521474
 30
0.0
 10
26.72410660637615
 20
3.766515875379605
 30
0.0
 10
26.25001252681213
 20
3.758400626383459
 30
0.0
 10
25.87297421830818
 20
3.755186423742446
 30
0.0
 10
25.16619048681933
 20
3.753857711733105
 30
0.0
 10
24.57728331334718
 20
3.768489092777064
 30
0.0
 10
24.10760161117071
 20
3.780158320566228
 30
0.0
  0
SPLINE
  5
A1
330
1F
100
AcDbEntity
  8
0
  6
Continuous
 62
     1
370
    15
100
AcDbSpline
210
0.0
220
0.0
230
1.0
 70
     8
 71
     3
 72
    14
 73
    10
 74
     0
 42
0.000000001
 43
0.00000001
 40
0.0
 40
0.0
 40
0.0
 40
0.0
 40
0.188758615735652
 40
0.3509904119198476
 40
0.4619084217580018
 40
0.5661690578988754
 40
0.7010561246988299
 40
0.8826500062127332
 40
0.9999999999999999
 40
0.9999999999999999
 40
0.9999999999999999
 40
0.9999999999999999
 10
32.20069797919526
 20
-3.910402114053165
 30
0.0
 10
32.42650802457727
 20
-3.875602664582184
 30
0.0
 10
32.84639434624469
 20
-3.810894237595685
 30
0.0
 10
33.44381650761137
 20
-3.732128792807806
 30
0.0
 10
33.91551211830781
 20
-3.675463681513867
 30
0.0
 10
34.33995119963612
 20
-3.629136143844571
 30
0.0
 10
34.86826291785507
 20
-3.577734801745997
 30
0.0
 10
35.41421174824835
 20
-3.531808460019152
 30
0.0
 10
35.78708582431033
 20
-3.510015088958786
 30
0.0
 10
35.93345701343479
 20
-3.501460132092848
 30
0.0
  0
SPLINE
  5
A2
330
1F
100
AcDbEntity
  8
0
  6
Continuous
 62
     1
370
    15
100
AcDbSpline
210
0.0
220
0.0
230
1.0
 70
     8
 71
     3
 72
    27
 73
    23
 74
     0
 42
0.000000001
 43
0.00000001
 40
0.0
 40
0.0
 40
0.0
 40
0.0
 40
0.0706026248173953
 40
0.1212614042575986
 40
0.1515715213667589
 40
0.1675134078017228
 40
0.1907339066972885
 40
0.223163217837686
 40
0.2627275593177475
 40
0.3018720676637961
 40
0.3798354752510315
 40
0.4583932155625114
 40
0.5393311479789481
 40
0.5839156495941336
 40
0.6150188439216059
 40
0.6542060695391417
 40
0.7026698316329087
 40
0.7601148046033537
 40
0.8140213398986498
 40
0.8547261319701148
 40
0.9109865259889742
 40
1.0
 40
1.0
 40
1.0
 40
1.0
 10
68.14172167067969
 20
3.270023741102843
 30
0.0
 10
67.93598579343603
 20
3.253277854650571
 30
0.0
 10
67.58263035593978
 20
3.224516463526761
 30
0.0
 10
67.1432157596625
 20
3.197522515847516
 30
0.0
 10
66.86284304910856
 20
3.182833925377627
 30
0.0
 10
66.66644725993316
 20
3.173588184076738
 30
0.0
 10
66.45731368106584
 20
3.164851514779964
 30
0.0
 10
66.1787348013001
 20
3.155226383582231
 30
0.0
 10
65.85214177847357
 20
3.146962028930147
 30
0.0
 10
65.3930723073619
 20
3.140039469762212
 30
0.0
 10
64.82250397272583
 20
3.140005538018904
 30
0.0
 10
64.1303553636059
 20
3.153910064555936
 30
0.0
 10
63.53227985124034
 20
3.178176864350075
 30
0.0
 10
63.07392943202132
 20
3.203960066645086
 30
0.0
 10
62.74023591464711
 20
3.22595846813116
 30
0.0
 10
62.39795631263087
 20
3.25154464832745
 30
0.0
 10
61.97910872037645
 20
3.287409582426151
 30
0.0
 10
61.51432018465088
 20
3.332870082775561
 30
0.0
 10
61.07131013527884
 20
3.381891333762311
 30
0.0
 10
60.62886566610661
 20
3.435746601865772
 30
0.0
 10
60.08823103094412
 20
3.507367298331868
 30
0.0
 10
59.66624674808902
 20
3.571582020928395
 30
0.0
 10
59.40768485045125
 20
3.610928226949392
 30
0.0
  0
SPLINE
  5
A3
330
1F
100
AcDbEntity
  8
0
  6
Continuous
 62
     1
370
    15
100
AcDbSpline
210
0.0
220
0.0
230
1.0
 70
     8
 71
     3
 72
    11
 73
     7
 74
     0
 42
0.000000001
 43
0.00000001
 40
0.0
 40
0.0
 40
0.0
 40
0.0
 40
0.2730246728510858
 40
0.3808557124244612
 40
0.5927079102562568
 40
1.0
 40
1.0
 40
1.0
 40
1.0
 10
13.72774492397416
 20
3.270024101916984
 30
0.0
 10
13.38726933165732
 20
3.243344579514868
 30
0.0
 10
12.91232297270426
 20
3.206127985111531
 30
0.0
 10
12.18558553364202
 20
3.169474122257489
 30
0.0
 10
11.27799953403187
 20
3.136203638316563
 30
0.0
 10
10.50711287363644
 20
3.143832326437155
 30
0.0
 10
9.999999999999988
 20
3.148850711309616
 30
0.0
  0
SPLINE
  5
A4
330
1F
100
AcDbEntity
  8
0
  6
Continuous
 62
     1
370
    15
100
AcDbSpline
210
0.0
220
0.0
230
1.0
 70
     8
 71
     3
 72
    14
 73
    10
 74
     0
 42
0.000000001
 43
0.00000001
 40
0.0
 40
0.0
 40
0.0
 40
0.0
 40
0.1835296117278959
 40
0.3446337647917613
 40
0.455853240517543
 40
0.5624763277577747
 40
0.6998367110365171
 40
0.8799225870864084
 40
1.0
 40
1.0
 40
1.0
 40
1.0
 10
59.40768485045125
 20
-3.910402678215768
 30
0.0
 10
59.62758397390387
 20
-3.876533630828151
 30
0.0
 10
60.04051277638093
 20
-3.812933990414752
 30
0.0
 10
60.63316660642283
 20
-3.734193751120111
 30
0.0
 10
61.10602711227896
 20
-3.677237023951709
 30
0.0
 10
61.5302055292587
 20
-3.630889117795531
 30
0.0
 10
62.06532069911443
 20
-3.578573274448531
 30
0.0
 10
62.61569700203727
 20
-3.53227286029545
 30
0.0
 10
62.99062067712767
 20
-3.510202742131801
 30
0.0
 10
63.14060525752182
 20
-3.501373805385605
 30
0.0
  0
SPLINE
  5
A5
330
1F
100
AcDbEntity
  8
0
  6
Continuous
 62
     1
370
    15
100
AcDbSpline
210
0.0
220
0.0
230
1.0
 70
     8
 71
     3
 72
    28
 73
    24
 74
     0
 42
0.000000001
 43
0.00000001
 40
0.0
 40
0.0
 40
0.0
 40
0.0
 40
0.0695517219486839
 40
0.1198633479714131
 40
0.1505407964604563
 40
0.1673343822717535
 40
0.1910771748772281
 40
0.223616617875057
 40
0.2629781510734492
 40
0.3019552583326962
 40
0.3797892244602972
 40
0.458495452198713
 40
0.5396693426936034
 40
0.5834060066629136
 40
0.6130190811915973
 40
0.6519070128723241
 40
0.700913131178958
 40
0.7591947514044629
 40
0.803857258352047
 40
0.8390414919905969
 40
0.8719930397709346
 40
0.9249990071966823
 40
1.0
 40
1.0
 40
1.0
 40
1.0
 10
40.93475347637713
 20
3.27002566320566
 30
0.0
 10
40.73196549884371
 20
3.25350473476311
 30
0.0
 10
40.38248679099176
 20
3.225033063045461
 30
0.0
 10
39.94565739553017
 20
3.198071300627924
 30
0.0
 10
39.6626040634504
 20
3.183164449740787
 30
0.0
 10
39.46060202023234
 20
3.173656958196807
 30
0.0
 10
39.24736207995431
 20
3.164757499103305
 30
0.0
 10
38.96766106177176
 20
3.15512032075072
 30
0.0
 10
38.64211107226082
 20
3.146910302055592
 30
0.0
 10
38.18475415095956
 20
3.140037656913315
 30
0.0
 10
37.61475582174949
 20
3.140012135737806
 30
0.0
 10
36.9215151832396
 20
3.153951305008662
 30
0.0
 10
36.324358680771
 20
3.178224407903409
 30
0.0
 10
35.87142871649247
 20
3.203675374340408
 30
0.0
 10
35.54429867220245
 20
3.225147190797786
 30
0.0
 10
35.2088749563548
 20
3.250145385497143
 30
0.0
 10
34.78937994725866
 20
3.28579198980199
 30
0.0
 10
34.34641572060277
 20
3.32894276172881
 30
0.0
 10
33.94277597799686
 20
3.373112517471399
 30
0.0
 10
33.61270586314662
 20
3.412259008928447
 30
0.0
 10
33.25856622671247
 20
3.457111429256764
 30
0.0
 10
32.79130298858941
 20
3.520675502792161
 30
0.0
 10
32.41889614038803
 20
3.577584133623863
 30
0.0
 10
32.20069797919526
 20
3.610927662786786
 30
0.0
  0
LINE
  5
A6
330
1F
100
AcDbEntity
  8
0
  6
Continuous
 62
   131
370
    15
100
AcDbLine
 10
8.479919248559238
 20
4.85026277436681
 30
0.0
 11
-39.0
 21
4.850262774366807
 31
0.0
  0
LINE
  5
A7
330
1F
100
AcDbEntity
  8
0
  6
Continuous
 62
   131
370
    15
100
AcDbLine
 10
-39.0
 20
-5.149737225633193
 30
0.0
 11
8.479919248559238
 21
-5.14973722563319
 31
0.0
  0
LINE
  5
A8
330
1F
100
AcDbEntity
  8
0
  6
Continuous
 62
   131
370
    15
100
AcDbLine
 10
-39.0
 20
4.850262774366803
 30
0.0
 11
-39.99999999999999
 21
3.850262774366803
 31
0.0
  0
LINE
  5
A9
330
1F
100
AcDbEntity
  8
0
  6
Continuous
 62
   131
370
    15
100
AcDbLine
 10
-39.99999999999999
 20
-4.149737225633189
 30
0.0
 11
-39.0
 21
-5.149737225633189
 31
0.0
  0
SPLINE
  5
AA
330
1F
100
AcDbEntity
  8
0
  6
Continuous
 62
   131
370
    15
100
AcDbSpline
210
0.0
220
0.0
230
1.0
 70
     8
 71
     3
 72
     9
 73
     5
 74
     0
 42
0.000000001
 43
0.00000001
 40
0.0
 40
0.0
 40
0.0
 40
0.0
 40
0.4362130755440316
 40
1.0
 40
1.0
 40
1.0
 40
1.0
 10
10.0
 20
3.148850711309616
 30
0.0
 10
9.777715330196624
 20
3.154868633057799
 30
0.0
 10
9.268137139478371
 20
3.16866446377809
 30
0.0
 10
8.758227101064708
 20
3.199320458615614
 30
0.0
 10
8.470746488758246
 20
3.2166039076612
 30
0.0
  0
LINE
  5
AB
330
1F
100
AcDbEntity
  8
0
  6
Continuous
 62
   131
370
    15
100
AcDbLine
 10
8.470746488758246
 20
-3.516078358927581
 30
0.0
 11
8.71847883554409
 21
-3.502027583380403
 31
0.0
  0
SPLINE
  5
AC
330
1F
100
AcDbEntity
  8
0
  6
Continuous
 62
     1
370
    15
100
AcDbSpline
210
0.0
220
0.0
230
1.0
 70
     8
 71
     3
 72
    25
 73
    21
 74
     0
 42
0.000000001
 43
0.00000001
 40
0.0
 40
0.0
 40
0.0
 40
0.0
 40
0.0155986693756952
 40
0.0739916290875134
 40
0.1323844251684821
 40
0.190777062170898
 40
0.249169544651474
 40
0.3075618771712137
 40
0.3659540642952878
 40
0.4243461105929074
 40
0.4827380206371972
 40
0.5411297990050725
 40
0.5995214502771112
 40
0.6579129790374265
 40
0.7163043898735432
 40
0.7746956873762679
 40
0.8330868761395641
 40
0.8932223465453769
 40
0.9533574726642857
 40
0.9999999999999999
 40
0.9999999999999999
 40
0.9999999999999999
 40
0.9999999999999999
 10
51.28786829149925
 20
-4.081074419329082
 30
0.0
 10
51.11667789861647
 20
-4.147122262533657
 30
0.0
 10
50.30464350334518
 20
-4.460417416031668
 30
0.0
 10
48.8517680131372
 20
-4.824485980928114
 30
0.0
 10
46.9292435644344
 20
-5.13163064596313
 30
0.0
 10
45.00672548652016
 20
-5.17958804867173
 30
0.0
 10
43.08421348885716
 20
-4.984628207521512
 30
0.0
 10
41.16170742074672
 20
-4.551330076004587
 30
0.0
 10
39.2392070950355
 20
-3.902296457023889
 30
0.0
 10
37.31671232952125
 20
-3.069022745852124
 30
0.0
 10
35.39422295765381
 20
-2.092499141251457
 30
0.0
 10
33.47173874435663
 20
-1.020628872763297
 30
0.0
 10
31.54925971206995
 20
0.0939905624864265
 30
0.0
 10
29.62678492079095
 20
1.196607545355312
 30
0.0
 10
27.70431702188839
 20
2.233300337561404
 30
0.0
 10
25.78184526288252
 20
3.152476673221451
 30
0.0
 10
23.84026521237528
 20
3.919255821333191
 30
0.0
 10
21.87942808062775
 20
4.47913519555395
 30
0.0
 10
20.04756691464254
 20
4.807640118492743
 30
0.0
 10
18.87568570623139
 20
4.821510812731058
 30
0.0
 10
18.36378551429885
 20
4.827569798054711
 30
0.0
  0
SPLINE
  5
AD
330
1F
100
AcDbEntity
  8
0
  6
Continuous
 62
     1
370
    15
100
AcDbSpline
210
0.0
220
0.0
230
1.0
 70
     8
 71
     3
 72
    17
 73
    13
 74
     0
 42
0.000000001
 43
0.00000001
 40
0.0
 40
0.0
 40
0.0
 40
0.0
 40
0.0526311488793117
 40
0.1590156610170712
 40
0.2653998790488814
 40
0.3717838116548848
 40
0.4781674675232376
 40
0.5845508553498704
 40
0.6909339838382463
 40
0.7973168616991179
 40
0.9036994976502857
 40
1.0
 40
1.0
 40
1.0
 40
1.0
 10
47.88036143719719
 20
-4.284052724931931
 30
0.0
 10
47.56332160798323
 20
-4.32093153332228
 30
0.0
 10
46.60544211865636
 20
-4.432354297570887
 30
0.0
 10
45.00672562351868
 20
-4.394314442177936
 30
0.0
 10
43.08421359294326
 20
-4.180414381054358
 30
0.0
 10
41.1617075296203
 20
-3.757946098448468
 30
0.0
 10
39.23920719756183
 20
-3.161252223171841
 30
0.0
 10
37.31671243251697
 20
-2.416094305476173
 30
0.0
 10
35.39422304496539
 20
-1.559526742326141
 30
0.0
 10
33.47173887376033
 20
-0.6351755325858771
 30
0.0
 10
31.60999089349731
 20
0.2883057380600279
 30
0.0
 10
30.38907125628018
 20
0.8677237494212552
 30
0.0
 10
29.80897773997543
 20
1.143021665332378
 30
0.0
  0
SPLINE
  5
AE
330
1F
100
AcDbEntity
  8
0
  6
Continuous
 62
     1
370
    15
100
AcDbSpline
210
0.0
220
0.0
230
1.0
 70
     8
 71
     3
 72
    20
 73
    16
 74
     0
 42
0.000000001
 43
0.00000001
 40
0.0
 40
0.0
 40
0.0
 40
0.0
 40
0.078701498703923
 40
0.1574027158854769
 40
0.2361036576113098
 40
0.3148043299556845
 40
0.3935047390003141
 40
0.4722048908341979
 40
0.5509047915534536
 40
0.6296044472611547
 40
0.7083038640671631
 40
0.7870030480879617
 40
0.8657020054464895
 40
0.9444007422719713
 40
0.9999999999999999
 40
0.9999999999999999
 40
0.9999999999999999
 40
0.9999999999999999
 10
70.0
 20
-4.894441571792687
 30
0.0
 10
69.35913147894789
 20
-4.755136356496839
 30
0.0
 10
68.07739672928827
 20
-4.476526424212484
 30
0.0
 10
66.15479974162898
 20
-3.783860768647845
 30
0.0
 10
64.2322107250535
 20
-2.929556664172432
 30
0.0
 10
62.30962962927692
 20
-1.934343132537999
 30
0.0
 10
60.38705624204777
 20
-0.8527486611047451
 30
0.0
 10
58.4644903941528
 20
0.2636809211766933
 30
0.0
 10
56.54193190485611
 20
1.359687444779911
 30
0.0
 10
54.61938059517006
 20
2.381805858192856
 30
0.0
 10
52.69683628936166
 20
3.279038986567816
 30
0.0
 10
50.774298795687
 20
4.010363545485932
 30
0.0
 10
48.85176798197745
 20
4.528679774946857
 30
0.0
 10
47.11734011993047
 20
4.818899942665213
 30
0.0
 10
46.02375629276024
 20
4.823040874579805
 30
0.0
 10
45.57101350046325
 20
4.824755216938522
 30
0.0
  0
SPLINE
  5
AF
330
1F
100
AcDbEntity
  8
0
  6
Continuous
 62
     1
370
    15
100
AcDbSpline
210
0.0
220
0.0
230
1.0
 70
     8
 71
     3
 72
    15
 73
    11
 74
     0
 42
0.000000001
 43
0.00000001
 40
0.0
 40
0.0
 40
0.0
 40
0.0
 40
0.0174782316358322
 40
0.1578411826725666
 40
0.298203330104947
 40
0.4385646163362295
 40
0.5789249838434393
 40
0.7192843751822616
 40
0.8596427329919136
 40
1.0
 40
1.0
 40
1.0
 40
1.0
 10
24.10592768442559
 20
-4.080286986822129
 30
0.0
 10
24.02374814836918
 20
-4.1128152452186
 30
0.0
 10
23.28160698484134
 20
-4.406569149077608
 30
0.0
 10
21.87942411776906
 20
-4.771919617960105
 30
0.0
 10
19.89949168876815
 20
-5.117679371501376
 30
0.0
 10
17.91955856861671
 20
-5.185848066765321
 30
0.0
 10
15.93964507207165
 20
-4.997746226673652
 30
0.0
 10
13.95974706224057
 20
-4.553152175895156
 30
0.0
 10
11.9798666033494
 20
-3.890389940635198
 30
0.0
 10
10.65995382481375
 20
-3.292277644458982
 30
0.0
 10
9.999999999996913
 20
-2.993222658439834
 30
0.0
  0
SPLINE
  5
B0
330
1F
100
AcDbEntity
  8
0
  6
Continuous
 62
   131
370
    15
100
AcDbSpline
210
0.0
220
0.0
230
1.0
 70
    24
 71
     3
 72
     8
 73
     4
 74
     0
 42
0.000000001
 43
0.00000001
 40
0.0
 40
0.0
 40
0.0
 40
0.0
 40
1.0
 40
1.0
 40
1.0
 40
1.0
 10
10.0
 20
-2.351605637760205
 30
0.0
 10
10.0
 20
-2.551616060278975
 30
0.0
 10
10.0
 20
-2.766801454837191
 30
0.0
 10
10.0
 20
-2.99322265843267
 30
0.0
  0
SPLINE
  5
B1
330
1F
100
AcDbEntity
  8
0
  6
Continuous
 62
     1
370
    15
100
AcDbSpline
210
0.0
220
0.0
230
1.0
 70
     8
 71
     3
 72
    14
 73
    10
 74
     0
 42
0.000000001
 43
0.00000001
 40
0.0
 40
0.0
 40
0.0
 40
0.0
 40
0.1480784821798358
 40
0.296156411017262
 40
0.4442337984340354
 40
0.5923106563670394
 40
0.7403869967679607
 40
0.8884628316029645
 40
0.9999999999999999
 40
0.9999999999999999
 40
0.9999999999999999
 40
0.9999999999999999
 10
70.0
 20
-4.094598547474263
 30
0.0
 10
69.35913150070888
 20
-3.958804222759471
 30
0.0
 10
68.07739689693588
 20
-3.687216080768632
 30
0.0
 10
66.15479988776244
 20
-3.054304917147933
 30
0.0
 10
64.2322108743981
 20
-2.292883211956227
 30
0.0
 10
62.30962976750501
 20
-1.422026869650715
 30
0.0
 10
60.38705640171404
 20
-0.4916996771589034
 30
0.0
 10
58.62262349728619
 20
0.3845088296384495
 30
0.0
 10
57.49904878534364
 20
0.9129552106297928
 30
0.0
 10
57.01632896664267
 20
1.139990883926766
 30
0.0
  0
SPLINE
  5
B2
330
1F
100
AcDbEntity
  8
0
  6
Continuous
 62
     1
370
    15
100
AcDbSpline
210
0.0
220
0.0
230
1.0
 70
     8
 71
     3
 72
    13
 73
     9
 74
     0
 42
0.000000001
 43
0.00000001
 40
0.0
 40
0.0
 40
0.0
 40
0.0
 40
0.0616578950346878
 40
0.2417951039670143
 40
0.4219320217453567
 40
0.6146326132675038
 40
0.8073227238889106
 40
1.0
 40
1.0
 40
1.0
 40
1.0
 10
20.67250070148319
 20
-4.286793142723544
 30
0.0
 10
20.45316028041932
 20
-4.315080114287702
 30
0.0
 10
19.59300376866246
 20
-4.426009156325541
 30
0.0
 10
18.0920206443379
 20
-4.407949266299359
 30
0.0
 10
16.12492913006647
 20
-4.224012234903537
 30
0.0
 10
14.11294108218563
 20
-3.802197035149937
 30
0.0
 10
12.05642465518074
 20
-3.178985529205532
 30
0.0
 10
10.68545966524242
 20
-2.627392811381977
 30
0.0
 10
10.00000000000005
 20
-2.351605637760225
 30
0.0
  0
LINE
  5
B3
330
1F
100
AcDbEntity
  8
0
  6
Continuous
 62
     1
370
    15
100
AcDbLine
 10
69.99999999999972
 20
-4.89444157179269
 30
0.0
 11
70.0
 21
-4.094598547474263
 31
0.0
  0
SPLINE
  5
B4
330
1F
100
AcDbEntity
  8
0
  6
Continuous
 62
     1
370
    15
100
AcDbSpline
210
0.0
220
0.0
230
1.0
 70
     8
 71
     3
 72
    30
 73
    26
 74
     0
 42
0.000000001
 43
0.00000001
 40
0.0
 40
0.0
 40
0.0
 40
0.0
 40
0.0472920127947234
 40
0.0949744717883218
 40
0.1383871930395155
 40
0.1821017314688782
 40
0.2267453820778313
 40
0.2717166855622017
 40
0.3154317543566677
 40
0.3594550673647773
 40
0.4028794555980612
 40
0.4466051799729324
 40
0.4899794615284598
 40
0.5336547490542471
 40
0.5782565986796003
 40
0.6231851922743629
 40
0.6669004047927057
 40
0.7109238486881351
 40
0.7543482576971744
 40
0.7980740214360617
 40
0.8414482773410701
 40
0.8851235226564792
 40
0.9297252687966986
 40
0.9746537777033959
 40
1.0
 40
1.0
 40
1.0
 40
1.0
 10
9.999999999999998
 20
3.719011238192819
 30
0.0
 10
10.52268784603135
 20
3.897811686375843
 30
0.0
 10
11.57237888587947
 20
4.256888771874573
 30
0.0
 10
13.10174439830268
 20
4.606273947883067
 30
0.0
 10
14.59104391535984
 20
4.812880432547415
 30
0.0
 10
16.0467904824886
 20
4.873676658441853
 30
0.0
 10
17.52037366541725
 20
4.791625585922559
 30
0.0
 10
18.99392020975143
 20
4.565805025657111
 30
0.0
 10
20.46003613750004
 20
4.205637845300064
 30
0.0
 10
21.90905916439845
 20
3.727280638844159
 30
0.0
 10
23.35876295624287
 20
3.141276597316468
 30
0.0
 10
24.80130244844437
 20
2.467071937006679
 30
0.0
 10
26.24600344238097
 20
1.718119036848507
 30
0.0
 10
27.70043564422531
 20
0.9119231579784649
 30
0.0
 10
29.17266522480762
 20
0.0666586333175354
 30
0.0
 10
30.64526199621503
 20
-0.785363211238946
 30
0.0
 10
32.11090741528575
 20
-1.61611934863046
 30
0.0
 10
33.55993388104011
 20
-2.396395755557909
 30
0.0
 10
35.00966140436199
 20
-3.112851113594589
 30
0.0
 10
36.4521797411306
 20
-3.744044278414692
 30
0.0
 10
37.89687965614007
 20
-4.276889183494415
 30
0.0
 10
39.35131431969219
 20
-4.699557993294279
 30
0.0
 10
40.8235509403677
 20
-4.990017412815772
 30
0.0
 10
42.09314820200541
 20
-5.140560020675122
 30
0.0
 10
42.86952188381995
 20
-5.13476821555787
 30
0.0
 10
43.14953917577623
 20
-5.132679265838863
 30
0.0
  0
SPLINE
  5
B5
330
1F
100
AcDbEntity
  8
0
  6
Continuous
 62
     1
370
    15
100
AcDbSpline
210
0.0
220
0.0
230
1.0
 70
     8
 71
     3
 72
    13
 73
     9
 74
     0
 42
0.000000001
 43
0.00000001
 40
0.0
 40
0.0
 40
0.0
 40
0.0
 40
0.1433003247178172
 40
0.3603413529815879
 40
0.518671249133717
 40
0.6776254809371139
 40
0.8384844981213511
 40
1.0
 40
1.0
 40
1.0
 40
1.0
 10
63.13842358371407
 20
3.201067268216826
 30
0.0
 10
63.46624282669385
 20
3.341316696993906
 30
0.0
 10
64.29057333523482
 20
3.693986302034543
 30
0.0
 10
65.4774513657558
 20
4.091198684841545
 30
0.0
 10
66.69850853349783
 20
4.424019618714466
 30
0.0
 10
67.79293311496247
 20
4.644296048100432
 30
0.0
 10
68.89310584755097
 20
4.796284185983239
 30
0.0
 10
69.6305347148687
 20
4.829430129496038
 30
0.0
 10
69.99999999999972
 20
4.850262774367029
 30
0.0
  0
SPLINE
  5
B6
330
1F
100
AcDbEntity
  8
0
  6
Continuous
 62
     1
370
    15
100
AcDbSpline
210
0.0
220
0.0
230
1.0
 70
     8
 71
     3
 72
    11
 73
     7
 74
     0
 42
0.000000001
 43
0.00000001
 40
0.0
 40
0.0
 40
0.0
 40
0.0
 40
0.2638579877360359
 40
0.5298944056607282
 40
0.7729487897160191
 40
1.0
 40
1.0
 40
1.0
 40
1.0
 10
9.999999999999998
 20
-4.018485689459201
 30
0.0
 10
10.52268910808719
 20
-4.197456461351062
 30
0.0
 10
11.57238268246659
 20
-4.55687560047204
 30
0.0
 10
13.10339398311525
 20
-4.904133902728303
 30
0.0
 10
14.56106213592113
 20
-5.11469642088323
 30
0.0
 10
15.4919569034352
 20
-5.135432080428051
 30
0.0
 10
15.94155968663151
 20
-5.145446972087243
 30
0.0
  0
SPLINE
  5
B7
330
1F
100
AcDbEntity
  8
0
  6
Continuous
 62
     1
370
    15
100
AcDbSpline
210
0.0
220
0.0
230
1.0
 70
     8
 71
     3
 72
    32
 73
    28
 74
     0
 42
0.000000001
 43
0.00000001
 40
0.0
 40
0.0
 40
0.0
 40
0.0
 40
0.0153994846077381
 40
0.0577483964954969
 40
0.1000972750527416
 40
0.1436530586455817
 40
0.187208868833986
 40
0.2297446447377538
 40
0.2725803383060501
 40
0.3148318841891835
 40
0.3573766629383849
 40
0.3997255360480272
 40
0.4420743673206187
 40
0.4856300450942763
 40
0.5291857595062809
 40
0.5717227575508431
 40
0.6145596838556963
 40
0.656811164339045
 40
0.699355894347124
 40
0.7417047185117127
 40
0.7840534923862487
 40
0.8276090551486026
 40
0.8711646645208083
 40
0.9031171838986208
 40
0.9350696443987108
 40
0.9675348828829033
 40
1.0
 40
1.0
 40
1.0
 40
1.0
 10
35.93125446600511
 20
3.201026387705929
 30
0.0
 10
36.10616286894421
 20
3.278563053227454
 30
0.0
 10
36.76207311922921
 20
3.56932720654371
 30
0.0
 10
37.89863618376449
 20
3.973905175636114
 30
0.0
 10
39.35478089443182
 20
4.401162534787502
 30
0.0
 10
40.82526657581779
 20
4.69422234583651
 30
0.0
 10
42.29798317521304
 20
4.850103104700187
 30
0.0
 10
43.76181305120184
 20
4.861240109403611
 30
0.0
 10
45.21087439185993
 20
4.731818227967988
 30
0.0
 10
46.66064681089499
 20
4.466163739204109
 30
0.0
 10
48.10475665799351
 20
4.073728983012249
 30
0.0
 10
49.54962292942341
 20
3.562651352981471
 30
0.0
 10
51.00573344382195
 20
2.944344908809399
 30
0.0
 10
52.47620094021518
 20
2.231338354747725
 30
0.0
 10
53.94895239103536
 20
1.449140894210288
 30
0.0
 10
55.41279726746853
 20
0.624309898434281
 30
0.0
 10
56.86188892701684
 20
-0.2138566702684418
 30
0.0
 10
58.3116952006976
 20
-1.04901347292645
 30
0.0
 10
59.75577460516671
 20
-1.856562490449431
 30
0.0
 10
61.20066959542043
 20
-2.61733312018762
 30
0.0
 10
62.65675329526206
 20
-3.31623261474128
 30
0.0
 10
64.12722363329027
 20
-3.929421039526289
 30
0.0
 10
65.4796728641027
 20
-4.393449847638536
 30
0.0
 10
66.70007358664404
 20
-4.722549043936285
 30
0.0
 10
67.7940255429854
 20
-4.944369150851866
 30
0.0
 10
68.89450046414464
 20
-5.095571397842675
 30
0.0
 10
69.63150061391235
 20
-5.12886468787898
 30
0.0
 10
70.0
 20
-5.149737225632967
 30
0.0
  0
LINE
  5
B8
330
1F
100
AcDbEntity
  8
0
  6
Continuous
 62
   131
370
    15
100
AcDbLine
 10
9.999999999999995
 20
-4.018485689459193
 30
0.0
 11
10.0
 21
-2.993222658425281
 31
0.0
  0
LINE
  5
B9
330
1F
100
AcDbEntity
  8
0
  6
Continuous
 62
     1
370
    15
100
AcDbLine
 10
70.0
 20
-5.149737225632967
 30
0.0
 11
69.99999999999937
 21
-4.894441571792677
 31
0.0
  0
SPLINE
  5
BA
330
1F
100
AcDbEntity
  8
0
  6
Continuous
 62
     1
370
    15
100
AcDbSpline
210
0.0
220
0.0
230
1.0
 70
    24
 71
     3
 72
    10
 73
     6
 74
     0
 42
0.000000001
 43
0.00000001
 40
0.0
 40
0.0
 40
0.0
 40
0.0
 40
0.5
 40
0.5
 40
1.0
 40
1.0
 40
1.0
 40
1.0
 10
70.0
 20
3.350262774366817
 30
0.0
 10
70.0
 20
3.562424058403387
 30
0.0
 10
70.0
 20
3.808975118702405
 30
0.0
 10
69.99999999999997
 20
4.326238579171098
 30
0.0
 10
70.0
 20
4.595629953374186
 30
0.0
 10
69.99999999999972
 20
4.850262774367029
 30
0.0
  0
LINE
  5
BB
330
1F
100
AcDbEntity
  8
0
  6
Continuous
 62
     1
370
    15
100
AcDbLine
 10
70.0
 20
3.350262774366816
 30
0.0
 11
68.14108774214642
 21
3.267219817195193
 31
0.0
  0
SPLINE
  5
BC
330
1F
100
AcDbEntity
  8
0
  6
Continuous
 62
     1
370
    15
100
AcDbSpline
210
0.0
220
0.0
230
1.0
 70
     8
 71
     3
 72
    17
 73
    13
 74
     0
 42
0.000000001
 43
0.00000001
 40
0.0
 40
0.0
 40
0.0
 40
0.0
 40
0.0441974838542428
 40
0.1597389138759203
 40
0.2752800999533447
 40
0.3908210519755239
 40
0.5063617798381187
 40
0.6219022934431655
 40
0.7374426026987942
 40
0.8529827175189486
 40
0.9765847705856388
 40
1.0
 40
1.0
 40
1.0
 40
1.0
 10
30.36221826311296
 20
-0.6194479283690869
 30
0.0
 10
30.11708757000526
 20
-0.522128627319346
 30
0.0
 10
29.23113417945004
 20
-0.1703963997537039
 30
0.0
 10
27.70435991449229
 20
0.453180215891503
 30
0.0
 10
25.78189666427889
 20
1.202687494257651
 30
0.0
 10
23.85943797968179
 20
1.887381299696207
 30
0.0
 10
21.93698250399927
 20
2.471953816564964
 30
0.0
 10
20.01453431376529
 20
2.926888018609208
 30
0.0
 10
18.09207736917855
 20
3.234877390438364
 30
0.0
 10
16.12495696070893
 20
3.36450340726408
 30
0.0
 10
14.66863931075247
 20
3.369883950639754
 30
0.0
 10
13.85321071521698
 20
3.270848270206709
 30
0.0
 10
13.72333858512945
 20
3.255075000980037
 30
0.0
  0
SPLINE
  5
BD
330
1F
100
AcDbEntity
  8
0
  6
Continuous
 62
   131
370
    15
100
AcDbSpline
210
0.0
220
0.0
230
1.0
 70
    24
 71
     3
 72
     9
 73
     5
 74
     0
 42
0.000000001
 43
0.00000001
 40
0.0
 40
0.0
 40
0.0
 40
0.0
 40
0.2096627930001877
 40
1.0
 40
1.0
 40
1.0
 40
1.0
 10
9.999999999999995
 20
3.719011238192812
 30
0.0
 10
9.999999999999995
 20
3.679558752133899
 30
0.0
 10
9.999999999999988
 20
3.491387615546599
 30
0.0
 10
9.999999999999988
 20
3.334118508045349
 30
0.0
 10
9.999999999999991
 20
3.209822880875456
 30
0.0
  0
SPLINE
  5
BE
330
1F
100
AcDbEntity
  8
0
  6
Continuous
 62
     1
370
    15
100
AcDbSpline
210
0.0
220
0.0
230
1.0
 70
     8
 71
     3
 72
    17
 73
    13
 74
     0
 42
0.000000001
 43
0.00000001
 40
0.0
 40
0.0
 40
0.0
 40
0.0
 40
0.0619289994603719
 40
0.1774624462700734
 40
0.2929955115847653
 40
0.4085282051701277
 40
0.5240605368023576
 40
0.6395925162679014
 40
0.7551241533631788
 40
0.8706554578943096
 40
0.9861864396768402
 40
1.0
 40
1.0
 40
1.0
 40
1.0
 10
57.57248196275992
 20
-0.6209365212549128
 30
0.0
 10
57.22896931652817
 20
-0.4838220835614765
 30
0.0
 10
56.24460665838451
 20
-0.0909098171911289
 30
0.0
 10
54.61939684329499
 20
0.5698041167934174
 30
0.0
 10
52.69685450467299
 20
1.311967191242998
 30
0.0
 10
50.77431902310935
 20
1.983415907489383
 30
0.0
 10
48.85179017537696
 20
2.55019484174803
 30
0.0
 10
46.92926779814285
 20
2.983357557489296
 30
0.0
 10
45.00675169044357
 20
3.26717099326516
 30
0.0
 10
43.08424174082117
 20
3.366737386180144
 30
0.0
 10
41.72594855393382
 20
3.358814313627472
 30
0.0
 10
41.00849214809391
 20
3.270509609159284
 30
0.0
 10
40.93187022667407
 20
3.26107896491151
 30
0.0
  0
SPLINE
  5
BF
330
1F
100
AcDbEntity
  8
0
  6
Continuous
 62
     1
370
    15
100
AcDbSpline
210
0.0
220
0.0
230
1.0
 70
     8
 71
     3
 72
     8
 73
     4
 74
     0
 42
0.000000001
 43
0.00000001
 40
0.0
 40
0.0
 40
0.0
 40
0.0
 40
1.0
 40
1.0
 40
1.0
 40
1.0
 10
66.90623807966202
 20
1.248853559161414
 30
0.0
 10
66.68214042923191
 20
1.514338950389652
 30
0.0
 10
66.48755699161191
 20
1.76814517886419
 30
0.0
 10
66.33398001936777
 20
2.004210403824586
 30
0.0
  0
LINE
  5
C0
330
1F
100
AcDbEntity
  8
0
  6
Continuous
 62
     1
370
    15
100
AcDbLine
 10
66.3339800193678
 20
2.004210403824587
 30
0.0
 11
70.0
 21
-0.149737225633183
 31
0.0
  0
LINE
  5
C1
330
1F
100
AcDbEntity
  8
0
  6
Continuous
 62
     1
370
    15
100
AcDbLine
 10
70.0
 20
-0.149737225633183
 30
0.0
 11
70.0
 21
-1.485951955781407
 31
0.0
  0
SPLINE
  5
C2
330
1F
100
AcDbEntity
  8
0
  6
Continuous
 62
     1
370
    15
100
AcDbSpline
210
0.0
220
0.0
230
1.0
 70
     8
 71
     3
 72
    12
 73
     8
 74
     0
 42
0.000000001
 43
0.00000001
 40
0.0
 40
0.0
 40
0.0
 40
0.0
 40
0.4999999999999981
 40
0.4999999999999981
 40
0.749999999999999
 40
0.749999999999999
 40
1.0
 40
1.0
 40
1.0
 40
1.0
 10
70.0
 20
-1.485951955781412
 30
0.0
 10
69.46446038354472
 20
-1.064927443890011
 30
0.0
 10
68.93786580922739
 20
-0.6266397663480308
 30
0.0
 10
68.16173639957108
 20
0.0573521039416751
 30
0.0
 10
67.90536026588217
 20
0.2898531764738604
 30
0.0
 10
67.3978440888167
 20
0.7649605276434486
 30
0.0
 10
67.14808896088132
 20
1.006333909048227
 30
0.0
 10
66.90623807966202
 20
1.248853559161411
 30
0.0
  0
SPLINE
  5
C3
330
1F
100
AcDbEntity
  8
0
  6
Continuous
 62
   131
370
    15
100
AcDbSpline
210
0.0
220
0.0
230
1.0
 70
    24
 71
     3
 72
    14
 73
    10
 74
     0
 42
0.000000001
 43
0.00000001
 40
0.0
 40
0.0
 40
0.0
 40
0.0
 40
0.2499999999999998
 40
0.2499999999999998
 40
0.4999999999999999
 40
0.4999999999999999
 40
0.75
 40
0.75
 40
1.0
 40
1.0
 40
1.0
 40
1.0
 10
10.0
 20
2.254865680362403
 30
0.0
 10
10.0
 20
1.92198545979311
 30
0.0
 10
10.0
 20
1.560503795087944
 30
0.0
 10
10.0
 20
0.8007022541795298
 30
0.0
 10
10.0
 20
0.4025474970075819
 30
0.0
 10
10.0
 20
-0.4025474970075807
 30
0.0
 10
10.0
 20
-0.8092552468560673
 30
0.0
 10
10.0
 20
-1.602064425519759
 30
0.0
 10
10.0
 20
-1.987974743710552
 30
0.0
 10
10.0
 20
-2.351605637760205
 30
0.0
  0
SPLINE
  5
C4
330
1F
100
AcDbEntity
  8
0
  6
Continuous
 62
     1
370
    15
100
AcDbSpline
210
0.0
220
0.0
230
1.0
 70
     8
 71
     3
 72
    13
 73
     9
 74
     0
 42
0.000000001
 43
0.00000001
 40
0.0
 40
0.0
 40
0.0
 40
0.0
 40
0.1995961465260774
 40
0.3990891349007558
 40
0.5660362923149513
 40
0.7329828716857072
 40
0.8999288867113333
 40
1.0
 40
1.0
 40
1.0
 40
1.0
 10
66.90623807966202
 20
1.248853559161414
 30
0.0
 10
66.13990575377088
 20
1.570882795319378
 30
0.0
 10
64.60763716888391
 20
2.214774831853472
 30
0.0
 10
62.43451576106423
 20
2.946276563666138
 30
0.0
 10
60.38707754377564
 20
3.464183550858845
 30
0.0
 10
58.46449714376522
 20
3.763341947712298
 30
0.0
 10
56.79865337662442
 20
3.884119829970818
 30
0.0
 10
55.7736603546052
 20
3.822757581919061
 30
0.0
 10
55.38951948141803
 20
3.799760598485074
 30
0.0
  0
SPLINE
  5
C5
330
1F
100
AcDbEntity
  8
0
  6
Continuous
 62
     1
370
    15
100
AcDbSpline
210
0.0
220
0.0
230
1.0
 70
     8
 71
     3
 72
    19
 73
    15
 74
     0
 42
0.000000001
 43
0.00000001
 40
0.0
 40
0.0
 40
0.0
 40
0.0
 40
0.0296931061861123
 40
0.116258126064283
 40
0.2028229607290641
 40
0.2893876173913131
 40
0.3759521032669159
 40
0.4625164255765836
 40
0.5490805915456501
 40
0.6356446084038693
 40
0.7222084833852105
 40
0.8148111461147268
 40
0.9074087007493266
 40
0.9999999999999999
 40
0.9999999999999999
 40
0.9999999999999999
 40
0.9999999999999999
 10
32.20872917039416
 20
-3.888311324815408
 30
0.0
 10
31.98891674283355
 20
-3.928622013536674
 30
0.0
 10
31.12827990835548
 20
-4.086451413455997
 30
0.0
 10
29.62682062031591
 20
-4.169722775325016
 30
0.0
 10
27.70435262364188
 20
-4.125729327954218
 30
0.0
 10
25.78188906888701
 20
-3.874102296876151
 30
0.0
 10
23.85943007946272
 20
-3.443044146679537
 30
0.0
 10
21.93697416281593
 20
-2.849476553736723
 30
0.0
 10
20.01452607609636
 20
-2.123611169158448
 30
0.0
 10
18.09206719294745
 20
-1.30097998871606
 30
0.0
 10
16.12496226345341
 20
-0.4007803566285861
 30
0.0
 10
14.11297428190063
 20
0.5317492042012663
 30
0.0
 10
12.05644106386771
 20
1.456463265827264
 30
0.0
 10
10.68546491816051
 20
1.988737535309134
 30
0.0
 10
9.999999999999988
 20
2.254865680362407
 30
0.0
  0
SPLINE
  5
C6
330
1F
100
AcDbEntity
  8
0
  6
Continuous
 62
     1
370
    15
100
AcDbSpline
210
0.0
220
0.0
230
1.0
 70
    24
 71
     3
 72
    10
 73
     6
 74
     0
 42
0.000000001
 43
0.00000001
 40
0.0
 40
0.0
 40
0.0
 40
0.0
 40
0.5
 40
0.5
 40
1.0
 40
1.0
 40
1.0
 40
1.0
 10
70.0
 20
-4.094598547474262
 30
0.0
 10
70.0
 20
-3.792194170652208
 30
0.0
 10
70.0
 20
-3.410094645165528
 30
0.0
 10
70.0
 20
-2.521750021386586
 30
0.0
 10
70.0
 20
-2.016274440889736
 30
0.0
 10
70.0
 20
-1.485951955781572
 30
0.0
  0
SPLINE
  5
C7
330
1F
100
AcDbEntity
  8
0
  6
Continuous
 62
     1
370
    15
100
AcDbSpline
210
0.0
220
0.0
230
1.0
 70
     8
 71
     3
 72
    24
 73
    20
 74
     0
 42
0.000000001
 43
0.00000001
 40
0.0
 40
0.0
 40
0.0
 40
0.0
 40
0.0304921559355363
 40
0.0920456848628998
 40
0.1535990107708681
 40
0.2151521387216018
 40
0.2767050737828285
 40
0.3382578210277001
 40
0.3998103855346536
 40
0.4613627723872699
 40
0.5229149866741324
 40
0.584467033488685
 40
0.6460189179290917
 40
0.7075706450980931
 40
0.7691222201028638
 40
0.8306736480548724
 40
0.8922249340697352
 40
0.9537760832670749
 40
1.0
 40
1.0
 40
1.0
 40
1.0
 10
59.41688794263715
 20
-3.885732872130836
 30
0.0
 10
59.09942479606337
 20
-3.940366133166028
 30
0.0
 10
58.14110906375205
 20
-4.105285791156399
 30
0.0
 10
56.54194379482621
 20
-4.176062239166249
 30
0.0
 10
54.61939411849239
 20
-4.099794647951655
 30
0.0
 10
52.69685149057223
 20
-3.819953746296208
 30
0.0
 10
50.7743156733367
 20
-3.362589197788771
 30
0.0
 10
48.85178650308374
 20
-2.746848224620782
 30
0.0
 10
46.92926379603148
 20
-2.003834853078762
 30
0.0
 10
45.00674737353737
 20
-1.169777034396158
 30
0.0
 10
43.08423705535959
 20
-0.2856749734835227
 30
0.0
 10
41.16173266142293
 20
0.6051101478817436
 30
0.0
 10
39.23923401152454
 20
1.458814265299059
 30
0.0
 10
37.31674092477606
 20
2.23369899881453
 30
0.0
 10
35.39425322216053
 20
2.891146940543942
 30
0.0
 10
33.47177071689327
 20
3.401088409592908
 30
0.0
 10
31.54929325045296
 20
3.730303995850874
 30
0.0
 10
29.78639478893804
 20
3.879693205720163
 30
0.0
 10
28.66432236944632
 20
3.827399150070798
 30
0.0
 10
28.18307393188604
 20
3.804970622163173
 30
0.0
  0
SPLINE
  5
C8
330
1F
100
AcDbEntity
  8
0
  6
Continuous
 62
     1
370
    15
100
AcDbSpline
210
0.0
220
0.0
230
1.0
 70
     8
 71
     3
 72
    10
 73
     6
 74
     0
 42
0.000000001
 43
0.00000001
 40
0.0
 40
0.0
 40
0.0
 40
0.0
 40
0.5
 40
0.5
 40
1.0
 40
1.0
 40
1.0
 40
1.0
 10
70.0
 20
3.350262774366816
 30
0.0
 10
69.37778486821063
 20
3.18147919409363
 30
0.0
 10
68.76026279451116
 20
2.987886407413002
 30
0.0
 10
67.53581778859242
 20
2.544669929749866
 30
0.0
 10
66.92880705278057
 20
2.295423304444737
 30
0.0
 10
66.3339800193678
 20
2.00421040382459
 30
0.0
  0
SPLINE
  5
C9
330
1F
100
AcDbEntity
  8
0
  6
Continuous
 62
   131
370
    15
100
AcDbSpline
210
0.0
220
0.0
230
1.0
 70
    24
 71
     3
 72
    11
 73
     7
 74
     0
 42
0.000000001
 43
0.00000001
 40
0.0
 40
0.0
 40
0.0
 40
0.0
 40
0.1291046673665978
 40
0.4241949984195434
 40
0.7080683961279627
 40
1.0
 40
1.0
 40
1.0
 40
1.0
 10
10.0
 20
3.130037486748793
 30
0.0
 10
9.999999999999998
 20
3.134483185337873
 30
0.0
 10
10.0
 20
3.149090272319582
 30
0.0
 10
9.999999999999998
 20
3.006498137725591
 30
0.0
 10
10.0
 20
2.722562201923355
 30
0.0
 10
10.0
 20
2.412212270107183
 30
0.0
 10
10.0
 20
2.254865680362403
 30
0.0
  0
LINE
  5
CA
330
1F
100
AcDbEntity
  8
0
  6
Continuous
 62
     1
370
    15
100
AcDbLine
 10
70.0
 20
-0.149737225633183
 30
0.0
 11
70.0
 21
3.350262774366816
 31
0.0
  0
SPLINE
  5
CB
330
1F
100
AcDbEntity
  8
0
  6
Continuous
 62
   131
370
    15
100
AcDbSpline
210
0.0
220
0.0
230
1.0
 70
     8
 71
     3
 72
    10
 73
     6
 74
     0
 42
0.000000001
 43
0.00000001
 40
0.0
 40
0.0
 40
0.0
 40
0.0
 40
0.5
 40
0.5
 40
1.0
 40
1.0
 40
1.0
 40
1.0
 10
10.00000000000016
 20
-2.993222658441376
 30
0.0
 10
9.747156773675144
 20
-2.87297636188209
 30
0.0
 10
9.495628339077427
 20
-2.749300408085084
 30
0.0
 10
8.98832084539034
 20
-2.494898552658503
 30
0.0
 10
8.733784140668988
 20
-2.364367264190536
 30
0.0
 10
8.479834625208778
 20
-2.231256186779951
 30
0.0
  0
SPLINE
  5
CC
330
1F
100
AcDbEntity
  8
0
  6
Continuous
 62
   131
370
    15
100
AcDbSpline
210
0.0
220
0.0
230
1.0
 70
     8
 71
     3
 72
    10
 73
     6
 74
     0
 42
0.000000001
 43
0.00000001
 40
0.0
 40
0.0
 40
0.0
 40
0.0
 40
0.5
 40
0.5
 40
1.0
 40
1.0
 40
1.0
 40
1.0
 10
8.479919248559161
 20
-3.405887124761067
 30
0.0
 10
8.733854790552167
 20
-3.516981446884833
 30
0.0
 10
8.98837729319824
 20
-3.623966045184892
 30
0.0
 10
9.495656416023019
 20
-3.828490225660714
 30
0.0
 10
9.747170816121859
 20
-3.925882146369978
 30
0.0
 10
9.999999999999998
 20
-4.018485689459192
 30
0.0
  0
LINE
  5
CD
330
1F
100
AcDbEntity
  8
0
  6
Continuous
 62
   131
370
    15
100
AcDbLine
 10
8.479919248559238
 20
-5.14973722563319
 30
0.0
 11
8.479919248559161
 21
-3.405889652283631
 31
0.0
  0
LINE
  5
CE
330
1F
100
AcDbEntity
  8
0
  6
Continuous
 62
   131
370
    15
100
AcDbLine
 10
8.719999353283532
 20
3.203165906786616
 30
0.0
 11
9.999999999999995
 21
3.719011238192813
 31
0.0
  0
LINE
  5
CF
330
1F
100
AcDbEntity
  8
0
  6
Continuous
 62
   131
370
    15
100
AcDbLine
 10
8.479919248559195
 20
-2.231061350615923
 30
0.0
 11
8.479919248559238
 21
4.85026277436681
 31
0.0
  0
LINE
  5
D0
330
1F
100
AcDbEntity
  8
0
  6
Continuous
 62
   131
370
    15
100
AcDbLine
 10
-39.0
 20
4.850262774366803
 30
0.0
 11
-39.0
 21
-5.149737225633193
 31
0.0
  0
LINE
  5
D1
330
1F
100
AcDbEntity
  8
0
  6
Continuous
 62
   131
370
    15
100
AcDbLine
 10
-39.99999999999999
 20
3.850262774366803
 30
0.0
 11
-39.99999999999999
 21
-4.149737225633189
 31
0.0
  0
SPLINE
  5
D2
330
1F
100
AcDbEntity
  8
0
  6
Continuous
 62
   131
370
    15
100
AcDbSpline
210
0.0
220
0.0
230
1.0
 70
    24
 71
     3
 72
     8
 73
     4
 74
     0
 42
0.000000001
 43
0.00000001
 40
0.0
 40
0.0
 40
0.0
 40
0.0
 40
1.0
 40
1.0
 40
1.0
 40
1.0
 10
10.0
 20
-2.351605637760205
 30
0.0
 10
10.0
 20
-2.551616060278977
 30
0.0
 10
10.0
 20
-2.766801454837194
 30
0.0
 10
10.0
 20
-2.993222658432674
 30
0.0
  0
SPLINE
  5
D3
330
1F
100
AcDbEntity
  8
0
  6
Continuous
 62
   131
370
    15
100
AcDbSpline
210
0.0
220
0.0
230
1.0
 70
     8
 71
     3
 72
    10
 73
     6
 74
     0
 42
0.000000001
 43
0.00000001
 40
0.0
 40
0.0
 40
0.0
 40
0.0
 40
0.5000000000000001
 40
0.5000000000000001
 40
1.0
 40
1.0
 40
1.0
 40
1.0
 10
10.00000000000021
 20
-2.351605637760291
 30
0.0
 10
9.747156773675181
 20
-2.245322922083751
 30
0.0
 10
9.49562833907746
 20
-2.136407184679432
 30
0.0
 10
8.988320845390358
 20
-1.913144266096059
 30
0.0
 10
8.733784140668995
 20
-1.798969507697175
 30
0.0
 10
8.479834625208778
 20
-1.682908399994882
 30
0.0
  0
SPLINE
  5
D4
330
1F
100
AcDbEntity
  8
0
  6
Continuous
 62
   131
370
    15
100
AcDbSpline
210
0.0
220
0.0
230
1.0
 70
     8
 71
     3
 72
    10
 73
     6
 74
     0
 42
0.000000001
 43
0.00000001
 40
0.0
 40
0.0
 40
0.0
 40
0.0
 40
0.5
 40
0.5
 40
1.0
 40
1.0
 40
1.0
 40
1.0
 10
9.999999999999988
 20
2.254865680362406
 30
0.0
 10
9.747165689215693
 20
2.348321457375113
 30
0.0
 10
9.495646165114199
 20
2.438540007524948
 30
0.0
 10
8.98835668407024
 20
2.612604999322212
 30
0.0
 10
8.733828996236296
 20
2.696294131276671
 30
0.0
 10
8.479888352515777
 20
2.77615233414937
 30
0.0
  0
SPLINE
  5
D5
330
1F
100
AcDbEntity
  8
0
  6
Continuous
 62
   131
370
    15
100
AcDbSpline
210
0.0
220
0.0
230
1.0
 70
    24
 71
     3
 72
    14
 73
    10
 74
     0
 42
0.000000001
 43
0.00000001
 40
0.0
 40
0.0
 40
0.0
 40
0.0
 40
0.2499999999999998
 40
0.2499999999999998
 40
0.4999999999999999
 40
0.4999999999999999
 40
0.75
 40
0.75
 40
1.0
 40
1.0
 40
1.0
 40
1.0
 10
10.0
 20
2.254865680362403
 30
0.0
 10
10.0
 20
1.92198545979311
 30
0.0
 10
10.0
 20
1.560503795087944
 30
0.0
 10
10.0
 20
0.8007022541795298
 30
0.0
 10
10.0
 20
0.4025474970075819
 30
0.0
 10
10.0
 20
-0.4025474970075807
 30
0.0
 10
10.0
 20
-0.8092552468560673
 30
0.0
 10
10.0
 20
-1.602064425519759
 30
0.0
 10
10.0
 20
-1.987974743710552
 30
0.0
 10
10.0
 20
-2.351605637760205
 30
0.0
  0
SPLINE
  5
D6
330
1F
100
AcDbEntity
  8
0
  6
Continuous
 62
   131
370
    15
100
AcDbSpline
210
0.0
220
0.0
230
1.0
 70
    24
 71
     3
 72
    11
 73
     7
 74
     0
 42
0.000000001
 43
0.00000001
 40
0.0
 40
0.0
 40
0.0
 40
0.0
 40
0.1252618286529557
 40
0.4216542502163221
 40
0.70678024354859
 40
1.0
 40
1.0
 40
1.0
 40
1.0
 10
10.0
 20
3.130176016181134
 30
0.0
 10
10.0
 20
3.134402252135206
 30
0.0
 10
10.0
 20
3.148628536164544
 30
0.0
 10
10.0
 20
3.006355276285753
 30
0.0
 10
10.0
 20
2.722598506411411
 30
0.0
 10
10.0
 20
2.412224483983328
 30
0.0
 10
10.0
 20
2.254865680362403
 30
0.0
  0
SPLINE
  5
D7
330
1F
100
AcDbEntity
  8
0
  6
Continuous
 62
   131
370
    15
100
AcDbSpline
210
0.0
220
0.0
230
1.0
 70
    24
 71
     3
 72
     9
 73
     5
 74
     0
 42
0.000000001
 43
0.00000001
 40
0.0
 40
0.0
 40
0.0
 40
0.0
 40
0.2096627930001921
 40
1.0
 40
1.0
 40
1.0
 40
1.0
 10
9.999999999999995
 20
3.719011238192813
 30
0.0
 10
9.999999999999995
 20
3.679558752133899
 30
0.0
 10
9.999999999999991
 20
3.4913876155466
 30
0.0
 10
9.999999999999991
 20
3.334118508045347
 30
0.0
 10
9.999999999999991
 20
3.209822880875455
 30
0.0
  0
LINE
  5
D8
330
1F
100
AcDbEntity
  8
중심선
 62
     1
100
AcDbLine
 10
-42.99999999999999
 20
-0.1497372256331957
 30
0.0
 11
73.0
 21
-0.1497372256331827
 31
0.0
  0
CIRCLE
  5
D9
330
1F
100
AcDbEntity
  8
외형선
100
AcDbCircle
 10
0.0000000000000104
 20
0.0
 30
0.0
 40
3.000000000000005
  0
INSERT
  5
DA
330
1F
100
AcDbEntity
  8
0
  6
Continuous
 62
     7
100
AcDbBlockReference
 66
     1
  2
블럭10
 10
-22.93944368806589
 20
-52.04609937292004
 30
0.0
  0
ATTRIB
  5
DB
330
DA
100
AcDbEntity
  8
FORMAT
 62
     2
100
AcDbText
 10
-39.05870472750145
 20
-49.97073246008785
 30
0.0
 40
4.233333333333333
  1
SEME7010060E [ 2 FLUTE ]
 41
0.75
  7
SLDTEXTSTYLE0
 11
-39.05870472750145
 21
-52.08739912675452
 31
0.0
100
AcDbAttribute
  2
AUTOATTR0
 70
     0
 74
     1
  0
SEQEND
  5
DC
330
DA
100
AcDbEntity
  8
0
  6
Continuous
 62
     7
  0
HATCH
  5
DD
330
1F
100
AcDbEntity
  8
중심선
100
AcDbHatch
 10
0.0
 20
0.0
 30
0.0
210
0.0
220
0.0
230
1.0
  2
SOLID
 70
     1
 71
     0
 91
        1
 92
        0
 93
        4
 72
     1
 10
-17.22453438368504
 20
-35.7989250712761
 11
-20.67080962752232
 21
-35.7989250712761
 72
     1
 10
-20.67080962752232
 20
-35.7989250712761
 11
-22.79903948672635
 21
-38.3352506518487
 72
     1
 10
-22.79903948672635
 20
-38.3352506518487
 11
-19.35273115777591
 21
-38.33521122254621
 72
     1
 10
-19.35273115777591
 20
-38.33521122254621
 11
-17.22453438368504
 21
-35.7989250712761
 97
        0
 75
     0
 76
     1
 98
        1
 10
0.0
 20
0.0
  0
HATCH
  5
DE
330
1F
100
AcDbEntity
  8
중심선
100
AcDbHatch
 10
0.0
 20
0.0
 30
0.0
210
0.0
220
0.0
230
1.0
  2
SOLID
 70
     1
 71
     0
 91
        1
 92
        0
 93
        4
 72
     1
 10
-12.21177039264909
 20
-35.7989250712761
 11
-15.65804563648637
 21
-35.7989250712761
 72
     1
 10
-15.65804563648637
 20
-35.7989250712761
 11
-20.18918364484376
 21
-41.19892507127612
 72
     1
 10
-20.18918364484376
 20
-41.19892507127612
 11
-16.74290840100648
 21
-41.19892507127612
 72
     1
 10
-16.74290840100648
 20
-41.19892507127612
 11
-12.21177039264909
 21
-35.7989250712761
 97
        0
 75
     0
 76
     1
 98
        1
 10
0.0
 20
0.0
  0
HATCH
  5
DF
330
1F
100
AcDbEntity
  8
중심선
100
AcDbHatch
 10
0.0
 20
0.0
 30
0.0
210
0.0
220
0.0
230
1.0
  2
SOLID
 70
     1
 71
     0
 91
        1
 92
        0
 93
        4
 72
     1
 10
-7.199006401613195
 20
-35.79892507127613
 11
-10.64528164545031
 21
-35.7989250712761
 72
     1
 10
-10.64528164545031
 20
-35.7989250712761
 11
-17.69371854733956
 21
-44.19892507127612
 72
     1
 10
-17.69371854733956
 20
-44.19892507127612
 11
-14.24744330350228
 21
-44.19892507127612
 72
     1
 10
-14.24744330350228
 20
-44.19892507127612
 11
-7.199006401613195
 21
-35.79892507127613
 97
        0
 75
     0
 76
     1
 98
        1
 10
0.0
 20
0.0
  0
HATCH
  5
E0
330
1F
100
AcDbEntity
  8
중심선
100
AcDbHatch
 10
0.0
 20
0.0
 30
0.0
210
0.0
220
0.0
230
1.0
  2
SOLID
 70
     1
 71
     0
 91
        1
 92
        0
 93
        6
 72
     3
 10
-2.399115970600996
 20
-39.99892507132738
 11
3.960054785062284
 21
1.540850780301639E-10
 40
0.3939339440162633
 50
17.09539180608433
 51
320.0019657685079
 73
     0
 72
     1
 10
-0.7161163149004002
 20
-38.58681907591441
 11
1.589185558800638
 21
-36.65249236586649
 72
     3
 10
-2.399115970653842
 20
-39.99892507127625
 11
6.600054785286829
 21
-1.249000902703301E-13
 40
0.6363583540795982
 50
39.99873849337408
 51
368.4976242363725
 73
     1
 72
     1
 10
4.026216521246767
 20
-39.03892507120613
 11
-3.71904866381792
 21
-39.0389250712061
 72
     1
 10
-3.71904866381792
 20
-39.0389250712061
 11
-3.719073708263854
 21
-40.95892507120602
 72
     1
 10
-3.719073708263854
 20
-40.95892507120602
 11
0.7223060612081831
 21
-40.95892507120599
 97
        0
 75
     0
 76
     1
 98
        1
 10
0.0
 20
0.0
  0
DIMENSION
  5
E1
330
1F
100
AcDbEntity
  8
치수문자_일반주서
100
AcDbDimension
  2
_D
 10
83.90785898917943
 20
4.85026277436708
 30
0.0
 11
83.9078589891794
 21
15.17301277436708
 31
0.0
 70
   160
  1
%%c<>
 71
     2
 42
9.999999999999996
 52
-270.0
  3
SLDDIMSTYLE0
100
AcDbAlignedDimension
 13
70.0
 23
-5.149737225632967
 33
0.0
 14
69.99999999999972
 24
4.850262774367029
 34
0.0
 50
90.0000000000002
100
AcDbRotatedDimension
  0
DIMENSION
  5
EF
330
1F
100
AcDbEntity
  8
치수문자_일반주서
100
AcDbDimension
  2
_D_1
 10
69.99999999999972
 20
25.6386732146095
 30
0.0
 11
14.99999999999986
 21
25.6386732146095
 31
0.0
 70
   160
  1
<>
 71
     2
 42
109.9999999999997
  3
SLDDIMSTYLE1
100
AcDbAlignedDimension
 13
-39.99999999999999
 23
3.850262774366803
 33
0.0
 14
69.99999999999972
 24
4.850262774367029
 34
0.0
 50
-0.0000000000000037
100
AcDbRotatedDimension
  0
DIMENSION
  5
FA
330
1F
100
AcDbEntity
  8
치수문자_일반주서
100
AcDbDimension
  2
_D_2
 10
69.99999999999972
 20
17.06600904436034
 30
0.0
 11
40.0
 21
17.06600904436034
 31
0.0
 70
   160
  1
<>
 71
     2
 42
59.99999999999972
  3
SLDDIMSTYLE1
100
AcDbAlignedDimension
 13
9.999999999999998
 23
3.719011238192814
 33
0.0
 14
69.99999999999972
 24
4.850262774367029
 34
0.0
 50
-0.0000000000000034
100
AcDbRotatedDimension
  0
DIMENSION
  5
104
330
1F
100
AcDbEntity
  8
치수문자_일반주서
100
AcDbDimension
  2
_D_3
 10
-50.77166638955485
 20
-5.149737225633235
 30
0.0
 11
-50.77166638955492
 21
15.61334164434243
 31
0.0
 70
   160
  1
%%c<>
 71
     2
 42
9.999999999999993
 52
-270.0
  3
SLDDIMSTYLE0
100
AcDbAlignedDimension
 13
-39.0
 23
4.850262774366803
 33
0.0
 14
-39.0
 24
-5.149737225633189
 34
0.0
 50
90.0000000000002
100
AcDbRotatedDimension
  0
INSERT
  5
117
330
1F
100
AcDbEntity
  8
외형선
100
AcDbBlockReference
  2
SW_DOWELSYMBOL_0
 10
0.0000000000000104
 20
0.0
 30
0.0
  0
ENDSEC
  0
SECTION
  2
OBJECTS
  0
DICTIONARY
  5
C
330
0
100
AcDbDictionary
281
     1
  3
ACAD_GROUP
350
D
  3
ACAD_IMAGE_VARS
350
13B
  3
ACAD_LAYOUT
350
1A
  3
ACAD_MLINESTYLE
350
17
  3
ACAD_PLOTSETTINGS
350
19
  3
ACAD_PLOTSTYLENAME
350
E
  3
ACAD_SCALELIST
350
47
  3
APPDATA
350
139
  3
DWGPROPS
350
14A
  0
DICTIONARY
  5
D
102
{ACAD_REACTORS
330
C
102
}
330
C
100
AcDbDictionary
281
     1
  0
RASTERVARIABLES
  5
13B
102
{ACAD_REACTORS
330
C
102
}
330
C
100
AcDbRasterVariables
 90
        0
 70
     1
 71
     1
 72
     1
  0
DICTIONARY
  5
1A
102
{ACAD_REACTORS
330
C
102
}
330
C
100
AcDbDictionary
281
     1
  3
Layout1
350
1E
  3
Layout2
350
26
  3
Model
350
22
  0
DICTIONARY
  5
17
102
{ACAD_REACTORS
330
C
102
}
330
C
100
AcDbDictionary
281
     1
  3
Standard
350
18
  0
DICTIONARY
  5
19
102
{ACAD_REACTORS
330
C
102
}
330
C
100
AcDbDictionary
281
     1
  0
ACDBDICTIONARYWDFLT
  5
E
102
{ACAD_REACTORS
330
C
102
}
330
C
100
AcDbDictionary
281
     1
  3
Normal
350
F
100
AcDbDictionaryWithDefault
340
F
  0
DICTIONARY
  5
47
102
{ACAD_REACTORS
330
C
102
}
330
C
100
AcDbDictionary
281
     1
  3
A0
350
48
  3
A1
350
49
  3
A2
350
4A
  3
A3
350
4B
  3
A4
350
4C
  3
A5
350
4D
  3
A6
350
4E
  3
A7
350
4F
  3
A8
350
50
  3
A9
350
51
  3
B0
350
52
  3
B1
350
53
  3
B2
350
54
  3
B3
350
55
  3
B4
350
56
  3
B5
350
57
  3
B6
350
58
  3
B7
350
59
  3
B8
350
5A
  3
B9
350
5B
  3
C0
350
5C
  3
C1
350
5D
  3
C2
350
5E
  3
C3
350
5F
  3
C4
350
60
  3
C5
350
61
  3
C6
350
62
  3
C7
350
63
  3
C8
350
64
  3
C9
350
65
  3
D0
350
66
  3
D1
350
67
  3
D2
350
68
  0
DICTIONARY
  5
139
102
{ACAD_REACTORS
330
C
102
}
330
C
100
AcDbDictionary
281
     1
  0
XRECORD
  5
14A
102
{ACAD_REACTORS
330
C
102
}
330
C
100
AcDbXrecord
280
     1
  1
DWGPROPS COOKIE
  2

  3

  4

  6

  7

  8
12014102
  9

300
=
301
=
302
=
303
=
304
=
305
=
306
=
307
=
308
=
309
=
 40
0.0
 41
2458262.171985926
 42
2458266.111837824
  1

 90
        0
  0
LAYOUT
  5
1E
102
{ACAD_REACTORS
330
1A
102
}
330
1A
100
AcDbPlotSettings
  1

  2
none_device
  4

  6

 40
0.0
 41
0.0
 42
0.0
 43
0.0
 44
0.0
 45
0.0
 46
0.0
 47
0.0
 48
0.0
 49
0.0
140
0.0
141
0.0
142
1.0
143
1.0
 70
   688
 72
     1
 73
     0
 74
     5
  7

 75
    16
147
1.0
148
0.0
149
0.0
100
AcDbLayout
  1
Layout1
 70
     1
 71
     1
 10
0.0
 20
0.0
 11
420.0
 21
297.0
 12
0.0
 22
0.0
 32
0.0
 14
1.000000000000000E+20
 24
1.000000000000000E+20
 34
1.000000000000000E+20
 15
-1.000000000000000E+20
 25
-1.000000000000000E+20
 35
-1.000000000000000E+20
146
0.0
 13
0.0
 23
0.0
 33
0.0
 16
1.0
 26
0.0
 36
0.0
 17
0.0
 27
1.0
 37
0.0
 76
     0
330
1B
  0
LAYOUT
  5
26
102
{ACAD_REACTORS
330
1A
102
}
330
1A
100
AcDbPlotSettings
  1

  2
none_device
  4

  6

 40
0.0
 41
0.0
 42
0.0
 43
0.0
 44
0.0
 45
0.0
 46
0.0
 47
0.0
 48
0.0
 49
0.0
140
0.0
141
0.0
142
1.0
143
1.0
 70
   688
 72
     1
 73
     0
 74
     5
  7

 75
    16
147
1.0
148
0.0
149
0.0
100
AcDbLayout
  1
Layout2
 70
     1
 71
     2
 10
0.0
 20
0.0
 11
0.0
 21
0.0
 12
0.0
 22
0.0
 32
0.0
 14
0.0
 24
0.0
 34
0.0
 15
0.0
 25
0.0
 35
0.0
146
0.0
 13
0.0
 23
0.0
 33
0.0
 16
1.0
 26
0.0
 36
0.0
 17
0.0
 27
1.0
 37
0.0
 76
     0
330
23
  0
LAYOUT
  5
22
102
{ACAD_REACTORS
330
1A
102
}
330
1A
100
AcDbPlotSettings
  1

  2
none_device
  4
ANSI_A_(11.00_x_8.50_Inches)
  6

 40
6.35
 41
19.05
 42
6.35000508
 43
19.05000254
 44
279.4
 45
215.9
 46
107.0898543276008
 47
111.2957437660651
 48
0.0
 49
0.0
140
0.0
141
0.0
142
0.0863862919975999
143
1.0
 70
  1696
 72
     0
 73
     0
 74
     0
  7

 75
     0
147
0.0235690232323232
148
0.0
149
0.0
100
AcDbLayout
  1
Model
 70
     1
 71
     0
 10
0.0
 20
0.0
 11
420.0
 21
297.0
 12
0.0
 22
0.0
 32
0.0
 14
-55.14666638955492
 24
-49.97073246008785
 34
0.0
 15
84.45819232251279
 25
30.01367321460949
 35
0.0
146
0.0
 13
0.0
 23
0.0
 33
0.0
 16
1.0
 26
0.0
 36
0.0
 17
0.0
 27
1.0
 37
0.0
 76
     0
330
1F
331
29
  0
MLINESTYLE
  5
18
102
{ACAD_REACTORS
330
17
102
}
330
17
100
AcDbMlineStyle
  2
Standard
 70
     0
  3

 62
   256
 51
90.0
 52
90.0
 71
     2
 49
0.5
 62
   256
  6
BYLAYER
 49
-0.5
 62
   256
  6
BYLAYER
  0
ACDBPLACEHOLDER
  5
F
102
{ACAD_REACTORS
330
E
102
}
330
E
  0
SCALE
  5
48
102
{ACAD_REACTORS
330
47
102
}
330
47
100
AcDbScale
 70
     0
300
1:1
140
1.0
141
1.0
290
     1
  0
SCALE
  5
49
102
{ACAD_REACTORS
330
47
102
}
330
47
100
AcDbScale
 70
     0
300
1:2
140
1.0
141
2.0
290
     0
  0
SCALE
  5
4A
102
{ACAD_REACTORS
330
47
102
}
330
47
100
AcDbScale
 70
     0
300
1:4
140
1.0
141
4.0
290
     0
  0
SCALE
  5
4B
102
{ACAD_REACTORS
330
47
102
}
330
47
100
AcDbScale
 70
     0
300
1:5
140
1.0
141
5.0
290
     0
  0
SCALE
  5
4C
102
{ACAD_REACTORS
330
47
102
}
330
47
100
AcDbScale
 70
     0
300
1:8
140
1.0
141
8.0
290
     0
  0
SCALE
  5
4D
102
{ACAD_REACTORS
330
47
102
}
330
47
100
AcDbScale
 70
     0
300
1:10
140
1.0
141
10.0
290
     0
  0
SCALE
  5
4E
102
{ACAD_REACTORS
330
47
102
}
330
47
100
AcDbScale
 70
     0
300
1:16
140
1.0
141
16.0
290
     0
  0
SCALE
  5
4F
102
{ACAD_REACTORS
330
47
102
}
330
47
100
AcDbScale
 70
     0
300
1:20
140
1.0
141
20.0
290
     0
  0
SCALE
  5
50
102
{ACAD_REACTORS
330
47
102
}
330
47
100
AcDbScale
 70
     0
300
1:30
140
1.0
141
30.0
290
     0
  0
SCALE
  5
51
102
{ACAD_REACTORS
330
47
102
}
330
47
100
AcDbScale
 70
     0
300
1:40
140
1.0
141
40.0
290
     0
  0
SCALE
  5
52
102
{ACAD_REACTORS
330
47
102
}
330
47
100
AcDbScale
 70
     0
300
1:50
140
1.0
141
50.0
290
     0
  0
SCALE
  5
53
102
{ACAD_REACTORS
330
47
102
}
330
47
100
AcDbScale
 70
     0
300
1:100
140
1.0
141
100.0
290
     0
  0
SCALE
  5
54
102
{ACAD_REACTORS
330
47
102
}
330
47
100
AcDbScale
 70
     0
300
2:1
140
2.0
141
1.0
290
     0
  0
SCALE
  5
55
102
{ACAD_REACTORS
330
47
102
}
330
47
100
AcDbScale
 70
     0
300
4:1
140
4.0
141
1.0
290
     0
  0
SCALE
  5
56
102
{ACAD_REACTORS
330
47
102
}
330
47
100
AcDbScale
 70
     0
300
8:1
140
8.0
141
1.0
290
     0
  0
SCALE
  5
57
102
{ACAD_REACTORS
330
47
102
}
330
47
100
AcDbScale
 70
     0
300
10:1
140
10.0
141
1.0
290
     0
  0
SCALE
  5
58
102
{ACAD_REACTORS
330
47
102
}
330
47
100
AcDbScale
 70
     0
300
100:1
140
100.0
141
1.0
290
     0
  0
SCALE
  5
59
102
{ACAD_REACTORS
330
47
102
}
330
47
100
AcDbScale
 70
     0
300
1/128" = 1'-0"
140
0.0078125
141
12.0
290
     0
  0
SCALE
  5
5A
102
{ACAD_REACTORS
330
47
102
}
330
47
100
AcDbScale
 70
     0
300
1/64" = 1'-0"
140
0.015625
141
12.0
290
     0
  0
SCALE
  5
5B
102
{ACAD_REACTORS
330
47
102
}
330
47
100
AcDbScale
 70
     0
300
1/32" = 1'-0"
140
0.03125
141
12.0
290
     0
  0
SCALE
  5
5C
102
{ACAD_REACTORS
330
47
102
}
330
47
100
AcDbScale
 70
     0
300
1/16" = 1'-0"
140
0.0625
141
12.0
290
     0
  0
SCALE
  5
5D
102
{ACAD_REACTORS
330
47
102
}
330
47
100
AcDbScale
 70
     0
300
3/32" = 1'-0"
140
0.09375
141
12.0
290
     0
  0
SCALE
  5
5E
102
{ACAD_REACTORS
330
47
102
}
330
47
100
AcDbScale
 70
     0
300
1/8" = 1'-0"
140
0.125
141
12.0
290
     0
  0
SCALE
  5
5F
102
{ACAD_REACTORS
330
47
102
}
330
47
100
AcDbScale
 70
     0
300
3/16" = 1'-0"
140
0.1875
141
12.0
290
     0
  0
SCALE
  5
60
102
{ACAD_REACTORS
330
47
102
}
330
47
100
AcDbScale
 70
     0
300
1/4" = 1'-0"
140
0.25
141
12.0
290
     0
  0
SCALE
  5
61
102
{ACAD_REACTORS
330
47
102
}
330
47
100
AcDbScale
 70
     0
300
3/8" = 1'-0"
140
0.375
141
12.0
290
     0
  0
SCALE
  5
62
102
{ACAD_REACTORS
330
47
102
}
330
47
100
AcDbScale
 70
     0
300
1/2" = 1'-0"
140
0.5
141
12.0
290
     0
  0
SCALE
  5
63
102
{ACAD_REACTORS
330
47
102
}
330
47
100
AcDbScale
 70
     0
300
3/4" = 1'-0"
140
0.75
141
12.0
290
     0
  0
SCALE
  5
64
102
{ACAD_REACTORS
330
47
102
}
330
47
100
AcDbScale
 70
     0
300
1" = 1'-0"
140
1.0
141
12.0
290
     0
  0
SCALE
  5
65
102
{ACAD_REACTORS
330
47
102
}
330
47
100
AcDbScale
 70
     0
300
1-1/2" = 1'-0"
140
1.5
141
12.0
290
     0
  0
SCALE
  5
66
102
{ACAD_REACTORS
330
47
102
}
330
47
100
AcDbScale
 70
     0
300
3" = 1'-0"
140
3.0
141
12.0
290
     0
  0
SCALE
  5
67
102
{ACAD_REACTORS
330
47
102
}
330
47
100
AcDbScale
 70
     0
300
6" = 1'-0"
140
6.0
141
12.0
290
     0
  0
SCALE
  5
68
102
{ACAD_REACTORS
330
47
102
}
330
47
100
AcDbScale
 70
     0
300
1'-0" = 1'-0"
140
12.0
141
12.0
290
     0
  0
ENDSEC
  0
EOF
