  0
SECTION
  2
HEADER
  9
$ACADVER
  1
AC1015
  9
$ACADMAINTVER
 70
     6
  9
$DWGCODEPAGE
  3
ANSI_949
  9
$INSBASE
 10
0.0
 20
0.0
 30
0.0
  9
$EXTMIN
 10
-85.53287602174716
 20
-49.97073246008785
 30
0.0
  9
$EXTMAX
 10
65.49471180243707
 20
31.16341044024269
 30
0.0
  9
$LIMMIN
 10
0.0
 20
0.0
  9
$LIMMAX
 10
420.0
 20
297.0
  9
$ORTHOMODE
 70
     0
  9
$REGENMODE
 70
     1
  9
$FILLMODE
 70
     1
  9
$QTEXTMODE
 70
     0
  9
$MIRRTEXT
 70
     1
  9
$LTSCALE
 40
1.0
  9
$ATTMODE
 70
     1
  9
$TEXTSIZE
 40
3.5
  9
$TRACEWID
 40
1.0
  9
$TEXTSTYLE
  7
Standard
  9
$CLAYER
  8
0
  9
$CELTYPE
  6
ByLayer
  9
$CECOLOR
 62
   256
  9
$CELTSCALE
 40
1.0
  9
$DISPSILH
 70
     0
  9
$DIMSCALE
 40
1.0
  9
$DIMASZ
 40
3.302
  9
$DIMEXO
 40
1.0
  9
$DIMDLI
 40
3.75
  9
$DIMRND
 40
0.0
  9
$DIMDLE
 40
0.0
  9
$DIMEXE
 40
1.0
  9
$DIMTP
 40
0.0
  9
$DIMTM
 40
0.0
  9
$DIMTXT
 40
3.5
  9
$DIMCEN
 40
2.5
  9
$DIMTSZ
 40
0.0
  9
$DIMTOL
 70
     0
  9
$DIMLIM
 70
     0
  9
$DIMTIH
 70
     1
  9
$DIMTOH
 70
     1
  9
$DIMSE1
 70
     0
  9
$DIMSE2
 70
     0
  9
$DIMTAD
 70
     1
  9
$DIMZIN
 70
     0
  9
$DIMBLK
  1

  9
$DIMASO
 70
     1
  9
$DIMSHO
 70
     1
  9
$DIMPOST
  1

  9
$DIMAPOST
  1

  9
$DIMALT
 70
     0
  9
$DIMALTD
 70
     3
  9
$DIMALTF
 40
0.0393700787401575
  9
$DIMLFAC
 40
1.0
  9
$DIMTOFL
 70
     1
  9
$DIMTVP
 40
0.0
  9
$DIMTIX
 70
     0
  9
$DIMSOXD
 70
     0
  9
$DIMSAH
 70
     0
  9
$DIMBLK1
  1

  9
$DIMBLK2
  1

  9
$DIMSTYLE
  2
ISO-25
  9
$DIMCLRD
 70
     0
  9
$DIMCLRE
 70
     0
  9
$DIMCLRT
 70
     0
  9
$DIMTFAC
 40
1.0
  9
$DIMGAP
 40
1.524
  9
$DIMJUST
 70
     0
  9
$DIMSD1
 70
     0
  9
$DIMSD2
 70
     0
  9
$DIMTOLJ
 70
     0
  9
$DIMTZIN
 70
     0
  9
$DIMALTZ
 70
     0
  9
$DIMALTTZ
 70
     0
  9
$DIMUPT
 70
     0
  9
$DIMDEC
 70
     2
  9
$DIMTDEC
 70
     2
  9
$DIMALTU
 70
     2
  9
$DIMALTTD
 70
     3
  9
$DIMTXSTY
  7
Standard
  9
$DIMAUNIT
 70
     0
  9
$DIMADEC
 70
     2
  9
$DIMALTRND
 40
0.0
  9
$DIMAZIN
 70
     0
  9
$DIMDSEP
 70
    44
  9
$DIMATFIT
 70
     3
  9
$DIMFRAC
 70
     0
  9
$DIMLDRBLK
  1

  9
$DIMLUNIT
 70
     2
  9
$DIMLWD
 70
    -2
  9
$DIMLWE
 70
    -2
  9
$DIMTMOVE
 70
     0
  9
$LUNITS
 70
     2
  9
$LUPREC
 70
     2
  9
$SKETCHINC
 40
1.0
  9
$FILLETRAD
 40
10.0
  9
$AUNITS
 70
     0
  9
$AUPREC
 70
     2
  9
$MENU
  1
.
  9
$ELEVATION
 40
0.0
  9
$PELEVATION
 40
0.0
  9
$THICKNESS
 40
0.0
  9
$LIMCHECK
 70
     0
  9
$CHAMFERA
 40
0.0
  9
$CHAMFERB
 40
0.0
  9
$CHAMFERC
 40
0.0
  9
$CHAMFERD
 40
0.0
  9
$SKPOLY
 70
     0
  9
$TDCREATE
 40
2458262.547361759
  9
$TDUCREATE
 40
2458262.172361759
  9
$TDUPDATE
 40
2458266.679037141
  9
$TDUUPDATE
 40
2458266.304037141
  9
$TDINDWG
 40
0.0012668056
  9
$TDUSRTIMER
 40
2458266.30277037
  9
$USRTIMER
 70
     1
  9
$ANGBASE
 50
0.0
  9
$ANGDIR
 70
     0
  9
$PDMODE
 70
     0
  9
$PDSIZE
 40
-1.0
  9
$PLINEWID
 40
0.0
  9
$SPLFRAME
 70
     0
  9
$SPLINETYPE
 70
     6
  9
$SPLINESEGS
 70
     8
  9
$HANDSEED
  5
13D
  9
$SURFTAB1
 70
     6
  9
$SURFTAB2
 70
     6
  9
$SURFTYPE
 70
     6
  9
$SURFU
 70
     6
  9
$SURFV
 70
     6
  9
$UCSBASE
  2

  9
$UCSNAME
  2

  9
$UCSORG
 10
0.0
 20
0.0
 30
0.0
  9
$UCSXDIR
 10
1.0
 20
0.0
 30
0.0
  9
$UCSYDIR
 10
0.0
 20
1.0
 30
0.0
  9
$UCSORTHOREF
  2

  9
$UCSORTHOVIEW
 70
     0
  9
$UCSORGTOP
 10
0.0
 20
0.0
 30
0.0
  9
$UCSORGBOTTOM
 10
0.0
 20
0.0
 30
0.0
  9
$UCSORGLEFT
 10
0.0
 20
0.0
 30
0.0
  9
$UCSORGRIGHT
 10
0.0
 20
0.0
 30
0.0
  9
$UCSORGFRONT
 10
0.0
 20
0.0
 30
0.0
  9
$UCSORGBACK
 10
0.0
 20
0.0
 30
0.0
  9
$PUCSBASE
  2

  9
$PUCSNAME
  2

  9
$PUCSORG
 10
0.0
 20
0.0
 30
0.0
  9
$PUCSXDIR
 10
1.0
 20
0.0
 30
0.0
  9
$PUCSYDIR
 10
0.0
 20
1.0
 30
0.0
  9
$PUCSORTHOREF
  2

  9
$PUCSORTHOVIEW
 70
     0
  9
$PUCSORGTOP
 10
0.0
 20
0.0
 30
0.0
  9
$PUCSORGBOTTOM
 10
0.0
 20
0.0
 30
0.0
  9
$PUCSORGLEFT
 10
0.0
 20
0.0
 30
0.0
  9
$PUCSORGRIGHT
 10
0.0
 20
0.0
 30
0.0
  9
$PUCSORGFRONT
 10
0.0
 20
0.0
 30
0.0
  9
$PUCSORGBACK
 10
0.0
 20
0.0
 30
0.0
  9
$USERI1
 70
     0
  9
$USERI2
 70
     0
  9
$USERI3
 70
     0
  9
$USERI4
 70
     0
  9
$USERI5
 70
     0
  9
$USERR1
 40
0.0
  9
$USERR2
 40
0.0
  9
$USERR3
 40
0.0
  9
$USERR4
 40
0.0
  9
$USERR5
 40
0.0
  9
$WORLDVIEW
 70
     1
  9
$SHADEDGE
 70
     3
  9
$SHADEDIF
 70
    70
  9
$TILEMODE
 70
     1
  9
$MAXACTVP
 70
    64
  9
$PINSBASE
 10
0.0
 20
0.0
 30
0.0
  9
$PLIMCHECK
 70
     0
  9
$PEXTMIN
 10
1.000000000000000E+20
 20
1.000000000000000E+20
 30
1.000000000000000E+20
  9
$PEXTMAX
 10
-1.000000000000000E+20
 20
-1.000000000000000E+20
 30
-1.000000000000000E+20
  9
$PLIMMIN
 10
0.0
 20
0.0
  9
$PLIMMAX
 10
0.0
 20
0.0
  9
$UNITMODE
 70
     0
  9
$VISRETAIN
 70
     1
  9
$PLINEGEN
 70
     0
  9
$PSLTSCALE
 70
     1
  9
$TREEDEPTH
 70
  3020
  9
$CMLSTYLE
  2
Standard
  9
$CMLJUST
 70
     0
  9
$CMLSCALE
 40
20.0
  9
$PROXYGRAPHICS
 70
     1
  9
$MEASUREMENT
 70
     1
  9
$CELWEIGHT
370
    -1
  9
$ENDCAPS
280
     0
  9
$JOINSTYLE
280
     0
  9
$LWDISPLAY
290
     1
  9
$INSUNITS
 70
     4
  9
$HYPERLINKBASE
  1

  9
$STYLESHEET
  1

  9
$XEDIT
290
     1
  9
$CEPSNTYPE
380
     0
  9
$PSTYLEMODE
290
     1
  9
$FINGERPRINTGUID
  2
{5114F94F-91CA-4D3B-B47E-4CBFD63420DC}
  9
$VERSIONGUID
  2
{FAEB1C32-E019-11D5-929B-00C0DF256EC4}
  9
$EXTNAMES
290
     1
  9
$PSVPSCALE
 40
0.0
  9
$OLESTARTUP
290
     0
  0
ENDSEC
  0
SECTION
  2
CLASSES
  0
CLASS
  1
ACDBDICTIONARYWDFLT
  2
AcDbDictionaryWithDefault
  3
ObjectDBX Classes
 90
        0
280
     0
281
     0
  0
CLASS
  1
VISUALSTYLE
  2
AcDbVisualStyle
  3
ObjectDBX Classes
 90
     4095
280
     0
281
     0
  0
CLASS
  1
MATERIAL
  2
AcDbMaterial
  3
ObjectDBX Classes
 90
     1153
280
     0
281
     0
  0
CLASS
  1
SCALE
  2
AcDbScale
  3
ObjectDBX Classes
 90
     1153
280
     0
281
     0
  0
CLASS
  1
SUN
  2
AcDbSun
  3
SCENEOE
 90
     1153
280
     0
281
     0
  0
CLASS
  1
ACDBPLACEHOLDER
  2
AcDbPlaceHolder
  3
ObjectDBX Classes
 90
        0
280
     0
281
     0
  0
CLASS
  1
LAYOUT
  2
AcDbLayout
  3
ObjectDBX Classes
 90
        0
280
     0
281
     0
  0
CLASS
  1
TABLESTYLE
  2
AcDbTableStyle
  3
ObjectDBX Classes
 90
     4095
280
     0
281
     0
  0
CLASS
  1
MLEADERSTYLE
  2
AcDbMLeaderStyle
  3
ACDB_MLEADERSTYLE_CLASS
 90
     4095
280
     0
281
     0
  0
CLASS
  1
RASTERVARIABLES
  2
AcDbRasterVariables
  3
ISM
 90
        0
280
     0
281
     0
  0
ENDSEC
  0
SECTION
  2
TABLES
  0
TABLE
  2
VPORT
  5
8
330
0
100
AcDbSymbolTable
 70
     1
  0
VPORT
  5
29
330
8
100
AcDbSymbolTableRecord
100
AcDbViewportTableRecord
  2
*Active
 70
     0
 10
0.0
 20
0.0
 11
1.0
 21
1.0
 12
-10.01908210965505
 22
-9.40366100992258
 13
0.0
 23
0.0
 14
10.0
 24
10.0
 15
10.0
 25
10.0
 16
0.0
 26
0.0
 36
1.0
 17
0.0
 27
0.0
 37
0.0
 40
133.6695740307589
 41
1.152454780361757
 42
50.0
 43
0.0
 44
0.0
 50
0.0
 51
0.0
 71
    16
 72
  2000
 73
     1
 74
     3
 75
     0
 76
     0
 77
     0
 78
     0
281
     0
 65
     1
110
0.0
120
0.0
130
0.0
111
1.0
121
0.0
131
0.0
112
0.0
122
1.0
132
0.0
 79
     0
146
0.0
  0
ENDTAB
  0
TABLE
  2
LTYPE
  5
5
330
0
100
AcDbSymbolTable
 70
     6
  0
LTYPE
  5
14
330
5
100
AcDbSymbolTableRecord
100
AcDbLinetypeTableRecord
  2
ByBlock
 70
     0
  3

 72
    65
 73
     0
 40
0.0
  0
LTYPE
  5
15
330
5
100
AcDbSymbolTableRecord
100
AcDbLinetypeTableRecord
  2
ByLayer
 70
     0
  3

 72
    65
 73
     0
 40
0.0
  0
LTYPE
  5
16
330
5
100
AcDbSymbolTableRecord
100
AcDbLinetypeTableRecord
  2
Continuous
 70
     0
  3
Solid line
 72
    65
 73
     0
 40
0.0
  0
LTYPE
  5
6A
330
5
100
AcDbSymbolTableRecord
100
AcDbLinetypeTableRecord
  2
HIDDEN
 70
     0
  3
Hidden __ __ __ __ __ __ __ __ __ __ __ __ __ __
 72
    65
 73
     2
 40
1.905
 49
1.27
 74
     0
 49
-0.635
 74
     0
  0
LTYPE
  5
6B
330
5
100
AcDbSymbolTableRecord
100
AcDbLinetypeTableRecord
  2
PHANTOM
 70
     0
  3
Phantom ______  __  __  ______  __  __  ______
 72
    65
 73
     6
 40
12.7
 49
6.35
 74
     0
 49
-1.27
 74
     0
 49
1.27
 74
     0
 49
-1.27
 74
     0
 49
1.27
 74
     0
 49
-1.27
 74
     0
  0
LTYPE
  5
6C
330
5
100
AcDbSymbolTableRecord
100
AcDbLinetypeTableRecord
  2
CENTER
 70
     0
  3
Center ____ _ ____ _ ____ _ ____ _ ____ _ ____
 72
    65
 73
     4
 40
10.16
 49
6.35
 74
     0
 49
-1.27
 74
     0
 49
1.27
 74
     0
 49
-1.27
 74
     0
  0
LTYPE
  5
6D
330
5
100
AcDbSymbolTableRecord
100
AcDbLinetypeTableRecord
  2
CENTERX2
 70
     0
  3
Center (2x) ________  __  ________  __  _____
 72
    65
 73
     4
 40
20.32
 49
12.7
 74
     0
 49
-2.54
 74
     0
 49
2.54
 74
     0
 49
-2.54
 74
     0
  0
LTYPE
  5
6E
330
5
100
AcDbSymbolTableRecord
100
AcDbLinetypeTableRecord
  2
DOT2
 70
     0
  3
Dot (.5x) ........................................
 72
    65
 73
     2
 40
0.635
 49
0.0
 74
     0
 49
-0.635
 74
     0
  0
ENDTAB
  0
TABLE
  2
LAYER
  5
2
330
0
100
AcDbSymbolTable
 70
    17
  0
LAYER
  5
10
330
2
100
AcDbSymbolTableRecord
100
AcDbLayerTableRecord
  2
0
 70
     0
 62
     7
  6
Continuous
370
    -3
390
F
  0
LAYER
  5
6F
330
2
100
AcDbSymbolTableRecord
100
AcDbLayerTableRecord
  2
FORMAT
 70
     0
 62
     2
  6
Continuous
370
    -3
390
F
  0
LAYER
  5
70
330
2
100
AcDbSymbolTableRecord
100
AcDbLayerTableRecord
  2
외형선
 70
     0
 62
   100
  6
Continuous
370
    30
390
F
  0
LAYER
  5
71
330
2
100
AcDbSymbolTableRecord
100
AcDbLayerTableRecord
  2
숨은선
 70
     0
 62
     2
  6
HIDDEN
370
    15
390
F
  0
LAYER
  5
72
330
2
100
AcDbSymbolTableRecord
100
AcDbLayerTableRecord
  2
중심선
 70
     0
 62
     1
  6
CENTERX2
370
    -3
390
F
  0
LAYER
  5
73
330
2
100
AcDbSymbolTableRecord
100
AcDbLayerTableRecord
  2
파단선
 70
     0
 62
     4
  6
Continuous
370
    -3
390
F
  0
LAYER
  5
74
330
2
100
AcDbSymbolTableRecord
100
AcDbLayerTableRecord
  2
해칭선
 70
     0
 62
     4
  6
Continuous
370
    -3
390
F
  0
LAYER
  5
75
330
2
100
AcDbSymbolTableRecord
100
AcDbLayerTableRecord
  2
가는실선
 70
     0
 62
     4
  6
Continuous
370
    -3
390
F
  0
LAYER
  5
76
330
2
100
AcDbSymbolTableRecord
100
AcDbLayerTableRecord
  2
치수_보조선
 70
     0
 62
     4
  6
Continuous
370
    -3
390
F
  0
LAYER
  5
77
330
2
100
AcDbSymbolTableRecord
100
AcDbLayerTableRecord
  2
치수문자_일반주서
 70
     0
 62
     7
  6
Continuous
370
    15
390
F
  0
LAYER
  5
78
330
2
100
AcDbSymbolTableRecord
100
AcDbLayerTableRecord
  2
개별주서
 70
     0
 62
   100
  6
Continuous
370
    30
390
F
  0
LAYER
  5
79
330
2
100
AcDbSymbolTableRecord
100
AcDbLayerTableRecord
  2
중간선
 70
     0
 62
     2
  6
Continuous
370
    15
390
F
  0
LAYER
  5
7A
330
2
100
AcDbSymbolTableRecord
100
AcDbLayerTableRecord
  2
윤곽선
 70
     0
 62
     3
  6
Continuous
370
    40
390
F
  0
LAYER
  5
7B
330
2
100
AcDbSymbolTableRecord
100
AcDbLayerTableRecord
  2
중심마크
 70
     0
 62
   100
  6
Continuous
370
    30
390
F
  0
LAYER
  5
7C
330
2
100
AcDbSymbolTableRecord
100
AcDbLayerTableRecord
  2
가상선
 70
     0
 62
     4
  6
PHANTOM
370
    -3
390
F
  0
LAYER
  5
7D
330
2
100
AcDbSymbolTableRecord
100
AcDbLayerTableRecord
  2
특수지정선
 70
     0
 62
     5
  6
CENTERX2
370
    60
390
F
  0
LAYER
  5
12F
330
2
100
AcDbSymbolTableRecord
100
AcDbLayerTableRecord
  2
Defpoints
 70
     0
 62
     7
  6
Continuous
290
     0
370
    -3
390
F
  0
ENDTAB
  0
TABLE
  2
STYLE
  5
3
330
0
100
AcDbSymbolTable
 70
     2
  0
STYLE
  5
11
330
3
100
AcDbSymbolTableRecord
100
AcDbTextStyleTableRecord
  2
Standard
 70
     0
 40
0.0
 41
1.0
 50
0.0
 71
     0
 42
3.5
  3
txt
  4

  0
STYLE
  5
93
330
3
100
AcDbSymbolTableRecord
100
AcDbTextStyleTableRecord
  2
SLDTEXTSTYLE0
 70
     0
 40
0.0
 41
0.75
 50
0.0
 71
     0
 42
3.5
  3
TXT
  4

  0
ENDTAB
  0
TABLE
  2
VIEW
  5
6
330
0
100
AcDbSymbolTable
 70
     0
  0
ENDTAB
  0
TABLE
  2
UCS
  5
7
330
0
100
AcDbSymbolTable
 70
     0
  0
ENDTAB
  0
TABLE
  2
APPID
  5
9
330
0
100
AcDbSymbolTable
 70
     1
  0
APPID
  5
12
330
9
100
AcDbSymbolTableRecord
100
AcDbRegAppTableRecord
  2
ACAD
 70
     0
  0
ENDTAB
  0
TABLE
  2
DIMSTYLE
  5
A
330
0
100
AcDbSymbolTable
 70
     3
100
AcDbDimStyleTable
  0
DIMSTYLE
105
27
330
A
100
AcDbSymbolTableRecord
100
AcDbDimStyleTableRecord
  2
ISO-25
 70
     0
 41
2.5
 42
0.625
 43
3.75
 44
1.25
 73
     0
 74
     0
 77
     1
 78
     8
140
2.5
141
2.5
143
0.03937007874016
147
0.625
171
     3
172
     1
178
     0
271
     2
272
     2
274
     3
278
    44
283
     0
284
     8
340
11
  0
DIMSTYLE
105
D5
102
{ACAD_REACTORS
330
D4
330
F7
102
}
330
A
100
AcDbSymbolTableRecord
100
AcDbDimStyleTableRecord
  2
SLDDIMSTYLE0
 70
     0
 41
3.302
 44
0.0
 45
0.000000001
 73
     0
 74
     0
 77
     1
 78
    12
 79
     3
140
3.5
147
0.875
172
     1
173
     1
178
     0
271
     2
272
     2
276
     2
284
    12
289
     0
340
93
  0
DIMSTYLE
105
E3
102
{ACAD_REACTORS
330
E2
330
ED
102
}
330
A
100
AcDbSymbolTableRecord
100
AcDbDimStyleTableRecord
  2
SLDDIMSTYLE1
 70
     0
 41
3.302
 44
0.0
 45
0.000000001
 73
     0
 74
     0
 77
     1
 78
    12
 79
     3
140
3.5
147
0.875
173
     1
178
     0
271
     2
272
     2
276
     2
284
    12
340
93
  0
ENDTAB
  0
TABLE
  2
BLOCK_RECORD
  5
1
330
0
100
AcDbSymbolTable
 70
     7
  0
BLOCK_RECORD
  5
1F
330
1
100
AcDbSymbolTableRecord
100
AcDbBlockTableRecord
  2
*Model_Space
340
22
  0
BLOCK_RECORD
  5
1B
330
1
100
AcDbSymbolTableRecord
100
AcDbBlockTableRecord
  2
*Paper_Space
340
1E
  0
BLOCK_RECORD
  5
23
330
1
100
AcDbSymbolTableRecord
100
AcDbBlockTableRecord
  2
*Paper_Space0
340
26
  0
BLOCK_RECORD
  5
7E
330
1
100
AcDbSymbolTableRecord
100
AcDbBlockTableRecord
  2
블럭10
340
0
102
{BLKREFS
331
CD
102
}
  0
BLOCK_RECORD
  5
D6
330
1
100
AcDbSymbolTableRecord
100
AcDbBlockTableRecord
  2
_D
340
0
  0
BLOCK_RECORD
  5
E4
330
1
100
AcDbSymbolTableRecord
100
AcDbBlockTableRecord
  2
_D_1
340
0
  0
BLOCK_RECORD
  5
EE
330
1
100
AcDbSymbolTableRecord
100
AcDbBlockTableRecord
  2
_D_2
340
0
  0
BLOCK_RECORD
  5
F8
330
1
100
AcDbSymbolTableRecord
100
AcDbBlockTableRecord
  2
_D_3
340
0
  0
BLOCK_RECORD
  5
104
330
1
100
AcDbSymbolTableRecord
100
AcDbBlockTableRecord
  2
SW_DOWELSYMBOL_0
340
0
102
{BLKREFS
331
10A
102
}
  0
ENDTAB
  0
ENDSEC
  0
SECTION
  2
BLOCKS
  0
BLOCK
  5
20
330
1F
100
AcDbEntity
  8
0
100
AcDbBlockBegin
  2
*Model_Space
 70
     0
 10
0.0
 20
0.0
 30
0.0
  3
*Model_Space
  1

  0
ENDBLK
  5
21
330
1F
100
AcDbEntity
  8
0
100
AcDbBlockEnd
  0
BLOCK
  5
1C
330
1B
100
AcDbEntity
 67
     1
  8
0
100
AcDbBlockBegin
  2
*Paper_Space
 70
     0
 10
0.0
 20
0.0
 30
0.0
  3
*Paper_Space
  1

  0
ENDBLK
  5
1D
330
1B
100
AcDbEntity
 67
     1
  8
0
100
AcDbBlockEnd
  0
BLOCK
  5
24
330
23
100
AcDbEntity
  8
0
100
AcDbBlockBegin
  2
*Paper_Space0
 70
     0
 10
0.0
 20
0.0
 30
0.0
  3
*Paper_Space0
  1

  0
ENDBLK
  5
25
330
23
100
AcDbEntity
  8
0
100
AcDbBlockEnd
  0
BLOCK
  5
7F
330
7E
100
AcDbEntity
  8
0
100
AcDbBlockBegin
  2
블럭10
 70
     2
 10
0.0
 20
0.0
 30
0.0
  3
블럭10
  1

  0
ELLIPSE
  5
81
330
7E
100
AcDbEntity
  8
중심선
100
AcDbEllipse
 10
20.54032771741204
 20
12.0471743016438
 30
0.0
 11
6.600054785286829
 21
-1.261213355974178E-13
 31
0.0
210
0.0
220
0.0
230
1.0
 40
0.636358354079598
 41
0.9219305317359503
 42
6.513795318482858
  0
ELLIPSE
  5
82
330
7E
100
AcDbEntity
  8
중심선
100
AcDbEllipse
 10
20.54032771746488
 20
12.04717430159265
 30
0.0
 11
3.960054785062283
 21
1.540847449632565E-10
 31
0.0
210
0.0
220
0.0
230
1.0
 40
0.3939339440162632
 41
1.131841032648279
 42
5.62031148352944
  0
LINE
  5
83
330
7E
100
AcDbEntity
  8
중심선
100
AcDbLine
 10
2.268634060543552
 20
16.24717430164393
 30
0.0
 11
5.714909304380834
 21
16.24717430164393
 31
0.0
  0
LINE
  5
84
330
7E
100
AcDbEntity
  8
중심선
100
AcDbLine
 10
5.245725140726316
 20
7.84717430164391
 30
0.0
 11
8.692000384563599
 21
7.84717430164391
 31
0.0
  0
LINE
  5
85
330
7E
100
AcDbEntity
  8
중심선
100
AcDbLine
 10
15.74043728645272
 20
16.24717430164393
 30
0.0
 11
8.692000384563599
 21
7.84717430164391
 31
0.0
  0
LINE
  5
86
330
7E
100
AcDbEntity
  8
중심선
100
AcDbLine
 10
0.1404042013395286
 20
13.71084872107135
 30
0.0
 11
3.58671253028996
 21
13.71088815037384
 31
0.0
  0
LINE
  5
87
330
7E
100
AcDbEntity
  8
중심선
100
AcDbLine
 10
2.750260043222114
 20
10.84717430164391
 30
0.0
 11
6.196535287059397
 21
10.84717430164391
 31
0.0
  0
LINE
  5
88
330
7E
100
AcDbEntity
  8
중심선
100
AcDbLine
 10
12.29416204261559
 20
16.24717430164393
 30
0.0
 11
5.245725140726316
 21
7.84717430164391
 31
0.0
  0
LINE
  5
89
330
7E
100
AcDbEntity
  8
중심선
100
AcDbLine
 10
10.72767329541681
 20
16.24717430164393
 30
0.0
 11
6.196535287059397
 21
10.84717430164391
 31
0.0
  0
LINE
  5
8A
330
7E
100
AcDbEntity
  8
중심선
100
AcDbLine
 10
7.28139805157953
 20
16.24717430164393
 30
0.0
 11
2.750260043222114
 21
10.84717430164391
 31
0.0
  0
LINE
  5
8B
330
7E
100
AcDbEntity
  8
중심선
100
AcDbLine
 10
5.714909304380834
 20
16.24717430164393
 30
0.0
 11
3.58671253028996
 21
13.71088815037384
 31
0.0
  0
LINE
  5
8C
330
7E
100
AcDbEntity
  8
중심선
100
AcDbLine
 10
2.268634060543552
 20
16.24717430164393
 30
0.0
 11
0.1404042013395286
 21
13.71084872107135
 31
0.0
  0
LINE
  5
8D
330
7E
100
AcDbEntity
  8
중심선
100
AcDbLine
 10
7.28139805157953
 20
16.24717430164393
 30
0.0
 11
10.72767329541681
 21
16.24717430164393
 31
0.0
  0
LINE
  5
8E
330
7E
100
AcDbEntity
  8
중심선
100
AcDbLine
 10
12.29416204261559
 20
16.24717430164393
 30
0.0
 11
15.74043728645272
 21
16.24717430164393
 31
0.0
  0
LINE
  5
8F
330
7E
100
AcDbEntity
  8
중심선
100
AcDbLine
 10
19.22036997980202
 20
11.08717430171403
 30
0.0
 11
23.66174974927406
 21
11.08717430171406
 31
0.0
  0
LINE
  5
90
330
7E
100
AcDbEntity
  8
중심선
100
AcDbLine
 10
19.22039502424796
 20
13.00717430171391
 30
0.0
 11
19.22036997980202
 21
11.08717430171403
 31
0.0
  0
LINE
  5
91
330
7E
100
AcDbEntity
  8
중심선
100
AcDbLine
 10
19.22039502424796
 20
13.00717430171391
 30
0.0
 11
26.96566020931264
 21
13.00717430171391
 31
0.0
  0
LINE
  5
92
330
7E
100
AcDbEntity
  8
중심선
100
AcDbLine
 10
22.22332737316547
 20
13.45928029700563
 30
0.0
 11
24.52862924686651
 21
15.39360700705356
 31
0.0
  0
ATTDEF
  5
94
330
7E
100
AcDbEntity
  8
FORMAT
 62
     2
100
AcDbText
 10
-20.85824753159254
 20
2.075366912832191
 30
0.0
 40
4.233333333333333
  1
SEME7012040120E [ 2 FLUTE ]
 41
0.75
  7
SLDTEXTSTYLE0
 11
-20.85824753159254
 21
-0.0412997538344756
 31
0.0
100
AcDbAttributeDefinition
  3

  2
AUTOATTR0
 70
     0
 74
     1
  0
ENDBLK
  5
80
330
7E
100
AcDbEntity
  8
0
100
AcDbBlockEnd
  0
BLOCK
  5
D7
330
D6
100
AcDbEntity
  8
0
100
AcDbBlockBegin
  2
_D
 70
     0
 10
0.0
 20
0.0
 30
0.0
  3
_D
  1

  0
LINE
  5
D9
330
D6
100
AcDbEntity
  8
치수문자_일반주서
 62
     0
370
    -2
100
AcDbLine
 10
50.06250000000001
 20
-5.999999999999845
 30
0.0
 11
64.94437846910373
 21
-5.99999999999979
 31
0.0
  0
LINE
  5
DA
330
D6
100
AcDbEntity
  8
치수문자_일반주서
 62
     0
370
    -2
100
AcDbLine
 10
50.06250000000001
 20
6.000000000000151
 30
0.0
 11
64.94437846910368
 21
6.000000000000204
 31
0.0
  0
LINE
  5
DB
330
D6
100
AcDbEntity
  8
치수문자_일반주서
 62
     0
370
    -2
100
AcDbLine
 10
64.94437846910373
 20
-5.99999999999979
 30
0.0
 11
64.94437846910363
 21
20.47900000000021
 31
0.0
  0
LINE
  5
DC
330
D6
100
AcDbEntity
  8
치수문자_일반주서
 62
     0
370
    -2
100
AcDbLine
 10
64.94437846910373
 20
-5.99999999999979
 30
0.0
 11
64.94437846910368
 21
6.000000000000204
 31
0.0
  0
LINE
  5
DD
330
D6
100
AcDbEntity
  8
치수문자_일반주서
 62
     0
370
    -2
100
AcDbLine
 10
64.94437846910374
 20
-9.30199999999979
 30
0.0
 11
64.94437846910375
 21
-12.60399999999979
 31
0.0
  0
LINE
  5
DE
330
D6
100
AcDbEntity
  8
치수문자_일반주서
 62
     0
370
    -2
100
AcDbLine
 10
64.94437846910367
 20
9.302000000000204
 30
0.0
 11
64.94437846910365
 21
12.6040000000002
 31
0.0
  0
SOLID
  5
DF
330
D6
100
AcDbEntity
  8
치수문자_일반주서
 62
     0
100
AcDbTrace
 10
65.49471180243707
 20
-9.301999999999788
 30
0.0
 11
64.39404513577041
 21
-9.301999999999792
 31
0.0
 12
64.94437846910373
 22
-5.99999999999979
 32
0.0
 13
64.94437846910373
 23
-5.99999999999979
 33
0.0
  0
SOLID
  5
E0
330
D6
100
AcDbEntity
  8
치수문자_일반주서
 62
     0
100
AcDbTrace
 10
64.39404513577034
 20
9.302000000000202
 30
0.0
 11
65.494711802437
 21
9.302000000000206
 31
0.0
 12
64.94437846910368
 22
6.000000000000204
 32
0.0
 13
64.94437846910368
 23
6.000000000000204
 33
0.0
  0
MTEXT
  5
E1
330
D6
100
AcDbEntity
  8
치수문자_일반주서
 62
     0
100
AcDbMText
 10
60.56937846910364
 20
16.54150000000019
 30
0.0
 40
3.5
 41
0.0
 71
     2
 72
     1
  1
\A1;%%c12
  7
SLDTEXTSTYLE0
 11
-3.552713678800502E-15
 21
1.0
 31
0.0
 73
     1
 44
1.0
  0
POINT
  5
139
330
D6
100
AcDbEntity
  8
Defpoints
 62
     0
100
AcDbPoint
 10
50.00000000000001
 20
-5.999999999999845
 30
0.0
  0
POINT
  5
13A
330
D6
100
AcDbEntity
  8
Defpoints
 62
     0
100
AcDbPoint
 10
50.00000000000001
 20
6.000000000000151
 30
0.0
  0
POINT
  5
13B
330
D6
100
AcDbEntity
  8
Defpoints
 62
     0
100
AcDbPoint
 10
64.94437846910368
 20
6.000000000000207
 30
0.0
  0
ENDBLK
  5
D8
330
D6
100
AcDbEntity
  8
0
100
AcDbBlockEnd
  0
BLOCK
  5
E5
330
E4
100
AcDbEntity
  8
0
100
AcDbBlockBegin
  2
_D_1
 70
     0
 10
0.0
 20
0.0
 30
0.0
  3
_D_1
  1

  0
LINE
  5
E7
330
E4
100
AcDbEntity
  8
치수문자_일반주서
 62
     0
370
    -2
100
AcDbLine
 10
-69.99999999999999
 20
5.062499999999994
 30
0.0
 11
-70.0
 21
26.78841044024269
 31
0.0
  0
LINE
  5
E8
330
E4
100
AcDbEntity
  8
치수문자_일반주서
 62
     0
370
    -2
100
AcDbLine
 10
50.00000000000001
 20
6.062500000000151
 30
0.0
 11
49.99999999999999
 21
26.78841044024269
 31
0.0
  0
LINE
  5
E9
330
E4
100
AcDbEntity
  8
치수문자_일반주서
 62
     0
370
    -2
100
AcDbLine
 10
-66.69800000000001
 20
26.78841044024269
 30
0.0
 11
46.69799999999999
 21
26.78841044024269
 31
0.0
  0
SOLID
  5
EA
330
E4
100
AcDbEntity
  8
치수문자_일반주서
 62
     0
100
AcDbTrace
 10
-66.69800000000001
 20
27.33874377357603
 30
0.0
 11
-66.69800000000001
 21
26.23807710690936
 31
0.0
 12
-70.0
 22
26.78841044024269
 32
0.0
 13
-70.0
 23
26.78841044024269
 33
0.0
  0
SOLID
  5
EB
330
E4
100
AcDbEntity
  8
치수문자_일반주서
 62
     0
100
AcDbTrace
 10
46.69799999999999
 20
26.23807710690936
 30
0.0
 11
46.69799999999999
 21
27.33874377357603
 31
0.0
 12
49.99999999999999
 22
26.78841044024269
 32
0.0
 13
49.99999999999999
 23
26.78841044024269
 33
0.0
  0
MTEXT
  5
EC
330
E4
100
AcDbEntity
  8
치수문자_일반주서
 62
     0
100
AcDbMText
 10
-9.999999999999988
 20
31.16341044024269
 30
0.0
 40
3.5
 41
0.0
 71
     2
 72
     1
  1
\A1;120
  7
SLDTEXTSTYLE0
 73
     1
 44
1.0
  0
POINT
  5
130
330
E4
100
AcDbEntity
  8
Defpoints
 62
     0
100
AcDbPoint
 10
-69.99999999999999
 20
4.999999999999994
 30
0.0
  0
POINT
  5
131
330
E4
100
AcDbEntity
  8
Defpoints
 62
     0
100
AcDbPoint
 10
50.00000000000001
 20
6.000000000000151
 30
0.0
  0
POINT
  5
132
330
E4
100
AcDbEntity
  8
Defpoints
 62
     0
100
AcDbPoint
 10
50.00000000000001
 20
26.78841044024269
 30
0.0
  0
ENDBLK
  5
E6
330
E4
100
AcDbEntity
  8
0
100
AcDbBlockEnd
  0
BLOCK
  5
EF
330
EE
100
AcDbEntity
  8
0
100
AcDbBlockBegin
  2
_D_2
 70
     0
 10
0.0
 20
0.0
 30
0.0
  3
_D_2
  1

  0
LINE
  5
F1
330
EE
100
AcDbEntity
  8
치수문자_일반주서
 62
     0
370
    -2
100
AcDbLine
 10
9.999999999999996
 20
4.458476501931491
 30
0.0
 11
9.999999999999993
 21
17.32476524993956
 31
0.0
  0
LINE
  5
F2
330
EE
100
AcDbEntity
  8
치수문자_일반주서
 62
     0
370
    -2
100
AcDbLine
 10
50.00000000000001
 20
6.062500000000151
 30
0.0
 11
50.0
 21
17.32476524993956
 31
0.0
  0
LINE
  5
F3
330
EE
100
AcDbEntity
  8
치수문자_일반주서
 62
     0
370
    -2
100
AcDbLine
 10
13.30199999999999
 20
17.32476524993956
 30
0.0
 11
46.698
 21
17.32476524993956
 31
0.0
  0
SOLID
  5
F4
330
EE
100
AcDbEntity
  8
치수문자_일반주서
 62
     0
100
AcDbTrace
 10
13.30199999999999
 20
17.87509858327289
 30
0.0
 11
13.30199999999999
 21
16.77443191660623
 31
0.0
 12
9.999999999999993
 22
17.32476524993956
 32
0.0
 13
9.999999999999993
 23
17.32476524993956
 33
0.0
  0
SOLID
  5
F5
330
EE
100
AcDbEntity
  8
치수문자_일반주서
 62
     0
100
AcDbTrace
 10
46.698
 20
16.77443191660623
 30
0.0
 11
46.698
 21
17.87509858327289
 31
0.0
 12
50.0
 22
17.32476524993956
 32
0.0
 13
50.0
 23
17.32476524993956
 33
0.0
  0
MTEXT
  5
F6
330
EE
100
AcDbEntity
  8
치수문자_일반주서
 62
     0
100
AcDbMText
 10
30.00000000000001
 20
21.69976524993956
 30
0.0
 40
3.5
 41
0.0
 71
     2
 72
     1
  1
\A1;40
  7
SLDTEXTSTYLE0
 73
     1
 44
1.0
  0
POINT
  5
133
330
EE
100
AcDbEntity
  8
Defpoints
 62
     0
100
AcDbPoint
 10
9.999999999999996
 20
4.395976501931491
 30
0.0
  0
POINT
  5
134
330
EE
100
AcDbEntity
  8
Defpoints
 62
     0
100
AcDbPoint
 10
50.00000000000001
 20
6.000000000000151
 30
0.0
  0
POINT
  5
135
330
EE
100
AcDbEntity
  8
Defpoints
 62
     0
100
AcDbPoint
 10
50.00000000000001
 20
17.32476524993956
 30
0.0
  0
ENDBLK
  5
F0
330
EE
100
AcDbEntity
  8
0
100
AcDbBlockEnd
  0
BLOCK
  5
F9
330
F8
100
AcDbEntity
  8
0
100
AcDbBlockBegin
  2
_D_3
 70
     0
 10
0.0
 20
0.0
 30
0.0
  3
_D_3
  1

  0
LINE
  5
FB
330
F8
100
AcDbEntity
  8
치수문자_일반주서
 62
     0
370
    -2
100
AcDbLine
 10
-69.06249999999999
 20
5.999999999999995
 30
0.0
 11
-81.1578760217471
 21
5.999999999999948
 31
0.0
  0
LINE
  5
FC
330
F8
100
AcDbEntity
  8
치수문자_일반주서
 62
     0
370
    -2
100
AcDbLine
 10
-69.06249999999999
 20
-5.999999999999995
 30
0.0
 11
-81.15787602174706
 21
-6.000000000000039
 31
0.0
  0
LINE
  5
FD
330
F8
100
AcDbEntity
  8
치수문자_일반주서
 62
     0
370
    -2
100
AcDbLine
 10
-81.1578760217471
 20
5.999999999999948
 30
0.0
 11
-81.15787602174716
 21
20.47899999999995
 31
0.0
  0
LINE
  5
FE
330
F8
100
AcDbEntity
  8
치수문자_일반주서
 62
     0
370
    -2
100
AcDbLine
 10
-81.1578760217471
 20
5.999999999999948
 30
0.0
 11
-81.15787602174706
 21
-6.000000000000039
 31
0.0
  0
LINE
  5
FF
330
F8
100
AcDbEntity
  8
치수문자_일반주서
 62
     0
370
    -2
100
AcDbLine
 10
-81.15787602174711
 20
9.301999999999948
 30
0.0
 11
-81.15787602174713
 21
12.60399999999995
 31
0.0
  0
LINE
  5
100
330
F8
100
AcDbEntity
  8
치수문자_일반주서
 62
     0
370
    -2
100
AcDbLine
 10
-81.15787602174704
 20
-9.302000000000039
 30
0.0
 11
-81.15787602174703
 21
-12.60400000000004
 31
0.0
  0
SOLID
  5
101
330
F8
100
AcDbEntity
  8
치수문자_일반주서
 62
     0
100
AcDbTrace
 10
-81.70820935508044
 20
9.301999999999946
 30
0.0
 11
-80.60754268841379
 21
9.30199999999995
 31
0.0
 12
-81.1578760217471
 22
5.999999999999948
 32
0.0
 13
-81.1578760217471
 23
5.999999999999948
 33
0.0
  0
SOLID
  5
102
330
F8
100
AcDbEntity
  8
치수문자_일반주서
 62
     0
100
AcDbTrace
 10
-80.60754268841372
 20
-9.302000000000037
 30
0.0
 11
-81.70820935508037
 21
-9.30200000000004
 31
0.0
 12
-81.15787602174706
 22
-6.000000000000039
 32
0.0
 13
-81.15787602174706
 23
-6.000000000000039
 33
0.0
  0
MTEXT
  5
103
330
F8
100
AcDbEntity
  8
치수문자_일반주서
 62
     0
100
AcDbMText
 10
-85.53287602174714
 20
16.54149999999993
 30
0.0
 40
3.5
 41
0.0
 71
     2
 72
     1
  1
\A1;%%c12
  7
SLDTEXTSTYLE0
 11
-3.552713678800504E-15
 21
1.0
 31
0.0
 73
     1
 44
1.0
  0
POINT
  5
136
330
F8
100
AcDbEntity
  8
Defpoints
 62
     0
100
AcDbPoint
 10
-68.99999999999999
 20
5.999999999999995
 30
0.0
  0
POINT
  5
137
330
F8
100
AcDbEntity
  8
Defpoints
 62
     0
100
AcDbPoint
 10
-68.99999999999999
 20
-5.999999999999995
 30
0.0
  0
POINT
  5
138
330
F8
100
AcDbEntity
  8
Defpoints
 62
     0
100
AcDbPoint
 10
-81.1578760217471
 20
-6.00000000000004
 30
0.0
  0
ENDBLK
  5
FA
330
F8
100
AcDbEntity
  8
0
100
AcDbBlockEnd
  0
BLOCK
  5
105
330
104
100
AcDbEntity
  8
0
100
AcDbBlockBegin
  2
SW_DOWELSYMBOL_0
 70
     0
 10
0.0
 20
0.0
 30
0.0
  3
SW_DOWELSYMBOL_0
  1

  0
CIRCLE
  5
107
330
104
100
AcDbEntity
  8
외형선
 62
     0
100
AcDbCircle
 10
0.0
 20
0.0
 30
0.0
 40
3.000000000000004
  0
HATCH
  5
108
330
104
100
AcDbEntity
  8
0
  6
Continuous
 62
     0
370
    30
100
AcDbHatch
 10
0.0
 20
0.0
 30
0.0
210
0.0
220
0.0
230
1.0
  2
SOLID
 70
     1
 71
     0
 91
        1
 92
        0
 93
        3
 72
     2
 10
0.0000000000000104
 20
0.0
 40
3.000000000000004
 50
0.0
 51
90.0
 73
     1
 72
     1
 10
0.0000000000000104
 20
3.000000000000004
 11
0.0000000000000104
 21
0.0
 72
     1
 10
0.0000000000000104
 20
0.0
 11
3.000000000000015
 21
0.0
 97
        0
 75
     0
 76
     1
 98
        1
 10
0.0
 20
0.0
  0
HATCH
  5
109
330
104
100
AcDbEntity
  8
0
  6
Continuous
 62
     0
370
    30
100
AcDbHatch
 10
0.0
 20
0.0
 30
0.0
210
0.0
220
0.0
230
1.0
  2
SOLID
 70
     1
 71
     0
 91
        1
 92
        0
 93
        3
 72
     2
 10
0.0000000000000104
 20
0.0
 40
3.000000000000004
 50
180.0
 51
270.0000000000008
 73
     1
 72
     1
 10
0.0000000000000104
 20
-3.000000000000004
 11
0.0000000000000104
 21
0.0
 72
     1
 10
0.0000000000000104
 20
0.0
 11
-2.999999999999994
 21
0.0
 97
        0
 75
     0
 76
     1
 98
        1
 10
0.0
 20
0.0
  0
ENDBLK
  5
106
330
104
100
AcDbEntity
  8
0
100
AcDbBlockEnd
  0
ENDSEC
  0
SECTION
  2
ENTITIES
  0
LINE
  5
95
330
1F
100
AcDbEntity
  8
0
  6
Continuous
 62
     1
370
    15
100
AcDbLine
 10
31.1714592517917
 20
1.670448331516692
 30
0.0
 11
31.0716331657192
 21
1.725140238844248
 31
0.0
  0
LINE
  5
96
330
1F
100
AcDbEntity
  8
0
  6
Continuous
 62
     1
370
    15
100
AcDbLine
 10
20.68819481421205
 20
6.000000000000009
 30
0.0
 11
17.77944140112246
 21
6.000000000000009
 31
0.0
  0
SPLINE
  5
97
330
1F
100
AcDbEntity
  8
0
  6
Continuous
 62
     1
370
    15
100
AcDbSpline
210
0.0
220
0.0
230
1.0
 70
     8
 71
     3
 72
     9
 73
     5
 74
     0
 42
0.000000001
 43
0.00000001
 40
0.0
 40
0.0
 40
0.0
 40
0.0
 40
0.4991500951432485
 40
1.0
 40
1.0
 40
1.0
 40
1.0
 10
34.45603980862924
 20
1.537488694679366
 30
0.0
 10
34.17891070906641
 20
1.669474275017706
 30
0.0
 10
33.62370877229572
 20
1.933894900441931
 30
0.0
 10
33.06839500688259
 20
2.224560692741459
 30
0.0
 10
32.79026616030978
 20
2.37014062715979
 30
0.0
  0
LINE
  5
98
330
1F
100
AcDbEntity
  8
0
  6
Continuous
 62
     1
370
    15
100
AcDbLine
 10
17.77944140112248
 20
-5.999999999999998
 30
0.0
 11
20.68819481421209
 21
-5.999999999999998
 31
0.0
  0
SPLINE
  5
99
330
1F
100
AcDbEntity
  8
0
  6
Continuous
 62
     1
370
    15
100
AcDbSpline
210
0.0
220
0.0
230
1.0
 70
     8
 71
     3
 72
    15
 73
    11
 74
     0
 42
0.000000001
 43
0.00000001
 40
0.0
 40
0.0
 40
0.0
 40
0.0
 40
0.1398415347726742
 40
0.2531301284339549
 40
0.3905643509549762
 40
0.5252073401185993
 40
0.6648255135405351
 40
0.8109826891464536
 40
0.9535395892471037
 40
1.0
 40
1.0
 40
1.0
 40
1.0
 10
32.47238575404732
 20
4.767834198644421
 30
0.0
 10
32.26823900241945
 20
4.756598657825553
 30
0.0
 10
31.89870863690292
 20
4.736260967059152
 30
0.0
 10
31.26847354198969
 20
4.708293604522529
 30
0.0
 10
30.62229457111925
 20
4.697474629101356
 30
0.0
 10
29.93707696474407
 20
4.686648579641946
 30
0.0
 10
29.24537653653933
 20
4.684398411764485
 30
0.0
 10
28.54490937223607
 20
4.691214462108354
 30
0.0
 10
27.99964448620572
 20
4.701950706704391
 30
0.0
 10
27.69055683468135
 20
4.712567162855674
 30
0.0
 10
27.6145831623038
 20
4.715176685292014
 30
0.0
  0
SPLINE
  5
9A
330
1F
100
AcDbEntity
  8
0
  6
Continuous
 62
     1
370
    15
100
AcDbSpline
210
0.0
220
0.0
230
1.0
 70
     8
 71
     3
 72
    20
 73
    16
 74
     0
 42
0.000000001
 43
0.00000001
 40
0.0
 40
0.0
 40
0.0
 40
0.0
 40
0.1238863948804314
 40
0.2212235814898826
 40
0.2910969377087766
 40
0.3442079004594034
 40
0.3912153800596747
 40
0.4714371864948299
 40
0.5613443783402561
 40
0.6659714366717273
 40
0.764614067082898
 40
0.8127740450537139
 40
0.8630731506117036
 40
0.9243548727742922
 40
1.0
 40
1.0
 40
1.0
 40
1.0
 10
23.44872153057862
 20
-4.992818636517568
 30
0.0
 10
23.82131674019489
 20
-4.957195221957722
 30
0.0
 10
24.48665894178884
 20
-4.893582592326888
 30
0.0
 10
25.36375806996483
 20
-4.827774484132391
 30
0.0
 10
26.03245811528682
 20
-4.785235744792863
 30
0.0
 10
26.55126927496978
 20
-4.757339968752512
 30
0.0
 10
27.09967675503437
 20
-4.73207157267558
 30
0.0
 10
27.75636337032387
 20
-4.708370686840457
 30
0.0
 10
28.5836640602734
 20
-4.689531051172929
 30
0.0
 10
29.46862221532614
 20
-4.683003466189252
 30
0.0
 10
30.24133744842925
 20
-4.69069278140826
 30
0.0
 10
30.84594886455366
 20
-4.701461180507401
 30
0.0
 10
31.34100173899149
 20
-4.711290030095478
 30
0.0
 10
31.89843176985344
 20
-4.736325208383712
 30
0.0
 10
32.26814047747032
 20
-4.756621518520762
 30
0.0
 10
32.47238575404733
 20
-4.767834198644409
 30
0.0
  0
SPLINE
  5
9B
330
1F
100
AcDbEntity
  8
0
  6
Continuous
 62
     1
370
    15
100
AcDbSpline
210
0.0
220
0.0
230
1.0
 70
     8
 71
     3
 72
    18
 73
    14
 74
     0
 42
0.000000001
 43
0.00000001
 40
0.0
 40
0.0
 40
0.0
 40
0.0
 40
0.1577158998636562
 40
0.2751710461385178
 40
0.3521700004919219
 40
0.4192640797306427
 40
0.496870861912394
 40
0.5836210591325431
 40
0.6612877987720784
 40
0.7246397664656827
 40
0.8434574976844079
 40
0.986013185582184
 40
1.0
 40
1.0
 40
1.0
 40
1.0
 10
37.28807499034468
 20
-4.51282678257042
 30
0.0
 10
37.52343483777742
 20
-4.476717826861474
 30
0.0
 10
37.93407330538312
 20
-4.413717589561433
 30
0.0
 10
38.45970795105783
 20
-4.34163599518369
 30
0.0
 10
38.85254240852774
 20
-4.290960596574121
 30
0.0
 10
39.1872981760261
 20
-4.250026284128257
 30
0.0
 10
39.53640384373174
 20
-4.209867399843743
 30
0.0
 10
39.90194930256368
 20
-4.170891589611919
 30
0.0
 10
40.24458531407907
 20
-4.137296555324337
 30
0.0
 10
40.63108770981294
 20
-4.102176053207955
 30
0.0
 10
41.1085134649296
 20
-4.063990705207178
 30
0.0
 10
41.52150093027618
 20
-4.033264166690439
 30
0.0
 10
41.75588284083253
 20
-4.021466232443008
 30
0.0
 10
41.77682447800679
 20
-4.020412106474715
 30
0.0
  0
SPLINE
  5
9C
330
1F
100
AcDbEntity
  8
0
  6
Continuous
 62
     1
370
    15
100
AcDbSpline
210
0.0
220
0.0
230
1.0
 70
     8
 71
     3
 72
    17
 73
    13
 74
     0
 42
0.000000001
 43
0.00000001
 40
0.0
 40
0.0
 40
0.0
 40
0.0
 40
0.1387198261872685
 40
0.2440852965538991
 40
0.3176547651574729
 40
0.3906454800104965
 40
0.4733915125544995
 40
0.5586044415062387
 40
0.6666773551864122
 40
0.7542255196703923
 40
0.8615455348261001
 40
1.0
 40
1.0
 40
1.0
 40
1.0
 10
15.12219837071585
 20
4.103710195048897
 30
0.0
 10
14.88745337271691
 20
4.084562100248013
 30
0.0
 10
14.47440641305764
 20
4.050869955971488
 30
0.0
 10
13.93480832627843
 20
4.017188431625409
 30
0.0
 10
13.49985832153035
 20
3.994497619671247
 30
0.0
 10
13.10486363290718
 20
3.977491439348598
 30
0.0
 10
12.69264278254188
 20
3.963695753414656
 30
0.0
 10
12.22156319626415
 20
3.952974033849372
 30
0.0
 10
11.74215958364677
 20
3.94782057178888
 30
0.0
 10
11.22501584363571
 20
3.948725710001323
 30
0.0
 10
10.65615071926748
 20
3.956126526157394
 30
0.0
 10
10.23643975284215
 20
3.969969274832335
 30
0.0
 10
10.0
 20
3.977767441516506
 30
0.0
  0
SPLINE
  5
9D
330
1F
100
AcDbEntity
  8
0
  6
Continuous
 62
     1
370
    15
100
AcDbSpline
210
0.0
220
0.0
230
1.0
 70
     8
 71
     3
 72
    27
 73
    23
 74
     0
 42
0.000000001
 43
0.00000001
 40
0.0
 40
0.0
 40
0.0
 40
0.0
 40
0.0772913397628304
 40
0.1306604064363938
 40
0.1624932733167622
 40
0.19621256216523
 40
0.2393581947324525
 40
0.2820022007370829
 40
0.3160613589156725
 40
0.3689432623862514
 40
0.4299283433966033
 40
0.5044997015539071
 40
0.5616662696032734
 40
0.6115044092809985
 40
0.654659770930473
 40
0.6925711239335745
 40
0.7400214134076951
 40
0.7862679364082085
 40
0.8274590779545783
 40
0.8631344675615166
 40
0.9178881540880347
 40
1.0
 40
1.0
 40
1.0
 40
1.0
 10
47.77066536261467
 20
4.103716964992363
 30
0.0
 10
47.50071461850671
 20
4.081893447879324
 30
0.0
 10
47.04436499316465
 20
4.045000962581345
 30
0.0
 10
46.47733839237967
 20
4.011309446396824
 30
0.0
 10
46.06009120909039
 20
3.990495896013281
 30
0.0
 10
45.6747436941568
 20
3.974522152054598
 30
0.0
 10
45.24925749856983
 20
3.960888629841436
 30
0.0
 10
44.82261672125279
 20
3.95185282735198
 30
0.0
 10
44.37550613885939
 20
3.94772565710492
 30
0.0
 10
43.88298512835507
 20
3.948293987301044
 30
0.0
 10
43.2174581071681
 20
3.958011624432567
 30
0.0
 10
42.54521279170548
 20
3.979894437649004
 30
0.0
 10
41.90949068510808
 20
4.011005025598073
 30
0.0
 10
41.3848139920537
 20
4.04384116212269
 30
0.0
 10
40.92819210655588
 20
4.077827289974276
 30
0.0
 10
40.48787529797976
 20
4.114617741016477
 30
0.0
 10
40.02709234289717
 20
4.157835756102223
 30
0.0
 10
39.55114367545001
 20
4.207951852012632
 30
0.0
 10
39.11741747938132
 20
4.258162777301948
 30
0.0
 10
38.65323179094479
 20
4.316045294768578
 30
0.0
 10
38.05137720177681
 20
4.396350976289098
 30
0.0
 10
37.57429703776123
 20
4.469150839740673
 30
0.0
 10
37.28807499034468
 20
4.512826782570433
 30
0.0
  0
LINE
  5
9E
330
1F
100
AcDbEntity
  8
0
  6
Continuous
 62
   131
370
    15
100
AcDbLine
 10
7.97009065033029
 20
6.000000000000005
 30
0.0
 11
-68.99999999999999
 21
6.0
 31
0.0
  0
LINE
  5
9F
330
1F
100
AcDbEntity
  8
0
  6
Continuous
 62
   131
370
    15
100
AcDbLine
 10
-68.99999999999999
 20
-6.0
 30
0.0
 11
7.97009065033029
 21
-5.999999999999995
 31
0.0
  0
LINE
  5
A0
330
1F
100
AcDbEntity
  8
0
  6
Continuous
 62
   131
370
    15
100
AcDbLine
 10
-68.99999999999999
 20
5.999999999999995
 30
0.0
 11
-69.99999999999999
 21
4.999999999999993
 31
0.0
  0
LINE
  5
A1
330
1F
100
AcDbEntity
  8
0
  6
Continuous
 62
   131
370
    15
100
AcDbLine
 10
-69.99999999999999
 20
-4.999999999999994
 30
0.0
 11
-68.99999999999999
 21
-5.999999999999995
 31
0.0
  0
SPLINE
  5
A2
330
1F
100
AcDbEntity
  8
0
  6
Continuous
 62
   131
370
    15
100
AcDbSpline
210
0.0
220
0.0
230
1.0
 70
     8
 71
     3
 72
     9
 73
     5
 74
     0
 42
0.000000001
 43
0.00000001
 40
0.0
 40
0.0
 40
0.0
 40
0.0
 40
0.4444604331010516
 40
1.0
 40
1.0
 40
1.0
 40
1.0
 10
10.0
 20
3.977767441516506
 30
0.0
 10
9.699299931654162
 20
3.99078038480611
 30
0.0
 10
9.022749116438016
 20
4.020058453944486
 30
0.0
 10
8.346047854811815
 20
4.074036258946422
 30
0.0
 10
7.970113529008019
 20
4.104023065359354
 30
0.0
  0
LINE
  5
A3
330
1F
100
AcDbEntity
  8
0
  6
Continuous
 62
   131
370
    15
100
AcDbLine
 10
7.970113529008019
 20
-4.104023065359344
 30
0.0
 11
9.090051556747794
 21
-4.022256412459852
 31
0.0
  0
SPLINE
  5
A4
330
1F
100
AcDbEntity
  8
0
  6
Continuous
 62
     1
370
    15
100
AcDbSpline
210
0.0
220
0.0
230
1.0
 70
     8
 71
     3
 72
    68
 73
    64
 74
     0
 42
0.000000001
 43
0.00000001
 40
0.0
 40
0.0
 40
0.0
 40
0.0
 40
0.03125
 40
0.03125
 40
0.0625000000000001
 40
0.0625000000000001
 40
0.0937500000000001
 40
0.0937500000000001
 40
0.1250000000000001
 40
0.1250000000000001
 40
0.1562500000000001
 40
0.1562500000000001
 40
0.1875000000000002
 40
0.1875000000000002
 40
0.2187500000000002
 40
0.2187500000000002
 40
0.2500000000000002
 40
0.2500000000000002
 40
0.2812500000000002
 40
0.2812500000000002
 40
0.3125000000000003
 40
0.3125000000000003
 40
0.3437500000000003
 40
0.3437500000000003
 40
0.3750000000000003
 40
0.3750000000000003
 40
0.4062500000000003
 40
0.4062500000000003
 40
0.4375000000000004
 40
0.4375000000000004
 40
0.4687500000000004
 40
0.4687500000000004
 40
0.5000000000000004
 40
0.5000000000000004
 40
0.5312500000000004
 40
0.5312500000000004
 40
0.5625000000000004
 40
0.5625000000000004
 40
0.5937500000000006
 40
0.5937500000000006
 40
0.6250000000000006
 40
0.6250000000000006
 40
0.6562500000000004
 40
0.6562500000000004
 40
0.6875000000000003
 40
0.6875000000000003
 40
0.7187500000000003
 40
0.7187500000000003
 40
0.7500000000000002
 40
0.7500000000000002
 40
0.7812500000000001
 40
0.7812500000000001
 40
0.8125
 40
0.8125
 40
0.875
 40
0.875
 40
0.90625
 40
0.90625
 40
0.9375
 40
0.9375
 40
0.9687500000000001
 40
0.9687500000000001
 40
1.0
 40
1.0
 40
1.0
 40
1.0
 10
50.00000000000001
 20
-5.999999999999846
 30
0.0
 10
49.58560876959401
 20
-5.985058359114614
 30
0.0
 10
49.16728636630712
 20
-5.960701373184651
 30
0.0
 10
48.33180196020205
 20
-5.883310309142513
 30
0.0
 10
47.9171406832999
 20
-5.830423183095204
 30
0.0
 10
47.08489701297582
 20
-5.696755572584849
 30
0.0
 10
46.66600295949179
 20
-5.615837852404997
 30
0.0
 10
45.83173402495295
 20
-5.42751973838266
 30
0.0
 10
45.41817910491336
 20
-5.320340872771363
 30
0.0
 10
44.58367402213549
 20
-5.080238571748168
 30
0.0
 10
44.1648216243954
 20
-4.94743871389602
 30
0.0
 10
43.33297774538206
 20
-4.659292057498488
 30
0.0
 10
42.91796906875444
 20
-4.503763377833457
 30
0.0
 10
42.08241330053821
 20
-4.171029184151832
 30
0.0
 10
41.66473724663691
 20
-3.994171744759537
 30
0.0
 10
40.83541509152523
 20
-3.622995700817864
 30
0.0
 10
40.41697918004063
 20
-3.427658542541876
 30
0.0
 10
39.58158854394759
 20
-3.021585437396677
 30
0.0
 10
39.16722756825703
 20
-2.811314488486633
 30
0.0
 10
38.33460622542927
 20
-2.377613386947426
 30
0.0
 10
37.91568182288528
 20
-2.154035806255751
 30
0.0
 10
37.08167133589772
 20
-1.698247223732855
 30
0.0
 10
36.66806921878329
 20
-1.4663371405786
 30
0.0
 10
35.83335030816065
 20
-0.9951764544294278
 30
0.0
 10
35.41455086908732
 20
-0.7563462789043692
 30
0.0
 10
34.58312886462321
 20
-0.2773702413501362
 30
0.0
 10
34.16772572068908
 20
-0.0366959541783664
 30
0.0
 10
33.33212100464398
 20
0.444593301872387
 30
0.0
 10
32.91504446980641
 20
0.6846017806905619
 30
0.0
 10
32.0852044797625
 20
1.159353953508393
 30
0.0
 10
31.66666632542328
 20
1.395193110440744
 30
0.0
 10
30.83139185885898
 20
1.858658089447874
 30
0.0
 10
30.41728405912085
 20
2.085815261983025
 30
0.0
 10
29.58430719621654
 20
2.529867851705235
 30
0.0
 10
29.1653637540371
 20
2.746744790948198
 30
0.0
 10
28.33163399084864
 20
3.165494559446063
 30
0.0
 10
27.91793748379062
 20
3.367227222514632
 30
0.0
 10
27.08302708481321
 20
3.754703820569343
 30
0.0
 10
26.66429190254846
 20
3.940009179232249
 30
0.0
 10
25.83331381836125
 20
4.289832478172578
 30
0.0
 10
25.41746917465449
 20
4.454887588094837
 30
0.0
 10
24.58183792944024
 20
4.76320974933025
 30
0.0
 10
24.16531403005646
 20
4.906062091457933
 30
0.0
 10
23.33497811035166
 20
5.167220152811344
 30
0.0
 10
22.91634898772205
 20
5.286001211424155
 30
0.0
 10
22.08121307981784
 20
5.497253959698893
 30
0.0
 10
21.66731130822057
 20
5.589580027902912
 30
0.0
 10
20.83400110933189
 20
5.747302859804354
 30
0.0
 10
20.41504993866094
 20
5.812590690484774
 30
0.0
 10
19.58162315047683
 20
5.914602222612434
 30
0.0
 10
19.16778506901802
 20
5.95138335945066
 30
0.0
 10
18.33270553828159
 20
5.99629488556999
 30
0.0
 10
17.91404590516714
 20
6.004293443881934
 30
0.0
 10
16.66827766872472
 20
5.984894776824819
 30
0.0
 10
15.83095201090176
 20
5.913726090482086
 30
0.0
 10
14.58473716075272
 20
5.723204292242201
 30
0.0
 10
14.16602835260363
 20
5.645553212305884
 30
0.0
 10
13.33105338010626
 20
5.463506766513233
 30
0.0
 10
12.91731047048271
 20
5.359377023761185
 30
0.0
 10
12.08368914940605
 20
5.125317901959626
 30
0.0
 10
11.66474156208553
 20
4.995399869237632
 30
0.0
 10
10.83163997309511
 20
4.712613905179573
 30
0.0
 10
10.41761314539353
 20
4.559827238493503
 30
0.0
 10
9.999999999999996
 20
4.395976501931491
 30
0.0
  0
SPLINE
  5
A5
330
1F
100
AcDbEntity
  8
0
  6
Continuous
 62
     1
370
    15
100
AcDbSpline
210
0.0
220
0.0
230
1.0
 70
     8
 71
     3
 72
    16
 73
    12
 74
     0
 42
0.000000001
 43
0.00000001
 40
0.0
 40
0.0
 40
0.0
 40
0.0
 40
0.0423407509666208
 40
0.1739258386271786
 40
0.3055253350718647
 40
0.4370814652626323
 40
0.5685523424021593
 40
0.7000814150083987
 40
0.8316729341015977
 40
0.9732301722403537
 40
1.0
 40
1.0
 40
1.0
 40
1.0
 10
35.08505788842638
 20
-0.5627425903302887
 30
0.0
 10
34.80322746379928
 20
-0.4512940791185689
 30
0.0
 10
33.64553441785963
 20
0.0065101717207707
 30
0.0
 10
31.61170466837349
 20
0.8395911887515308
 30
0.0
 10
28.98401420173901
 20
1.851203607612472
 30
0.0
 10
26.35713134102083
 20
2.748522499735523
 30
0.0
 10
23.73103243901537
 20
3.469033528562
 30
0.0
 10
21.10444293615426
 20
3.975287176435355
 30
0.0
 10
18.41069958026217
 20
4.21103752870403
 30
0.0
 10
16.41392425955591
 20
4.244637755214063
 30
0.0
 10
15.29347598933002
 20
4.102822724968826
 30
0.0
 10
15.11528594575352
 20
4.080269228220504
 30
0.0
  0
SPLINE
  5
A6
330
1F
100
AcDbEntity
  8
0
  6
Continuous
 62
   131
370
    15
100
AcDbSpline
210
0.0
220
0.0
230
1.0
 70
    24
 71
     3
 72
     9
 73
     5
 74
     0
 42
0.000000001
 43
0.00000001
 40
0.0
 40
0.0
 40
0.0
 40
0.0
 40
0.3732775838673494
 40
0.9999999999999999
 40
0.9999999999999999
 40
0.9999999999999999
 40
0.9999999999999999
 10
10.0
 20
4.395976501931489
 30
0.0
 10
10.0
 20
4.349527696388611
 30
0.0
 10
10.0
 20
4.225092671221431
 30
0.0
 10
10.0
 20
4.123681668309134
 30
0.0
 10
10.0
 20
4.060125119541506
 30
0.0
  0
SPLINE
  5
A7
330
1F
100
AcDbEntity
  8
0
  6
Continuous
 62
     1
370
    15
100
AcDbSpline
210
0.0
220
0.0
230
1.0
 70
     8
 71
     3
 72
    22
 73
    18
 74
     0
 42
0.000000001
 43
0.00000001
 40
0.0
 40
0.0
 40
0.0
 40
0.0
 40
0.0713374029507731
 40
0.1426718966691085
 40
0.2140037270919788
 40
0.2853331410211702
 40
0.3566603860441361
 40
0.4279857104543048
 40
0.4952317854975994
 40
0.5624717167946917
 40
0.6297089318077892
 40
0.696946863045772
 40
0.7641889416865525
 40
0.8392420784832794
 40
0.9142953091722519
 40
0.9893486286399071
 40
1.0
 40
1.0
 40
1.0
 40
1.0
 10
50.00000000000001
 20
-5.693645215391389
 30
0.0
 10
49.30295918354636
 20
-5.544462845271698
 30
0.0
 10
47.9089059768737
 20
-5.246104188884158
 30
0.0
 10
45.81788808707625
 20
-4.525387060932385
 30
0.0
 10
43.72696364198937
 20
-3.638619367179993
 30
0.0
 10
41.636120324864
 20
-2.600669050127115
 30
0.0
 10
39.54536886943593
 20
-1.459013626531992
 30
0.0
 10
37.49446809121913
 20
-0.2810762394316624
 30
0.0
 10
35.48371734842724
 20
0.8835595486891278
 30
0.0
 10
33.51290191519386
 20
1.993509588220181
 30
0.0
 10
31.54219930799665
 20
3.031816753381918
 30
0.0
 10
29.57144326105705
 20
3.9618094027624
 30
0.0
 10
27.52440062478783
 20
4.778580990477396
 30
0.0
 10
25.40055123695536
 20
5.438263102888795
 30
0.0
 10
23.20050616556197
 20
5.852965047297935
 30
0.0
 10
21.62970653359704
 20
6.031107101819014
 30
0.0
 10
20.7922712027168
 20
5.9889099759151
 30
0.0
 10
20.68819481421206
 20
5.983665720857528
 30
0.0
  0
LINE
  5
A8
330
1F
100
AcDbEntity
  8
0
  6
Continuous
 62
     1
370
    15
100
AcDbLine
 10
50.00000000000001
 20
-5.99999999999985
 30
0.0
 11
50.00000000000001
 21
-5.693645215391397
 31
0.0
  0
SPLINE
  5
A9
330
1F
100
AcDbEntity
  8
0
  6
Continuous
 62
     1
370
    15
100
AcDbSpline
210
0.0
220
0.0
230
1.0
 70
     8
 71
     3
 72
    13
 73
     9
 74
     0
 42
0.000000001
 43
0.00000001
 40
0.0
 40
0.0
 40
0.0
 40
0.0
 40
0.1684613540020963
 40
0.3370231634999865
 40
0.5056145908448135
 40
0.6741645252872184
 40
0.842607000424524
 40
1.0
 40
1.0
 40
1.0
 40
1.0
 10
50.00000000000001
 20
-4.733833586209284
 30
0.0
 10
49.12476062922634
 20
-4.544684590677572
 30
0.0
 10
47.37375997210113
 20
-4.166273807833281
 30
0.0
 10
44.7465026823518
 20
-3.253637039523601
 30
0.0
 10
42.11875661238789
 20
-2.155166259965659
 30
0.0
 10
39.49167523071362
 20
-0.9162765504065195
 30
0.0
 10
36.92319861041093
 20
0.3592361488416401
 30
0.0
 10
35.23022883044471
 20
1.165885909547005
 30
0.0
 10
34.41244926824574
 20
1.555533554746385
 30
0.0
  0
LINE
  5
AA
330
1F
100
AcDbEntity
  8
0
  6
Continuous
 62
     1
370
    15
100
AcDbLine
 10
50.00000000000001
 20
-5.693645215391392
 30
0.0
 11
50.00000000000001
 21
-4.733833586209284
 31
0.0
  0
SPLINE
  5
AB
330
1F
100
AcDbEntity
  8
0
  6
Continuous
 62
     1
370
    15
100
AcDbSpline
210
0.0
220
0.0
230
1.0
 70
     8
 71
     3
 72
     8
 73
     4
 74
     0
 42
0.000000001
 43
0.00000001
 40
0.0
 40
0.0
 40
0.0
 40
0.0
 40
1.0
 40
1.0
 40
1.0
 40
1.0
 10
46.28766238388619
 20
1.678126369561339
 30
0.0
 10
46.0185435244941
 20
1.996908240080757
 30
0.0
 10
45.78528950873193
 20
2.301017429348716
 30
0.0
 10
45.6006373060663
 20
2.584818657777568
 30
0.0
  0
LINE
  5
AC
330
1F
100
AcDbEntity
  8
0
  6
Continuous
 62
     1
370
    15
100
AcDbLine
 10
45.6006373060663
 20
2.584818657777567
 30
0.0
 11
50.00000000000001
 21
0.0000000000000099
 31
0.0
  0
LINE
  5
AD
330
1F
100
AcDbEntity
  8
0
  6
Continuous
 62
     1
370
    15
100
AcDbLine
 10
50.00000000000001
 20
0.0000000000000099
 30
0.0
 11
50.00000000000001
 21
-1.603457676177859
 31
0.0
  0
SPLINE
  5
AE
330
1F
100
AcDbEntity
  8
0
  6
Continuous
 62
     1
370
    15
100
AcDbSpline
210
0.0
220
0.0
230
1.0
 70
     8
 71
     3
 72
    12
 73
     8
 74
     0
 42
0.000000001
 43
0.00000001
 40
0.0
 40
0.0
 40
0.0
 40
0.0
 40
0.4999999999999984
 40
0.4999999999999984
 40
0.7499999999999992
 40
0.7499999999999992
 40
1.0
 40
1.0
 40
1.0
 40
1.0
 10
50.00000000000001
 20
-1.603457676177859
 30
0.0
 10
49.35738324975082
 20
-1.098253421644955
 30
0.0
 10
48.72550027521568
 20
-0.5723371630807174
 30
0.0
 10
47.79419516594456
 20
0.2484131373375422
 30
0.0
 10
47.48655768172766
 20
0.5273947563256701
 30
0.0
 10
46.87756600981749
 20
1.097482307907388
 30
0.0
 10
46.5778678525838
 20
1.387117232542717
 30
0.0
 10
46.28766238388619
 20
1.67812636956134
 30
0.0
  0
SPLINE
  5
AF
330
1F
100
AcDbEntity
  8
0
  6
Continuous
 62
     1
370
    15
100
AcDbSpline
210
0.0
220
0.0
230
1.0
 70
     8
 71
     3
 72
    16
 73
    12
 74
     0
 42
0.000000001
 43
0.00000001
 40
0.0
 40
0.0
 40
0.0
 40
0.0
 40
0.0008179591155618
 40
0.1257152269562023
 40
0.2506126510446087
 40
0.3755102228712095
 40
0.5004079339228077
 40
0.6253057756827884
 40
0.7502037396313287
 40
0.8751018172456043
 40
1.0
 40
1.0
 40
1.0
 40
1.0
 10
27.61505113381949
 20
-4.714990795623336
 30
0.0
 10
27.61024895056423
 20
-4.716899578535925
 30
0.0
 10
26.87218326202949
 20
-5.010267636304247
 30
0.0
 10
25.40053072939467
 20
-5.420201802633354
 30
0.0
 10
23.20051140293507
 20
-5.872775962577496
 30
0.0
 10
21.00042022604445
 20
-6.041291043040403
 30
0.0
 10
18.80034452149561
 20
-5.94573897559203
 30
0.0
 10
16.60026112160994
 20
-5.583851777618079
 30
0.0
 10
14.40017645417817
 20
-4.97040690730612
 30
0.0
 10
12.2000890561656
 20
-4.144850142902349
 30
0.0
 10
10.73336322450257
 20
-3.446416652752705
 30
0.0
 10
9.99999999999604
 20
-3.097199760691332
 30
0.0
  0
SPLINE
  5
B0
330
1F
100
AcDbEntity
  8
0
  6
Continuous
 62
   131
370
    15
100
AcDbSpline
210
0.0
220
0.0
230
1.0
 70
    24
 71
     3
 72
     8
 73
     4
 74
     0
 42
0.000000001
 43
0.00000001
 40
0.0
 40
0.0
 40
0.0
 40
0.0
 40
1.0
 40
1.0
 40
1.0
 40
1.0
 10
10.00000000000001
 20
-2.364566603828131
 30
0.0
 10
10.00000000000001
 20
-2.590960798707318
 30
0.0
 10
10.00000000000001
 20
-2.836662343826784
 30
0.0
 10
10.00000000000001
 20
-3.097199760683193
 30
0.0
  0
SPLINE
  5
B1
330
1F
100
AcDbEntity
  8
0
  6
Continuous
 62
     1
370
    15
100
AcDbSpline
210
0.0
220
0.0
230
1.0
 70
     8
 71
     3
 72
    13
 73
     9
 74
     0
 42
0.000000001
 43
0.00000001
 40
0.0
 40
0.0
 40
0.0
 40
0.0
 40
0.17451068747559
 40
0.369829836571665
 40
0.565155761120211
 40
0.7604061347563302
 40
0.8802460421791299
 40
1.0
 40
1.0
 40
1.0
 40
1.0
 10
23.45267465961614
 20
-4.977112568999257
 30
0.0
 10
22.67009880571151
 20
-5.03716816346253
 30
0.0
 10
21.01163361746934
 20
-5.16444031513905
 30
0.0
 10
18.47696557171044
 20
-4.958705762481212
 30
0.0
 10
15.84938952942211
 20
-4.460313167289227
 30
0.0
 10
13.56014161117508
 20
-3.76976209580813
 30
0.0
 10
11.61079744390381
 20
-3.049010020740014
 30
0.0
 10
10.53680405661057
 20
-2.592659840571955
 30
0.0
 10
10.00000000000001
 20
-2.364566603828131
 30
0.0
  0
SPLINE
  5
B2
330
1F
100
AcDbEntity
  8
0
  6
Continuous
 62
     1
370
    15
100
AcDbSpline
210
0.0
220
0.0
230
1.0
 70
     8
 71
     3
 72
    11
 73
     7
 74
     0
 42
0.000000001
 43
0.00000001
 40
0.0
 40
0.0
 40
0.0
 40
0.0
 40
0.2687202917867218
 40
0.5374386032541016
 40
0.8061558798327938
 40
1.0
 40
1.0
 40
1.0
 40
1.0
 10
9.999999999999996
 20
-4.395976501931481
 30
0.0
 10
10.69683250044287
 20
-4.653069778636756
 30
0.0
 10
12.09049236606002
 20
-5.167254437412609
 30
0.0
 10
14.18097263749775
 20
-5.674718783811732
 30
0.0
 10
16.07728677071137
 20
-5.967615772572445
 30
0.0
 10
17.27677550600286
 20
-5.973263273176664
 30
0.0
 10
17.77944140112248
 20
-5.975629953131953
 30
0.0
  0
SPLINE
  5
B3
330
1F
100
AcDbEntity
  8
0
  6
Continuous
 62
     1
370
    15
100
AcDbSpline
210
0.0
220
0.0
230
1.0
 70
     8
 71
     3
 72
    11
 73
     7
 74
     0
 42
0.000000001
 43
0.00000001
 40
0.0
 40
0.0
 40
0.0
 40
0.0
 40
0.1974181357537617
 40
0.4649462349091463
 40
0.7324735289416282
 40
1.0
 40
1.0
 40
1.0
 40
1.0
 10
41.77683208793991
 20
4.020415197112597
 30
0.0
 10
42.31796682387076
 20
4.249370726338843
 30
0.0
 10
43.59241183414793
 20
4.788591760257178
 30
0.0
 10
45.60016338474143
 20
5.39733939983282
 30
0.0
 10
47.80008480419016
 20
5.865848897015564
 30
0.0
 10
49.26669568666868
 20
5.951902270710424
 30
0.0
 10
50.00000000000001
 20
6.000000000000151
 30
0.0
  0
LINE
  5
B4
330
1F
100
AcDbEntity
  8
0
  6
Continuous
 62
   131
370
    15
100
AcDbLine
 10
10.0
 20
-4.39597650193148
 30
0.0
 11
10.0
 21
-3.097199760674499
 31
0.0
  0
SPLINE
  5
B5
330
1F
100
AcDbEntity
  8
0
  6
Continuous
 62
     1
370
    15
100
AcDbSpline
210
0.0
220
0.0
230
1.0
 70
     8
 71
     3
 72
    13
 73
     9
 74
     0
 42
0.000000001
 43
0.00000001
 40
0.0
 40
0.0
 40
0.0
 40
0.0
 40
0.1115618353789443
 40
0.3017331855353465
 40
0.491857074724478
 40
0.6818580543928423
 40
0.8719054416460817
 40
1.0
 40
1.0
 40
1.0
 40
1.0
 10
46.28766238388619
 20
1.678126369561338
 30
0.0
 10
45.77403912747783
 20
1.896902904490823
 30
0.0
 10
44.38487964659692
 20
2.488611893325882
 30
0.0
 10
42.11863376451007
 20
3.334788172948743
 30
0.0
 10
39.49170911460953
 20
4.113269530513236
 30
0.0
 10
36.86553433420228
 20
4.617357255479165
 30
0.0
 10
34.52497668995809
 20
4.843868055909335
 30
0.0
 10
33.059440735142
 20
4.765627299204352
 30
0.0
 10
32.46936707941676
 20
4.734124960975188
 30
0.0
  0
SPLINE
  5
B6
330
1F
100
AcDbEntity
  8
0
  6
Continuous
 62
     1
370
    15
100
AcDbSpline
210
0.0
220
0.0
230
1.0
 70
    24
 71
     3
 72
    10
 73
     6
 74
     0
 42
0.000000001
 43
0.00000001
 40
0.0
 40
0.0
 40
0.0
 40
0.0
 40
0.4999999999999999
 40
0.4999999999999999
 40
1.0
 40
1.0
 40
1.0
 40
1.0
 10
50.00000000000001
 20
-4.733833586209284
 30
0.0
 10
50.00000000000001
 20
-4.370948334022819
 30
0.0
 10
50.00000000000001
 20
-3.912428903438803
 30
0.0
 10
49.99999999999998
 20
-2.846415354904069
 30
0.0
 10
50.00000000000001
 20
-2.23984465830785
 30
0.0
 10
50.00000000000001
 20
-1.603457676178052
 30
0.0
  0
SPLINE
  5
B7
330
1F
100
AcDbEntity
  8
0
  6
Continuous
 62
     1
370
    15
100
AcDbSpline
210
0.0
220
0.0
230
1.0
 70
     8
 71
     3
 72
    19
 73
    15
 74
     0
 42
0.000000001
 43
0.00000001
 40
0.0
 40
0.0
 40
0.0
 40
0.0
 40
0.0158455124873738
 40
0.1120479102525107
 40
0.2083016409857229
 40
0.3045656377262982
 40
0.4007987386329775
 40
0.4969710996894232
 40
0.5931849213700058
 40
0.6894432340646818
 40
0.7857049284756153
 40
0.8819288640474046
 40
0.9409859106058172
 40
1.0
 40
1.0
 40
1.0
 40
1.0
 10
37.29827444437148
 20
-4.491989873745776
 30
0.0
 10
37.15409381756445
 20
-4.520879480619606
 30
0.0
 10
36.13455355684406
 20
-4.725165715022483
 30
0.0
 10
34.23913909624602
 20
-4.827980521359063
 30
0.0
 10
31.61171961605562
 20
-4.760366537667486
 30
0.0
 10
28.98400777346107
 20
-4.364269434278843
 30
0.0
 10
26.35711261185484
 20
-3.697884634235887
 30
0.0
 10
23.73105266962267
 20
-2.79420166074972
 30
0.0
 10
21.10449152446171
 20
-1.713712945918981
 30
0.0
 10
18.47692556819311
 20
-0.5243790703276376
 30
0.0
 10
15.84934108087956
 20
0.6989480497851318
 30
0.0
 10
13.56013714966624
 20
1.724018547308176
 30
0.0
 10
11.61077815244273
 20
2.531884312475182
 30
0.0
 10
10.53679580380748
 20
2.923689714380024
 30
0.0
 10
10.0
 20
3.119521141143119
 30
0.0
  0
SPLINE
  5
B8
330
1F
100
AcDbEntity
  8
0
  6
Continuous
 62
   131
370
    15
100
AcDbSpline
210
0.0
220
0.0
230
1.0
 70
    24
 71
     3
 72
    14
 73
    10
 74
     0
 42
0.000000001
 43
0.00000001
 40
0.0
 40
0.0
 40
0.0
 40
0.0
 40
0.25
 40
0.25
 40
0.5
 40
0.5
 40
0.75
 40
0.75
 40
1.0
 40
1.0
 40
1.0
 40
1.0
 10
9.999999999999996
 20
3.119521141143121
 30
0.0
 10
9.999999999999996
 20
2.735436654201907
 30
0.0
 10
9.999999999999996
 20
2.314790256664107
 30
0.0
 10
9.999999999999996
 20
1.423344747212509
 30
0.0
 10
9.999999999999996
 20
0.952731887550477
 30
0.0
 10
9.999999999999996
 20
-0.0057483211172924
 30
0.0
 10
9.999999999999996
 20
-0.4933388901344863
 30
0.0
 10
9.999999999999996
 20
-1.450304633439059
 30
0.0
 10
9.999999999999996
 20
-1.919441962104932
 30
0.0
 10
9.999999999999996
 20
-2.364566603828124
 30
0.0
  0
SPLINE
  5
B9
330
1F
100
AcDbEntity
  8
0
  6
Continuous
 62
   131
370
    15
100
AcDbSpline
210
0.0
220
0.0
230
1.0
 70
    24
 71
     3
 72
    11
 73
     7
 74
     0
 42
0.000000001
 43
0.00000001
 40
0.0
 40
0.0
 40
0.0
 40
0.0
 40
0.0208064217185813
 40
0.3525920523824413
 40
0.6717658929870209
 40
1.0
 40
1.0
 40
1.0
 40
1.0
 10
10.0
 20
3.972270816703713
 30
0.0
 10
10.0
 20
3.974083622042956
 30
0.0
 10
10.0
 20
4.004803981544383
 30
0.0
 10
10.0
 20
3.887661282431639
 30
0.0
 10
10.0
 20
3.621426248902938
 30
0.0
 10
10.0
 20
3.288376485240789
 30
0.0
 10
10.0
 20
3.119521141143118
 30
0.0
  0
LINE
  5
BA
330
1F
100
AcDbEntity
  8
0
  6
Continuous
 62
     1
370
    15
100
AcDbLine
 10
50.00000000000001
 20
4.200000000000009
 30
0.0
 11
47.76625104044055
 21
4.086491464575329
 31
0.0
  0
SPLINE
  5
BB
330
1F
100
AcDbEntity
  8
0
  6
Continuous
 62
     1
370
    15
100
AcDbSpline
210
0.0
220
0.0
230
1.0
 70
     8
 71
     3
 72
    10
 73
     6
 74
     0
 42
0.000000001
 43
0.00000001
 40
0.0
 40
0.0
 40
0.0
 40
0.0
 40
0.5
 40
0.5
 40
1.0
 40
1.0
 40
1.0
 40
1.0
 10
50.00000000000001
 20
4.200000000000009
 30
0.0
 10
49.25332347653936
 20
3.997490621300247
 30
0.0
 10
48.51228338110266
 20
3.765127278277482
 30
0.0
 10
47.04287433025132
 20
3.233286497890206
 30
0.0
 10
46.31450293166839
 20
2.934090734052219
 30
0.0
 10
45.60063730606632
 20
2.584818657777564
 30
0.0
  0
SPLINE
  5
BC
330
1F
100
AcDbEntity
  8
0
  6
Continuous
 62
     1
370
    15
100
AcDbSpline
210
0.0
220
0.0
230
1.0
 70
    24
 71
     3
 72
    10
 73
     6
 74
     0
 42
0.000000001
 43
0.00000001
 40
0.0
 40
0.0
 40
0.0
 40
0.0
 40
0.5
 40
0.5
 40
1.0
 40
1.0
 40
1.0
 40
1.0
 10
50.00000000000001
 20
4.200000000000008
 30
0.0
 10
49.99999999999999
 20
4.454593540843891
 30
0.0
 10
50.00000000000001
 20
4.750454813202713
 30
0.0
 10
50.00000000000001
 20
5.371170965765144
 30
0.0
 10
50.00000000000001
 20
5.694440614808848
 30
0.0
 10
50.00000000000001
 20
6.000000000000158
 30
0.0
  0
LINE
  5
BD
330
1F
100
AcDbEntity
  8
0
  6
Continuous
 62
     1
370
    15
100
AcDbLine
 10
50.00000000000001
 20
0.0000000000000099
 30
0.0
 11
50.00000000000001
 21
4.200000000000009
 31
0.0
  0
SPLINE
  5
BE
330
1F
100
AcDbEntity
  8
0
  6
Continuous
 62
   131
370
    15
100
AcDbSpline
210
0.0
220
0.0
230
1.0
 70
     8
 71
     3
 72
     9
 73
     5
 74
     0
 42
0.000000001
 43
0.00000001
 40
0.0
 40
0.0
 40
0.0
 40
0.0
 40
0.0163054784777097
 40
1.0
 40
1.0
 40
1.0
 40
1.0
 10
9.090051556747794
 20
4.022256412459862
 30
0.0
 10
9.094994303680258
 20
4.024475804562488
 30
0.0
 10
9.398128427540637
 20
4.160589081192797
 30
0.0
 10
9.701537831523604
 20
4.279250204760378
 30
0.0
 10
9.999999999999996
 20
4.395976501931487
 30
0.0
  0
LINE
  5
BF
330
1F
100
AcDbEntity
  8
0
  6
Continuous
 62
   131
370
    15
100
AcDbLine
 10
7.970090650330286
 20
-2.040627515533186
 30
0.0
 11
7.97009065033029
 21
6.000000000000005
 31
0.0
  0
SPLINE
  5
C0
330
1F
100
AcDbEntity
  8
0
  6
Continuous
 62
   131
370
    15
100
AcDbSpline
210
0.0
220
0.0
230
1.0
 70
     8
 71
     3
 72
    10
 73
     6
 74
     0
 42
0.000000001
 43
0.00000001
 40
0.0
 40
0.0
 40
0.0
 40
0.0
 40
0.5
 40
0.5
 40
1.0
 40
1.0
 40
1.0
 40
1.0
 10
9.999999999999996
 20
-3.097199760693283
 30
0.0
 10
9.660887650528714
 20
-2.929766291370653
 30
0.0
 10
9.321140479534307
 20
-2.757285576940347
 30
0.0
 10
8.64522809711215
 20
-2.404724815064145
 30
0.0
 10
8.309063875219378
 20
-2.224663317262809
 30
0.0
 10
7.970185624354608
 20
-2.040869327865943
 30
0.0
  0
SPLINE
  5
C1
330
1F
100
AcDbEntity
  8
0
  6
Continuous
 62
   131
370
    15
100
AcDbSpline
210
0.0
220
0.0
230
1.0
 70
     8
 71
     3
 72
    10
 73
     6
 74
     0
 42
0.000000001
 43
0.00000001
 40
0.0
 40
0.0
 40
0.0
 40
0.0
 40
0.5
 40
0.5
 40
1.0
 40
1.0
 40
1.0
 40
1.0
 10
9.999999999999996
 20
-4.395976501931477
 30
0.0
 10
9.660871810594223
 20
-4.262919379003234
 30
0.0
 10
9.321108740663869
 20
-4.122762513019585
 30
0.0
 10
8.645165120423876
 20
-3.830297425029835
 30
0.0
 10
8.308984914429299
 20
-3.6780177785023
 30
0.0
 10
7.970090650330283
 20
-3.519724527592794
 30
0.0
  0
LINE
  5
C2
330
1F
100
AcDbEntity
  8
0
  6
Continuous
 62
   131
370
    15
100
AcDbLine
 10
7.97009065033029
 20
-5.999999999999995
 30
0.0
 11
7.970090650330283
 21
-3.519726558740099
 31
0.0
  0
LINE
  5
C3
330
1F
100
AcDbEntity
  8
0
  6
Continuous
 62
   131
370
    15
100
AcDbLine
 10
-68.99999999999999
 20
5.999999999999995
 30
0.0
 11
-68.99999999999999
 21
-6.0
 31
0.0
  0
LINE
  5
C4
330
1F
100
AcDbEntity
  8
0
  6
Continuous
 62
   131
370
    15
100
AcDbLine
 10
-69.99999999999999
 20
4.999999999999994
 30
0.0
 11
-69.99999999999999
 21
-4.999999999999997
 31
0.0
  0
SPLINE
  5
C5
330
1F
100
AcDbEntity
  8
0
  6
Continuous
 62
   131
370
    15
100
AcDbSpline
210
0.0
220
0.0
230
1.0
 70
    24
 71
     3
 72
     8
 73
     4
 74
     0
 42
0.000000001
 43
0.00000001
 40
0.0
 40
0.0
 40
0.0
 40
0.0
 40
1.0
 40
1.0
 40
1.0
 40
1.0
 10
10.00000000000001
 20
-2.364566603828131
 30
0.0
 10
10.00000000000001
 20
-2.590960798707321
 30
0.0
 10
10.00000000000001
 20
-2.83666234382679
 30
0.0
 10
10.00000000000001
 20
-3.097199760683204
 30
0.0
  0
SPLINE
  5
C6
330
1F
100
AcDbEntity
  8
0
  6
Continuous
 62
   131
370
    15
100
AcDbSpline
210
0.0
220
0.0
230
1.0
 70
     8
 71
     3
 72
    10
 73
     6
 74
     0
 42
0.000000001
 43
0.00000001
 40
0.0
 40
0.0
 40
0.0
 40
0.0
 40
0.5
 40
0.5
 40
1.0
 40
1.0
 40
1.0
 40
1.0
 10
9.999999999999982
 20
-2.364566603828118
 30
0.0
 10
9.660887650528705
 20
-2.217336978610204
 30
0.0
 10
9.321140479534304
 20
-2.066242021872139
 30
0.0
 10
8.645228097112154
 20
-1.758503448736676
 30
0.0
 10
8.309063875219376
 20
-1.601873560211988
 30
0.0
 10
7.970185624354608
 20
-1.442526808219876
 30
0.0
  0
SPLINE
  5
C7
330
1F
100
AcDbEntity
  8
0
  6
Continuous
 62
   131
370
    15
100
AcDbSpline
210
0.0
220
0.0
230
1.0
 70
     8
 71
     3
 72
    10
 73
     6
 74
     0
 42
0.000000001
 43
0.00000001
 40
0.0
 40
0.0
 40
0.0
 40
0.0
 40
0.5
 40
0.5
 40
1.0
 40
1.0
 40
1.0
 40
1.0
 10
9.99999999999999
 20
3.119521141143124
 30
0.0
 10
9.660877594307932
 20
3.238387429498498
 30
0.0
 10
9.321120329635093
 20
3.352347577251364
 30
0.0
 10
8.64518811540816
 20
3.568862949117956
 30
0.0
 10
8.309013745782455
 20
3.671443330900747
 30
0.0
 10
7.970125328672044
 20
3.768297286529779
 30
0.0
  0
SPLINE
  5
C8
330
1F
100
AcDbEntity
  8
0
  6
Continuous
 62
   131
370
    15
100
AcDbSpline
210
0.0
220
0.0
230
1.0
 70
    24
 71
     3
 72
    14
 73
    10
 74
     0
 42
0.000000001
 43
0.00000001
 40
0.0
 40
0.0
 40
0.0
 40
0.0
 40
0.25
 40
0.25
 40
0.5
 40
0.5
 40
0.75
 40
0.75
 40
1.0
 40
1.0
 40
1.0
 40
1.0
 10
9.999999999999996
 20
3.119521141143121
 30
0.0
 10
9.999999999999996
 20
2.735436654201907
 30
0.0
 10
9.999999999999996
 20
2.314790256664107
 30
0.0
 10
9.999999999999996
 20
1.423344747212509
 30
0.0
 10
9.999999999999996
 20
0.952731887550477
 30
0.0
 10
9.999999999999996
 20
-0.0057483211172924
 30
0.0
 10
9.999999999999996
 20
-0.4933388901344863
 30
0.0
 10
9.999999999999996
 20
-1.450304633439059
 30
0.0
 10
9.999999999999996
 20
-1.919441962104932
 30
0.0
 10
9.999999999999996
 20
-2.364566603828124
 30
0.0
  0
SPLINE
  5
C9
330
1F
100
AcDbEntity
  8
0
  6
Continuous
 62
   131
370
    15
100
AcDbSpline
210
0.0
220
0.0
230
1.0
 70
    24
 71
     3
 72
    11
 73
     7
 74
     0
 42
0.000000001
 43
0.00000001
 40
0.0
 40
0.0
 40
0.0
 40
0.0
 40
0.0189431495790943
 40
0.3513601231516596
 40
0.671141308144563
 40
1.0
 40
1.0
 40
1.0
 40
1.0
 10
10.0
 20
3.972737937376571
 30
0.0
 10
10.0
 20
3.974376937791065
 30
0.0
 10
10.0
 20
4.004777341117761
 30
0.0
 10
10.0
 20
3.887531870401528
 30
0.0
 10
10.0
 20
3.621459135576252
 30
0.0
 10
10.0
 20
3.288387549265547
 30
0.0
 10
10.0
 20
3.119521141143118
 30
0.0
  0
SPLINE
  5
CA
330
1F
100
AcDbEntity
  8
0
  6
Continuous
 62
   131
370
    15
100
AcDbSpline
210
0.0
220
0.0
230
1.0
 70
    24
 71
     3
 72
     9
 73
     5
 74
     0
 42
0.000000001
 43
0.00000001
 40
0.0
 40
0.0
 40
0.0
 40
0.0
 40
0.3732775838673491
 40
1.0
 40
1.0
 40
1.0
 40
1.0
 10
10.0
 20
4.395976501931489
 30
0.0
 10
10.0
 20
4.349527696388612
 30
0.0
 10
10.0
 20
4.225092671221432
 30
0.0
 10
10.0
 20
4.123681668309136
 30
0.0
 10
10.0
 20
4.060125119541506
 30
0.0
  0
LINE
  5
CB
330
1F
100
AcDbEntity
  8
중심선
100
AcDbLine
 10
-72.99999999999999
 20
-0.0000000000000004
 30
0.0
 11
53.00000000000001
 21
0.0000000000000101
 31
0.0
  0
CIRCLE
  5
CC
330
1F
100
AcDbEntity
  8
외형선
100
AcDbCircle
 10
0.0000000000000104
 20
0.0
 30
0.0
 40
3.000000000000005
  0
INSERT
  5
CD
330
1F
100
AcDbEntity
  8
0
  6
Continuous
 62
     7
100
AcDbBlockReference
 66
     1
  2
블럭10
 10
-22.93944368806589
 20
-52.04609937292004
 30
0.0
  0
ATTRIB
  5
CE
330
CD
100
AcDbEntity
  8
FORMAT
 62
     2
100
AcDbText
 10
-43.79769121965843
 20
-49.97073246008785
 30
0.0
 40
4.233333333333333
  1
SEME7012040120E [ 2 FLUTE ]
 41
0.75
  7
SLDTEXTSTYLE0
 11
-43.79769121965843
 21
-52.08739912675452
 31
0.0
100
AcDbAttribute
  2
AUTOATTR0
 70
     0
 74
     1
  0
SEQEND
  5
CF
330
CD
100
AcDbEntity
  8
0
  6
Continuous
 62
     7
  0
HATCH
  5
D0
330
1F
100
AcDbEntity
  8
중심선
100
AcDbHatch
 10
0.0
 20
0.0
 30
0.0
210
0.0
220
0.0
230
1.0
  2
SOLID
 70
     1
 71
     0
 91
        1
 92
        0
 93
        4
 72
     1
 10
-17.22453438368504
 20
-35.7989250712761
 11
-20.67080962752232
 21
-35.7989250712761
 72
     1
 10
-20.67080962752232
 20
-35.7989250712761
 11
-22.79903948672635
 21
-38.3352506518487
 72
     1
 10
-22.79903948672635
 20
-38.3352506518487
 11
-19.35273115777591
 21
-38.33521122254621
 72
     1
 10
-19.35273115777591
 20
-38.33521122254621
 11
-17.22453438368504
 21
-35.7989250712761
 97
        0
 75
     0
 76
     1
 98
        1
 10
0.0
 20
0.0
  0
HATCH
  5
D1
330
1F
100
AcDbEntity
  8
중심선
100
AcDbHatch
 10
0.0
 20
0.0
 30
0.0
210
0.0
220
0.0
230
1.0
  2
SOLID
 70
     1
 71
     0
 91
        1
 92
        0
 93
        4
 72
     1
 10
-12.21177039264909
 20
-35.7989250712761
 11
-15.65804563648637
 21
-35.7989250712761
 72
     1
 10
-15.65804563648637
 20
-35.7989250712761
 11
-20.18918364484376
 21
-41.19892507127612
 72
     1
 10
-20.18918364484376
 20
-41.19892507127612
 11
-16.74290840100648
 21
-41.19892507127612
 72
     1
 10
-16.74290840100648
 20
-41.19892507127612
 11
-12.21177039264909
 21
-35.7989250712761
 97
        0
 75
     0
 76
     1
 98
        1
 10
0.0
 20
0.0
  0
HATCH
  5
D2
330
1F
100
AcDbEntity
  8
중심선
100
AcDbHatch
 10
0.0
 20
0.0
 30
0.0
210
0.0
220
0.0
230
1.0
  2
SOLID
 70
     1
 71
     0
 91
        1
 92
        0
 93
        4
 72
     1
 10
-7.199006401613195
 20
-35.79892507127613
 11
-10.64528164545031
 21
-35.7989250712761
 72
     1
 10
-10.64528164545031
 20
-35.7989250712761
 11
-17.69371854733956
 21
-44.19892507127612
 72
     1
 10
-17.69371854733956
 20
-44.19892507127612
 11
-14.24744330350228
 21
-44.19892507127612
 72
     1
 10
-14.24744330350228
 20
-44.19892507127612
 11
-7.199006401613195
 21
-35.79892507127613
 97
        0
 75
     0
 76
     1
 98
        1
 10
0.0
 20
0.0
  0
HATCH
  5
D3
330
1F
100
AcDbEntity
  8
중심선
100
AcDbHatch
 10
0.0
 20
0.0
 30
0.0
210
0.0
220
0.0
230
1.0
  2
SOLID
 70
     1
 71
     0
 91
        1
 92
        0
 93
        6
 72
     3
 10
-2.399115970600996
 20
-39.99892507132738
 11
3.960054785062284
 21
1.540850780301639E-10
 40
0.3939339440162633
 50
17.09539180608433
 51
320.0019657685079
 73
     0
 72
     1
 10
-0.7161163149004002
 20
-38.58681907591441
 11
1.589185558800638
 21
-36.65249236586649
 72
     3
 10
-2.399115970653842
 20
-39.99892507127625
 11
6.600054785286829
 21
-1.249000902703301E-13
 40
0.6363583540795982
 50
39.99873849337408
 51
368.4976242363725
 73
     1
 72
     1
 10
4.026216521246767
 20
-39.03892507120613
 11
-3.71904866381792
 21
-39.0389250712061
 72
     1
 10
-3.71904866381792
 20
-39.0389250712061
 11
-3.719073708263854
 21
-40.95892507120602
 72
     1
 10
-3.719073708263854
 20
-40.95892507120602
 11
0.7223060612081831
 21
-40.95892507120599
 97
        0
 75
     0
 76
     1
 98
        1
 10
0.0
 20
0.0
  0
DIMENSION
  5
D4
330
1F
100
AcDbEntity
  8
치수문자_일반주서
100
AcDbDimension
  2
_D
 10
64.94437846910368
 20
6.000000000000204
 30
0.0
 11
64.94437846910364
 21
16.54150000000021
 31
0.0
 70
   160
  1
%%c<>
 71
     2
 42
12.0
 52
-270.0
  3
SLDDIMSTYLE0
100
AcDbAlignedDimension
 13
50.00000000000001
 23
-5.999999999999845
 33
0.0
 14
50.00000000000001
 24
6.000000000000151
 34
0.0
 50
90.0000000000002
100
AcDbRotatedDimension
  0
DIMENSION
  5
E2
330
1F
100
AcDbEntity
  8
치수문자_일반주서
100
AcDbDimension
  2
_D_1
 10
49.99999999999999
 20
26.78841044024269
 30
0.0
 11
-9.999999999999988
 21
26.78841044024269
 31
0.0
 70
   160
  1
<>
 71
     2
 42
120.0
  3
SLDDIMSTYLE1
100
AcDbAlignedDimension
 13
-69.99999999999999
 23
4.999999999999994
 33
0.0
 14
50.00000000000001
 24
6.000000000000151
 34
0.0
 50
-0.0000000000000051
100
AcDbRotatedDimension
  0
DIMENSION
  5
ED
330
1F
100
AcDbEntity
  8
치수문자_일반주서
100
AcDbDimension
  2
_D_2
 10
50.0
 20
17.32476524993956
 30
0.0
 11
30.00000000000001
 21
17.32476524993956
 31
0.0
 70
   160
  1
<>
 71
     2
 42
40.00000000000001
  3
SLDDIMSTYLE1
100
AcDbAlignedDimension
 13
9.999999999999996
 23
4.395976501931491
 33
0.0
 14
50.00000000000001
 24
6.000000000000151
 34
0.0
 50
-0.0000000000000051
100
AcDbRotatedDimension
  0
DIMENSION
  5
F7
330
1F
100
AcDbEntity
  8
치수문자_일반주서
100
AcDbDimension
  2
_D_3
 10
-81.15787602174706
 20
-6.000000000000039
 30
0.0
 11
-81.15787602174714
 21
16.54149999999995
 31
0.0
 70
   160
  1
%%c<>
 71
     2
 42
11.99999999999999
 52
-270.0
  3
SLDDIMSTYLE0
100
AcDbAlignedDimension
 13
-68.99999999999999
 23
5.999999999999995
 33
0.0
 14
-68.99999999999999
 24
-5.999999999999995
 34
0.0
 50
90.0000000000002
100
AcDbRotatedDimension
  0
INSERT
  5
10A
330
1F
100
AcDbEntity
  8
외형선
100
AcDbBlockReference
  2
SW_DOWELSYMBOL_0
 10
0.0000000000000104
 20
0.0
 30
0.0
  0
ENDSEC
  0
SECTION
  2
OBJECTS
  0
DICTIONARY
  5
C
330
0
100
AcDbDictionary
281
     1
  3
ACAD_GROUP
350
D
  3
ACAD_IMAGE_VARS
350
12E
  3
ACAD_LAYOUT
350
1A
  3
ACAD_MLINESTYLE
350
17
  3
ACAD_PLOTSETTINGS
350
19
  3
ACAD_PLOTSTYLENAME
350
E
  3
ACAD_SCALELIST
350
47
  3
APPDATA
350
12C
  3
DWGPROPS
350
13C
  0
DICTIONARY
  5
D
102
{ACAD_REACTORS
330
C
102
}
330
C
100
AcDbDictionary
281
     1
  0
RASTERVARIABLES
  5
12E
102
{ACAD_REACTORS
330
C
102
}
330
C
100
AcDbRasterVariables
 90
        0
 70
     1
 71
     1
 72
     1
  0
DICTIONARY
  5
1A
102
{ACAD_REACTORS
330
C
102
}
330
C
100
AcDbDictionary
281
     1
  3
Layout1
350
1E
  3
Layout2
350
26
  3
Model
350
22
  0
DICTIONARY
  5
17
102
{ACAD_REACTORS
330
C
102
}
330
C
100
AcDbDictionary
281
     1
  3
Standard
350
18
  0
DICTIONARY
  5
19
102
{ACAD_REACTORS
330
C
102
}
330
C
100
AcDbDictionary
281
     1
  0
ACDBDICTIONARYWDFLT
  5
E
102
{ACAD_REACTORS
330
C
102
}
330
C
100
AcDbDictionary
281
     1
  3
Normal
350
F
100
AcDbDictionaryWithDefault
340
F
  0
DICTIONARY
  5
47
102
{ACAD_REACTORS
330
C
102
}
330
C
100
AcDbDictionary
281
     1
  3
A0
350
48
  3
A1
350
49
  3
A2
350
4A
  3
A3
350
4B
  3
A4
350
4C
  3
A5
350
4D
  3
A6
350
4E
  3
A7
350
4F
  3
A8
350
50
  3
A9
350
51
  3
B0
350
52
  3
B1
350
53
  3
B2
350
54
  3
B3
350
55
  3
B4
350
56
  3
B5
350
57
  3
B6
350
58
  3
B7
350
59
  3
B8
350
5A
  3
B9
350
5B
  3
C0
350
5C
  3
C1
350
5D
  3
C2
350
5E
  3
C3
350
5F
  3
C4
350
60
  3
C5
350
61
  3
C6
350
62
  3
C7
350
63
  3
C8
350
64
  3
C9
350
65
  3
D0
350
66
  3
D1
350
67
  3
D2
350
68
  0
DICTIONARY
  5
12C
102
{ACAD_REACTORS
330
C
102
}
330
C
100
AcDbDictionary
281
     1
  0
XRECORD
  5
13C
102
{ACAD_REACTORS
330
C
102
}
330
C
100
AcDbXrecord
280
     1
  1
DWGPROPS COOKIE
  2

  3

  4

  6

  7

  8
12014102
  9

300
=
301
=
302
=
303
=
304
=
305
=
306
=
307
=
308
=
309
=
 40
0.0
 41
2458262.172361759
 42
2458266.304037141
  1

 90
        0
  0
LAYOUT
  5
1E
102
{ACAD_REACTORS
330
1A
102
}
330
1A
100
AcDbPlotSettings
  1

  2
none_device
  4

  6

 40
0.0
 41
0.0
 42
0.0
 43
0.0
 44
0.0
 45
0.0
 46
0.0
 47
0.0
 48
0.0
 49
0.0
140
0.0
141
0.0
142
1.0
143
1.0
 70
   688
 72
     1
 73
     0
 74
     5
  7

 75
    16
147
1.0
148
0.0
149
0.0
100
AcDbLayout
  1
Layout1
 70
     1
 71
     1
 10
0.0
 20
0.0
 11
420.0
 21
297.0
 12
0.0
 22
0.0
 32
0.0
 14
1.000000000000000E+20
 24
1.000000000000000E+20
 34
1.000000000000000E+20
 15
-1.000000000000000E+20
 25
-1.000000000000000E+20
 35
-1.000000000000000E+20
146
0.0
 13
0.0
 23
0.0
 33
0.0
 16
1.0
 26
0.0
 36
0.0
 17
0.0
 27
1.0
 37
0.0
 76
     0
330
1B
  0
LAYOUT
  5
26
102
{ACAD_REACTORS
330
1A
102
}
330
1A
100
AcDbPlotSettings
  1

  2
none_device
  4

  6

 40
0.0
 41
0.0
 42
0.0
 43
0.0
 44
0.0
 45
0.0
 46
0.0
 47
0.0
 48
0.0
 49
0.0
140
0.0
141
0.0
142
1.0
143
1.0
 70
   688
 72
     1
 73
     0
 74
     5
  7

 75
    16
147
1.0
148
0.0
149
0.0
100
AcDbLayout
  1
Layout2
 70
     1
 71
     2
 10
0.0
 20
0.0
 11
0.0
 21
0.0
 12
0.0
 22
0.0
 32
0.0
 14
0.0
 24
0.0
 34
0.0
 15
0.0
 25
0.0
 35
0.0
146
0.0
 13
0.0
 23
0.0
 33
0.0
 16
1.0
 26
0.0
 36
0.0
 17
0.0
 27
1.0
 37
0.0
 76
     0
330
23
  0
LAYOUT
  5
22
102
{ACAD_REACTORS
330
1A
102
}
330
1A
100
AcDbPlotSettings
  1

  2
none_device
  4
ANSI_A_(11.00_x_8.50_Inches)
  6

 40
6.35
 41
19.05
 42
6.35000508
 43
19.05000254
 44
279.4
 45
215.9
 46
159.8435179745316
 47
108.6332712447248
 48
0.0
 49
0.0
140
0.0
141
0.0
142
0.0800372376518905
143
1.0
 70
  1696
 72
     0
 73
     0
 74
     0
  7

 75
     0
147
0.0235690232323232
148
0.0
149
0.0
100
AcDbLayout
  1
Model
 70
     1
 71
     0
 10
0.0
 20
0.0
 11
420.0
 21
297.0
 12
0.0
 22
0.0
 32
0.0
 14
-85.53287602174716
 24
-49.97073246008785
 34
0.0
 15
65.49471180243707
 25
31.16341044024269
 35
0.0
146
0.0
 13
0.0
 23
0.0
 33
0.0
 16
1.0
 26
0.0
 36
0.0
 17
0.0
 27
1.0
 37
0.0
 76
     0
330
1F
331
29
  0
MLINESTYLE
  5
18
102
{ACAD_REACTORS
330
17
102
}
330
17
100
AcDbMlineStyle
  2
Standard
 70
     0
  3

 62
   256
 51
90.0
 52
90.0
 71
     2
 49
0.5
 62
   256
  6
BYLAYER
 49
-0.5
 62
   256
  6
BYLAYER
  0
ACDBPLACEHOLDER
  5
F
102
{ACAD_REACTORS
330
E
102
}
330
E
  0
SCALE
  5
48
102
{ACAD_REACTORS
330
47
102
}
330
47
100
AcDbScale
 70
     0
300
1:1
140
1.0
141
1.0
290
     1
  0
SCALE
  5
49
102
{ACAD_REACTORS
330
47
102
}
330
47
100
AcDbScale
 70
     0
300
1:2
140
1.0
141
2.0
290
     0
  0
SCALE
  5
4A
102
{ACAD_REACTORS
330
47
102
}
330
47
100
AcDbScale
 70
     0
300
1:4
140
1.0
141
4.0
290
     0
  0
SCALE
  5
4B
102
{ACAD_REACTORS
330
47
102
}
330
47
100
AcDbScale
 70
     0
300
1:5
140
1.0
141
5.0
290
     0
  0
SCALE
  5
4C
102
{ACAD_REACTORS
330
47
102
}
330
47
100
AcDbScale
 70
     0
300
1:8
140
1.0
141
8.0
290
     0
  0
SCALE
  5
4D
102
{ACAD_REACTORS
330
47
102
}
330
47
100
AcDbScale
 70
     0
300
1:10
140
1.0
141
10.0
290
     0
  0
SCALE
  5
4E
102
{ACAD_REACTORS
330
47
102
}
330
47
100
AcDbScale
 70
     0
300
1:16
140
1.0
141
16.0
290
     0
  0
SCALE
  5
4F
102
{ACAD_REACTORS
330
47
102
}
330
47
100
AcDbScale
 70
     0
300
1:20
140
1.0
141
20.0
290
     0
  0
SCALE
  5
50
102
{ACAD_REACTORS
330
47
102
}
330
47
100
AcDbScale
 70
     0
300
1:30
140
1.0
141
30.0
290
     0
  0
SCALE
  5
51
102
{ACAD_REACTORS
330
47
102
}
330
47
100
AcDbScale
 70
     0
300
1:40
140
1.0
141
40.0
290
     0
  0
SCALE
  5
52
102
{ACAD_REACTORS
330
47
102
}
330
47
100
AcDbScale
 70
     0
300
1:50
140
1.0
141
50.0
290
     0
  0
SCALE
  5
53
102
{ACAD_REACTORS
330
47
102
}
330
47
100
AcDbScale
 70
     0
300
1:100
140
1.0
141
100.0
290
     0
  0
SCALE
  5
54
102
{ACAD_REACTORS
330
47
102
}
330
47
100
AcDbScale
 70
     0
300
2:1
140
2.0
141
1.0
290
     0
  0
SCALE
  5
55
102
{ACAD_REACTORS
330
47
102
}
330
47
100
AcDbScale
 70
     0
300
4:1
140
4.0
141
1.0
290
     0
  0
SCALE
  5
56
102
{ACAD_REACTORS
330
47
102
}
330
47
100
AcDbScale
 70
     0
300
8:1
140
8.0
141
1.0
290
     0
  0
SCALE
  5
57
102
{ACAD_REACTORS
330
47
102
}
330
47
100
AcDbScale
 70
     0
300
10:1
140
10.0
141
1.0
290
     0
  0
SCALE
  5
58
102
{ACAD_REACTORS
330
47
102
}
330
47
100
AcDbScale
 70
     0
300
100:1
140
100.0
141
1.0
290
     0
  0
SCALE
  5
59
102
{ACAD_REACTORS
330
47
102
}
330
47
100
AcDbScale
 70
     0
300
1/128" = 1'-0"
140
0.0078125
141
12.0
290
     0
  0
SCALE
  5
5A
102
{ACAD_REACTORS
330
47
102
}
330
47
100
AcDbScale
 70
     0
300
1/64" = 1'-0"
140
0.015625
141
12.0
290
     0
  0
SCALE
  5
5B
102
{ACAD_REACTORS
330
47
102
}
330
47
100
AcDbScale
 70
     0
300
1/32" = 1'-0"
140
0.03125
141
12.0
290
     0
  0
SCALE
  5
5C
102
{ACAD_REACTORS
330
47
102
}
330
47
100
AcDbScale
 70
     0
300
1/16" = 1'-0"
140
0.0625
141
12.0
290
     0
  0
SCALE
  5
5D
102
{ACAD_REACTORS
330
47
102
}
330
47
100
AcDbScale
 70
     0
300
3/32" = 1'-0"
140
0.09375
141
12.0
290
     0
  0
SCALE
  5
5E
102
{ACAD_REACTORS
330
47
102
}
330
47
100
AcDbScale
 70
     0
300
1/8" = 1'-0"
140
0.125
141
12.0
290
     0
  0
SCALE
  5
5F
102
{ACAD_REACTORS
330
47
102
}
330
47
100
AcDbScale
 70
     0
300
3/16" = 1'-0"
140
0.1875
141
12.0
290
     0
  0
SCALE
  5
60
102
{ACAD_REACTORS
330
47
102
}
330
47
100
AcDbScale
 70
     0
300
1/4" = 1'-0"
140
0.25
141
12.0
290
     0
  0
SCALE
  5
61
102
{ACAD_REACTORS
330
47
102
}
330
47
100
AcDbScale
 70
     0
300
3/8" = 1'-0"
140
0.375
141
12.0
290
     0
  0
SCALE
  5
62
102
{ACAD_REACTORS
330
47
102
}
330
47
100
AcDbScale
 70
     0
300
1/2" = 1'-0"
140
0.5
141
12.0
290
     0
  0
SCALE
  5
63
102
{ACAD_REACTORS
330
47
102
}
330
47
100
AcDbScale
 70
     0
300
3/4" = 1'-0"
140
0.75
141
12.0
290
     0
  0
SCALE
  5
64
102
{ACAD_REACTORS
330
47
102
}
330
47
100
AcDbScale
 70
     0
300
1" = 1'-0"
140
1.0
141
12.0
290
     0
  0
SCALE
  5
65
102
{ACAD_REACTORS
330
47
102
}
330
47
100
AcDbScale
 70
     0
300
1-1/2" = 1'-0"
140
1.5
141
12.0
290
     0
  0
SCALE
  5
66
102
{ACAD_REACTORS
330
47
102
}
330
47
100
AcDbScale
 70
     0
300
3" = 1'-0"
140
3.0
141
12.0
290
     0
  0
SCALE
  5
67
102
{ACAD_REACTORS
330
47
102
}
330
47
100
AcDbScale
 70
     0
300
6" = 1'-0"
140
6.0
141
12.0
290
     0
  0
SCALE
  5
68
102
{ACAD_REACTORS
330
47
102
}
330
47
100
AcDbScale
 70
     0
300
1'-0" = 1'-0"
140
12.0
141
12.0
290
     0
  0
ENDSEC
  0
EOF
