  0
SECTION
  2
HEADER
  9
$ACADVER
  1
AC1015
  9
$ACADMAINTVER
 70
     6
  9
$DWGCODEPAGE
  3
ANSI_949
  9
$INSBASE
 10
0.0
 20
0.0
 30
0.0
  9
$EXTMIN
 10
-65.4819310742452
 20
-49.97073246008785
 30
0.0
  9
$EXTMAX
 10
64.19570481451474
 20
31.16341044024269
 30
0.0
  9
$LIMMIN
 10
0.0
 20
0.0
  9
$LIMMAX
 10
420.0
 20
297.0
  9
$ORTHOMODE
 70
     0
  9
$REGENMODE
 70
     1
  9
$FILLMODE
 70
     1
  9
$QTEXTMODE
 70
     0
  9
$MIRRTEXT
 70
     1
  9
$LTSCALE
 40
1.0
  9
$ATTMODE
 70
     1
  9
$TEXTSIZE
 40
3.5
  9
$TRACEWID
 40
1.0
  9
$TEXTSTYLE
  7
Standard
  9
$CLAYER
  8
0
  9
$CELTYPE
  6
ByLayer
  9
$CECOLOR
 62
   256
  9
$CELTSCALE
 40
1.0
  9
$DISPSILH
 70
     0
  9
$DIMSCALE
 40
1.0
  9
$DIMASZ
 40
3.302
  9
$DIMEXO
 40
1.0
  9
$DIMDLI
 40
3.75
  9
$DIMRND
 40
0.0
  9
$DIMDLE
 40
0.0
  9
$DIMEXE
 40
1.0
  9
$DIMTP
 40
0.0
  9
$DIMTM
 40
0.0
  9
$DIMTXT
 40
3.5
  9
$DIMCEN
 40
2.5
  9
$DIMTSZ
 40
0.0
  9
$DIMTOL
 70
     0
  9
$DIMLIM
 70
     0
  9
$DIMTIH
 70
     1
  9
$DIMTOH
 70
     1
  9
$DIMSE1
 70
     0
  9
$DIMSE2
 70
     0
  9
$DIMTAD
 70
     1
  9
$DIMZIN
 70
     0
  9
$DIMBLK
  1

  9
$DIMASO
 70
     1
  9
$DIMSHO
 70
     1
  9
$DIMPOST
  1

  9
$DIMAPOST
  1

  9
$DIMALT
 70
     0
  9
$DIMALTD
 70
     3
  9
$DIMALTF
 40
0.0393700787401575
  9
$DIMLFAC
 40
1.0
  9
$DIMTOFL
 70
     1
  9
$DIMTVP
 40
0.0
  9
$DIMTIX
 70
     0
  9
$DIMSOXD
 70
     0
  9
$DIMSAH
 70
     0
  9
$DIMBLK1
  1

  9
$DIMBLK2
  1

  9
$DIMSTYLE
  2
ISO-25
  9
$DIMCLRD
 70
     0
  9
$DIMCLRE
 70
     0
  9
$DIMCLRT
 70
     0
  9
$DIMTFAC
 40
1.0
  9
$DIMGAP
 40
1.524
  9
$DIMJUST
 70
     0
  9
$DIMSD1
 70
     0
  9
$DIMSD2
 70
     0
  9
$DIMTOLJ
 70
     0
  9
$DIMTZIN
 70
     0
  9
$DIMALTZ
 70
     0
  9
$DIMALTTZ
 70
     0
  9
$DIMUPT
 70
     0
  9
$DIMDEC
 70
     2
  9
$DIMTDEC
 70
     2
  9
$DIMALTU
 70
     2
  9
$DIMALTTD
 70
     3
  9
$DIMTXSTY
  7
Standard
  9
$DIMAUNIT
 70
     0
  9
$DIMADEC
 70
     2
  9
$DIMALTRND
 40
0.0
  9
$DIMAZIN
 70
     0
  9
$DIMDSEP
 70
    44
  9
$DIMATFIT
 70
     3
  9
$DIMFRAC
 70
     0
  9
$DIMLDRBLK
  1

  9
$DIMLUNIT
 70
     2
  9
$DIMLWD
 70
    -2
  9
$DIMLWE
 70
    -2
  9
$DIMTMOVE
 70
     0
  9
$LUNITS
 70
     2
  9
$LUPREC
 70
     2
  9
$SKETCHINC
 40
1.0
  9
$FILLETRAD
 40
10.0
  9
$AUNITS
 70
     0
  9
$AUPREC
 70
     2
  9
$MENU
  1
.
  9
$ELEVATION
 40
0.0
  9
$PELEVATION
 40
0.0
  9
$THICKNESS
 40
0.0
  9
$LIMCHECK
 70
     0
  9
$CHAMFERA
 40
0.0
  9
$CHAMFERB
 40
0.0
  9
$CHAMFERC
 40
0.0
  9
$CHAMFERD
 40
0.0
  9
$SKPOLY
 70
     0
  9
$TDCREATE
 40
2458262.547549317
  9
$TDUCREATE
 40
2458262.172549317
  9
$TDUPDATE
 40
2458266.489854444
  9
$TDUUPDATE
 40
2458266.114854444
  9
$TDINDWG
 40
0.0013081829
  9
$TDUSRTIMER
 40
2458266.113546308
  9
$USRTIMER
 70
     1
  9
$ANGBASE
 50
0.0
  9
$ANGDIR
 70
     0
  9
$PDMODE
 70
     0
  9
$PDSIZE
 40
-1.0
  9
$PLINEWID
 40
0.0
  9
$SPLFRAME
 70
     0
  9
$SPLINETYPE
 70
     6
  9
$SPLINESEGS
 70
     8
  9
$HANDSEED
  5
13D
  9
$SURFTAB1
 70
     6
  9
$SURFTAB2
 70
     6
  9
$SURFTYPE
 70
     6
  9
$SURFU
 70
     6
  9
$SURFV
 70
     6
  9
$UCSBASE
  2

  9
$UCSNAME
  2

  9
$UCSORG
 10
0.0
 20
0.0
 30
0.0
  9
$UCSXDIR
 10
1.0
 20
0.0
 30
0.0
  9
$UCSYDIR
 10
0.0
 20
1.0
 30
0.0
  9
$UCSORTHOREF
  2

  9
$UCSORTHOVIEW
 70
     0
  9
$UCSORGTOP
 10
0.0
 20
0.0
 30
0.0
  9
$UCSORGBOTTOM
 10
0.0
 20
0.0
 30
0.0
  9
$UCSORGLEFT
 10
0.0
 20
0.0
 30
0.0
  9
$UCSORGRIGHT
 10
0.0
 20
0.0
 30
0.0
  9
$UCSORGFRONT
 10
0.0
 20
0.0
 30
0.0
  9
$UCSORGBACK
 10
0.0
 20
0.0
 30
0.0
  9
$PUCSBASE
  2

  9
$PUCSNAME
  2

  9
$PUCSORG
 10
0.0
 20
0.0
 30
0.0
  9
$PUCSXDIR
 10
1.0
 20
0.0
 30
0.0
  9
$PUCSYDIR
 10
0.0
 20
1.0
 30
0.0
  9
$PUCSORTHOREF
  2

  9
$PUCSORTHOVIEW
 70
     0
  9
$PUCSORGTOP
 10
0.0
 20
0.0
 30
0.0
  9
$PUCSORGBOTTOM
 10
0.0
 20
0.0
 30
0.0
  9
$PUCSORGLEFT
 10
0.0
 20
0.0
 30
0.0
  9
$PUCSORGRIGHT
 10
0.0
 20
0.0
 30
0.0
  9
$PUCSORGFRONT
 10
0.0
 20
0.0
 30
0.0
  9
$PUCSORGBACK
 10
0.0
 20
0.0
 30
0.0
  9
$USERI1
 70
     0
  9
$USERI2
 70
     0
  9
$USERI3
 70
     0
  9
$USERI4
 70
     0
  9
$USERI5
 70
     0
  9
$USERR1
 40
0.0
  9
$USERR2
 40
0.0
  9
$USERR3
 40
0.0
  9
$USERR4
 40
0.0
  9
$USERR5
 40
0.0
  9
$WORLDVIEW
 70
     1
  9
$SHADEDGE
 70
     3
  9
$SHADEDIF
 70
    70
  9
$TILEMODE
 70
     1
  9
$MAXACTVP
 70
    64
  9
$PINSBASE
 10
0.0
 20
0.0
 30
0.0
  9
$PLIMCHECK
 70
     0
  9
$PEXTMIN
 10
1.000000000000000E+20
 20
1.000000000000000E+20
 30
1.000000000000000E+20
  9
$PEXTMAX
 10
-1.000000000000000E+20
 20
-1.000000000000000E+20
 30
-1.000000000000000E+20
  9
$PLIMMIN
 10
0.0
 20
0.0
  9
$PLIMMAX
 10
0.0
 20
0.0
  9
$UNITMODE
 70
     0
  9
$VISRETAIN
 70
     1
  9
$PLINEGEN
 70
     0
  9
$PSLTSCALE
 70
     1
  9
$TREEDEPTH
 70
  3020
  9
$CMLSTYLE
  2
Standard
  9
$CMLJUST
 70
     0
  9
$CMLSCALE
 40
20.0
  9
$PROXYGRAPHICS
 70
     1
  9
$MEASUREMENT
 70
     1
  9
$CELWEIGHT
370
    -1
  9
$ENDCAPS
280
     0
  9
$JOINSTYLE
280
     0
  9
$LWDISPLAY
290
     1
  9
$INSUNITS
 70
     4
  9
$HYPERLINKBASE
  1

  9
$STYLESHEET
  1

  9
$XEDIT
290
     1
  9
$CEPSNTYPE
380
     0
  9
$PSTYLEMODE
290
     1
  9
$FINGERPRINTGUID
  2
{98A0F4F0-FF73-48E6-88D6-771DD9552042}
  9
$VERSIONGUID
  2
{FAEB1C32-E019-11D5-929B-00C0DF256EC4}
  9
$EXTNAMES
290
     1
  9
$PSVPSCALE
 40
0.0
  9
$OLESTARTUP
290
     0
  0
ENDSEC
  0
SECTION
  2
CLASSES
  0
CLASS
  1
ACDBDICTIONARYWDFLT
  2
AcDbDictionaryWithDefault
  3
ObjectDBX Classes
 90
        0
280
     0
281
     0
  0
CLASS
  1
VISUALSTYLE
  2
AcDbVisualStyle
  3
ObjectDBX Classes
 90
     4095
280
     0
281
     0
  0
CLASS
  1
MATERIAL
  2
AcDbMaterial
  3
ObjectDBX Classes
 90
     1153
280
     0
281
     0
  0
CLASS
  1
SCALE
  2
AcDbScale
  3
ObjectDBX Classes
 90
     1153
280
     0
281
     0
  0
CLASS
  1
SUN
  2
AcDbSun
  3
SCENEOE
 90
     1153
280
     0
281
     0
  0
CLASS
  1
ACDBPLACEHOLDER
  2
AcDbPlaceHolder
  3
ObjectDBX Classes
 90
        0
280
     0
281
     0
  0
CLASS
  1
LAYOUT
  2
AcDbLayout
  3
ObjectDBX Classes
 90
        0
280
     0
281
     0
  0
CLASS
  1
TABLESTYLE
  2
AcDbTableStyle
  3
ObjectDBX Classes
 90
     4095
280
     0
281
     0
  0
CLASS
  1
MLEADERSTYLE
  2
AcDbMLeaderStyle
  3
ACDB_MLEADERSTYLE_CLASS
 90
     4095
280
     0
281
     0
  0
CLASS
  1
RASTERVARIABLES
  2
AcDbRasterVariables
  3
ISM
 90
        0
280
     0
281
     0
  0
ENDSEC
  0
SECTION
  2
TABLES
  0
TABLE
  2
VPORT
  5
8
330
0
100
AcDbSymbolTable
 70
     1
  0
VPORT
  5
29
330
8
100
AcDbSymbolTableRecord
100
AcDbViewportTableRecord
  2
*Active
 70
     0
 10
0.0
 20
0.0
 11
1.0
 21
1.0
 12
-0.6431131298652275
 22
-9.40366100992258
 13
0.0
 23
0.0
 14
10.0
 24
10.0
 15
10.0
 25
10.0
 16
0.0
 26
0.0
 36
1.0
 17
0.0
 27
0.0
 37
0.0
 40
114.7734304724868
 41
1.152454780361757
 42
50.0
 43
0.0
 44
0.0
 50
0.0
 51
0.0
 71
    16
 72
  2000
 73
     1
 74
     3
 75
     0
 76
     0
 77
     0
 78
     0
281
     0
 65
     1
110
0.0
120
0.0
130
0.0
111
1.0
121
0.0
131
0.0
112
0.0
122
1.0
132
0.0
 79
     0
146
0.0
  0
ENDTAB
  0
TABLE
  2
LTYPE
  5
5
330
0
100
AcDbSymbolTable
 70
     6
  0
LTYPE
  5
14
330
5
100
AcDbSymbolTableRecord
100
AcDbLinetypeTableRecord
  2
ByBlock
 70
     0
  3

 72
    65
 73
     0
 40
0.0
  0
LTYPE
  5
15
330
5
100
AcDbSymbolTableRecord
100
AcDbLinetypeTableRecord
  2
ByLayer
 70
     0
  3

 72
    65
 73
     0
 40
0.0
  0
LTYPE
  5
16
330
5
100
AcDbSymbolTableRecord
100
AcDbLinetypeTableRecord
  2
Continuous
 70
     0
  3
Solid line
 72
    65
 73
     0
 40
0.0
  0
LTYPE
  5
6A
330
5
100
AcDbSymbolTableRecord
100
AcDbLinetypeTableRecord
  2
HIDDEN
 70
     0
  3
Hidden __ __ __ __ __ __ __ __ __ __ __ __ __ __
 72
    65
 73
     2
 40
1.905
 49
1.27
 74
     0
 49
-0.635
 74
     0
  0
LTYPE
  5
6B
330
5
100
AcDbSymbolTableRecord
100
AcDbLinetypeTableRecord
  2
PHANTOM
 70
     0
  3
Phantom ______  __  __  ______  __  __  ______
 72
    65
 73
     6
 40
12.7
 49
6.35
 74
     0
 49
-1.27
 74
     0
 49
1.27
 74
     0
 49
-1.27
 74
     0
 49
1.27
 74
     0
 49
-1.27
 74
     0
  0
LTYPE
  5
6C
330
5
100
AcDbSymbolTableRecord
100
AcDbLinetypeTableRecord
  2
CENTER
 70
     0
  3
Center ____ _ ____ _ ____ _ ____ _ ____ _ ____
 72
    65
 73
     4
 40
10.16
 49
6.35
 74
     0
 49
-1.27
 74
     0
 49
1.27
 74
     0
 49
-1.27
 74
     0
  0
LTYPE
  5
6D
330
5
100
AcDbSymbolTableRecord
100
AcDbLinetypeTableRecord
  2
CENTERX2
 70
     0
  3
Center (2x) ________  __  ________  __  _____
 72
    65
 73
     4
 40
20.32
 49
12.7
 74
     0
 49
-2.54
 74
     0
 49
2.54
 74
     0
 49
-2.54
 74
     0
  0
LTYPE
  5
6E
330
5
100
AcDbSymbolTableRecord
100
AcDbLinetypeTableRecord
  2
DOT2
 70
     0
  3
Dot (.5x) ........................................
 72
    65
 73
     2
 40
0.635
 49
0.0
 74
     0
 49
-0.635
 74
     0
  0
ENDTAB
  0
TABLE
  2
LAYER
  5
2
330
0
100
AcDbSymbolTable
 70
    17
  0
LAYER
  5
10
330
2
100
AcDbSymbolTableRecord
100
AcDbLayerTableRecord
  2
0
 70
     0
 62
     7
  6
Continuous
370
    -3
390
F
  0
LAYER
  5
6F
330
2
100
AcDbSymbolTableRecord
100
AcDbLayerTableRecord
  2
FORMAT
 70
     0
 62
     2
  6
Continuous
370
    -3
390
F
  0
LAYER
  5
70
330
2
100
AcDbSymbolTableRecord
100
AcDbLayerTableRecord
  2
외형선
 70
     0
 62
   100
  6
Continuous
370
    30
390
F
  0
LAYER
  5
71
330
2
100
AcDbSymbolTableRecord
100
AcDbLayerTableRecord
  2
숨은선
 70
     0
 62
     2
  6
HIDDEN
370
    15
390
F
  0
LAYER
  5
72
330
2
100
AcDbSymbolTableRecord
100
AcDbLayerTableRecord
  2
중심선
 70
     0
 62
     1
  6
CENTERX2
370
    -3
390
F
  0
LAYER
  5
73
330
2
100
AcDbSymbolTableRecord
100
AcDbLayerTableRecord
  2
파단선
 70
     0
 62
     4
  6
Continuous
370
    -3
390
F
  0
LAYER
  5
74
330
2
100
AcDbSymbolTableRecord
100
AcDbLayerTableRecord
  2
해칭선
 70
     0
 62
     4
  6
Continuous
370
    -3
390
F
  0
LAYER
  5
75
330
2
100
AcDbSymbolTableRecord
100
AcDbLayerTableRecord
  2
가는실선
 70
     0
 62
     4
  6
Continuous
370
    -3
390
F
  0
LAYER
  5
76
330
2
100
AcDbSymbolTableRecord
100
AcDbLayerTableRecord
  2
치수_보조선
 70
     0
 62
     4
  6
Continuous
370
    -3
390
F
  0
LAYER
  5
77
330
2
100
AcDbSymbolTableRecord
100
AcDbLayerTableRecord
  2
치수문자_일반주서
 70
     0
 62
     7
  6
Continuous
370
    15
390
F
  0
LAYER
  5
78
330
2
100
AcDbSymbolTableRecord
100
AcDbLayerTableRecord
  2
개별주서
 70
     0
 62
   100
  6
Continuous
370
    30
390
F
  0
LAYER
  5
79
330
2
100
AcDbSymbolTableRecord
100
AcDbLayerTableRecord
  2
중간선
 70
     0
 62
     2
  6
Continuous
370
    15
390
F
  0
LAYER
  5
7A
330
2
100
AcDbSymbolTableRecord
100
AcDbLayerTableRecord
  2
윤곽선
 70
     0
 62
     3
  6
Continuous
370
    40
390
F
  0
LAYER
  5
7B
330
2
100
AcDbSymbolTableRecord
100
AcDbLayerTableRecord
  2
중심마크
 70
     0
 62
   100
  6
Continuous
370
    30
390
F
  0
LAYER
  5
7C
330
2
100
AcDbSymbolTableRecord
100
AcDbLayerTableRecord
  2
가상선
 70
     0
 62
     4
  6
PHANTOM
370
    -3
390
F
  0
LAYER
  5
7D
330
2
100
AcDbSymbolTableRecord
100
AcDbLayerTableRecord
  2
특수지정선
 70
     0
 62
     5
  6
CENTERX2
370
    60
390
F
  0
LAYER
  5
12F
330
2
100
AcDbSymbolTableRecord
100
AcDbLayerTableRecord
  2
Defpoints
 70
     0
 62
     7
  6
Continuous
290
     0
370
    -3
390
F
  0
ENDTAB
  0
TABLE
  2
STYLE
  5
3
330
0
100
AcDbSymbolTable
 70
     2
  0
STYLE
  5
11
330
3
100
AcDbSymbolTableRecord
100
AcDbTextStyleTableRecord
  2
Standard
 70
     0
 40
0.0
 41
1.0
 50
0.0
 71
     0
 42
3.5
  3
txt
  4

  0
STYLE
  5
93
330
3
100
AcDbSymbolTableRecord
100
AcDbTextStyleTableRecord
  2
SLDTEXTSTYLE0
 70
     0
 40
0.0
 41
0.75
 50
0.0
 71
     0
 42
3.5
  3
TXT
  4

  0
ENDTAB
  0
TABLE
  2
VIEW
  5
6
330
0
100
AcDbSymbolTable
 70
     0
  0
ENDTAB
  0
TABLE
  2
UCS
  5
7
330
0
100
AcDbSymbolTable
 70
     0
  0
ENDTAB
  0
TABLE
  2
APPID
  5
9
330
0
100
AcDbSymbolTable
 70
     1
  0
APPID
  5
12
330
9
100
AcDbSymbolTableRecord
100
AcDbRegAppTableRecord
  2
ACAD
 70
     0
  0
ENDTAB
  0
TABLE
  2
DIMSTYLE
  5
A
330
0
100
AcDbSymbolTable
 70
     3
100
AcDbDimStyleTable
  0
DIMSTYLE
105
27
330
A
100
AcDbSymbolTableRecord
100
AcDbDimStyleTableRecord
  2
ISO-25
 70
     0
 41
2.5
 42
0.625
 43
3.75
 44
1.25
 73
     0
 74
     0
 77
     1
 78
     8
140
2.5
141
2.5
143
0.03937007874016
147
0.625
171
     3
172
     1
178
     0
271
     2
272
     2
274
     3
278
    44
283
     0
284
     8
340
11
  0
DIMSTYLE
105
D5
102
{ACAD_REACTORS
330
D4
330
F7
102
}
330
A
100
AcDbSymbolTableRecord
100
AcDbDimStyleTableRecord
  2
SLDDIMSTYLE0
 70
     0
 41
3.302
 44
0.0
 45
0.000000001
 73
     0
 74
     0
 77
     1
 78
    12
 79
     3
140
3.5
147
0.875
172
     1
173
     1
178
     0
271
     2
272
     2
276
     2
284
    12
289
     0
340
93
  0
DIMSTYLE
105
E3
102
{ACAD_REACTORS
330
E2
330
ED
102
}
330
A
100
AcDbSymbolTableRecord
100
AcDbDimStyleTableRecord
  2
SLDDIMSTYLE1
 70
     0
 41
3.302
 44
0.0
 45
0.000000001
 73
     0
 74
     0
 77
     1
 78
    12
 79
     3
140
3.5
147
0.875
173
     1
178
     0
271
     2
272
     2
276
     2
284
    12
340
93
  0
ENDTAB
  0
TABLE
  2
BLOCK_RECORD
  5
1
330
0
100
AcDbSymbolTable
 70
     7
  0
BLOCK_RECORD
  5
1F
330
1
100
AcDbSymbolTableRecord
100
AcDbBlockTableRecord
  2
*Model_Space
340
22
  0
BLOCK_RECORD
  5
1B
330
1
100
AcDbSymbolTableRecord
100
AcDbBlockTableRecord
  2
*Paper_Space
340
1E
  0
BLOCK_RECORD
  5
23
330
1
100
AcDbSymbolTableRecord
100
AcDbBlockTableRecord
  2
*Paper_Space0
340
26
  0
BLOCK_RECORD
  5
7E
330
1
100
AcDbSymbolTableRecord
100
AcDbBlockTableRecord
  2
블럭10
340
0
102
{BLKREFS
331
CD
102
}
  0
BLOCK_RECORD
  5
D6
330
1
100
AcDbSymbolTableRecord
100
AcDbBlockTableRecord
  2
_D
340
0
  0
BLOCK_RECORD
  5
E4
330
1
100
AcDbSymbolTableRecord
100
AcDbBlockTableRecord
  2
_D_1
340
0
  0
BLOCK_RECORD
  5
EE
330
1
100
AcDbSymbolTableRecord
100
AcDbBlockTableRecord
  2
_D_2
340
0
  0
BLOCK_RECORD
  5
F8
330
1
100
AcDbSymbolTableRecord
100
AcDbBlockTableRecord
  2
_D_3
340
0
  0
BLOCK_RECORD
  5
104
330
1
100
AcDbSymbolTableRecord
100
AcDbBlockTableRecord
  2
SW_DOWELSYMBOL_0
340
0
102
{BLKREFS
331
10A
102
}
  0
ENDTAB
  0
ENDSEC
  0
SECTION
  2
BLOCKS
  0
BLOCK
  5
20
330
1F
100
AcDbEntity
  8
0
100
AcDbBlockBegin
  2
*Model_Space
 70
     0
 10
0.0
 20
0.0
 30
0.0
  3
*Model_Space
  1

  0
ENDBLK
  5
21
330
1F
100
AcDbEntity
  8
0
100
AcDbBlockEnd
  0
BLOCK
  5
1C
330
1B
100
AcDbEntity
 67
     1
  8
0
100
AcDbBlockBegin
  2
*Paper_Space
 70
     0
 10
0.0
 20
0.0
 30
0.0
  3
*Paper_Space
  1

  0
ENDBLK
  5
1D
330
1B
100
AcDbEntity
 67
     1
  8
0
100
AcDbBlockEnd
  0
BLOCK
  5
24
330
23
100
AcDbEntity
  8
0
100
AcDbBlockBegin
  2
*Paper_Space0
 70
     0
 10
0.0
 20
0.0
 30
0.0
  3
*Paper_Space0
  1

  0
ENDBLK
  5
25
330
23
100
AcDbEntity
  8
0
100
AcDbBlockEnd
  0
BLOCK
  5
7F
330
7E
100
AcDbEntity
  8
0
100
AcDbBlockBegin
  2
블럭10
 70
     2
 10
0.0
 20
0.0
 30
0.0
  3
블럭10
  1

  0
ELLIPSE
  5
81
330
7E
100
AcDbEntity
  8
중심선
100
AcDbEllipse
 10
20.54032771741204
 20
12.0471743016438
 30
0.0
 11
6.600054785286829
 21
-1.261213355974178E-13
 31
0.0
210
0.0
220
0.0
230
1.0
 40
0.636358354079598
 41
0.9219305317359503
 42
6.513795318482858
  0
ELLIPSE
  5
82
330
7E
100
AcDbEntity
  8
중심선
100
AcDbEllipse
 10
20.54032771746488
 20
12.04717430159265
 30
0.0
 11
3.960054785062283
 21
1.540847449632565E-10
 31
0.0
210
0.0
220
0.0
230
1.0
 40
0.3939339440162632
 41
1.131841032648279
 42
5.62031148352944
  0
LINE
  5
83
330
7E
100
AcDbEntity
  8
중심선
100
AcDbLine
 10
2.268634060543552
 20
16.24717430164393
 30
0.0
 11
5.714909304380834
 21
16.24717430164393
 31
0.0
  0
LINE
  5
84
330
7E
100
AcDbEntity
  8
중심선
100
AcDbLine
 10
5.245725140726316
 20
7.84717430164391
 30
0.0
 11
8.692000384563599
 21
7.84717430164391
 31
0.0
  0
LINE
  5
85
330
7E
100
AcDbEntity
  8
중심선
100
AcDbLine
 10
15.74043728645272
 20
16.24717430164393
 30
0.0
 11
8.692000384563599
 21
7.84717430164391
 31
0.0
  0
LINE
  5
86
330
7E
100
AcDbEntity
  8
중심선
100
AcDbLine
 10
0.1404042013395286
 20
13.71084872107135
 30
0.0
 11
3.58671253028996
 21
13.71088815037384
 31
0.0
  0
LINE
  5
87
330
7E
100
AcDbEntity
  8
중심선
100
AcDbLine
 10
2.750260043222114
 20
10.84717430164391
 30
0.0
 11
6.196535287059397
 21
10.84717430164391
 31
0.0
  0
LINE
  5
88
330
7E
100
AcDbEntity
  8
중심선
100
AcDbLine
 10
12.29416204261559
 20
16.24717430164393
 30
0.0
 11
5.245725140726316
 21
7.84717430164391
 31
0.0
  0
LINE
  5
89
330
7E
100
AcDbEntity
  8
중심선
100
AcDbLine
 10
10.72767329541681
 20
16.24717430164393
 30
0.0
 11
6.196535287059397
 21
10.84717430164391
 31
0.0
  0
LINE
  5
8A
330
7E
100
AcDbEntity
  8
중심선
100
AcDbLine
 10
7.28139805157953
 20
16.24717430164393
 30
0.0
 11
2.750260043222114
 21
10.84717430164391
 31
0.0
  0
LINE
  5
8B
330
7E
100
AcDbEntity
  8
중심선
100
AcDbLine
 10
5.714909304380834
 20
16.24717430164393
 30
0.0
 11
3.58671253028996
 21
13.71088815037384
 31
0.0
  0
LINE
  5
8C
330
7E
100
AcDbEntity
  8
중심선
100
AcDbLine
 10
2.268634060543552
 20
16.24717430164393
 30
0.0
 11
0.1404042013395286
 21
13.71084872107135
 31
0.0
  0
LINE
  5
8D
330
7E
100
AcDbEntity
  8
중심선
100
AcDbLine
 10
7.28139805157953
 20
16.24717430164393
 30
0.0
 11
10.72767329541681
 21
16.24717430164393
 31
0.0
  0
LINE
  5
8E
330
7E
100
AcDbEntity
  8
중심선
100
AcDbLine
 10
12.29416204261559
 20
16.24717430164393
 30
0.0
 11
15.74043728645272
 21
16.24717430164393
 31
0.0
  0
LINE
  5
8F
330
7E
100
AcDbEntity
  8
중심선
100
AcDbLine
 10
19.22036997980202
 20
11.08717430171403
 30
0.0
 11
23.66174974927406
 21
11.08717430171406
 31
0.0
  0
LINE
  5
90
330
7E
100
AcDbEntity
  8
중심선
100
AcDbLine
 10
19.22039502424796
 20
13.00717430171391
 30
0.0
 11
19.22036997980202
 21
11.08717430171403
 31
0.0
  0
LINE
  5
91
330
7E
100
AcDbEntity
  8
중심선
100
AcDbLine
 10
19.22039502424796
 20
13.00717430171391
 30
0.0
 11
26.96566020931264
 21
13.00717430171391
 31
0.0
  0
LINE
  5
92
330
7E
100
AcDbEntity
  8
중심선
100
AcDbLine
 10
22.22332737316547
 20
13.45928029700563
 30
0.0
 11
24.52862924686651
 21
15.39360700705356
 31
0.0
  0
ATTDEF
  5
94
330
7E
100
AcDbEntity
  8
FORMAT
 62
     2
100
AcDbText
 10
-16.11926103943555
 20
2.075366912832191
 30
0.0
 40
4.233333333333333
  1
SEME7012040E [ 2 FLUTE ]
 41
0.75
  7
SLDTEXTSTYLE0
 11
-16.11926103943555
 21
-0.0412997538344756
 31
0.0
100
AcDbAttributeDefinition
  3

  2
AUTOATTR0
 70
     0
 74
     1
  0
ENDBLK
  5
80
330
7E
100
AcDbEntity
  8
0
100
AcDbBlockEnd
  0
BLOCK
  5
D7
330
D6
100
AcDbEntity
  8
0
100
AcDbBlockBegin
  2
_D
 70
     0
 10
0.0
 20
0.0
 30
0.0
  3
_D
  1

  0
LINE
  5
D9
330
D6
100
AcDbEntity
  8
치수문자_일반주서
 62
     0
370
    -2
100
AcDbLine
 10
50.06250000000001
 20
-5.999999999999845
 30
0.0
 11
63.64537148118139
 21
-5.999999999999794
 31
0.0
  0
LINE
  5
DA
330
D6
100
AcDbEntity
  8
치수문자_일반주서
 62
     0
370
    -2
100
AcDbLine
 10
50.06249999999996
 20
6.000000000000151
 30
0.0
 11
63.64537148118135
 21
6.000000000000203
 31
0.0
  0
LINE
  5
DB
330
D6
100
AcDbEntity
  8
치수문자_일반주서
 62
     0
370
    -2
100
AcDbLine
 10
63.64537148118139
 20
-5.999999999999794
 30
0.0
 11
63.6453714811813
 21
20.4790000000002
 31
0.0
  0
LINE
  5
DC
330
D6
100
AcDbEntity
  8
치수문자_일반주서
 62
     0
370
    -2
100
AcDbLine
 10
63.64537148118139
 20
-5.999999999999794
 30
0.0
 11
63.64537148118135
 21
6.000000000000203
 31
0.0
  0
LINE
  5
DD
330
D6
100
AcDbEntity
  8
치수문자_일반주서
 62
     0
370
    -2
100
AcDbLine
 10
63.64537148118141
 20
-9.301999999999794
 30
0.0
 11
63.64537148118142
 21
-12.60399999999979
 31
0.0
  0
LINE
  5
DE
330
D6
100
AcDbEntity
  8
치수문자_일반주서
 62
     0
370
    -2
100
AcDbLine
 10
63.64537148118134
 20
9.302000000000202
 30
0.0
 11
63.64537148118132
 21
12.6040000000002
 31
0.0
  0
SOLID
  5
DF
330
D6
100
AcDbEntity
  8
치수문자_일반주서
 62
     0
100
AcDbTrace
 10
64.19570481451474
 20
-9.301999999999792
 30
0.0
 11
63.09503814784807
 21
-9.301999999999795
 31
0.0
 12
63.64537148118139
 22
-5.999999999999794
 32
0.0
 13
63.64537148118139
 23
-5.999999999999794
 33
0.0
  0
SOLID
  5
E0
330
D6
100
AcDbEntity
  8
치수문자_일반주서
 62
     0
100
AcDbTrace
 10
63.095038147848
 20
9.3020000000002
 30
0.0
 11
64.19570481451467
 21
9.302000000000204
 31
0.0
 12
63.64537148118135
 22
6.000000000000203
 32
0.0
 13
63.64537148118135
 23
6.000000000000203
 33
0.0
  0
MTEXT
  5
E1
330
D6
100
AcDbEntity
  8
치수문자_일반주서
 62
     0
100
AcDbMText
 10
59.27037148118131
 20
16.54150000000018
 30
0.0
 40
3.5
 41
0.0
 71
     2
 72
     1
  1
\A1;%%c12
  7
SLDTEXTSTYLE0
 11
-3.552713678800503E-15
 21
1.0
 31
0.0
 73
     1
 44
1.0
  0
POINT
  5
139
330
D6
100
AcDbEntity
  8
Defpoints
 62
     0
100
AcDbPoint
 10
50.00000000000001
 20
-5.999999999999845
 30
0.0
  0
POINT
  5
13A
330
D6
100
AcDbEntity
  8
Defpoints
 62
     0
100
AcDbPoint
 10
49.99999999999996
 20
6.000000000000151
 30
0.0
  0
POINT
  5
13B
330
D6
100
AcDbEntity
  8
Defpoints
 62
     0
100
AcDbPoint
 10
63.64537148118135
 20
6.000000000000202
 30
0.0
  0
ENDBLK
  5
D8
330
D6
100
AcDbEntity
  8
0
100
AcDbBlockEnd
  0
BLOCK
  5
E5
330
E4
100
AcDbEntity
  8
0
100
AcDbBlockBegin
  2
_D_1
 70
     0
 10
0.0
 20
0.0
 30
0.0
  3
_D_1
  1

  0
LINE
  5
E7
330
E4
100
AcDbEntity
  8
치수문자_일반주서
 62
     0
370
    -2
100
AcDbLine
 10
-50.00000000000001
 20
5.062499999999997
 30
0.0
 11
-50.00000000000001
 21
26.78841044024269
 31
0.0
  0
LINE
  5
E8
330
E4
100
AcDbEntity
  8
치수문자_일반주서
 62
     0
370
    -2
100
AcDbLine
 10
49.99999999999996
 20
6.062500000000151
 30
0.0
 11
49.99999999999996
 21
26.78841044024269
 31
0.0
  0
LINE
  5
E9
330
E4
100
AcDbEntity
  8
치수문자_일반주서
 62
     0
370
    -2
100
AcDbLine
 10
-46.69800000000001
 20
26.78841044024269
 30
0.0
 11
46.69799999999996
 21
26.78841044024269
 31
0.0
  0
SOLID
  5
EA
330
E4
100
AcDbEntity
  8
치수문자_일반주서
 62
     0
100
AcDbTrace
 10
-46.69800000000001
 20
27.33874377357603
 30
0.0
 11
-46.69800000000001
 21
26.23807710690936
 31
0.0
 12
-50.00000000000001
 22
26.78841044024269
 32
0.0
 13
-50.00000000000001
 23
26.78841044024269
 33
0.0
  0
SOLID
  5
EB
330
E4
100
AcDbEntity
  8
치수문자_일반주서
 62
     0
100
AcDbTrace
 10
46.69799999999996
 20
26.23807710690936
 30
0.0
 11
46.69799999999996
 21
27.33874377357603
 31
0.0
 12
49.99999999999996
 22
26.78841044024269
 32
0.0
 13
49.99999999999996
 23
26.78841044024269
 33
0.0
  0
MTEXT
  5
EC
330
E4
100
AcDbEntity
  8
치수문자_일반주서
 62
     0
100
AcDbMText
 10
0.0000000000000027
 20
31.16341044024269
 30
0.0
 40
3.5
 41
0.0
 71
     2
 72
     1
  1
\A1;100
  7
SLDTEXTSTYLE0
 73
     1
 44
1.0
  0
POINT
  5
130
330
E4
100
AcDbEntity
  8
Defpoints
 62
     0
100
AcDbPoint
 10
-50.00000000000001
 20
4.999999999999997
 30
0.0
  0
POINT
  5
131
330
E4
100
AcDbEntity
  8
Defpoints
 62
     0
100
AcDbPoint
 10
49.99999999999996
 20
6.000000000000151
 30
0.0
  0
POINT
  5
132
330
E4
100
AcDbEntity
  8
Defpoints
 62
     0
100
AcDbPoint
 10
49.99999999999996
 20
26.78841044024269
 30
0.0
  0
ENDBLK
  5
E6
330
E4
100
AcDbEntity
  8
0
100
AcDbBlockEnd
  0
BLOCK
  5
EF
330
EE
100
AcDbEntity
  8
0
100
AcDbBlockBegin
  2
_D_2
 70
     0
 10
0.0
 20
0.0
 30
0.0
  3
_D_2
  1

  0
LINE
  5
F1
330
EE
100
AcDbEntity
  8
치수문자_일반주서
 62
     0
370
    -2
100
AcDbLine
 10
10.00000000000001
 20
4.45847650193149
 30
0.0
 11
10.00000000000001
 21
17.32476524993956
 31
0.0
  0
LINE
  5
F2
330
EE
100
AcDbEntity
  8
치수문자_일반주서
 62
     0
370
    -2
100
AcDbLine
 10
49.99999999999996
 20
6.062500000000151
 30
0.0
 11
49.99999999999996
 21
17.32476524993956
 31
0.0
  0
LINE
  5
F3
330
EE
100
AcDbEntity
  8
치수문자_일반주서
 62
     0
370
    -2
100
AcDbLine
 10
13.30200000000001
 20
17.32476524993956
 30
0.0
 11
46.69799999999996
 21
17.32476524993956
 31
0.0
  0
SOLID
  5
F4
330
EE
100
AcDbEntity
  8
치수문자_일반주서
 62
     0
100
AcDbTrace
 10
13.30200000000001
 20
17.87509858327289
 30
0.0
 11
13.30200000000001
 21
16.77443191660623
 31
0.0
 12
10.00000000000001
 22
17.32476524993956
 32
0.0
 13
10.00000000000001
 23
17.32476524993956
 33
0.0
  0
SOLID
  5
F5
330
EE
100
AcDbEntity
  8
치수문자_일반주서
 62
     0
100
AcDbTrace
 10
46.69799999999996
 20
16.77443191660623
 30
0.0
 11
46.69799999999996
 21
17.87509858327289
 31
0.0
 12
49.99999999999996
 22
17.32476524993956
 32
0.0
 13
49.99999999999996
 23
17.32476524993956
 33
0.0
  0
MTEXT
  5
F6
330
EE
100
AcDbEntity
  8
치수문자_일반주서
 62
     0
100
AcDbMText
 10
30.00000000000001
 20
21.69976524993956
 30
0.0
 40
3.5
 41
0.0
 71
     2
 72
     1
  1
\A1;40
  7
SLDTEXTSTYLE0
 73
     1
 44
1.0
  0
POINT
  5
133
330
EE
100
AcDbEntity
  8
Defpoints
 62
     0
100
AcDbPoint
 10
10.00000000000001
 20
4.39597650193149
 30
0.0
  0
POINT
  5
134
330
EE
100
AcDbEntity
  8
Defpoints
 62
     0
100
AcDbPoint
 10
49.99999999999996
 20
6.000000000000151
 30
0.0
  0
POINT
  5
135
330
EE
100
AcDbEntity
  8
Defpoints
 62
     0
100
AcDbPoint
 10
49.99999999999996
 20
17.32476524993956
 30
0.0
  0
ENDBLK
  5
F0
330
EE
100
AcDbEntity
  8
0
100
AcDbBlockEnd
  0
BLOCK
  5
F9
330
F8
100
AcDbEntity
  8
0
100
AcDbBlockBegin
  2
_D_3
 70
     0
 10
0.0
 20
0.0
 30
0.0
  3
_D_3
  1

  0
LINE
  5
FB
330
F8
100
AcDbEntity
  8
치수문자_일반주서
 62
     0
370
    -2
100
AcDbLine
 10
-49.0625
 20
5.999999999999997
 30
0.0
 11
-61.10693107424515
 21
5.99999999999995
 31
0.0
  0
LINE
  5
FC
330
F8
100
AcDbEntity
  8
치수문자_일반주서
 62
     0
370
    -2
100
AcDbLine
 10
-49.0625
 20
-5.999999999999994
 30
0.0
 11
-61.1069310742451
 21
-6.000000000000039
 31
0.0
  0
LINE
  5
FD
330
F8
100
AcDbEntity
  8
치수문자_일반주서
 62
     0
370
    -2
100
AcDbLine
 10
-61.10693107424515
 20
5.99999999999995
 30
0.0
 11
-61.1069310742452
 21
20.47899999999995
 31
0.0
  0
LINE
  5
FE
330
F8
100
AcDbEntity
  8
치수문자_일반주서
 62
     0
370
    -2
100
AcDbLine
 10
-61.10693107424515
 20
5.99999999999995
 30
0.0
 11
-61.1069310742451
 21
-6.000000000000039
 31
0.0
  0
LINE
  5
FF
330
F8
100
AcDbEntity
  8
치수문자_일반주서
 62
     0
370
    -2
100
AcDbLine
 10
-61.10693107424516
 20
9.30199999999995
 30
0.0
 11
-61.10693107424517
 21
12.60399999999995
 31
0.0
  0
LINE
  5
100
330
F8
100
AcDbEntity
  8
치수문자_일반주서
 62
     0
370
    -2
100
AcDbLine
 10
-61.10693107424509
 20
-9.302000000000039
 30
0.0
 11
-61.10693107424508
 21
-12.60400000000004
 31
0.0
  0
SOLID
  5
101
330
F8
100
AcDbEntity
  8
치수문자_일반주서
 62
     0
100
AcDbTrace
 10
-61.6572644075785
 20
9.301999999999948
 30
0.0
 11
-60.55659774091183
 21
9.301999999999952
 31
0.0
 12
-61.10693107424515
 22
5.99999999999995
 32
0.0
 13
-61.10693107424515
 23
5.99999999999995
 33
0.0
  0
SOLID
  5
102
330
F8
100
AcDbEntity
  8
치수문자_일반주서
 62
     0
100
AcDbTrace
 10
-60.55659774091176
 20
-9.302000000000037
 30
0.0
 11
-61.65726440757842
 21
-9.30200000000004
 31
0.0
 12
-61.1069310742451
 22
-6.000000000000039
 32
0.0
 13
-61.1069310742451
 23
-6.000000000000039
 33
0.0
  0
MTEXT
  5
103
330
F8
100
AcDbEntity
  8
치수문자_일반주서
 62
     0
100
AcDbMText
 10
-65.48193107424518
 20
16.54149999999994
 30
0.0
 40
3.5
 41
0.0
 71
     2
 72
     1
  1
\A1;%%c12
  7
SLDTEXTSTYLE0
 11
-3.552713678800503E-15
 21
1.0
 31
0.0
 73
     1
 44
1.0
  0
POINT
  5
136
330
F8
100
AcDbEntity
  8
Defpoints
 62
     0
100
AcDbPoint
 10
-49.0
 20
5.999999999999997
 30
0.0
  0
POINT
  5
137
330
F8
100
AcDbEntity
  8
Defpoints
 62
     0
100
AcDbPoint
 10
-49.0
 20
-5.999999999999994
 30
0.0
  0
POINT
  5
138
330
F8
100
AcDbEntity
  8
Defpoints
 62
     0
100
AcDbPoint
 10
-61.1069310742451
 20
-6.000000000000039
 30
0.0
  0
ENDBLK
  5
FA
330
F8
100
AcDbEntity
  8
0
100
AcDbBlockEnd
  0
BLOCK
  5
105
330
104
100
AcDbEntity
  8
0
100
AcDbBlockBegin
  2
SW_DOWELSYMBOL_0
 70
     0
 10
0.0
 20
0.0
 30
0.0
  3
SW_DOWELSYMBOL_0
  1

  0
CIRCLE
  5
107
330
104
100
AcDbEntity
  8
외형선
 62
     0
100
AcDbCircle
 10
0.0
 20
0.0
 30
0.0
 40
3.000000000000004
  0
HATCH
  5
108
330
104
100
AcDbEntity
  8
0
  6
Continuous
 62
     0
370
    30
100
AcDbHatch
 10
0.0
 20
0.0
 30
0.0
210
0.0
220
0.0
230
1.0
  2
SOLID
 70
     1
 71
     0
 91
        1
 92
        0
 93
        3
 72
     2
 10
0.0000000000000104
 20
0.0
 40
3.000000000000004
 50
0.0
 51
90.0
 73
     1
 72
     1
 10
0.0000000000000104
 20
3.000000000000004
 11
0.0000000000000104
 21
0.0
 72
     1
 10
0.0000000000000104
 20
0.0
 11
3.000000000000015
 21
0.0
 97
        0
 75
     0
 76
     1
 98
        1
 10
0.0
 20
0.0
  0
HATCH
  5
109
330
104
100
AcDbEntity
  8
0
  6
Continuous
 62
     0
370
    30
100
AcDbHatch
 10
0.0
 20
0.0
 30
0.0
210
0.0
220
0.0
230
1.0
  2
SOLID
 70
     1
 71
     0
 91
        1
 92
        0
 93
        3
 72
     2
 10
0.0000000000000104
 20
0.0
 40
3.000000000000004
 50
180.0
 51
270.0000000000008
 73
     1
 72
     1
 10
0.0000000000000104
 20
-3.000000000000004
 11
0.0000000000000104
 21
0.0
 72
     1
 10
0.0000000000000104
 20
0.0
 11
-2.999999999999994
 21
0.0
 97
        0
 75
     0
 76
     1
 98
        1
 10
0.0
 20
0.0
  0
ENDBLK
  5
106
330
104
100
AcDbEntity
  8
0
100
AcDbBlockEnd
  0
ENDSEC
  0
SECTION
  2
ENTITIES
  0
LINE
  5
95
330
1F
100
AcDbEntity
  8
0
  6
Continuous
 62
     1
370
    15
100
AcDbLine
 10
31.17587504896561
 20
1.667882112482358
 30
0.0
 11
31.07163316571921
 21
1.725140238844248
 31
0.0
  0
LINE
  5
96
330
1F
100
AcDbEntity
  8
0
  6
Continuous
 62
     1
370
    15
100
AcDbLine
 10
20.68661755825152
 20
6.000000000000009
 30
0.0
 11
17.77944140112247
 21
6.000000000000009
 31
0.0
  0
SPLINE
  5
97
330
1F
100
AcDbEntity
  8
0
  6
Continuous
 62
     1
370
    15
100
AcDbSpline
210
0.0
220
0.0
230
1.0
 70
     8
 71
     3
 72
     9
 73
     5
 74
     0
 42
0.000000001
 43
0.00000001
 40
0.0
 40
0.0
 40
0.0
 40
0.0
 40
0.4991500951432485
 40
1.0
 40
1.0
 40
1.0
 40
1.0
 10
34.45603980862924
 20
1.537488694679366
 30
0.0
 10
34.17891070906642
 20
1.669474275017706
 30
0.0
 10
33.62370877229573
 20
1.933894900441931
 30
0.0
 10
33.0683950068826
 20
2.224560692741459
 30
0.0
 10
32.79026616030979
 20
2.37014062715979
 30
0.0
  0
LINE
  5
98
330
1F
100
AcDbEntity
  8
0
  6
Continuous
 62
     1
370
    15
100
AcDbLine
 10
17.77944140112248
 20
-5.999999999999998
 30
0.0
 11
20.6866175582516
 21
-5.999999999999998
 31
0.0
  0
SPLINE
  5
99
330
1F
100
AcDbEntity
  8
0
  6
Continuous
 62
     1
370
    15
100
AcDbSpline
210
0.0
220
0.0
230
1.0
 70
     8
 71
     3
 72
    16
 73
    12
 74
     0
 42
0.000000001
 43
0.00000001
 40
0.0
 40
0.0
 40
0.0
 40
0.0
 40
0.1398348745759648
 40
0.253118072670614
 40
0.3638581518238269
 40
0.4709082563166023
 40
0.580312474502868
 40
0.6935598143261389
 40
0.8109916914251672
 40
0.9535418020051037
 40
1.0
 40
1.0
 40
1.0
 40
1.0
 10
32.47238575404733
 20
4.767834198644421
 30
0.0
 10
32.26818555258424
 20
4.756615245625728
 30
0.0
 10
31.8985584363872
 20
4.73630758078829
 30
0.0
 10
31.31200607093263
 20
4.710060118145745
 30
0.0
 10
30.75690589138053
 20
4.699900175601758
 30
0.0
 10
30.21322709467637
 20
4.690469232630408
 30
0.0
 10
29.66598139884338
 20
4.685344253913963
 30
0.0
 10
29.10846652777172
 20
4.685482527419356
 30
0.0
 10
28.49811490179888
 20
4.692173859352513
 30
0.0
 10
27.99964986034735
 20
4.701947801988256
 30
0.0
 10
27.69055789501447
 20
4.712566589747084
 30
0.0
 10
27.61458316230381
 20
4.715176685292013
 30
0.0
  0
SPLINE
  5
9A
330
1F
100
AcDbEntity
  8
0
  6
Continuous
 62
     1
370
    15
100
AcDbSpline
210
0.0
220
0.0
230
1.0
 70
     8
 71
     3
 72
    20
 73
    16
 74
     0
 42
0.000000001
 43
0.00000001
 40
0.0
 40
0.0
 40
0.0
 40
0.0
 40
0.1238863948804314
 40
0.2212235814898826
 40
0.2910969377087766
 40
0.3442079004594034
 40
0.3912153800596747
 40
0.4714371864948299
 40
0.5613443783402561
 40
0.6659714366717273
 40
0.764614067082898
 40
0.8127740450537139
 40
0.8630731506117036
 40
0.9243548727742922
 40
1.0
 40
1.0
 40
1.0
 40
1.0
 10
23.44872153057863
 20
-4.992818636517568
 30
0.0
 10
23.8213167401949
 20
-4.957195221957722
 30
0.0
 10
24.48665894178885
 20
-4.893582592326888
 30
0.0
 10
25.36375806996484
 20
-4.827774484132391
 30
0.0
 10
26.03245811528683
 20
-4.785235744792863
 30
0.0
 10
26.55126927496978
 20
-4.757339968752512
 30
0.0
 10
27.09967675503437
 20
-4.73207157267558
 30
0.0
 10
27.75636337032388
 20
-4.708370686840457
 30
0.0
 10
28.58366406027341
 20
-4.689531051172929
 30
0.0
 10
29.46862221532614
 20
-4.683003466189252
 30
0.0
 10
30.24133744842926
 20
-4.69069278140826
 30
0.0
 10
30.84594886455367
 20
-4.701461180507401
 30
0.0
 10
31.34100173899149
 20
-4.711290030095478
 30
0.0
 10
31.89843176985345
 20
-4.736325208383712
 30
0.0
 10
32.26814047747033
 20
-4.756621518520762
 30
0.0
 10
32.47238575404734
 20
-4.767834198644409
 30
0.0
  0
SPLINE
  5
9B
330
1F
100
AcDbEntity
  8
0
  6
Continuous
 62
     1
370
    15
100
AcDbSpline
210
0.0
220
0.0
230
1.0
 70
     8
 71
     3
 72
    16
 73
    12
 74
     0
 42
0.000000001
 43
0.00000001
 40
0.0
 40
0.0
 40
0.0
 40
0.0
 40
0.1743847626457633
 40
0.2980273831900839
 40
0.3760775677604232
 40
0.4562997785316062
 40
0.6050529782994679
 40
0.7264048517024604
 40
0.8455158819530256
 40
0.9884234655217159
 40
1.0
 40
1.0
 40
1.0
 40
1.0
 10
37.28807499034469
 20
-4.51282678257042
 30
0.0
 10
37.54769151505393
 20
-4.473100632843906
 30
0.0
 10
37.99138184853319
 20
-4.405207771864643
 30
0.0
 10
38.55123117602629
 20
-4.329438164045684
 30
0.0
 10
38.97494427015371
 20
-4.275658650062448
 30
0.0
 10
39.43694236905226
 20
-4.220460940507125
 30
0.0
 10
39.96543285850027
 20
-4.163584173851543
 30
0.0
 10
40.54653375893685
 20
-4.108960875286869
 30
0.0
 10
41.10841641681909
 20
-4.064008016387797
 30
0.0
 10
41.51784841483476
 20
-4.033484345016478
 30
0.0
 10
41.74857934379083
 20
-4.021843712410529
 30
0.0
 10
41.76586956487009
 20
-4.020971401480349
 30
0.0
  0
SPLINE
  5
9C
330
1F
100
AcDbEntity
  8
0
  6
Continuous
 62
     1
370
    15
100
AcDbSpline
210
0.0
220
0.0
230
1.0
 70
     8
 71
     3
 72
    17
 73
    13
 74
     0
 42
0.000000001
 43
0.00000001
 40
0.0
 40
0.0
 40
0.0
 40
0.0
 40
0.1387198261872685
 40
0.2440852965538991
 40
0.3176547651574729
 40
0.3906454800104965
 40
0.4733915125544995
 40
0.5586044415062387
 40
0.6666773551864122
 40
0.7542255196703923
 40
0.8615455348261001
 40
1.0
 40
1.0
 40
1.0
 40
1.0
 10
15.12219837071586
 20
4.103710195048897
 30
0.0
 10
14.88745337271692
 20
4.084562100248013
 30
0.0
 10
14.47440641305765
 20
4.050869955971488
 30
0.0
 10
13.93480832627843
 20
4.017188431625409
 30
0.0
 10
13.49985832153035
 20
3.994497619671247
 30
0.0
 10
13.10486363290719
 20
3.977491439348598
 30
0.0
 10
12.69264278254189
 20
3.963695753414656
 30
0.0
 10
12.22156319626416
 20
3.952974033849372
 30
0.0
 10
11.74215958364677
 20
3.94782057178888
 30
0.0
 10
11.22501584363572
 20
3.948725710001323
 30
0.0
 10
10.65615071926748
 20
3.956126526157394
 30
0.0
 10
10.23643975284215
 20
3.969969274832335
 30
0.0
 10
10.00000000000001
 20
3.977767441516506
 30
0.0
  0
SPLINE
  5
9D
330
1F
100
AcDbEntity
  8
0
  6
Continuous
 62
     1
370
    15
100
AcDbSpline
210
0.0
220
0.0
230
1.0
 70
     8
 71
     3
 72
    28
 73
    24
 74
     0
 42
0.000000001
 43
0.00000001
 40
0.0
 40
0.0
 40
0.0
 40
0.0
 40
0.0772913445937714
 40
0.1306604146030619
 40
0.1624932834730801
 40
0.1962125744291048
 40
0.239358209693059
 40
0.2820022183630679
 40
0.3160613786704572
 40
0.368943285446314
 40
0.4299283702684167
 40
0.5044997330866545
 40
0.5616663047091031
 40
0.6115044475018617
 40
0.6546598118486759
 40
0.6925711672213509
 40
0.7400214596612573
 40
0.7786978063866203
 40
0.8145346989923589
 40
0.845396189454094
 40
0.8783177616100359
 40
0.9296915879988741
 40
1.0
 40
1.0
 40
1.0
 40
1.0
 10
47.77066536261468
 20
4.103716964992363
 30
0.0
 10
47.50071461850683
 20
4.081893447879293
 30
0.0
 10
47.04436499316495
 20
4.045000962581261
 30
0.0
 10
46.47733839237905
 20
4.011309446397006
 30
0.0
 10
46.06009120909177
 20
3.990495896012884
 30
0.0
 10
45.67474369415057
 20
3.974522152056398
 30
0.0
 10
45.24925749860019
 20
3.960888629832639
 30
0.0
 10
44.82261672115135
 20
3.951852827381388
 30
0.0
 10
44.37550613922152
 20
3.947725656999941
 30
0.0
 10
43.88298512597814
 20
3.948293987990119
 30
0.0
 10
43.21745811838842
 20
3.958011621179776
 30
0.0
 10
42.5452127449031
 20
3.97989445121712
 30
0.0
 10
41.90949080750217
 20
4.01100499011575
 30
0.0
 10
41.38481361902094
 20
4.043841270265733
 30
0.0
 10
40.92819323791952
 20
4.077826961989389
 30
0.0
 10
40.48787124015195
 20
4.114618917389954
 30
0.0
 10
40.05361483777049
 20
4.155344615341999
 30
0.0
 10
39.62346918696348
 20
4.200253695851363
 30
0.0
 10
39.25210589822007
 20
4.242312783204095
 30
0.0
 10
38.90084425966823
 20
4.284891791079969
 30
0.0
 10
38.49629085397412
 20
4.336739935132501
 30
0.0
 10
37.95734603666644
 20
4.410255908853738
 30
0.0
 10
37.53316705274128
 20
4.475264561525301
 30
0.0
 10
37.28807499034468
 20
4.512826782570433
 30
0.0
  0
LINE
  5
9E
330
1F
100
AcDbEntity
  8
0
  6
Continuous
 62
   131
370
    15
100
AcDbLine
 10
7.970090650330297
 20
6.000000000000005
 30
0.0
 11
-49.0
 21
6.000000000000002
 31
0.0
  0
LINE
  5
9F
330
1F
100
AcDbEntity
  8
0
  6
Continuous
 62
   131
370
    15
100
AcDbLine
 10
-49.0
 20
-5.999999999999998
 30
0.0
 11
7.970090650330297
 21
-5.999999999999995
 31
0.0
  0
LINE
  5
A0
330
1F
100
AcDbEntity
  8
0
  6
Continuous
 62
   131
370
    15
100
AcDbLine
 10
-49.0
 20
5.999999999999997
 30
0.0
 11
-50.00000000000001
 21
4.999999999999996
 31
0.0
  0
LINE
  5
A1
330
1F
100
AcDbEntity
  8
0
  6
Continuous
 62
   131
370
    15
100
AcDbLine
 10
-50.00000000000001
 20
-4.999999999999994
 30
0.0
 11
-49.0
 21
-5.999999999999994
 31
0.0
  0
SPLINE
  5
A2
330
1F
100
AcDbEntity
  8
0
  6
Continuous
 62
   131
370
    15
100
AcDbSpline
210
0.0
220
0.0
230
1.0
 70
     8
 71
     3
 72
     9
 73
     5
 74
     0
 42
0.000000001
 43
0.00000001
 40
0.0
 40
0.0
 40
0.0
 40
0.0
 40
0.4444604331010516
 40
1.0
 40
1.0
 40
1.0
 40
1.0
 10
10.00000000000001
 20
3.977767441516506
 30
0.0
 10
9.699299931654169
 20
3.99078038480611
 30
0.0
 10
9.022749116438023
 20
4.020058453944486
 30
0.0
 10
8.346047854811822
 20
4.074036258946422
 30
0.0
 10
7.970113529008026
 20
4.104023065359354
 30
0.0
  0
LINE
  5
A3
330
1F
100
AcDbEntity
  8
0
  6
Continuous
 62
   131
370
    15
100
AcDbLine
 10
7.970113529008026
 20
-4.104023065359344
 30
0.0
 11
9.0900515567478
 21
-4.022256412459852
 31
0.0
  0
SPLINE
  5
A4
330
1F
100
AcDbEntity
  8
0
  6
Continuous
 62
     1
370
    15
100
AcDbSpline
210
0.0
220
0.0
230
1.0
 70
     8
 71
     3
 72
    68
 73
    64
 74
     0
 42
0.000000001
 43
0.00000001
 40
0.0
 40
0.0
 40
0.0
 40
0.0
 40
0.03125
 40
0.03125
 40
0.0625000000000001
 40
0.0625000000000001
 40
0.0937500000000001
 40
0.0937500000000001
 40
0.1250000000000001
 40
0.1250000000000001
 40
0.1562500000000001
 40
0.1562500000000001
 40
0.1875000000000002
 40
0.1875000000000002
 40
0.2187500000000002
 40
0.2187500000000002
 40
0.2500000000000002
 40
0.2500000000000002
 40
0.2812500000000002
 40
0.2812500000000002
 40
0.3125000000000003
 40
0.3125000000000003
 40
0.3437500000000003
 40
0.3437500000000003
 40
0.3750000000000003
 40
0.3750000000000003
 40
0.4062500000000003
 40
0.4062500000000003
 40
0.4375000000000004
 40
0.4375000000000004
 40
0.4687500000000004
 40
0.4687500000000004
 40
0.5000000000000004
 40
0.5000000000000004
 40
0.5312500000000004
 40
0.5312500000000004
 40
0.5625000000000004
 40
0.5625000000000004
 40
0.5937500000000006
 40
0.5937500000000006
 40
0.6250000000000006
 40
0.6250000000000006
 40
0.6562500000000004
 40
0.6562500000000004
 40
0.6875000000000003
 40
0.6875000000000003
 40
0.7187500000000003
 40
0.7187500000000003
 40
0.7500000000000002
 40
0.7500000000000002
 40
0.7812500000000001
 40
0.7812500000000001
 40
0.8125
 40
0.8125
 40
0.875
 40
0.875
 40
0.90625
 40
0.90625
 40
0.9375
 40
0.9375
 40
0.9687500000000001
 40
0.9687500000000001
 40
1.0
 40
1.0
 40
1.0
 40
1.0
 10
50.00000000000001
 20
-5.999999999999845
 30
0.0
 10
49.58560876959402
 20
-5.985058359114614
 30
0.0
 10
49.16728636630712
 20
-5.960701373184651
 30
0.0
 10
48.33180196020206
 20
-5.883310309142513
 30
0.0
 10
47.91714068329991
 20
-5.830423183095204
 30
0.0
 10
47.08489701297583
 20
-5.696755572584849
 30
0.0
 10
46.6660029594918
 20
-5.615837852404997
 30
0.0
 10
45.83173402495296
 20
-5.42751973838266
 30
0.0
 10
45.41817910491336
 20
-5.320340872771363
 30
0.0
 10
44.5836740221355
 20
-5.080238571748168
 30
0.0
 10
44.16482162439541
 20
-4.94743871389602
 30
0.0
 10
43.33297774538207
 20
-4.659292057498488
 30
0.0
 10
42.91796906875445
 20
-4.503763377833457
 30
0.0
 10
42.08241330053822
 20
-4.171029184151832
 30
0.0
 10
41.66473724663692
 20
-3.994171744759537
 30
0.0
 10
40.83541509152523
 20
-3.622995700817864
 30
0.0
 10
40.41697918004064
 20
-3.427658542541876
 30
0.0
 10
39.5815885439476
 20
-3.021585437396677
 30
0.0
 10
39.16722756825704
 20
-2.811314488486633
 30
0.0
 10
38.33460622542928
 20
-2.377613386947426
 30
0.0
 10
37.91568182288528
 20
-2.154035806255751
 30
0.0
 10
37.08167133589773
 20
-1.698247223732855
 30
0.0
 10
36.6680692187833
 20
-1.4663371405786
 30
0.0
 10
35.83335030816066
 20
-0.9951764544294278
 30
0.0
 10
35.41455086908733
 20
-0.7563462789043692
 30
0.0
 10
34.58312886462321
 20
-0.2773702413501361
 30
0.0
 10
34.16772572068908
 20
-0.0366959541783664
 30
0.0
 10
33.33212100464399
 20
0.4445933018723871
 30
0.0
 10
32.91504446980642
 20
0.6846017806905619
 30
0.0
 10
32.08520447976251
 20
1.159353953508393
 30
0.0
 10
31.66666632542329
 20
1.395193110440744
 30
0.0
 10
30.83139185885899
 20
1.858658089447874
 30
0.0
 10
30.41728405912085
 20
2.085815261983025
 30
0.0
 10
29.58430719621655
 20
2.529867851705235
 30
0.0
 10
29.16536375403711
 20
2.746744790948198
 30
0.0
 10
28.33163399084864
 20
3.165494559446063
 30
0.0
 10
27.91793748379063
 20
3.367227222514632
 30
0.0
 10
27.08302708481322
 20
3.754703820569343
 30
0.0
 10
26.66429190254846
 20
3.940009179232249
 30
0.0
 10
25.83331381836125
 20
4.289832478172578
 30
0.0
 10
25.4174691746545
 20
4.454887588094837
 30
0.0
 10
24.58183792944025
 20
4.76320974933025
 30
0.0
 10
24.16531403005647
 20
4.906062091457933
 30
0.0
 10
23.33497811035166
 20
5.167220152811344
 30
0.0
 10
22.91634898772206
 20
5.286001211424155
 30
0.0
 10
22.08121307981785
 20
5.497253959698893
 30
0.0
 10
21.66731130822058
 20
5.589580027902912
 30
0.0
 10
20.83400110933189
 20
5.747302859804354
 30
0.0
 10
20.41504993866094
 20
5.812590690484774
 30
0.0
 10
19.58162315047684
 20
5.914602222612434
 30
0.0
 10
19.16778506901802
 20
5.95138335945066
 30
0.0
 10
18.3327055382816
 20
5.99629488556999
 30
0.0
 10
17.91404590516714
 20
6.004293443881934
 30
0.0
 10
16.66827766872473
 20
5.984894776824819
 30
0.0
 10
15.83095201090177
 20
5.913726090482086
 30
0.0
 10
14.58473716075273
 20
5.723204292242201
 30
0.0
 10
14.16602835260364
 20
5.645553212305884
 30
0.0
 10
13.33105338010626
 20
5.463506766513233
 30
0.0
 10
12.91731047048271
 20
5.359377023761185
 30
0.0
 10
12.08368914940606
 20
5.125317901959626
 30
0.0
 10
11.66474156208554
 20
4.995399869237632
 30
0.0
 10
10.83163997309512
 20
4.712613905179573
 30
0.0
 10
10.41761314539353
 20
4.559827238493503
 30
0.0
 10
10.0
 20
4.395976501931491
 30
0.0
  0
SPLINE
  5
A5
330
1F
100
AcDbEntity
  8
0
  6
Continuous
 62
     1
370
    15
100
AcDbSpline
210
0.0
220
0.0
230
1.0
 70
     8
 71
     3
 72
    16
 73
    12
 74
     0
 42
0.000000001
 43
0.00000001
 40
0.0
 40
0.0
 40
0.0
 40
0.0
 40
0.0423040429952343
 40
0.1738980601534567
 40
0.3055064870736022
 40
0.437071544796951
 40
0.5685513436837007
 40
0.7000893419863663
 40
0.8316897910136734
 40
0.9378353448720887
 40
1.0
 40
1.0
 40
1.0
 40
1.0
 10
35.08426754875791
 20
-0.5624291456016873
 30
0.0
 10
34.80270056317383
 20
-0.4510844375605093
 30
0.0
 10
33.64527093873243
 20
0.0066171759447322
 30
0.0
 10
31.61170499247525
 20
0.8395800450194307
 30
0.0
 10
28.98401301476917
 20
1.85124610769667
 30
0.0
 10
26.35713576195578
 20
2.748363745354039
 30
0.0
 10
23.73101595012078
 20
3.46962576302037
 30
0.0
 10
21.10450451717039
 20
3.973075327373555
 30
0.0
 10
18.64625472932055
 20
4.197987569696219
 30
0.0
 10
16.65043997618303
 20
4.223834347183336
 30
0.0
 10
15.53030710925258
 20
4.120610114381279
 30
0.0
 10
15.11659083030822
 20
4.082484685914226
 30
0.0
  0
SPLINE
  5
A6
330
1F
100
AcDbEntity
  8
0
  6
Continuous
 62
   131
370
    15
100
AcDbSpline
210
0.0
220
0.0
230
1.0
 70
    24
 71
     3
 72
     9
 73
     5
 74
     0
 42
0.000000001
 43
0.00000001
 40
0.0
 40
0.0
 40
0.0
 40
0.0
 40
0.3731279162434306
 40
0.9999999999999999
 40
0.9999999999999999
 40
0.9999999999999999
 40
0.9999999999999999
 10
10.00000000000001
 20
4.39597650193149
 30
0.0
 10
10.00000000000001
 20
4.350022641385847
 30
0.0
 10
10.00000000000001
 20
4.226864178710908
 30
0.0
 10
10.00000000000001
 20
4.11608316722096
 30
0.0
 10
10.00000000000001
 20
4.046637643707596
 30
0.0
  0
SPLINE
  5
A7
330
1F
100
AcDbEntity
  8
0
  6
Continuous
 62
     1
370
    15
100
AcDbSpline
210
0.0
220
0.0
230
1.0
 70
     8
 71
     3
 72
    22
 73
    18
 74
     0
 42
0.000000001
 43
0.00000001
 40
0.0
 40
0.0
 40
0.0
 40
0.0
 40
0.0713325289788883
 40
0.1426621489241057
 40
0.2139891057558219
 40
0.2853136462589608
 40
0.35663601800406
 40
0.4279564692675836
 40
0.4951979498700159
 40
0.5624332871460038
 40
0.6296659083235813
 40
0.6968992456771094
 40
0.764136730150073
 40
0.8313817849831269
 40
0.8986378193725159
 40
0.9659082221837806
 40
1.0
 40
1.0
 40
1.0
 40
1.0
 10
50.00000000000001
 20
-5.693645215391389
 30
0.0
 10
49.30295918350852
 20
-5.544462844964446
 30
0.0
 10
47.90890597676014
 20
-5.246104187962412
 30
0.0
 10
45.81788808753052
 20
-4.525387064619131
 30
0.0
 10
43.72696364028598
 20
-3.638619353355451
 30
0.0
 10
41.63612033122302
 20
-2.600669101736198
 30
0.0
 10
39.54536884570427
 20
-1.459013433927995
 30
0.0
 10
37.49446817764367
 20
-0.2810769408454101
 30
0.0
 10
35.48371704636298
 20
0.8835620002157193
 30
0.0
 10
33.51290304459507
 20
1.993500422100688
 30
0.0
 10
31.54219509257797
 20
3.031850965344216
 30
0.0
 10
29.57145899399426
 20
3.961681715646971
 30
0.0
 10
27.60057838956754
 20
4.748639163608939
 30
0.0
 10
25.62942933841701
 20
5.368276868458253
 30
0.0
 10
23.65790209901671
 20
5.784240207149788
 30
0.0
 10
22.01022397307734
 20
5.993118972932069
 30
0.0
 10
21.01974991059337
 20
5.978088143989352
 30
0.0
 10
20.68661755825153
 20
5.973032731038125
 30
0.0
  0
LINE
  5
A8
330
1F
100
AcDbEntity
  8
0
  6
Continuous
 62
     1
370
    15
100
AcDbLine
 10
50.00000000000001
 20
-5.999999999999845
 30
0.0
 11
50.00000000000001
 21
-5.693645215391397
 31
0.0
  0
SPLINE
  5
A9
330
1F
100
AcDbEntity
  8
0
  6
Continuous
 62
     1
370
    15
100
AcDbSpline
210
0.0
220
0.0
230
1.0
 70
     8
 71
     3
 72
    16
 73
    12
 74
     0
 42
0.000000001
 43
0.00000001
 40
0.0
 40
0.0
 40
0.0
 40
0.0
 40
0.1124445716970401
 40
0.2247960458894543
 40
0.3371140448198745
 40
0.4494584576242086
 40
0.5618889628088067
 40
0.6743463042897941
 40
0.7867056703830937
 40
0.8990245035466756
 40
1.0
 40
1.0
 40
1.0
 40
1.0
 10
50.00000000000001
 20
-4.733833586209284
 30
0.0
 10
49.41584050442815
 20
-4.61426880565064
 30
0.0
 10
48.24800516305533
 20
-4.375238237152943
 30
0.0
 10
46.49697880709255
 20
-3.856601908634667
 30
0.0
 10
44.74652112214785
 20
-3.238408227870304
 30
0.0
 10
42.99561402096756
 20
-2.525771258302634
 30
0.0
 10
41.2437227832505
 20
-1.742480215961229
 30
0.0
 10
39.49163850376517
 20
-0.9095645919285817
 30
0.0
 10
37.74048400497502
 20
-0.0515529728897449
 30
0.0
 10
36.04904239949548
 20
0.7825547434660883
 30
0.0
 10
34.94113941606995
 20
1.306261952237432
 30
0.0
 10
34.41664795877504
 20
1.554189759305021
 30
0.0
  0
LINE
  5
AA
330
1F
100
AcDbEntity
  8
0
  6
Continuous
 62
     1
370
    15
100
AcDbLine
 10
50.00000000000001
 20
-5.693645215391392
 30
0.0
 11
50.00000000000001
 21
-4.733833586209284
 31
0.0
  0
SPLINE
  5
AB
330
1F
100
AcDbEntity
  8
0
  6
Continuous
 62
     1
370
    15
100
AcDbSpline
210
0.0
220
0.0
230
1.0
 70
     8
 71
     3
 72
     8
 73
     4
 74
     0
 42
0.000000001
 43
0.00000001
 40
0.0
 40
0.0
 40
0.0
 40
0.0
 40
1.0
 40
1.0
 40
1.0
 40
1.0
 10
46.28766238388619
 20
1.678126369561339
 30
0.0
 10
46.01854352449411
 20
1.996908240080757
 30
0.0
 10
45.78528950873194
 20
2.301017429348716
 30
0.0
 10
45.6006373060663
 20
2.584818657777568
 30
0.0
  0
LINE
  5
AC
330
1F
100
AcDbEntity
  8
0
  6
Continuous
 62
     1
370
    15
100
AcDbLine
 10
45.60063730606631
 20
2.584818657777567
 30
0.0
 11
50.00000000000001
 21
0.0000000000000099
 31
0.0
  0
LINE
  5
AD
330
1F
100
AcDbEntity
  8
0
  6
Continuous
 62
     1
370
    15
100
AcDbLine
 10
50.00000000000001
 20
0.0000000000000099
 30
0.0
 11
50.00000000000001
 21
-1.603457676177859
 31
0.0
  0
SPLINE
  5
AE
330
1F
100
AcDbEntity
  8
0
  6
Continuous
 62
     1
370
    15
100
AcDbSpline
210
0.0
220
0.0
230
1.0
 70
     8
 71
     3
 72
    12
 73
     8
 74
     0
 42
0.000000001
 43
0.00000001
 40
0.0
 40
0.0
 40
0.0
 40
0.0
 40
0.4999999999999984
 40
0.4999999999999984
 40
0.7499999999999992
 40
0.7499999999999992
 40
1.0
 40
1.0
 40
1.0
 40
1.0
 10
50.00000000000001
 20
-1.603457676177859
 30
0.0
 10
49.35738324975083
 20
-1.098253421644955
 30
0.0
 10
48.72550027521569
 20
-0.5723371630807174
 30
0.0
 10
47.79419516594456
 20
0.2484131373375422
 30
0.0
 10
47.48655768172767
 20
0.5273947563256701
 30
0.0
 10
46.8775660098175
 20
1.097482307907388
 30
0.0
 10
46.57786785258381
 20
1.387117232542717
 30
0.0
 10
46.28766238388619
 20
1.67812636956134
 30
0.0
  0
SPLINE
  5
AF
330
1F
100
AcDbEntity
  8
0
  6
Continuous
 62
     1
370
    15
100
AcDbSpline
210
0.0
220
0.0
230
1.0
 70
     8
 71
     3
 72
    17
 73
    13
 74
     0
 42
0.000000001
 43
0.00000001
 40
0.0
 40
0.0
 40
0.0
 40
0.0
 40
0.0008178792607769
 40
0.11271829874241
 40
0.2246369889647342
 40
0.3365795892342606
 40
0.4485269277014933
 40
0.5604495791499717
 40
0.6703540885747935
 40
0.7802412192601484
 40
0.8901201298753632
 40
1.0
 40
1.0
 40
1.0
 40
1.0
 10
27.61505113381951
 20
-4.714990795623337
 30
0.0
 10
27.61024894861365
 20
-4.716899662631108
 30
0.0
 10
26.94842247542994
 20
-4.97997546362042
 30
0.0
 10
25.62942676816542
 20
-5.354124723669778
 30
0.0
 10
23.65790153051017
 20
-5.794500156338628
 30
0.0
 10
21.68599109587643
 20
-6.007333082170128
 30
0.0
 10
19.71403270225491
 20
-6.009960533566616
 30
0.0
 10
17.75415028728368
 20
-5.796676063247653
 30
0.0
 10
15.80647417132359
 20
-5.382042303875832
 30
0.0
 10
13.87085482988642
 20
-4.781530315124746
 30
0.0
 10
11.93541270604889
 20
-4.023308340071369
 30
0.0
 10
10.64513944654136
 20
-3.405903519054376
 30
0.0
 10
9.999999999996048
 20
-3.097199760691332
 30
0.0
  0
SPLINE
  5
B0
330
1F
100
AcDbEntity
  8
0
  6
Continuous
 62
   131
370
    15
100
AcDbSpline
210
0.0
220
0.0
230
1.0
 70
    24
 71
     3
 72
     8
 73
     4
 74
     0
 42
0.000000001
 43
0.00000001
 40
0.0
 40
0.0
 40
0.0
 40
0.0
 40
1.0
 40
1.0
 40
1.0
 40
1.0
 10
10.00000000000002
 20
-2.364566603828131
 30
0.0
 10
10.00000000000002
 20
-2.590960798707318
 30
0.0
 10
10.00000000000002
 20
-2.836662343826784
 30
0.0
 10
10.00000000000002
 20
-3.097199760683193
 30
0.0
  0
SPLINE
  5
B1
330
1F
100
AcDbEntity
  8
0
  6
Continuous
 62
     1
370
    15
100
AcDbSpline
210
0.0
220
0.0
230
1.0
 70
     8
 71
     3
 72
    15
 73
    11
 74
     0
 42
0.000000001
 43
0.00000001
 40
0.0
 40
0.0
 40
0.0
 40
0.0
 40
0.1094538292353739
 40
0.2396466084030653
 40
0.3697760925174455
 40
0.4999116186324575
 40
0.6301224756089827
 40
0.7604282322247451
 40
0.8802570869498206
 40
1.0
 40
1.0
 40
1.0
 40
1.0
 10
23.45094609052119
 20
-4.982949778638647
 30
0.0
 10
22.96011563999117
 20
-5.026322459214765
 30
0.0
 10
21.88545380684948
 20
-5.121285932580911
 30
0.0
 10
20.22752981847052
 20
-5.093821387528453
 30
0.0
 10
18.47698917333152
 20
-4.935147395741206
 30
0.0
 10
16.7263531284647
 20
-4.632647424041439
 30
0.0
 10
14.9748000053703
 20
-4.200191100489818
 30
0.0
 10
13.2690861260092
 20
-3.662244530519427
 30
0.0
 10
11.61079069310086
 20
-3.048984020629372
 30
0.0
 10
10.53680180688115
 20
-2.592651175941329
 30
0.0
 10
10.00000000000002
 20
-2.364566603828131
 30
0.0
  0
SPLINE
  5
B2
330
1F
100
AcDbEntity
  8
0
  6
Continuous
 62
     1
370
    15
100
AcDbSpline
210
0.0
220
0.0
230
1.0
 70
     8
 71
     3
 72
    11
 73
     7
 74
     0
 42
0.000000001
 43
0.00000001
 40
0.0
 40
0.0
 40
0.0
 40
0.0
 40
0.2687202917867218
 40
0.5374386032541016
 40
0.8061558798327938
 40
1.0
 40
1.0
 40
1.0
 40
1.0
 10
10.0
 20
-4.395976501931481
 30
0.0
 10
10.69683250044288
 20
-4.653069778636756
 30
0.0
 10
12.09049236606002
 20
-5.167254437412609
 30
0.0
 10
14.18097263749776
 20
-5.674718783811732
 30
0.0
 10
16.07728677071138
 20
-5.967615772572445
 30
0.0
 10
17.27677550600287
 20
-5.973263273176664
 30
0.0
 10
17.77944140112248
 20
-5.975629953131953
 30
0.0
  0
SPLINE
  5
B3
330
1F
100
AcDbEntity
  8
0
  6
Continuous
 62
     1
370
    15
100
AcDbSpline
210
0.0
220
0.0
230
1.0
 70
     8
 71
     3
 72
    12
 73
     8
 74
     0
 42
0.000000001
 43
0.00000001
 40
0.0
 40
0.0
 40
0.0
 40
0.0
 40
0.0594396960752711
 40
0.2945153843780969
 40
0.5296209922165014
 40
0.7647760593361046
 40
1.0
 40
1.0
 40
1.0
 40
1.0
 10
41.76612529678292
 20
4.021085156639693
 30
0.0
 10
41.92925896841813
 20
4.094716007499494
 30
0.0
 10
42.73756350526862
 20
4.459546579910217
 30
0.0
 10
44.19107630439297
 20
4.974482832105471
 30
0.0
 10
46.12691123545004
 20
5.524977470861224
 30
0.0
 10
48.06321618709039
 20
5.888288931295713
 30
0.0
 10
49.35434237953641
 20
5.959378768326428
 30
0.0
 10
49.99999999999996
 20
6.000000000000151
 30
0.0
  0
LINE
  5
B4
330
1F
100
AcDbEntity
  8
0
  6
Continuous
 62
   131
370
    15
100
AcDbLine
 10
10.00000000000001
 20
-4.39597650193148
 30
0.0
 11
10.00000000000001
 21
-3.097199760674499
 31
0.0
  0
SPLINE
  5
B5
330
1F
100
AcDbEntity
  8
0
  6
Continuous
 62
     1
370
    15
100
AcDbSpline
210
0.0
220
0.0
230
1.0
 70
     8
 71
     3
 72
    16
 73
    12
 74
     0
 42
0.000000001
 43
0.00000001
 40
0.0
 40
0.0
 40
0.0
 40
0.0
 40
0.1115599335242761
 40
0.2382798632533389
 40
0.3650982571792422
 40
0.491947351302771
 40
0.6186843880968401
 40
0.7453750631513145
 40
0.8720878657752165
 40
0.998891107944665
 40
1.0
 40
1.0
 40
1.0
 40
1.0
 10
46.2876623838862
 20
1.678126369561338
 30
0.0
 10
45.77400203880784
 20
1.89697012062532
 30
0.0
 10
44.67687950639523
 20
2.364396529283281
 30
0.0
 10
42.99558236688386
 20
3.009798842530366
 30
0.0
 10
41.24370970630495
 20
3.599693743020721
 30
0.0
 10
39.49163459999095
 20
4.086970671951232
 30
0.0
 10
37.74047322951834
 20
4.457747747370215
 30
0.0
 10
35.98999259421562
 20
4.706447289901025
 30
0.0
 10
34.23917993101645
 20
4.805503489669724
 30
0.0
 10
33.06653227730577
 20
4.821498229460983
 30
0.0
 10
32.47741039740583
 20
4.767716837167378
 30
0.0
 10
32.47230319959223
 20
4.767250597126895
 30
0.0
  0
SPLINE
  5
B6
330
1F
100
AcDbEntity
  8
0
  6
Continuous
 62
     1
370
    15
100
AcDbSpline
210
0.0
220
0.0
230
1.0
 70
    24
 71
     3
 72
    10
 73
     6
 74
     0
 42
0.000000001
 43
0.00000001
 40
0.0
 40
0.0
 40
0.0
 40
0.0
 40
0.4999999999999999
 40
0.4999999999999999
 40
1.0
 40
1.0
 40
1.0
 40
1.0
 10
50.00000000000001
 20
-4.733833586209284
 30
0.0
 10
50.00000000000001
 20
-4.370948334022819
 30
0.0
 10
50.00000000000001
 20
-3.912428903438803
 30
0.0
 10
49.99999999999999
 20
-2.846415354904069
 30
0.0
 10
50.00000000000001
 20
-2.23984465830785
 30
0.0
 10
50.00000000000001
 20
-1.603457676178052
 30
0.0
  0
SPLINE
  5
B7
330
1F
100
AcDbEntity
  8
0
  6
Continuous
 62
     1
370
    15
100
AcDbSpline
210
0.0
220
0.0
230
1.0
 70
     8
 71
     3
 72
    23
 73
    19
 74
     0
 42
0.000000001
 43
0.00000001
 40
0.0
 40
0.0
 40
0.0
 40
0.0
 40
0.0477847038552663
 40
0.1119227073859779
 40
0.1761064885474534
 40
0.2403188946271209
 40
0.3044742152990241
 40
0.3686019849067558
 40
0.4327368628194834
 40
0.4969134514344678
 40
0.5611292948973404
 40
0.6252901461052425
 40
0.6894193651046372
 40
0.7535515996453138
 40
0.8177214733067878
 40
0.8819387750088176
 40
0.9409908642835987
 40
0.9999999999999999
 40
0.9999999999999999
 40
0.9999999999999999
 40
0.9999999999999999
 10
37.29425239123618
 20
-4.499651248447107
 30
0.0
 10
36.85953198965684
 20
-4.566234202670562
 30
0.0
 10
35.84131736499267
 20
-4.722186712599624
 30
0.0
 10
34.2391814906594
 20
-4.813023193718879
 30
0.0
 10
32.48739615573755
 20
-4.791964693544883
 30
0.0
 10
30.73526234978514
 20
-4.630934056889944
 30
0.0
 10
28.98397847745537
 20
-4.339742393742749
 30
0.0
 10
27.23346888296861
 20
-3.925325774936252
 30
0.0
 10
25.48274936061336
 20
-3.399758739813093
 30
0.0
 10
23.73107056897109
 20
-2.777799651388457
 30
0.0
 10
21.97889682964607
 20
-2.077542543551175
 30
0.0
 10
20.22749480613957
 20
-1.317968017473021
 30
0.0
 10
18.47694280275383
 20
-0.521159209618618
 30
0.0
 10
16.72629886879266
 20
0.2903174361910272
 30
0.0
 10
14.97473793528207
 20
1.094101859589721
 30
0.0
 10
13.26905951366796
 20
1.844281679722216
 30
0.0
 10
11.61077207030641
 20
2.531975309044221
 30
0.0
 10
10.53679377692051
 20
2.92372003921175
 30
0.0
 10
10.00000000000001
 20
3.119521141143118
 30
0.0
  0
SPLINE
  5
B8
330
1F
100
AcDbEntity
  8
0
  6
Continuous
 62
   131
370
    15
100
AcDbSpline
210
0.0
220
0.0
230
1.0
 70
    24
 71
     3
 72
    14
 73
    10
 74
     0
 42
0.000000001
 43
0.00000001
 40
0.0
 40
0.0
 40
0.0
 40
0.0
 40
0.25
 40
0.25
 40
0.5
 40
0.5
 40
0.75
 40
0.75
 40
1.0
 40
1.0
 40
1.0
 40
1.0
 10
10.0
 20
3.119521141143121
 30
0.0
 10
10.0
 20
2.735436654201907
 30
0.0
 10
10.0
 20
2.314790256664107
 30
0.0
 10
10.0
 20
1.423344747212509
 30
0.0
 10
10.0
 20
0.952731887550477
 30
0.0
 10
10.0
 20
-0.0057483211172924
 30
0.0
 10
10.0
 20
-0.4933388901344863
 30
0.0
 10
10.0
 20
-1.450304633439059
 30
0.0
 10
10.0
 20
-1.919441962104932
 30
0.0
 10
10.0
 20
-2.364566603828124
 30
0.0
  0
SPLINE
  5
B9
330
1F
100
AcDbEntity
  8
0
  6
Continuous
 62
   131
370
    15
100
AcDbSpline
210
0.0
220
0.0
230
1.0
 70
    24
 71
     3
 72
    11
 73
     7
 74
     0
 42
0.000000001
 43
0.00000001
 40
0.0
 40
0.0
 40
0.0
 40
0.0
 40
0.0208064217185813
 40
0.3525920523824413
 40
0.6717658929870209
 40
1.0
 40
1.0
 40
1.0
 40
1.0
 10
10.00000000000001
 20
3.972270816703713
 30
0.0
 10
10.00000000000001
 20
3.974083622042956
 30
0.0
 10
10.00000000000001
 20
4.004803981544383
 30
0.0
 10
10.00000000000001
 20
3.887661282431639
 30
0.0
 10
10.00000000000001
 20
3.621426248902938
 30
0.0
 10
10.00000000000001
 20
3.288376485240789
 30
0.0
 10
10.00000000000001
 20
3.119521141143118
 30
0.0
  0
LINE
  5
BA
330
1F
100
AcDbEntity
  8
0
  6
Continuous
 62
     1
370
    15
100
AcDbLine
 10
50.00000000000001
 20
4.200000000000009
 30
0.0
 11
47.76625104044056
 21
4.086491464575329
 31
0.0
  0
SPLINE
  5
BB
330
1F
100
AcDbEntity
  8
0
  6
Continuous
 62
     1
370
    15
100
AcDbSpline
210
0.0
220
0.0
230
1.0
 70
     8
 71
     3
 72
    10
 73
     6
 74
     0
 42
0.000000001
 43
0.00000001
 40
0.0
 40
0.0
 40
0.0
 40
0.0
 40
0.5
 40
0.5
 40
1.0
 40
1.0
 40
1.0
 40
1.0
 10
50.00000000000001
 20
4.200000000000009
 30
0.0
 10
49.25332347653936
 20
3.997490621300247
 30
0.0
 10
48.51228338110266
 20
3.765127278277482
 30
0.0
 10
47.04287433025133
 20
3.233286497890206
 30
0.0
 10
46.3145029316684
 20
2.934090734052219
 30
0.0
 10
45.60063730606633
 20
2.584818657777564
 30
0.0
  0
SPLINE
  5
BC
330
1F
100
AcDbEntity
  8
0
  6
Continuous
 62
     1
370
    15
100
AcDbSpline
210
0.0
220
0.0
230
1.0
 70
    24
 71
     3
 72
    10
 73
     6
 74
     0
 42
0.000000001
 43
0.00000001
 40
0.0
 40
0.0
 40
0.0
 40
0.0
 40
0.5
 40
0.5
 40
1.0
 40
1.0
 40
1.0
 40
1.0
 10
50.00000000000001
 20
4.200000000000008
 30
0.0
 10
50.0
 20
4.454593540843891
 30
0.0
 10
50.00000000000001
 20
4.750454813202713
 30
0.0
 10
50.00000000000001
 20
5.371170965765144
 30
0.0
 10
50.00000000000001
 20
5.694440614808848
 30
0.0
 10
49.99999999999996
 20
6.000000000000151
 30
0.0
  0
LINE
  5
BD
330
1F
100
AcDbEntity
  8
0
  6
Continuous
 62
     1
370
    15
100
AcDbLine
 10
50.00000000000001
 20
0.0000000000000099
 30
0.0
 11
50.00000000000001
 21
4.200000000000009
 31
0.0
  0
SPLINE
  5
BE
330
1F
100
AcDbEntity
  8
0
  6
Continuous
 62
   131
370
    15
100
AcDbSpline
210
0.0
220
0.0
230
1.0
 70
     8
 71
     3
 72
     9
 73
     5
 74
     0
 42
0.000000001
 43
0.00000001
 40
0.0
 40
0.0
 40
0.0
 40
0.0
 40
0.0163054784777097
 40
1.0
 40
1.0
 40
1.0
 40
1.0
 10
9.0900515567478
 20
4.022256412459862
 30
0.0
 10
9.094994303680265
 20
4.024475804562488
 30
0.0
 10
9.398128427540644
 20
4.160589081192797
 30
0.0
 10
9.701537831523611
 20
4.279250204760378
 30
0.0
 10
10.0
 20
4.395976501931487
 30
0.0
  0
LINE
  5
BF
330
1F
100
AcDbEntity
  8
0
  6
Continuous
 62
   131
370
    15
100
AcDbLine
 10
7.970090650330294
 20
-2.040627515533186
 30
0.0
 11
7.970090650330297
 21
6.000000000000005
 31
0.0
  0
SPLINE
  5
C0
330
1F
100
AcDbEntity
  8
0
  6
Continuous
 62
   131
370
    15
100
AcDbSpline
210
0.0
220
0.0
230
1.0
 70
     8
 71
     3
 72
    10
 73
     6
 74
     0
 42
0.000000001
 43
0.00000001
 40
0.0
 40
0.0
 40
0.0
 40
0.0
 40
0.5
 40
0.5
 40
1.0
 40
1.0
 40
1.0
 40
1.0
 10
10.0
 20
-3.097199760693283
 30
0.0
 10
9.660887650528721
 20
-2.929766291370653
 30
0.0
 10
9.321140479534314
 20
-2.757285576940347
 30
0.0
 10
8.645228097112158
 20
-2.404724815064145
 30
0.0
 10
8.309063875219385
 20
-2.224663317262809
 30
0.0
 10
7.970185624354615
 20
-2.040869327865943
 30
0.0
  0
SPLINE
  5
C1
330
1F
100
AcDbEntity
  8
0
  6
Continuous
 62
   131
370
    15
100
AcDbSpline
210
0.0
220
0.0
230
1.0
 70
     8
 71
     3
 72
    10
 73
     6
 74
     0
 42
0.000000001
 43
0.00000001
 40
0.0
 40
0.0
 40
0.0
 40
0.0
 40
0.5
 40
0.5
 40
1.0
 40
1.0
 40
1.0
 40
1.0
 10
10.0
 20
-4.395976501931477
 30
0.0
 10
9.66087181059423
 20
-4.262919379003234
 30
0.0
 10
9.321108740663876
 20
-4.122762513019585
 30
0.0
 10
8.645165120423883
 20
-3.830297425029835
 30
0.0
 10
8.308984914429306
 20
-3.6780177785023
 30
0.0
 10
7.97009065033029
 20
-3.519724527592794
 30
0.0
  0
LINE
  5
C2
330
1F
100
AcDbEntity
  8
0
  6
Continuous
 62
   131
370
    15
100
AcDbLine
 10
7.970090650330297
 20
-5.999999999999995
 30
0.0
 11
7.97009065033029
 21
-3.519726558740099
 31
0.0
  0
LINE
  5
C3
330
1F
100
AcDbEntity
  8
0
  6
Continuous
 62
   131
370
    15
100
AcDbLine
 10
-49.0
 20
5.999999999999997
 30
0.0
 11
-49.0
 21
-5.999999999999998
 31
0.0
  0
LINE
  5
C4
330
1F
100
AcDbEntity
  8
0
  6
Continuous
 62
   131
370
    15
100
AcDbLine
 10
-50.00000000000001
 20
4.999999999999997
 30
0.0
 11
-50.00000000000001
 21
-4.999999999999994
 31
0.0
  0
SPLINE
  5
C5
330
1F
100
AcDbEntity
  8
0
  6
Continuous
 62
   131
370
    15
100
AcDbSpline
210
0.0
220
0.0
230
1.0
 70
    24
 71
     3
 72
     8
 73
     4
 74
     0
 42
0.000000001
 43
0.00000001
 40
0.0
 40
0.0
 40
0.0
 40
0.0
 40
1.0
 40
1.0
 40
1.0
 40
1.0
 10
10.00000000000002
 20
-2.364566603828131
 30
0.0
 10
10.00000000000002
 20
-2.590960798707321
 30
0.0
 10
10.00000000000002
 20
-2.83666234382679
 30
0.0
 10
10.00000000000002
 20
-3.097199760683204
 30
0.0
  0
SPLINE
  5
C6
330
1F
100
AcDbEntity
  8
0
  6
Continuous
 62
   131
370
    15
100
AcDbSpline
210
0.0
220
0.0
230
1.0
 70
     8
 71
     3
 72
    10
 73
     6
 74
     0
 42
0.000000001
 43
0.00000001
 40
0.0
 40
0.0
 40
0.0
 40
0.0
 40
0.5
 40
0.5
 40
1.0
 40
1.0
 40
1.0
 40
1.0
 10
9.99999999999999
 20
-2.364566603828118
 30
0.0
 10
9.660887650528712
 20
-2.217336978610204
 30
0.0
 10
9.32114047953431
 20
-2.066242021872139
 30
0.0
 10
8.645228097112161
 20
-1.758503448736676
 30
0.0
 10
8.309063875219383
 20
-1.601873560211988
 30
0.0
 10
7.970185624354615
 20
-1.442526808219876
 30
0.0
  0
SPLINE
  5
C7
330
1F
100
AcDbEntity
  8
0
  6
Continuous
 62
   131
370
    15
100
AcDbSpline
210
0.0
220
0.0
230
1.0
 70
     8
 71
     3
 72
    10
 73
     6
 74
     0
 42
0.000000001
 43
0.00000001
 40
0.0
 40
0.0
 40
0.0
 40
0.0
 40
0.5
 40
0.5
 40
1.0
 40
1.0
 40
1.0
 40
1.0
 10
9.999999999999996
 20
3.119521141143124
 30
0.0
 10
9.660877594307939
 20
3.238387429498498
 30
0.0
 10
9.3211203296351
 20
3.352347577251364
 30
0.0
 10
8.645188115408168
 20
3.568862949117956
 30
0.0
 10
8.309013745782462
 20
3.671443330900747
 30
0.0
 10
7.970125328672051
 20
3.768297286529779
 30
0.0
  0
SPLINE
  5
C8
330
1F
100
AcDbEntity
  8
0
  6
Continuous
 62
   131
370
    15
100
AcDbSpline
210
0.0
220
0.0
230
1.0
 70
    24
 71
     3
 72
    14
 73
    10
 74
     0
 42
0.000000001
 43
0.00000001
 40
0.0
 40
0.0
 40
0.0
 40
0.0
 40
0.25
 40
0.25
 40
0.5
 40
0.5
 40
0.75
 40
0.75
 40
1.0
 40
1.0
 40
1.0
 40
1.0
 10
10.0
 20
3.119521141143121
 30
0.0
 10
10.0
 20
2.735436654201907
 30
0.0
 10
10.0
 20
2.314790256664107
 30
0.0
 10
10.0
 20
1.423344747212509
 30
0.0
 10
10.0
 20
0.952731887550477
 30
0.0
 10
10.0
 20
-0.0057483211172924
 30
0.0
 10
10.0
 20
-0.4933388901344863
 30
0.0
 10
10.0
 20
-1.450304633439059
 30
0.0
 10
10.0
 20
-1.919441962104932
 30
0.0
 10
10.0
 20
-2.364566603828124
 30
0.0
  0
SPLINE
  5
C9
330
1F
100
AcDbEntity
  8
0
  6
Continuous
 62
   131
370
    15
100
AcDbSpline
210
0.0
220
0.0
230
1.0
 70
    24
 71
     3
 72
    11
 73
     7
 74
     0
 42
0.000000001
 43
0.00000001
 40
0.0
 40
0.0
 40
0.0
 40
0.0
 40
0.0191927135377226
 40
0.3515251259599282
 40
0.671224964129365
 40
1.0
 40
1.0
 40
1.0
 40
1.0
 10
10.00000000000001
 20
3.972675474851537
 30
0.0
 10
10.00000000000001
 20
3.974337625301396
 30
0.0
 10
10.00000000000001
 20
4.004780826837364
 30
0.0
 10
10.00000000000001
 20
3.887549268200544
 30
0.0
 10
10.00000000000001
 20
3.621454714381933
 30
0.0
 10
10.00000000000001
 20
3.288386061848351
 30
0.0
 10
10.00000000000001
 20
3.119521141143118
 30
0.0
  0
SPLINE
  5
CA
330
1F
100
AcDbEntity
  8
0
  6
Continuous
 62
   131
370
    15
100
AcDbSpline
210
0.0
220
0.0
230
1.0
 70
    24
 71
     3
 72
     9
 73
     5
 74
     0
 42
0.000000001
 43
0.00000001
 40
0.0
 40
0.0
 40
0.0
 40
0.0
 40
0.3731279162434306
 40
0.9999999999999999
 40
0.9999999999999999
 40
0.9999999999999999
 40
0.9999999999999999
 10
10.00000000000001
 20
4.39597650193149
 30
0.0
 10
10.00000000000001
 20
4.350022641385847
 30
0.0
 10
10.00000000000001
 20
4.226864178710908
 30
0.0
 10
10.00000000000001
 20
4.11608316722096
 30
0.0
 10
10.00000000000001
 20
4.046637643707596
 30
0.0
  0
LINE
  5
CB
330
1F
100
AcDbEntity
  8
중심선
 62
     1
100
AcDbLine
 10
-53.00000000000001
 20
-0.0000000000000004
 30
0.0
 11
53.00000000000002
 21
0.0000000000000102
 31
0.0
  0
CIRCLE
  5
CC
330
1F
100
AcDbEntity
  8
외형선
100
AcDbCircle
 10
0.0000000000000104
 20
0.0
 30
0.0
 40
3.000000000000005
  0
INSERT
  5
CD
330
1F
100
AcDbEntity
  8
0
  6
Continuous
 62
     7
100
AcDbBlockReference
 66
     1
  2
블럭10
 10
-22.93944368806589
 20
-52.04609937292004
 30
0.0
  0
ATTRIB
  5
CE
330
CD
100
AcDbEntity
  8
FORMAT
 62
     2
100
AcDbText
 10
-39.05870472750145
 20
-49.97073246008785
 30
0.0
 40
4.233333333333333
  1
SEME7012040E [ 2 FLUTE ]
 41
0.75
  7
SLDTEXTSTYLE0
 11
-39.05870472750145
 21
-52.08739912675452
 31
0.0
100
AcDbAttribute
  2
AUTOATTR0
 70
     0
 74
     1
  0
SEQEND
  5
CF
330
CD
100
AcDbEntity
  8
0
  6
Continuous
 62
     7
  0
HATCH
  5
D0
330
1F
100
AcDbEntity
  8
중심선
100
AcDbHatch
 10
0.0
 20
0.0
 30
0.0
210
0.0
220
0.0
230
1.0
  2
SOLID
 70
     1
 71
     0
 91
        1
 92
        0
 93
        4
 72
     1
 10
-17.22453438368504
 20
-35.7989250712761
 11
-20.67080962752232
 21
-35.7989250712761
 72
     1
 10
-20.67080962752232
 20
-35.7989250712761
 11
-22.79903948672635
 21
-38.3352506518487
 72
     1
 10
-22.79903948672635
 20
-38.3352506518487
 11
-19.35273115777591
 21
-38.33521122254621
 72
     1
 10
-19.35273115777591
 20
-38.33521122254621
 11
-17.22453438368504
 21
-35.7989250712761
 97
        0
 75
     0
 76
     1
 98
        1
 10
0.0
 20
0.0
  0
HATCH
  5
D1
330
1F
100
AcDbEntity
  8
중심선
100
AcDbHatch
 10
0.0
 20
0.0
 30
0.0
210
0.0
220
0.0
230
1.0
  2
SOLID
 70
     1
 71
     0
 91
        1
 92
        0
 93
        4
 72
     1
 10
-12.21177039264909
 20
-35.7989250712761
 11
-15.65804563648637
 21
-35.7989250712761
 72
     1
 10
-15.65804563648637
 20
-35.7989250712761
 11
-20.18918364484376
 21
-41.19892507127612
 72
     1
 10
-20.18918364484376
 20
-41.19892507127612
 11
-16.74290840100648
 21
-41.19892507127612
 72
     1
 10
-16.74290840100648
 20
-41.19892507127612
 11
-12.21177039264909
 21
-35.7989250712761
 97
        0
 75
     0
 76
     1
 98
        1
 10
0.0
 20
0.0
  0
HATCH
  5
D2
330
1F
100
AcDbEntity
  8
중심선
100
AcDbHatch
 10
0.0
 20
0.0
 30
0.0
210
0.0
220
0.0
230
1.0
  2
SOLID
 70
     1
 71
     0
 91
        1
 92
        0
 93
        4
 72
     1
 10
-7.199006401613195
 20
-35.79892507127613
 11
-10.64528164545031
 21
-35.7989250712761
 72
     1
 10
-10.64528164545031
 20
-35.7989250712761
 11
-17.69371854733956
 21
-44.19892507127612
 72
     1
 10
-17.69371854733956
 20
-44.19892507127612
 11
-14.24744330350228
 21
-44.19892507127612
 72
     1
 10
-14.24744330350228
 20
-44.19892507127612
 11
-7.199006401613195
 21
-35.79892507127613
 97
        0
 75
     0
 76
     1
 98
        1
 10
0.0
 20
0.0
  0
HATCH
  5
D3
330
1F
100
AcDbEntity
  8
중심선
100
AcDbHatch
 10
0.0
 20
0.0
 30
0.0
210
0.0
220
0.0
230
1.0
  2
SOLID
 70
     1
 71
     0
 91
        1
 92
        0
 93
        6
 72
     3
 10
-2.399115970600996
 20
-39.99892507132738
 11
3.960054785062284
 21
1.540850780301639E-10
 40
0.3939339440162633
 50
17.09539180608433
 51
320.0019657685079
 73
     0
 72
     1
 10
-0.7161163149004002
 20
-38.58681907591441
 11
1.589185558800638
 21
-36.65249236586649
 72
     3
 10
-2.399115970653842
 20
-39.99892507127625
 11
6.600054785286829
 21
-1.249000902703301E-13
 40
0.6363583540795982
 50
39.99873849337408
 51
368.4976242363725
 73
     1
 72
     1
 10
4.026216521246767
 20
-39.03892507120613
 11
-3.71904866381792
 21
-39.0389250712061
 72
     1
 10
-3.71904866381792
 20
-39.0389250712061
 11
-3.719073708263854
 21
-40.95892507120602
 72
     1
 10
-3.719073708263854
 20
-40.95892507120602
 11
0.7223060612081831
 21
-40.95892507120599
 97
        0
 75
     0
 76
     1
 98
        1
 10
0.0
 20
0.0
  0
DIMENSION
  5
D4
330
1F
100
AcDbEntity
  8
치수문자_일반주서
100
AcDbDimension
  2
_D
 10
63.64537148118135
 20
6.000000000000203
 30
0.0
 11
63.64537148118131
 21
16.5415000000002
 31
0.0
 70
   160
  1
%%c<>
 71
     2
 42
12.0
 52
-270.0
  3
SLDDIMSTYLE0
100
AcDbAlignedDimension
 13
50.00000000000001
 23
-5.999999999999845
 33
0.0
 14
49.99999999999996
 24
6.000000000000151
 34
0.0
 50
90.0000000000002
100
AcDbRotatedDimension
  0
DIMENSION
  5
E2
330
1F
100
AcDbEntity
  8
치수문자_일반주서
100
AcDbDimension
  2
_D_1
 10
49.99999999999996
 20
26.78841044024269
 30
0.0
 11
0.0000000000000027
 21
26.78841044024269
 31
0.0
 70
   160
  1
<>
 71
     2
 42
99.99999999999997
  3
SLDDIMSTYLE1
100
AcDbAlignedDimension
 13
-50.00000000000001
 23
4.999999999999997
 33
0.0
 14
49.99999999999996
 24
6.000000000000151
 34
0.0
 50
-0.000000000000002
100
AcDbRotatedDimension
  0
DIMENSION
  5
ED
330
1F
100
AcDbEntity
  8
치수문자_일반주서
100
AcDbDimension
  2
_D_2
 10
49.99999999999996
 20
17.32476524993956
 30
0.0
 11
30.00000000000001
 21
17.32476524993956
 31
0.0
 70
   160
  1
<>
 71
     2
 42
39.99999999999996
  3
SLDDIMSTYLE1
100
AcDbAlignedDimension
 13
10.00000000000001
 23
4.39597650193149
 33
0.0
 14
49.99999999999996
 24
6.000000000000151
 34
0.0
 50
-0.0000000000000051
100
AcDbRotatedDimension
  0
DIMENSION
  5
F7
330
1F
100
AcDbEntity
  8
치수문자_일반주서
100
AcDbDimension
  2
_D_3
 10
-61.1069310742451
 20
-6.000000000000039
 30
0.0
 11
-61.10693107424518
 21
16.54149999999995
 31
0.0
 70
   160
  1
%%c<>
 71
     2
 42
11.99999999999999
 52
-270.0
  3
SLDDIMSTYLE0
100
AcDbAlignedDimension
 13
-49.0
 23
5.999999999999997
 33
0.0
 14
-49.0
 24
-5.999999999999994
 34
0.0
 50
90.0000000000002
100
AcDbRotatedDimension
  0
INSERT
  5
10A
330
1F
100
AcDbEntity
  8
외형선
100
AcDbBlockReference
  2
SW_DOWELSYMBOL_0
 10
0.0000000000000104
 20
0.0
 30
0.0
  0
ENDSEC
  0
SECTION
  2
OBJECTS
  0
DICTIONARY
  5
C
330
0
100
AcDbDictionary
281
     1
  3
ACAD_GROUP
350
D
  3
ACAD_IMAGE_VARS
350
12E
  3
ACAD_LAYOUT
350
1A
  3
ACAD_MLINESTYLE
350
17
  3
ACAD_PLOTSETTINGS
350
19
  3
ACAD_PLOTSTYLENAME
350
E
  3
ACAD_SCALELIST
350
47
  3
APPDATA
350
12C
  3
DWGPROPS
350
13C
  0
DICTIONARY
  5
D
102
{ACAD_REACTORS
330
C
102
}
330
C
100
AcDbDictionary
281
     1
  0
RASTERVARIABLES
  5
12E
102
{ACAD_REACTORS
330
C
102
}
330
C
100
AcDbRasterVariables
 90
        0
 70
     1
 71
     1
 72
     1
  0
DICTIONARY
  5
1A
102
{ACAD_REACTORS
330
C
102
}
330
C
100
AcDbDictionary
281
     1
  3
Layout1
350
1E
  3
Layout2
350
26
  3
Model
350
22
  0
DICTIONARY
  5
17
102
{ACAD_REACTORS
330
C
102
}
330
C
100
AcDbDictionary
281
     1
  3
Standard
350
18
  0
DICTIONARY
  5
19
102
{ACAD_REACTORS
330
C
102
}
330
C
100
AcDbDictionary
281
     1
  0
ACDBDICTIONARYWDFLT
  5
E
102
{ACAD_REACTORS
330
C
102
}
330
C
100
AcDbDictionary
281
     1
  3
Normal
350
F
100
AcDbDictionaryWithDefault
340
F
  0
DICTIONARY
  5
47
102
{ACAD_REACTORS
330
C
102
}
330
C
100
AcDbDictionary
281
     1
  3
A0
350
48
  3
A1
350
49
  3
A2
350
4A
  3
A3
350
4B
  3
A4
350
4C
  3
A5
350
4D
  3
A6
350
4E
  3
A7
350
4F
  3
A8
350
50
  3
A9
350
51
  3
B0
350
52
  3
B1
350
53
  3
B2
350
54
  3
B3
350
55
  3
B4
350
56
  3
B5
350
57
  3
B6
350
58
  3
B7
350
59
  3
B8
350
5A
  3
B9
350
5B
  3
C0
350
5C
  3
C1
350
5D
  3
C2
350
5E
  3
C3
350
5F
  3
C4
350
60
  3
C5
350
61
  3
C6
350
62
  3
C7
350
63
  3
C8
350
64
  3
C9
350
65
  3
D0
350
66
  3
D1
350
67
  3
D2
350
68
  0
DICTIONARY
  5
12C
102
{ACAD_REACTORS
330
C
102
}
330
C
100
AcDbDictionary
281
     1
  0
XRECORD
  5
13C
102
{ACAD_REACTORS
330
C
102
}
330
C
100
AcDbXrecord
280
     1
  1
DWGPROPS COOKIE
  2

  3

  4

  6

  7

  8
12014102
  9

300
=
301
=
302
=
303
=
304
=
305
=
306
=
307
=
308
=
309
=
 40
0.0
 41
2458262.172549317
 42
2458266.114854444
  1

 90
        0
  0
LAYOUT
  5
1E
102
{ACAD_REACTORS
330
1A
102
}
330
1A
100
AcDbPlotSettings
  1

  2
none_device
  4

  6

 40
0.0
 41
0.0
 42
0.0
 43
0.0
 44
0.0
 45
0.0
 46
0.0
 47
0.0
 48
0.0
 49
0.0
140
0.0
141
0.0
142
1.0
143
1.0
 70
   688
 72
     1
 73
     0
 74
     5
  7

 75
    16
147
1.0
148
0.0
149
0.0
100
AcDbLayout
  1
Layout1
 70
     1
 71
     1
 10
0.0
 20
0.0
 11
420.0
 21
297.0
 12
0.0
 22
0.0
 32
0.0
 14
1.000000000000000E+20
 24
1.000000000000000E+20
 34
1.000000000000000E+20
 15
-1.000000000000000E+20
 25
-1.000000000000000E+20
 35
-1.000000000000000E+20
146
0.0
 13
0.0
 23
0.0
 33
0.0
 16
1.0
 26
0.0
 36
0.0
 17
0.0
 27
1.0
 37
0.0
 76
     0
330
1B
  0
LAYOUT
  5
26
102
{ACAD_REACTORS
330
1A
102
}
330
1A
100
AcDbPlotSettings
  1

  2
none_device
  4

  6

 40
0.0
 41
0.0
 42
0.0
 43
0.0
 44
0.0
 45
0.0
 46
0.0
 47
0.0
 48
0.0
 49
0.0
140
0.0
141
0.0
142
1.0
143
1.0
 70
   688
 72
     1
 73
     0
 74
     5
  7

 75
    16
147
1.0
148
0.0
149
0.0
100
AcDbLayout
  1
Layout2
 70
     1
 71
     2
 10
0.0
 20
0.0
 11
0.0
 21
0.0
 12
0.0
 22
0.0
 32
0.0
 14
0.0
 24
0.0
 34
0.0
 15
0.0
 25
0.0
 35
0.0
146
0.0
 13
0.0
 23
0.0
 33
0.0
 16
1.0
 26
0.0
 36
0.0
 17
0.0
 27
1.0
 37
0.0
 76
     0
330
23
  0
LAYOUT
  5
22
102
{ACAD_REACTORS
330
1A
102
}
330
1A
100
AcDbPlotSettings
  1

  2
none_device
  4
ANSI_A_(11.00_x_8.50_Inches)
  6

 40
6.35
 41
19.05
 42
6.35000508
 43
19.05000254
 44
279.4
 45
215.9
 46
140.5762642638767
 47
112.0337518643677
 48
0.0
 49
0.0
140
0.0
141
0.0
142
0.0938294292552811
143
1.0
 70
  1696
 72
     0
 73
     0
 74
     0
  7

 75
     0
147
0.0235690232323232
148
0.0
149
0.0
100
AcDbLayout
  1
Model
 70
     1
 71
     0
 10
0.0
 20
0.0
 11
420.0
 21
297.0
 12
0.0
 22
0.0
 32
0.0
 14
-65.4819310742452
 24
-49.97073246008785
 34
0.0
 15
64.19570481451474
 25
31.16341044024269
 35
0.0
146
0.0
 13
0.0
 23
0.0
 33
0.0
 16
1.0
 26
0.0
 36
0.0
 17
0.0
 27
1.0
 37
0.0
 76
     0
330
1F
331
29
  0
MLINESTYLE
  5
18
102
{ACAD_REACTORS
330
17
102
}
330
17
100
AcDbMlineStyle
  2
Standard
 70
     0
  3

 62
   256
 51
90.0
 52
90.0
 71
     2
 49
0.5
 62
   256
  6
BYLAYER
 49
-0.5
 62
   256
  6
BYLAYER
  0
ACDBPLACEHOLDER
  5
F
102
{ACAD_REACTORS
330
E
102
}
330
E
  0
SCALE
  5
48
102
{ACAD_REACTORS
330
47
102
}
330
47
100
AcDbScale
 70
     0
300
1:1
140
1.0
141
1.0
290
     1
  0
SCALE
  5
49
102
{ACAD_REACTORS
330
47
102
}
330
47
100
AcDbScale
 70
     0
300
1:2
140
1.0
141
2.0
290
     0
  0
SCALE
  5
4A
102
{ACAD_REACTORS
330
47
102
}
330
47
100
AcDbScale
 70
     0
300
1:4
140
1.0
141
4.0
290
     0
  0
SCALE
  5
4B
102
{ACAD_REACTORS
330
47
102
}
330
47
100
AcDbScale
 70
     0
300
1:5
140
1.0
141
5.0
290
     0
  0
SCALE
  5
4C
102
{ACAD_REACTORS
330
47
102
}
330
47
100
AcDbScale
 70
     0
300
1:8
140
1.0
141
8.0
290
     0
  0
SCALE
  5
4D
102
{ACAD_REACTORS
330
47
102
}
330
47
100
AcDbScale
 70
     0
300
1:10
140
1.0
141
10.0
290
     0
  0
SCALE
  5
4E
102
{ACAD_REACTORS
330
47
102
}
330
47
100
AcDbScale
 70
     0
300
1:16
140
1.0
141
16.0
290
     0
  0
SCALE
  5
4F
102
{ACAD_REACTORS
330
47
102
}
330
47
100
AcDbScale
 70
     0
300
1:20
140
1.0
141
20.0
290
     0
  0
SCALE
  5
50
102
{ACAD_REACTORS
330
47
102
}
330
47
100
AcDbScale
 70
     0
300
1:30
140
1.0
141
30.0
290
     0
  0
SCALE
  5
51
102
{ACAD_REACTORS
330
47
102
}
330
47
100
AcDbScale
 70
     0
300
1:40
140
1.0
141
40.0
290
     0
  0
SCALE
  5
52
102
{ACAD_REACTORS
330
47
102
}
330
47
100
AcDbScale
 70
     0
300
1:50
140
1.0
141
50.0
290
     0
  0
SCALE
  5
53
102
{ACAD_REACTORS
330
47
102
}
330
47
100
AcDbScale
 70
     0
300
1:100
140
1.0
141
100.0
290
     0
  0
SCALE
  5
54
102
{ACAD_REACTORS
330
47
102
}
330
47
100
AcDbScale
 70
     0
300
2:1
140
2.0
141
1.0
290
     0
  0
SCALE
  5
55
102
{ACAD_REACTORS
330
47
102
}
330
47
100
AcDbScale
 70
     0
300
4:1
140
4.0
141
1.0
290
     0
  0
SCALE
  5
56
102
{ACAD_REACTORS
330
47
102
}
330
47
100
AcDbScale
 70
     0
300
8:1
140
8.0
141
1.0
290
     0
  0
SCALE
  5
57
102
{ACAD_REACTORS
330
47
102
}
330
47
100
AcDbScale
 70
     0
300
10:1
140
10.0
141
1.0
290
     0
  0
SCALE
  5
58
102
{ACAD_REACTORS
330
47
102
}
330
47
100
AcDbScale
 70
     0
300
100:1
140
100.0
141
1.0
290
     0
  0
SCALE
  5
59
102
{ACAD_REACTORS
330
47
102
}
330
47
100
AcDbScale
 70
     0
300
1/128" = 1'-0"
140
0.0078125
141
12.0
290
     0
  0
SCALE
  5
5A
102
{ACAD_REACTORS
330
47
102
}
330
47
100
AcDbScale
 70
     0
300
1/64" = 1'-0"
140
0.015625
141
12.0
290
     0
  0
SCALE
  5
5B
102
{ACAD_REACTORS
330
47
102
}
330
47
100
AcDbScale
 70
     0
300
1/32" = 1'-0"
140
0.03125
141
12.0
290
     0
  0
SCALE
  5
5C
102
{ACAD_REACTORS
330
47
102
}
330
47
100
AcDbScale
 70
     0
300
1/16" = 1'-0"
140
0.0625
141
12.0
290
     0
  0
SCALE
  5
5D
102
{ACAD_REACTORS
330
47
102
}
330
47
100
AcDbScale
 70
     0
300
3/32" = 1'-0"
140
0.09375
141
12.0
290
     0
  0
SCALE
  5
5E
102
{ACAD_REACTORS
330
47
102
}
330
47
100
AcDbScale
 70
     0
300
1/8" = 1'-0"
140
0.125
141
12.0
290
     0
  0
SCALE
  5
5F
102
{ACAD_REACTORS
330
47
102
}
330
47
100
AcDbScale
 70
     0
300
3/16" = 1'-0"
140
0.1875
141
12.0
290
     0
  0
SCALE
  5
60
102
{ACAD_REACTORS
330
47
102
}
330
47
100
AcDbScale
 70
     0
300
1/4" = 1'-0"
140
0.25
141
12.0
290
     0
  0
SCALE
  5
61
102
{ACAD_REACTORS
330
47
102
}
330
47
100
AcDbScale
 70
     0
300
3/8" = 1'-0"
140
0.375
141
12.0
290
     0
  0
SCALE
  5
62
102
{ACAD_REACTORS
330
47
102
}
330
47
100
AcDbScale
 70
     0
300
1/2" = 1'-0"
140
0.5
141
12.0
290
     0
  0
SCALE
  5
63
102
{ACAD_REACTORS
330
47
102
}
330
47
100
AcDbScale
 70
     0
300
3/4" = 1'-0"
140
0.75
141
12.0
290
     0
  0
SCALE
  5
64
102
{ACAD_REACTORS
330
47
102
}
330
47
100
AcDbScale
 70
     0
300
1" = 1'-0"
140
1.0
141
12.0
290
     0
  0
SCALE
  5
65
102
{ACAD_REACTORS
330
47
102
}
330
47
100
AcDbScale
 70
     0
300
1-1/2" = 1'-0"
140
1.5
141
12.0
290
     0
  0
SCALE
  5
66
102
{ACAD_REACTORS
330
47
102
}
330
47
100
AcDbScale
 70
     0
300
3" = 1'-0"
140
3.0
141
12.0
290
     0
  0
SCALE
  5
67
102
{ACAD_REACTORS
330
47
102
}
330
47
100
AcDbScale
 70
     0
300
6" = 1'-0"
140
6.0
141
12.0
290
     0
  0
SCALE
  5
68
102
{ACAD_REACTORS
330
47
102
}
330
47
100
AcDbScale
 70
     0
300
1'-0" = 1'-0"
140
12.0
141
12.0
290
     0
  0
ENDSEC
  0
EOF
