  0
SECTION
  2
HEADER
  9
$ACADVER
  1
AC1015
  9
$ACADMAINTVER
 70
     6
  9
$DWGCODEPAGE
  3
ANSI_949
  9
$INSBASE
 10
0.0
 20
0.0
 30
0.0
  9
$EXTMIN
 10
-90.3748770571882
 20
-49.97073246008785
 30
0.0
  9
$EXTMAX
 10
72.59327152924658
 20
31.16890400141796
 30
0.0
  9
$LIMMIN
 10
0.0
 20
0.0
  9
$LIMMAX
 10
420.0
 20
297.0
  9
$ORTHOMODE
 70
     0
  9
$REGENMODE
 70
     1
  9
$FILLMODE
 70
     1
  9
$QTEXTMODE
 70
     0
  9
$MIRRTEXT
 70
     1
  9
$LTSCALE
 40
1.0
  9
$ATTMODE
 70
     1
  9
$TEXTSIZE
 40
3.5
  9
$TRACEWID
 40
1.0
  9
$TEXTSTYLE
  7
Standard
  9
$CLAYER
  8
0
  9
$CELTYPE
  6
ByLayer
  9
$CECOLOR
 62
   256
  9
$CELTSCALE
 40
1.0
  9
$DISPSILH
 70
     0
  9
$DIMSCALE
 40
1.0
  9
$DIMASZ
 40
3.302
  9
$DIMEXO
 40
1.0
  9
$DIMDLI
 40
3.75
  9
$DIMRND
 40
0.0
  9
$DIMDLE
 40
0.0
  9
$DIMEXE
 40
1.0
  9
$DIMTP
 40
0.0
  9
$DIMTM
 40
0.0
  9
$DIMTXT
 40
3.5
  9
$DIMCEN
 40
2.5
  9
$DIMTSZ
 40
0.0
  9
$DIMTOL
 70
     0
  9
$DIMLIM
 70
     0
  9
$DIMTIH
 70
     1
  9
$DIMTOH
 70
     1
  9
$DIMSE1
 70
     0
  9
$DIMSE2
 70
     0
  9
$DIMTAD
 70
     1
  9
$DIMZIN
 70
     0
  9
$DIMBLK
  1

  9
$DIMASO
 70
     1
  9
$DIMSHO
 70
     1
  9
$DIMPOST
  1

  9
$DIMAPOST
  1

  9
$DIMALT
 70
     0
  9
$DIMALTD
 70
     3
  9
$DIMALTF
 40
0.0393700787401575
  9
$DIMLFAC
 40
1.0
  9
$DIMTOFL
 70
     1
  9
$DIMTVP
 40
0.0
  9
$DIMTIX
 70
     0
  9
$DIMSOXD
 70
     0
  9
$DIMSAH
 70
     0
  9
$DIMBLK1
  1

  9
$DIMBLK2
  1

  9
$DIMSTYLE
  2
ISO-25
  9
$DIMCLRD
 70
     0
  9
$DIMCLRE
 70
     0
  9
$DIMCLRT
 70
     0
  9
$DIMTFAC
 40
1.0
  9
$DIMGAP
 40
1.524
  9
$DIMJUST
 70
     0
  9
$DIMSD1
 70
     0
  9
$DIMSD2
 70
     0
  9
$DIMTOLJ
 70
     0
  9
$DIMTZIN
 70
     0
  9
$DIMALTZ
 70
     0
  9
$DIMALTTZ
 70
     0
  9
$DIMUPT
 70
     0
  9
$DIMDEC
 70
     2
  9
$DIMTDEC
 70
     2
  9
$DIMALTU
 70
     2
  9
$DIMALTTD
 70
     3
  9
$DIMTXSTY
  7
Standard
  9
$DIMAUNIT
 70
     0
  9
$DIMADEC
 70
     2
  9
$DIMALTRND
 40
0.0
  9
$DIMAZIN
 70
     0
  9
$DIMDSEP
 70
    44
  9
$DIMATFIT
 70
     3
  9
$DIMFRAC
 70
     0
  9
$DIMLDRBLK
  1

  9
$DIMLUNIT
 70
     2
  9
$DIMLWD
 70
    -2
  9
$DIMLWE
 70
    -2
  9
$DIMTMOVE
 70
     0
  9
$LUNITS
 70
     2
  9
$LUPREC
 70
     2
  9
$SKETCHINC
 40
1.0
  9
$FILLETRAD
 40
10.0
  9
$AUNITS
 70
     0
  9
$AUPREC
 70
     2
  9
$MENU
  1
.
  9
$ELEVATION
 40
0.0
  9
$PELEVATION
 40
0.0
  9
$THICKNESS
 40
0.0
  9
$LIMCHECK
 70
     0
  9
$CHAMFERA
 40
0.0
  9
$CHAMFERB
 40
0.0
  9
$CHAMFERC
 40
0.0
  9
$CHAMFERD
 40
0.0
  9
$SKPOLY
 70
     0
  9
$TDCREATE
 40
2458262.547737048
  9
$TDUCREATE
 40
2458262.172737048
  9
$TDUPDATE
 40
2458266.491614317
  9
$TDUUPDATE
 40
2458266.116614317
  9
$TDINDWG
 40
0.0014592593
  9
$TDUSRTIMER
 40
2458266.115155092
  9
$USRTIMER
 70
     1
  9
$ANGBASE
 50
0.0
  9
$ANGDIR
 70
     0
  9
$PDMODE
 70
     0
  9
$PDSIZE
 40
-1.0
  9
$PLINEWID
 40
0.0
  9
$SPLFRAME
 70
     0
  9
$SPLINETYPE
 70
     6
  9
$SPLINESEGS
 70
     8
  9
$HANDSEED
  5
13C
  9
$SURFTAB1
 70
     6
  9
$SURFTAB2
 70
     6
  9
$SURFTYPE
 70
     6
  9
$SURFU
 70
     6
  9
$SURFV
 70
     6
  9
$UCSBASE
  2

  9
$UCSNAME
  2

  9
$UCSORG
 10
0.0
 20
0.0
 30
0.0
  9
$UCSXDIR
 10
1.0
 20
0.0
 30
0.0
  9
$UCSYDIR
 10
0.0
 20
1.0
 30
0.0
  9
$UCSORTHOREF
  2

  9
$UCSORTHOVIEW
 70
     0
  9
$UCSORGTOP
 10
0.0
 20
0.0
 30
0.0
  9
$UCSORGBOTTOM
 10
0.0
 20
0.0
 30
0.0
  9
$UCSORGLEFT
 10
0.0
 20
0.0
 30
0.0
  9
$UCSORGRIGHT
 10
0.0
 20
0.0
 30
0.0
  9
$UCSORGFRONT
 10
0.0
 20
0.0
 30
0.0
  9
$UCSORGBACK
 10
0.0
 20
0.0
 30
0.0
  9
$PUCSBASE
  2

  9
$PUCSNAME
  2

  9
$PUCSORG
 10
0.0
 20
0.0
 30
0.0
  9
$PUCSXDIR
 10
1.0
 20
0.0
 30
0.0
  9
$PUCSYDIR
 10
0.0
 20
1.0
 30
0.0
  9
$PUCSORTHOREF
  2

  9
$PUCSORTHOVIEW
 70
     0
  9
$PUCSORGTOP
 10
0.0
 20
0.0
 30
0.0
  9
$PUCSORGBOTTOM
 10
0.0
 20
0.0
 30
0.0
  9
$PUCSORGLEFT
 10
0.0
 20
0.0
 30
0.0
  9
$PUCSORGRIGHT
 10
0.0
 20
0.0
 30
0.0
  9
$PUCSORGFRONT
 10
0.0
 20
0.0
 30
0.0
  9
$PUCSORGBACK
 10
0.0
 20
0.0
 30
0.0
  9
$USERI1
 70
     0
  9
$USERI2
 70
     0
  9
$USERI3
 70
     0
  9
$USERI4
 70
     0
  9
$USERI5
 70
     0
  9
$USERR1
 40
0.0
  9
$USERR2
 40
0.0
  9
$USERR3
 40
0.0
  9
$USERR4
 40
0.0
  9
$USERR5
 40
0.0
  9
$WORLDVIEW
 70
     1
  9
$SHADEDGE
 70
     3
  9
$SHADEDIF
 70
    70
  9
$TILEMODE
 70
     1
  9
$MAXACTVP
 70
    64
  9
$PINSBASE
 10
0.0
 20
0.0
 30
0.0
  9
$PLIMCHECK
 70
     0
  9
$PEXTMIN
 10
1.000000000000000E+20
 20
1.000000000000000E+20
 30
1.000000000000000E+20
  9
$PEXTMAX
 10
-1.000000000000000E+20
 20
-1.000000000000000E+20
 30
-1.000000000000000E+20
  9
$PLIMMIN
 10
0.0
 20
0.0
  9
$PLIMMAX
 10
0.0
 20
0.0
  9
$UNITMODE
 70
     0
  9
$VISRETAIN
 70
     1
  9
$PLINEGEN
 70
     0
  9
$PSLTSCALE
 70
     1
  9
$TREEDEPTH
 70
  3020
  9
$CMLSTYLE
  2
Standard
  9
$CMLJUST
 70
     0
  9
$CMLSCALE
 40
20.0
  9
$PROXYGRAPHICS
 70
     1
  9
$MEASUREMENT
 70
     1
  9
$CELWEIGHT
370
    -1
  9
$ENDCAPS
280
     0
  9
$JOINSTYLE
280
     0
  9
$LWDISPLAY
290
     1
  9
$INSUNITS
 70
     4
  9
$HYPERLINKBASE
  1

  9
$STYLESHEET
  1

  9
$XEDIT
290
     1
  9
$CEPSNTYPE
380
     0
  9
$PSTYLEMODE
290
     1
  9
$FINGERPRINTGUID
  2
{57A58C71-7848-4C98-B4EE-E1AFCFB8C456}
  9
$VERSIONGUID
  2
{FAEB1C32-E019-11D5-929B-00C0DF256EC4}
  9
$EXTNAMES
290
     1
  9
$PSVPSCALE
 40
0.0
  9
$OLESTARTUP
290
     0
  0
ENDSEC
  0
SECTION
  2
CLASSES
  0
CLASS
  1
ACDBDICTIONARYWDFLT
  2
AcDbDictionaryWithDefault
  3
ObjectDBX Classes
 90
        0
280
     0
281
     0
  0
CLASS
  1
VISUALSTYLE
  2
AcDbVisualStyle
  3
ObjectDBX Classes
 90
     4095
280
     0
281
     0
  0
CLASS
  1
MATERIAL
  2
AcDbMaterial
  3
ObjectDBX Classes
 90
     1153
280
     0
281
     0
  0
CLASS
  1
SCALE
  2
AcDbScale
  3
ObjectDBX Classes
 90
     1153
280
     0
281
     0
  0
CLASS
  1
SUN
  2
AcDbSun
  3
SCENEOE
 90
     1153
280
     0
281
     0
  0
CLASS
  1
ACDBPLACEHOLDER
  2
AcDbPlaceHolder
  3
ObjectDBX Classes
 90
        0
280
     0
281
     0
  0
CLASS
  1
LAYOUT
  2
AcDbLayout
  3
ObjectDBX Classes
 90
        0
280
     0
281
     0
  0
CLASS
  1
TABLESTYLE
  2
AcDbTableStyle
  3
ObjectDBX Classes
 90
     4095
280
     0
281
     0
  0
CLASS
  1
MLEADERSTYLE
  2
AcDbMLeaderStyle
  3
ACDB_MLEADERSTYLE_CLASS
 90
     4095
280
     0
281
     0
  0
CLASS
  1
RASTERVARIABLES
  2
AcDbRasterVariables
  3
ISM
 90
        0
280
     0
281
     0
  0
ENDSEC
  0
SECTION
  2
TABLES
  0
TABLE
  2
VPORT
  5
8
330
0
100
AcDbSymbolTable
 70
     1
  0
VPORT
  5
29
330
8
100
AcDbSymbolTableRecord
100
AcDbViewportTableRecord
  2
*Active
 70
     0
 10
0.0
 20
0.0
 11
1.0
 21
1.0
 12
-8.890802763970811
 22
-9.400914229334951
 13
0.0
 23
0.0
 14
10.0
 24
10.0
 15
10.0
 25
10.0
 16
0.0
 26
0.0
 36
1.0
 17
0.0
 27
0.0
 37
0.0
 40
144.2377734820836
 41
1.152454780361757
 42
50.0
 43
0.0
 44
0.0
 50
0.0
 51
0.0
 71
    16
 72
  2000
 73
     1
 74
     3
 75
     0
 76
     0
 77
     0
 78
     0
281
     0
 65
     1
110
0.0
120
0.0
130
0.0
111
1.0
121
0.0
131
0.0
112
0.0
122
1.0
132
0.0
 79
     0
146
0.0
  0
ENDTAB
  0
TABLE
  2
LTYPE
  5
5
330
0
100
AcDbSymbolTable
 70
     6
  0
LTYPE
  5
14
330
5
100
AcDbSymbolTableRecord
100
AcDbLinetypeTableRecord
  2
ByBlock
 70
     0
  3

 72
    65
 73
     0
 40
0.0
  0
LTYPE
  5
15
330
5
100
AcDbSymbolTableRecord
100
AcDbLinetypeTableRecord
  2
ByLayer
 70
     0
  3

 72
    65
 73
     0
 40
0.0
  0
LTYPE
  5
16
330
5
100
AcDbSymbolTableRecord
100
AcDbLinetypeTableRecord
  2
Continuous
 70
     0
  3
Solid line
 72
    65
 73
     0
 40
0.0
  0
LTYPE
  5
6A
330
5
100
AcDbSymbolTableRecord
100
AcDbLinetypeTableRecord
  2
HIDDEN
 70
     0
  3
Hidden __ __ __ __ __ __ __ __ __ __ __ __ __ __
 72
    65
 73
     2
 40
1.905
 49
1.27
 74
     0
 49
-0.635
 74
     0
  0
LTYPE
  5
6B
330
5
100
AcDbSymbolTableRecord
100
AcDbLinetypeTableRecord
  2
PHANTOM
 70
     0
  3
Phantom ______  __  __  ______  __  __  ______
 72
    65
 73
     6
 40
12.7
 49
6.35
 74
     0
 49
-1.27
 74
     0
 49
1.27
 74
     0
 49
-1.27
 74
     0
 49
1.27
 74
     0
 49
-1.27
 74
     0
  0
LTYPE
  5
6C
330
5
100
AcDbSymbolTableRecord
100
AcDbLinetypeTableRecord
  2
CENTER
 70
     0
  3
Center ____ _ ____ _ ____ _ ____ _ ____ _ ____
 72
    65
 73
     4
 40
10.16
 49
6.35
 74
     0
 49
-1.27
 74
     0
 49
1.27
 74
     0
 49
-1.27
 74
     0
  0
LTYPE
  5
6D
330
5
100
AcDbSymbolTableRecord
100
AcDbLinetypeTableRecord
  2
CENTERX2
 70
     0
  3
Center (2x) ________  __  ________  __  _____
 72
    65
 73
     4
 40
20.32
 49
12.7
 74
     0
 49
-2.54
 74
     0
 49
2.54
 74
     0
 49
-2.54
 74
     0
  0
LTYPE
  5
6E
330
5
100
AcDbSymbolTableRecord
100
AcDbLinetypeTableRecord
  2
DOT2
 70
     0
  3
Dot (.5x) ........................................
 72
    65
 73
     2
 40
0.635
 49
0.0
 74
     0
 49
-0.635
 74
     0
  0
ENDTAB
  0
TABLE
  2
LAYER
  5
2
330
0
100
AcDbSymbolTable
 70
    17
  0
LAYER
  5
10
330
2
100
AcDbSymbolTableRecord
100
AcDbLayerTableRecord
  2
0
 70
     0
 62
     7
  6
Continuous
370
    -3
390
F
  0
LAYER
  5
6F
330
2
100
AcDbSymbolTableRecord
100
AcDbLayerTableRecord
  2
FORMAT
 70
     0
 62
     2
  6
Continuous
370
    -3
390
F
  0
LAYER
  5
70
330
2
100
AcDbSymbolTableRecord
100
AcDbLayerTableRecord
  2
외형선
 70
     0
 62
   100
  6
Continuous
370
    30
390
F
  0
LAYER
  5
71
330
2
100
AcDbSymbolTableRecord
100
AcDbLayerTableRecord
  2
숨은선
 70
     0
 62
     2
  6
HIDDEN
370
    15
390
F
  0
LAYER
  5
72
330
2
100
AcDbSymbolTableRecord
100
AcDbLayerTableRecord
  2
중심선
 70
     0
 62
     1
  6
CENTERX2
370
    -3
390
F
  0
LAYER
  5
73
330
2
100
AcDbSymbolTableRecord
100
AcDbLayerTableRecord
  2
파단선
 70
     0
 62
     4
  6
Continuous
370
    -3
390
F
  0
LAYER
  5
74
330
2
100
AcDbSymbolTableRecord
100
AcDbLayerTableRecord
  2
해칭선
 70
     0
 62
     4
  6
Continuous
370
    -3
390
F
  0
LAYER
  5
75
330
2
100
AcDbSymbolTableRecord
100
AcDbLayerTableRecord
  2
가는실선
 70
     0
 62
     4
  6
Continuous
370
    -3
390
F
  0
LAYER
  5
76
330
2
100
AcDbSymbolTableRecord
100
AcDbLayerTableRecord
  2
치수_보조선
 70
     0
 62
     4
  6
Continuous
370
    -3
390
F
  0
LAYER
  5
77
330
2
100
AcDbSymbolTableRecord
100
AcDbLayerTableRecord
  2
치수문자_일반주서
 70
     0
 62
     7
  6
Continuous
370
    15
390
F
  0
LAYER
  5
78
330
2
100
AcDbSymbolTableRecord
100
AcDbLayerTableRecord
  2
개별주서
 70
     0
 62
   100
  6
Continuous
370
    30
390
F
  0
LAYER
  5
79
330
2
100
AcDbSymbolTableRecord
100
AcDbLayerTableRecord
  2
중간선
 70
     0
 62
     2
  6
Continuous
370
    15
390
F
  0
LAYER
  5
7A
330
2
100
AcDbSymbolTableRecord
100
AcDbLayerTableRecord
  2
윤곽선
 70
     0
 62
     3
  6
Continuous
370
    40
390
F
  0
LAYER
  5
7B
330
2
100
AcDbSymbolTableRecord
100
AcDbLayerTableRecord
  2
중심마크
 70
     0
 62
   100
  6
Continuous
370
    30
390
F
  0
LAYER
  5
7C
330
2
100
AcDbSymbolTableRecord
100
AcDbLayerTableRecord
  2
가상선
 70
     0
 62
     4
  6
PHANTOM
370
    -3
390
F
  0
LAYER
  5
7D
330
2
100
AcDbSymbolTableRecord
100
AcDbLayerTableRecord
  2
특수지정선
 70
     0
 62
     5
  6
CENTERX2
370
    60
390
F
  0
LAYER
  5
12E
330
2
100
AcDbSymbolTableRecord
100
AcDbLayerTableRecord
  2
Defpoints
 70
     0
 62
     7
  6
Continuous
290
     0
370
    -3
390
F
  0
ENDTAB
  0
TABLE
  2
STYLE
  5
3
330
0
100
AcDbSymbolTable
 70
     2
  0
STYLE
  5
11
330
3
100
AcDbSymbolTableRecord
100
AcDbTextStyleTableRecord
  2
Standard
 70
     0
 40
0.0
 41
1.0
 50
0.0
 71
     0
 42
3.5
  3
txt
  4

  0
STYLE
  5
93
330
3
100
AcDbSymbolTableRecord
100
AcDbTextStyleTableRecord
  2
SLDTEXTSTYLE0
 70
     0
 40
0.0
 41
0.75
 50
0.0
 71
     0
 42
3.5
  3
TXT
  4

  0
ENDTAB
  0
TABLE
  2
VIEW
  5
6
330
0
100
AcDbSymbolTable
 70
     0
  0
ENDTAB
  0
TABLE
  2
UCS
  5
7
330
0
100
AcDbSymbolTable
 70
     0
  0
ENDTAB
  0
TABLE
  2
APPID
  5
9
330
0
100
AcDbSymbolTable
 70
     1
  0
APPID
  5
12
330
9
100
AcDbSymbolTableRecord
100
AcDbRegAppTableRecord
  2
ACAD
 70
     0
  0
ENDTAB
  0
TABLE
  2
DIMSTYLE
  5
A
330
0
100
AcDbSymbolTable
 70
     3
100
AcDbDimStyleTable
  0
DIMSTYLE
105
27
330
A
100
AcDbSymbolTableRecord
100
AcDbDimStyleTableRecord
  2
ISO-25
 70
     0
 41
2.5
 42
0.625
 43
3.75
 44
1.25
 73
     0
 74
     0
 77
     1
 78
     8
140
2.5
141
2.5
143
0.03937007874016
147
0.625
171
     3
172
     1
178
     0
271
     2
272
     2
274
     3
278
    44
283
     0
284
     8
340
11
  0
DIMSTYLE
105
D4
102
{ACAD_REACTORS
330
D3
330
F6
102
}
330
A
100
AcDbSymbolTableRecord
100
AcDbDimStyleTableRecord
  2
SLDDIMSTYLE0
 70
     0
 41
3.302
 44
0.0
 45
0.000000001
 73
     0
 74
     0
 77
     1
 78
    12
 79
     3
140
3.5
147
0.875
172
     1
173
     1
178
     0
271
     2
272
     2
276
     2
284
    12
289
     0
340
93
  0
DIMSTYLE
105
E2
102
{ACAD_REACTORS
330
E1
330
EC
102
}
330
A
100
AcDbSymbolTableRecord
100
AcDbDimStyleTableRecord
  2
SLDDIMSTYLE1
 70
     0
 41
3.302
 44
0.0
 45
0.000000001
 73
     0
 74
     0
 77
     1
 78
    12
 79
     3
140
3.5
147
0.875
173
     1
178
     0
271
     2
272
     2
276
     2
284
    12
340
93
  0
ENDTAB
  0
TABLE
  2
BLOCK_RECORD
  5
1
330
0
100
AcDbSymbolTable
 70
     7
  0
BLOCK_RECORD
  5
1F
330
1
100
AcDbSymbolTableRecord
100
AcDbBlockTableRecord
  2
*Model_Space
340
22
  0
BLOCK_RECORD
  5
1B
330
1
100
AcDbSymbolTableRecord
100
AcDbBlockTableRecord
  2
*Paper_Space
340
1E
  0
BLOCK_RECORD
  5
23
330
1
100
AcDbSymbolTableRecord
100
AcDbBlockTableRecord
  2
*Paper_Space0
340
26
  0
BLOCK_RECORD
  5
7E
330
1
100
AcDbSymbolTableRecord
100
AcDbBlockTableRecord
  2
블럭10
340
0
102
{BLKREFS
331
CC
102
}
  0
BLOCK_RECORD
  5
D5
330
1
100
AcDbSymbolTableRecord
100
AcDbBlockTableRecord
  2
_D
340
0
  0
BLOCK_RECORD
  5
E3
330
1
100
AcDbSymbolTableRecord
100
AcDbBlockTableRecord
  2
_D_1
340
0
  0
BLOCK_RECORD
  5
ED
330
1
100
AcDbSymbolTableRecord
100
AcDbBlockTableRecord
  2
_D_2
340
0
  0
BLOCK_RECORD
  5
F7
330
1
100
AcDbSymbolTableRecord
100
AcDbBlockTableRecord
  2
_D_3
340
0
  0
BLOCK_RECORD
  5
103
330
1
100
AcDbSymbolTableRecord
100
AcDbBlockTableRecord
  2
SW_DOWELSYMBOL_0
340
0
102
{BLKREFS
331
109
102
}
  0
ENDTAB
  0
ENDSEC
  0
SECTION
  2
BLOCKS
  0
BLOCK
  5
20
330
1F
100
AcDbEntity
  8
0
100
AcDbBlockBegin
  2
*Model_Space
 70
     0
 10
0.0
 20
0.0
 30
0.0
  3
*Model_Space
  1

  0
ENDBLK
  5
21
330
1F
100
AcDbEntity
  8
0
100
AcDbBlockEnd
  0
BLOCK
  5
1C
330
1B
100
AcDbEntity
 67
     1
  8
0
100
AcDbBlockBegin
  2
*Paper_Space
 70
     0
 10
0.0
 20
0.0
 30
0.0
  3
*Paper_Space
  1

  0
ENDBLK
  5
1D
330
1B
100
AcDbEntity
 67
     1
  8
0
100
AcDbBlockEnd
  0
BLOCK
  5
24
330
23
100
AcDbEntity
  8
0
100
AcDbBlockBegin
  2
*Paper_Space0
 70
     0
 10
0.0
 20
0.0
 30
0.0
  3
*Paper_Space0
  1

  0
ENDBLK
  5
25
330
23
100
AcDbEntity
  8
0
100
AcDbBlockEnd
  0
BLOCK
  5
7F
330
7E
100
AcDbEntity
  8
0
100
AcDbBlockBegin
  2
블럭10
 70
     2
 10
0.0
 20
0.0
 30
0.0
  3
블럭10
  1

  0
ELLIPSE
  5
81
330
7E
100
AcDbEntity
  8
중심선
100
AcDbEllipse
 10
20.54032771741204
 20
12.0471743016438
 30
0.0
 11
6.600054785286829
 21
-1.261213355974178E-13
 31
0.0
210
0.0
220
0.0
230
1.0
 40
0.636358354079598
 41
0.9219305317359503
 42
6.513795318482858
  0
ELLIPSE
  5
82
330
7E
100
AcDbEntity
  8
중심선
100
AcDbEllipse
 10
20.54032771746488
 20
12.04717430159265
 30
0.0
 11
3.960054785062283
 21
1.540847449632565E-10
 31
0.0
210
0.0
220
0.0
230
1.0
 40
0.3939339440162632
 41
1.131841032648279
 42
5.62031148352944
  0
LINE
  5
83
330
7E
100
AcDbEntity
  8
중심선
100
AcDbLine
 10
2.268634060543552
 20
16.24717430164393
 30
0.0
 11
5.714909304380834
 21
16.24717430164393
 31
0.0
  0
LINE
  5
84
330
7E
100
AcDbEntity
  8
중심선
100
AcDbLine
 10
5.245725140726316
 20
7.84717430164391
 30
0.0
 11
8.692000384563599
 21
7.84717430164391
 31
0.0
  0
LINE
  5
85
330
7E
100
AcDbEntity
  8
중심선
100
AcDbLine
 10
15.74043728645272
 20
16.24717430164393
 30
0.0
 11
8.692000384563599
 21
7.84717430164391
 31
0.0
  0
LINE
  5
86
330
7E
100
AcDbEntity
  8
중심선
100
AcDbLine
 10
0.1404042013395286
 20
13.71084872107135
 30
0.0
 11
3.58671253028996
 21
13.71088815037384
 31
0.0
  0
LINE
  5
87
330
7E
100
AcDbEntity
  8
중심선
100
AcDbLine
 10
2.750260043222114
 20
10.84717430164391
 30
0.0
 11
6.196535287059397
 21
10.84717430164391
 31
0.0
  0
LINE
  5
88
330
7E
100
AcDbEntity
  8
중심선
100
AcDbLine
 10
12.29416204261559
 20
16.24717430164393
 30
0.0
 11
5.245725140726316
 21
7.84717430164391
 31
0.0
  0
LINE
  5
89
330
7E
100
AcDbEntity
  8
중심선
100
AcDbLine
 10
10.72767329541681
 20
16.24717430164393
 30
0.0
 11
6.196535287059397
 21
10.84717430164391
 31
0.0
  0
LINE
  5
8A
330
7E
100
AcDbEntity
  8
중심선
100
AcDbLine
 10
7.28139805157953
 20
16.24717430164393
 30
0.0
 11
2.750260043222114
 21
10.84717430164391
 31
0.0
  0
LINE
  5
8B
330
7E
100
AcDbEntity
  8
중심선
100
AcDbLine
 10
5.714909304380834
 20
16.24717430164393
 30
0.0
 11
3.58671253028996
 21
13.71088815037384
 31
0.0
  0
LINE
  5
8C
330
7E
100
AcDbEntity
  8
중심선
100
AcDbLine
 10
2.268634060543552
 20
16.24717430164393
 30
0.0
 11
0.1404042013395286
 21
13.71084872107135
 31
0.0
  0
LINE
  5
8D
330
7E
100
AcDbEntity
  8
중심선
100
AcDbLine
 10
7.28139805157953
 20
16.24717430164393
 30
0.0
 11
10.72767329541681
 21
16.24717430164393
 31
0.0
  0
LINE
  5
8E
330
7E
100
AcDbEntity
  8
중심선
100
AcDbLine
 10
12.29416204261559
 20
16.24717430164393
 30
0.0
 11
15.74043728645272
 21
16.24717430164393
 31
0.0
  0
LINE
  5
8F
330
7E
100
AcDbEntity
  8
중심선
100
AcDbLine
 10
19.22036997980202
 20
11.08717430171403
 30
0.0
 11
23.66174974927406
 21
11.08717430171406
 31
0.0
  0
LINE
  5
90
330
7E
100
AcDbEntity
  8
중심선
100
AcDbLine
 10
19.22039502424796
 20
13.00717430171391
 30
0.0
 11
19.22036997980202
 21
11.08717430171403
 31
0.0
  0
LINE
  5
91
330
7E
100
AcDbEntity
  8
중심선
100
AcDbLine
 10
19.22039502424796
 20
13.00717430171391
 30
0.0
 11
26.96566020931264
 21
13.00717430171391
 31
0.0
  0
LINE
  5
92
330
7E
100
AcDbEntity
  8
중심선
100
AcDbLine
 10
22.22332737316547
 20
13.45928029700563
 30
0.0
 11
24.52862924686651
 21
15.39360700705356
 31
0.0
  0
ATTDEF
  5
94
330
7E
100
AcDbEntity
  8
FORMAT
 62
     2
100
AcDbText
 10
-16.11926103943555
 20
2.075366912832191
 30
0.0
 40
4.233333333333333
  1
SEME7012045E [ 2 FLUTE ]
 41
0.75
  7
SLDTEXTSTYLE0
 11
-16.11926103943555
 21
-0.0412997538344756
 31
0.0
100
AcDbAttributeDefinition
  3

  2
AUTOATTR0
 70
     0
 74
     1
  0
ENDBLK
  5
80
330
7E
100
AcDbEntity
  8
0
100
AcDbBlockEnd
  0
BLOCK
  5
D6
330
D5
100
AcDbEntity
  8
0
100
AcDbBlockBegin
  2
_D
 70
     0
 10
0.0
 20
0.0
 30
0.0
  3
_D
  1

  0
LINE
  5
D8
330
D5
100
AcDbEntity
  8
치수문자_일반주서
 62
     0
370
    -2
100
AcDbLine
 10
55.06249999999995
 20
-5.994506438824565
 30
0.0
 11
72.04293819591324
 21
-5.994506438824502
 31
0.0
  0
LINE
  5
D9
330
D5
100
AcDbEntity
  8
치수문자_일반주서
 62
     0
370
    -2
100
AcDbLine
 10
55.06249999999999
 20
6.005493561175433
 30
0.0
 11
72.0429381959132
 21
6.005493561175497
 31
0.0
  0
LINE
  5
DA
330
D5
100
AcDbEntity
  8
치수문자_일반주서
 62
     0
370
    -2
100
AcDbLine
 10
72.04293819591324
 20
-5.994506438824502
 30
0.0
 11
72.04293819591314
 21
23.3907435611755
 31
0.0
  0
LINE
  5
DB
330
D5
100
AcDbEntity
  8
치수문자_일반주서
 62
     0
370
    -2
100
AcDbLine
 10
72.04293819591324
 20
-5.994506438824502
 30
0.0
 11
72.0429381959132
 21
6.005493561175497
 31
0.0
  0
LINE
  5
DC
330
D5
100
AcDbEntity
  8
치수문자_일반주서
 62
     0
370
    -2
100
AcDbLine
 10
72.04293819591325
 20
-9.296506438824501
 30
0.0
 11
72.04293819591327
 21
-12.5985064388245
 31
0.0
  0
LINE
  5
DD
330
D5
100
AcDbEntity
  8
치수문자_일반주서
 62
     0
370
    -2
100
AcDbLine
 10
72.04293819591318
 20
9.307493561175496
 30
0.0
 11
72.04293819591317
 21
12.6094935611755
 31
0.0
  0
SOLID
  5
DE
330
D5
100
AcDbEntity
  8
치수문자_일반주서
 62
     0
100
AcDbTrace
 10
72.59327152924658
 20
-9.2965064388245
 30
0.0
 11
71.49260486257992
 21
-9.296506438824503
 31
0.0
 12
72.04293819591324
 22
-5.994506438824502
 32
0.0
 13
72.04293819591324
 23
-5.994506438824502
 33
0.0
  0
SOLID
  5
DF
330
D5
100
AcDbEntity
  8
치수문자_일반주서
 62
     0
100
AcDbTrace
 10
71.49260486257985
 20
9.307493561175495
 30
0.0
 11
72.59327152924651
 21
9.307493561175498
 31
0.0
 12
72.0429381959132
 22
6.005493561175497
 32
0.0
 13
72.0429381959132
 23
6.005493561175497
 33
0.0
  0
MTEXT
  5
E0
330
D5
100
AcDbEntity
  8
치수문자_일반주서
 62
     0
100
AcDbMText
 10
67.66793819591315
 20
19.45324356117548
 30
0.0
 40
3.5
 41
0.0
 71
     2
 72
     1
  1
\A1;%%c12
  7
SLDTEXTSTYLE0
 11
-3.552713678800502E-15
 21
1.0
 31
0.0
 73
     1
 44
1.0
  0
POINT
  5
138
330
D5
100
AcDbEntity
  8
Defpoints
 62
     0
100
AcDbPoint
 10
54.99999999999995
 20
-5.994506438824565
 30
0.0
  0
POINT
  5
139
330
D5
100
AcDbEntity
  8
Defpoints
 62
     0
100
AcDbPoint
 10
54.99999999999999
 20
6.005493561175433
 30
0.0
  0
POINT
  5
13A
330
D5
100
AcDbEntity
  8
Defpoints
 62
     0
100
AcDbPoint
 10
72.0429381959132
 20
6.005493561175497
 30
0.0
  0
ENDBLK
  5
D7
330
D5
100
AcDbEntity
  8
0
100
AcDbBlockEnd
  0
BLOCK
  5
E4
330
E3
100
AcDbEntity
  8
0
100
AcDbBlockBegin
  2
_D_1
 70
     0
 10
0.0
 20
0.0
 30
0.0
  3
_D_1
  1

  0
LINE
  5
E6
330
E3
100
AcDbEntity
  8
치수문자_일반주서
 62
     0
370
    -2
100
AcDbLine
 10
-75.0
 20
5.067993561175258
 30
0.0
 11
-75.0
 21
26.79390400141795
 31
0.0
  0
LINE
  5
E7
330
E3
100
AcDbEntity
  8
치수문자_일반주서
 62
     0
370
    -2
100
AcDbLine
 10
54.99999999999999
 20
6.067993561175433
 30
0.0
 11
55.0
 21
26.79390400141795
 31
0.0
  0
LINE
  5
E8
330
E3
100
AcDbEntity
  8
치수문자_일반주서
 62
     0
370
    -2
100
AcDbLine
 10
-71.69800000000001
 20
26.79390400141795
 30
0.0
 11
51.698
 21
26.79390400141795
 31
0.0
  0
SOLID
  5
E9
330
E3
100
AcDbEntity
  8
치수문자_일반주서
 62
     0
100
AcDbTrace
 10
-71.69800000000001
 20
27.34423733475129
 30
0.0
 11
-71.69800000000001
 21
26.24357066808462
 31
0.0
 12
-75.0
 22
26.79390400141795
 32
0.0
 13
-75.0
 23
26.79390400141795
 33
0.0
  0
SOLID
  5
EA
330
E3
100
AcDbEntity
  8
치수문자_일반주서
 62
     0
100
AcDbTrace
 10
51.698
 20
26.24357066808462
 30
0.0
 11
51.698
 21
27.34423733475129
 31
0.0
 12
55.0
 22
26.79390400141795
 32
0.0
 13
55.0
 23
26.79390400141795
 33
0.0
  0
MTEXT
  5
EB
330
E3
100
AcDbEntity
  8
치수문자_일반주서
 62
     0
100
AcDbMText
 10
-10.0
 20
31.16890400141795
 30
0.0
 40
3.5
 41
0.0
 71
     2
 72
     1
  1
\A1;130
  7
SLDTEXTSTYLE0
 73
     1
 44
1.0
  0
POINT
  5
12F
330
E3
100
AcDbEntity
  8
Defpoints
 62
     0
100
AcDbPoint
 10
-75.0
 20
5.005493561175258
 30
0.0
  0
POINT
  5
130
330
E3
100
AcDbEntity
  8
Defpoints
 62
     0
100
AcDbPoint
 10
54.99999999999999
 20
6.005493561175433
 30
0.0
  0
POINT
  5
131
330
E3
100
AcDbEntity
  8
Defpoints
 62
     0
100
AcDbPoint
 10
54.99999999999999
 20
26.79390400141795
 30
0.0
  0
ENDBLK
  5
E5
330
E3
100
AcDbEntity
  8
0
100
AcDbBlockEnd
  0
BLOCK
  5
EE
330
ED
100
AcDbEntity
  8
0
100
AcDbBlockBegin
  2
_D_2
 70
     0
 10
0.0
 20
0.0
 30
0.0
  3
_D_2
  1

  0
LINE
  5
F0
330
ED
100
AcDbEntity
  8
치수문자_일반주서
 62
     0
370
    -2
100
AcDbLine
 10
10.0
 20
4.521439982870771
 30
0.0
 11
10.0
 21
17.80593778903829
 31
0.0
  0
LINE
  5
F1
330
ED
100
AcDbEntity
  8
치수문자_일반주서
 62
     0
370
    -2
100
AcDbLine
 10
54.99999999999999
 20
6.067993561175433
 30
0.0
 11
54.99999999999999
 21
17.80593778903829
 31
0.0
  0
LINE
  5
F2
330
ED
100
AcDbEntity
  8
치수문자_일반주서
 62
     0
370
    -2
100
AcDbLine
 10
13.302
 20
17.80593778903829
 30
0.0
 11
51.69799999999999
 21
17.80593778903829
 31
0.0
  0
SOLID
  5
F3
330
ED
100
AcDbEntity
  8
치수문자_일반주서
 62
     0
100
AcDbTrace
 10
13.302
 20
18.35627112237163
 30
0.0
 11
13.302
 21
17.25560445570496
 31
0.0
 12
10.0
 22
17.80593778903829
 32
0.0
 13
10.0
 23
17.80593778903829
 33
0.0
  0
SOLID
  5
F4
330
ED
100
AcDbEntity
  8
치수문자_일반주서
 62
     0
100
AcDbTrace
 10
51.69799999999999
 20
17.25560445570496
 30
0.0
 11
51.69799999999999
 21
18.35627112237163
 31
0.0
 12
54.99999999999999
 22
17.80593778903829
 32
0.0
 13
54.99999999999999
 23
17.80593778903829
 33
0.0
  0
MTEXT
  5
F5
330
ED
100
AcDbEntity
  8
치수문자_일반주서
 62
     0
100
AcDbMText
 10
32.49999999999999
 20
22.18093778903829
 30
0.0
 40
3.5
 41
0.0
 71
     2
 72
     1
  1
\A1;45
  7
SLDTEXTSTYLE0
 73
     1
 44
1.0
  0
POINT
  5
132
330
ED
100
AcDbEntity
  8
Defpoints
 62
     0
100
AcDbPoint
 10
10.0
 20
4.458939982870771
 30
0.0
  0
POINT
  5
133
330
ED
100
AcDbEntity
  8
Defpoints
 62
     0
100
AcDbPoint
 10
54.99999999999999
 20
6.005493561175433
 30
0.0
  0
POINT
  5
134
330
ED
100
AcDbEntity
  8
Defpoints
 62
     0
100
AcDbPoint
 10
54.99999999999999
 20
17.80593778903829
 30
0.0
  0
ENDBLK
  5
EF
330
ED
100
AcDbEntity
  8
0
100
AcDbBlockEnd
  0
BLOCK
  5
F8
330
F7
100
AcDbEntity
  8
0
100
AcDbBlockBegin
  2
_D_3
 70
     0
 10
0.0
 20
0.0
 30
0.0
  3
_D_3
  1

  0
LINE
  5
FA
330
F7
100
AcDbEntity
  8
치수문자_일반주서
 62
     0
370
    -2
100
AcDbLine
 10
-74.0625
 20
6.005493561175257
 30
0.0
 11
-85.99987705718814
 21
6.005493561175212
 31
0.0
  0
LINE
  5
FB
330
F7
100
AcDbEntity
  8
치수문자_일반주서
 62
     0
370
    -2
100
AcDbLine
 10
-74.0625
 20
-5.994506438824732
 30
0.0
 11
-85.9998770571881
 21
-5.994506438824779
 31
0.0
  0
LINE
  5
FC
330
F7
100
AcDbEntity
  8
치수문자_일반주서
 62
     0
370
    -2
100
AcDbLine
 10
-85.99987705718814
 20
6.005493561175212
 30
0.0
 11
-85.9998770571882
 21
20.48449356117521
 31
0.0
  0
LINE
  5
FD
330
F7
100
AcDbEntity
  8
치수문자_일반주서
 62
     0
370
    -2
100
AcDbLine
 10
-85.99987705718814
 20
6.005493561175212
 30
0.0
 11
-85.9998770571881
 21
-5.994506438824779
 31
0.0
  0
LINE
  5
FE
330
F7
100
AcDbEntity
  8
치수문자_일반주서
 62
     0
370
    -2
100
AcDbLine
 10
-85.99987705718816
 20
9.307493561175212
 30
0.0
 11
-85.99987705718817
 21
12.60949356117521
 31
0.0
  0
LINE
  5
FF
330
F7
100
AcDbEntity
  8
치수문자_일반주서
 62
     0
370
    -2
100
AcDbLine
 10
-85.99987705718809
 20
-9.296506438824778
 30
0.0
 11
-85.99987705718807
 21
-12.59850643882478
 31
0.0
  0
SOLID
  5
100
330
F7
100
AcDbEntity
  8
치수문자_일반주서
 62
     0
100
AcDbTrace
 10
-86.55021039052149
 20
9.30749356117521
 30
0.0
 11
-85.44954372385483
 21
9.307493561175214
 31
0.0
 12
-85.99987705718814
 22
6.005493561175212
 32
0.0
 13
-85.99987705718814
 23
6.005493561175212
 33
0.0
  0
SOLID
  5
101
330
F7
100
AcDbEntity
  8
치수문자_일반주서
 62
     0
100
AcDbTrace
 10
-85.44954372385476
 20
-9.296506438824776
 30
0.0
 11
-86.55021039052141
 21
-9.29650643882478
 31
0.0
 12
-85.9998770571881
 22
-5.994506438824779
 32
0.0
 13
-85.9998770571881
 23
-5.994506438824779
 33
0.0
  0
MTEXT
  5
102
330
F7
100
AcDbEntity
  8
치수문자_일반주서
 62
     0
100
AcDbMText
 10
-90.37487705718819
 20
16.5469935611752
 30
0.0
 40
3.5
 41
0.0
 71
     2
 72
     1
  1
\A1;%%c12
  7
SLDTEXTSTYLE0
 11
-3.552713678800504E-15
 21
1.0
 31
0.0
 73
     1
 44
1.0
  0
POINT
  5
135
330
F7
100
AcDbEntity
  8
Defpoints
 62
     0
100
AcDbPoint
 10
-74.0
 20
6.005493561175257
 30
0.0
  0
POINT
  5
136
330
F7
100
AcDbEntity
  8
Defpoints
 62
     0
100
AcDbPoint
 10
-74.0
 20
-5.994506438824732
 30
0.0
  0
POINT
  5
137
330
F7
100
AcDbEntity
  8
Defpoints
 62
     0
100
AcDbPoint
 10
-85.99987705718809
 20
-5.994506438824777
 30
0.0
  0
ENDBLK
  5
F9
330
F7
100
AcDbEntity
  8
0
100
AcDbBlockEnd
  0
BLOCK
  5
104
330
103
100
AcDbEntity
  8
0
100
AcDbBlockBegin
  2
SW_DOWELSYMBOL_0
 70
     0
 10
0.0
 20
0.0
 30
0.0
  3
SW_DOWELSYMBOL_0
  1

  0
CIRCLE
  5
106
330
103
100
AcDbEntity
  8
외형선
 62
     0
100
AcDbCircle
 10
0.0
 20
0.0
 30
0.0
 40
3.000000000000004
  0
HATCH
  5
107
330
103
100
AcDbEntity
  8
0
  6
Continuous
 62
     0
370
    30
100
AcDbHatch
 10
0.0
 20
0.0
 30
0.0
210
0.0
220
0.0
230
1.0
  2
SOLID
 70
     1
 71
     0
 91
        1
 92
        0
 93
        3
 72
     2
 10
0.0000000000000104
 20
0.0
 40
3.000000000000004
 50
0.0
 51
90.0
 73
     1
 72
     1
 10
0.0000000000000104
 20
3.000000000000004
 11
0.0000000000000104
 21
0.0
 72
     1
 10
0.0000000000000104
 20
0.0
 11
3.000000000000015
 21
0.0
 97
        0
 75
     0
 76
     1
 98
        1
 10
0.0
 20
0.0
  0
HATCH
  5
108
330
103
100
AcDbEntity
  8
0
  6
Continuous
 62
     0
370
    30
100
AcDbHatch
 10
0.0
 20
0.0
 30
0.0
210
0.0
220
0.0
230
1.0
  2
SOLID
 70
     1
 71
     0
 91
        1
 92
        0
 93
        3
 72
     2
 10
0.0000000000000104
 20
0.0
 40
3.000000000000004
 50
180.0
 51
270.0000000000008
 73
     1
 72
     1
 10
0.0000000000000104
 20
-3.000000000000004
 11
0.0000000000000104
 21
0.0
 72
     1
 10
0.0000000000000104
 20
0.0
 11
-2.999999999999994
 21
0.0
 97
        0
 75
     0
 76
     1
 98
        1
 10
0.0
 20
0.0
  0
ENDBLK
  5
105
330
103
100
AcDbEntity
  8
0
100
AcDbBlockEnd
  0
ENDSEC
  0
SECTION
  2
ENTITIES
  0
LINE
  5
95
330
1F
100
AcDbEntity
  8
0
  6
Continuous
 62
     1
370
    15
100
AcDbLine
 10
37.84110527736566
 20
2.349523374863035
 30
0.0
 11
37.79025185682868
 21
2.375641788510823
 31
0.0
  0
SPLINE
  5
96
330
1F
100
AcDbEntity
  8
0
  6
Continuous
 62
     1
370
    15
100
AcDbSpline
210
0.0
220
0.0
230
1.0
 70
     8
 71
     3
 72
     9
 73
     5
 74
     0
 42
0.000000001
 43
0.00000001
 40
0.0
 40
0.0
 40
0.0
 40
0.0
 40
0.4508147263146961
 40
0.9999999999999999
 40
0.9999999999999999
 40
0.9999999999999999
 40
0.9999999999999999
 10
39.45607760180953
 20
1.542964554324517
 30
0.0
 10
39.2133780117329
 20
1.658264017121124
 30
0.0
 10
38.67502028757281
 20
1.914021994991884
 30
0.0
 10
38.13672766087919
 20
2.195138390344102
 30
0.0
 10
37.84110527736566
 20
2.349523374863035
 30
0.0
  0
LINE
  5
97
330
1F
100
AcDbEntity
  8
0
  6
Continuous
 62
     1
370
    15
100
AcDbLine
 10
25.68704548802236
 20
6.005493561175272
 30
0.0
 11
22.77846453030151
 21
6.005493561175272
 31
0.0
  0
LINE
  5
98
330
1F
100
AcDbEntity
  8
0
  6
Continuous
 62
     1
370
    15
100
AcDbLine
 10
22.77846453030151
 20
-5.994506438824737
 30
0.0
 11
25.68704548802237
 21
-5.994506438824737
 31
0.0
  0
SPLINE
  5
99
330
1F
100
AcDbEntity
  8
0
  6
Continuous
 62
     1
370
    15
100
AcDbSpline
210
0.0
220
0.0
230
1.0
 70
     8
 71
     3
 72
    18
 73
    14
 74
     0
 42
0.000000001
 43
0.00000001
 40
0.0
 40
0.0
 40
0.0
 40
0.0
 40
0.1420984430904102
 40
0.2448116103241348
 40
0.3090414231350511
 40
0.365905778004972
 40
0.4282336416610226
 40
0.4960176048055978
 40
0.5673158362736205
 40
0.7056654489072365
 40
0.8303844055041084
 40
0.9337103281633392
 40
1.0
 40
1.0
 40
1.0
 40
1.0
 10
37.47234515425405
 20
4.773325586945524
 30
0.0
 10
37.2378158414769
 20
4.761584761406294
 30
0.0
 10
36.8337614586104
 20
4.741357302580694
 30
0.0
 10
36.32465023163987
 20
4.722925747590813
 30
0.0
 10
35.96065202597464
 20
4.711958390514893
 30
0.0
 10
35.66002966854442
 20
4.704479894704046
 30
0.0
 10
35.35028508491415
 20
4.698478244809976
 30
0.0
 10
35.01476664794774
 20
4.693968831274788
 30
0.0
 10
34.55406380791861
 20
4.690530741509799
 30
0.0
 10
34.00116276791281
 20
4.691380852434125
 30
0.0
 10
33.39660285227643
 20
4.699642713883669
 30
0.0
 10
32.91145415085968
 20
4.7101796529622
 30
0.0
 10
32.63145695748977
 20
4.720009786008618
 30
0.0
 10
32.52202762041236
 20
4.723851627884623
 30
0.0
  0
SPLINE
  5
9A
330
1F
100
AcDbEntity
  8
0
  6
Continuous
 62
     1
370
    15
100
AcDbSpline
210
0.0
220
0.0
230
1.0
 70
     8
 71
     3
 72
    22
 73
    18
 74
     0
 42
0.000000001
 43
0.00000001
 40
0.0
 40
0.0
 40
0.0
 40
0.0
 40
0.0956797118265342
 40
0.158305986297588
 40
0.2250959005745362
 40
0.3033576935621631
 40
0.3721769535864685
 40
0.4327985408212189
 40
0.4877520421002967
 40
0.5616056656115207
 40
0.6548593351111512
 40
0.7467778272952095
 40
0.7859387490601993
 40
0.8214065327755325
 40
0.8570465640771491
 40
0.9154258114989414
 40
1.0
 40
1.0
 40
1.0
 40
1.0
 10
28.4487347103513
 20
-4.98732375607669
 30
0.0
 10
28.73379654669134
 20
-4.959692615408911
 30
0.0
 10
29.20544298349734
 20
-4.913975766011723
 30
0.0
 10
29.88720609627541
 20
-4.858270880655548
 30
0.0
 10
30.51520097014073
 20
-4.812389814608658
 30
0.0
 10
31.15766882858679
 20
-4.772267845994597
 30
0.0
 10
31.78251826427489
 20
-4.74033621225643
 30
0.0
 10
32.33723780840659
 20
-4.717611409318673
 30
0.0
 10
32.90721251150052
 20
-4.699380925543123
 30
0.0
 10
33.57449899310122
 20
-4.684764415507376
 30
0.0
 10
34.35337345471552
 20
-4.67816997089622
 30
0.0
 10
35.03284254379848
 20
-4.682423718159524
 30
0.0
 10
35.53764337072278
 20
-4.690844531553489
 30
0.0
 10
35.86877549285723
 20
-4.698462714296142
 30
0.0
 10
36.25189744078079
 20
-4.709522763380809
 30
0.0
 10
36.78787613703303
 20
-4.728263028722853
 30
0.0
 10
37.21792149105202
 20
-4.749672300018257
 30
0.0
 10
37.47234515425405
 20
-4.762338464594986
 30
0.0
  0
SPLINE
  5
9B
330
1F
100
AcDbEntity
  8
0
  6
Continuous
 62
     1
370
    15
100
AcDbSpline
210
0.0
220
0.0
230
1.0
 70
     8
 71
     3
 72
    17
 73
    13
 74
     0
 42
0.000000001
 43
0.00000001
 40
0.0
 40
0.0
 40
0.0
 40
0.0
 40
0.1648362202507371
 40
0.2858914915583856
 40
0.3657344405335065
 40
0.4487657304914007
 40
0.5500800099754922
 40
0.6602382014882017
 40
0.7522687282441859
 40
0.8508427587027596
 40
0.9441826219156649
 40
1.0
 40
1.0
 40
1.0
 40
1.0
 10
42.28819130287851
 20
-4.507314904908894
 30
0.0
 10
42.53187618212582
 20
-4.469960576269509
 30
0.0
 10
42.95452257314515
 20
-4.40517333039217
 30
0.0
 10
43.49563256261013
 20
-4.331291741666776
 30
0.0
 10
43.9206162741181
 20
-4.276864287146785
 30
0.0
 10
44.31542665951064
 20
-4.229267609615031
 30
0.0
 10
44.75384260654246
 20
-4.180556374013896
 30
0.0
 10
45.20469776767231
 20
-4.135316895525451
 30
0.0
 10
45.65129970840312
 20
-4.094997082894887
 30
0.0
 10
46.07245602482675
 20
-4.061282971307937
 30
0.0
 10
46.44015279496808
 20
-4.034655904071924
 30
0.0
 10
46.66178391028312
 20
-4.021794624303517
 30
0.0
 10
46.74472234257914
 20
-4.016981697292813
 30
0.0
  0
SPLINE
  5
9C
330
1F
100
AcDbEntity
  8
0
  6
Continuous
 62
     1
370
    15
100
AcDbSpline
210
0.0
220
0.0
230
1.0
 70
     8
 71
     3
 72
    26
 73
    22
 74
     0
 42
0.000000001
 43
0.00000001
 40
0.0
 40
0.0
 40
0.0
 40
0.0
 40
0.0744125054222138
 40
0.1293950331448696
 40
0.1645933693202883
 40
0.1894930525072165
 40
0.2192279205354181
 40
0.2541376139856808
 40
0.2912378004736919
 40
0.3254814388133548
 40
0.3877805372639372
 40
0.4406929407979686
 40
0.4949721887961347
 40
0.5724461649307954
 40
0.6512776190651992
 40
0.7179404077381262
 40
0.7604336759495922
 40
0.8061306118895778
 40
0.8508974601830374
 40
0.9153374715315561
 40
1.0
 40
1.0
 40
1.0
 40
1.0
 10
20.12225271930957
 20
4.109208447186403
 30
0.0
 10
19.87134098945999
 20
4.088831790768804
 30
0.0
 10
19.43503352452373
 20
4.05339906185346
 30
0.0
 10
18.88131849306669
 20
4.019721244596552
 30
0.0
 10
18.49503944739612
 20
3.999974928007767
 30
0.0
 10
18.19403339593526
 20
3.986828070549598
 30
0.0
 10
17.89343481335835
 20
3.975651723069101
 30
0.0
 10
17.55158629994325
 20
3.965703820825655
 30
0.0
 10
17.19440362520193
 20
3.958496180533023
 30
0.0
 10
16.74529630854343
 20
3.953388160406927
 30
0.0
 10
16.24306439459509
 20
3.953640154662294
 30
0.0
 10
15.67369105574665
 20
3.962083745734264
 30
0.0
 10
15.05286040892246
 20
3.979509987214849
 30
0.0
 10
14.34507336628943
 20
4.010670227199481
 30
0.0
 10
13.59582793581662
 20
4.05804338036467
 30
0.0
 10
12.9639837700036
 20
4.108878755368276
 30
0.0
 10
12.44277325988951
 20
4.157304666032704
 30
0.0
 10
11.99789824399101
 20
4.203069060027989
 30
0.0
 10
11.46813056372838
 20
4.26323324776916
 30
0.0
 10
10.80286301893782
 20
4.345611415036796
 30
0.0
 10
10.29077232837068
 20
4.416916198346959
 30
0.0
 10
9.999999999999964
 20
4.457404061627783
 30
0.0
  0
SPLINE
  5
9D
330
1F
100
AcDbEntity
  8
0
  6
Continuous
 62
     1
370
    15
100
AcDbSpline
210
0.0
220
0.0
230
1.0
 70
     8
 71
     3
 72
    14
 73
    10
 74
     0
 42
0.000000001
 43
0.00000001
 40
0.0
 40
0.0
 40
0.0
 40
0.0
 40
0.2096034961699458
 40
0.3691410379398601
 40
0.4799726902016517
 40
0.6146533254281297
 40
0.7429831552651551
 40
0.9017709214957301
 40
1.0
 40
1.0
 40
1.0
 40
1.0
 10
9.999999999999964
 20
-4.446416939277249
 30
0.0
 10
10.29076495441946
 20
-4.405930778161798
 30
0.0
 10
10.80284265842838
 20
-4.334628992602642
 30
0.0
 10
11.46818253161484
 20
-4.252234129416181
 30
0.0
 10
12.02751992005753
 20
-4.188734561986148
 30
0.0
 10
12.53249451346623
 20
-4.137217067460464
 30
0.0
 10
13.10619725975685
 20
-4.085988161424688
 30
0.0
 10
13.62911677996472
 20
-4.044664672448887
 30
0.0
 10
13.97801940203334
 20
-4.024602235880658
 30
0.0
 10
14.11136623807003
 20
-4.016934588031817
 30
0.0
  0
SPLINE
  5
9E
330
1F
100
AcDbEntity
  8
0
  6
Continuous
 62
     1
370
    15
100
AcDbSpline
210
0.0
220
0.0
230
1.0
 70
     8
 71
     3
 72
    25
 73
    21
 74
     0
 42
0.000000001
 43
0.00000001
 40
0.0
 40
0.0
 40
0.0
 40
0.0
 40
0.0912434069761618
 40
0.1542979385647877
 40
0.2147035106375502
 40
0.277967403774023
 40
0.3279322549362464
 40
0.373721616553113
 40
0.4249377965876584
 40
0.4914933272743716
 40
0.55382288741205
 40
0.6001043750303311
 40
0.6405057019522757
 40
0.6837689322702667
 40
0.7420656358609258
 40
0.7929601924052455
 40
0.8347429749736581
 40
0.8704470170757049
 40
0.9239433261398559
 40
1.0
 40
1.0
 40
1.0
 40
1.0
 10
52.77076757424125
 20
4.109219347915867
 30
0.0
 10
52.45855427949932
 20
4.0840855255657
 30
0.0
 10
51.93058333488316
 20
4.041582761745214
 30
0.0
 10
51.16943052088555
 20
4.000005375659566
 30
0.0
 10
50.51000010921536
 20
3.973283968639058
 30
0.0
 10
49.90463394728656
 20
3.958619827484038
 30
0.0
 10
49.34878499769981
 20
3.953156430335276
 30
0.0
 10
48.83507487070607
 20
3.954424907734063
 30
0.0
 10
48.26369953139284
 20
3.963010612385713
 30
0.0
 10
47.63438999938291
 20
3.981961612183154
 30
0.0
 10
47.02223368581794
 20
4.010346888970959
 30
0.0
 10
46.50125923680041
 20
4.041659479192646
 30
0.0
 10
46.04752310048069
 20
4.073975180136517
 30
0.0
 10
45.55212656286827
 20
4.114194944535068
 30
0.0
 10
45.01947880651408
 20
4.163887604729861
 30
0.0
 10
44.49136084111305
 20
4.219990806805193
 30
0.0
 10
44.04095383699295
 20
4.27291632488806
 30
0.0
 10
43.57884135412595
 20
4.331235083045633
 30
0.0
 10
43.00324097683828
 20
4.408931442669834
 30
0.0
 10
42.55269395658011
 20
4.477844964045007
 30
0.0
 10
42.28819130287851
 20
4.518302027259432
 30
0.0
  0
LINE
  5
9F
330
1F
100
AcDbEntity
  8
0
  6
Continuous
 62
   131
370
    15
100
AcDbLine
 10
7.969942817373463
 20
6.005493561175268
 30
0.0
 11
-74.0
 21
6.005493561175262
 31
0.0
  0
LINE
  5
A0
330
1F
100
AcDbEntity
  8
0
  6
Continuous
 62
   131
370
    15
100
AcDbLine
 10
-74.0
 20
-5.994506438824738
 30
0.0
 11
7.969942817373466
 21
-5.994506438824732
 31
0.0
  0
LINE
  5
A1
330
1F
100
AcDbEntity
  8
0
  6
Continuous
 62
   131
370
    15
100
AcDbLine
 10
-74.0
 20
6.005493561175257
 30
0.0
 11
-75.0
 21
5.005493561175257
 31
0.0
  0
LINE
  5
A2
330
1F
100
AcDbEntity
  8
0
  6
Continuous
 62
   131
370
    15
100
AcDbLine
 10
-75.0
 20
-4.994506438824734
 30
0.0
 11
-74.0
 21
-5.994506438824732
 31
0.0
  0
SPLINE
  5
A3
330
1F
100
AcDbEntity
  8
0
  6
Continuous
 62
   131
370
    15
100
AcDbSpline
210
0.0
220
0.0
230
1.0
 70
     8
 71
     3
 72
     9
 73
     5
 74
     0
 42
0.000000001
 43
0.00000001
 40
0.0
 40
0.0
 40
0.0
 40
0.0
 40
0.4980121883635171
 40
1.0
 40
1.0
 40
1.0
 40
1.0
 10
9.579125931700943
 20
-4.516795148986386
 30
0.0
 10
9.649319344236089
 20
-4.50534675932286
 30
0.0
 10
9.790266522187304
 20
-4.482358587685645
 30
0.0
 10
9.929903792335445
 20
-4.458429200156702
 30
0.0
 10
10.0
 20
-4.446416939277247
 30
0.0
  0
SPLINE
  5
A4
330
1F
100
AcDbEntity
  8
0
  6
Continuous
 62
   131
370
    15
100
AcDbSpline
210
0.0
220
0.0
230
1.0
 70
     8
 71
     3
 72
     9
 73
     5
 74
     0
 42
0.000000001
 43
0.00000001
 40
0.0
 40
0.0
 40
0.0
 40
0.0
 40
0.4524545632535818
 40
1.0
 40
1.0
 40
1.0
 40
1.0
 10
9.962044001586062
 20
4.463855576399523
 30
0.0
 10
9.90457106448722
 20
4.473696689602622
 30
0.0
 10
9.777546293899084
 20
4.495447190100025
 30
0.0
 10
9.649330115241801
 20
4.516341621028578
 30
0.0
 10
9.57912593170094
 20
4.52778227133692
 30
0.0
  0
SPLINE
  5
A5
330
1F
100
AcDbEntity
  8
0
  6
Continuous
 62
     1
370
    15
100
AcDbSpline
210
0.0
220
0.0
230
1.0
 70
     8
 71
     3
 72
    31
 73
    27
 74
     0
 42
0.000000001
 43
0.00000001
 40
0.0
 40
0.0
 40
0.0
 40
0.0
 40
0.0340123886116817
 40
0.0765192453672867
 40
0.1187309943395544
 40
0.1612356184619653
 40
0.2034473362087589
 40
0.2459515936698421
 40
0.2881633809738488
 40
0.330374407897959
 40
0.3728782454991736
 40
0.4150892466711898
 40
0.4575928425942553
 40
0.4998023783934274
 40
0.5423050986397489
 40
0.5844966655067801
 40
0.626980240636096
 40
0.6691699290471071
 40
0.7116528475246827
 40
0.7538423677302831
 40
0.7960318660434302
 40
0.8385133043098952
 40
0.8782588346459536
 40
0.9182493478508273
 40
0.9589932496898805
 40
1.0
 40
1.0
 40
1.0
 40
1.0
 10
14.11150149660078
 20
4.027976712402372
 30
0.0
 10
14.57516465031821
 20
4.222751632995921
 30
0.0
 10
15.61828911394052
 20
4.660945789556063
 30
0.0
 10
17.23645246976918
 20
5.193943408271117
 30
0.0
 10
18.97022041184356
 20
5.633658547114245
 30
0.0
 10
20.7000231164816
 20
5.913097399080717
 30
0.0
 10
22.43411021922932
 20
6.030028556442927
 30
0.0
 10
24.16445691880413
 20
5.979895753227474
 30
0.0
 10
25.89427343132163
 20
5.764438856094211
 30
0.0
 10
27.62400361870532
 20
5.389941489943443
 30
0.0
 10
29.3537836154282
 20
4.866304278649473
 30
0.0
 10
31.08792238195098
 20
4.207061219372088
 30
0.0
 10
32.81815403657835
 20
3.433255719530618
 30
0.0
 10
34.55187609021984
 20
2.562001257216226
 30
0.0
 10
36.28132363058829
 20
1.621939047138286
 30
0.0
 10
38.01452312320595
 20
0.635141275139471
 30
0.0
 10
39.74393111409609
 20
-0.3659223463101318
 30
0.0
 10
41.4772376286901
 20
-1.359019864527894
 30
0.0
 10
43.20614891739269
 20
-2.312861211377219
 30
0.0
 10
44.93499737541163
 20
-3.202543119815181
 30
0.0
 10
46.66389724922195
 20
-4.003683919407794
 30
0.0
 10
48.36001797736736
 20
-4.67992181060397
 30
0.0
 10
50.02587061525325
 20
-5.223748731266807
 30
0.0
 10
51.66760910628284
 20
-5.628017105952175
 30
0.0
 10
53.32662953023465
 20
-5.904788277415672
 30
0.0
 10
54.44101550167002
 20
-5.961159230443381
 30
0.0
 10
54.99999999999995
 20
-5.994506438824565
 30
0.0
  0
SPLINE
  5
A6
330
1F
100
AcDbEntity
  8
0
  6
Continuous
 62
     1
370
    15
100
AcDbSpline
210
0.0
220
0.0
230
1.0
 70
     8
 71
     3
 72
    14
 73
    10
 74
     0
 42
0.000000001
 43
0.00000001
 40
0.0
 40
0.0
 40
0.0
 40
0.0
 40
0.1370386511144175
 40
0.2841293846612403
 40
0.4312575629714045
 40
0.5782204758952685
 40
0.7253342165204079
 40
0.8724443334613302
 40
1.0
 40
1.0
 40
1.0
 40
1.0
 10
40.10362515354205
 20
-0.5694121811845729
 30
0.0
 10
39.19070771523536
 20
-0.2001015011906225
 30
0.0
 10
37.29790836349608
 20
0.5656095985770966
 30
0.0
 10
34.42467565000059
 20
1.699303064026671
 30
0.0
 10
31.48510455761962
 20
2.720113254391878
 30
0.0
 10
28.54611122046179
 20
3.529703201934638
 30
0.0
 10
25.60657448488193
 20
4.049351243709801
 30
0.0
 10
22.79640183861866
 20
4.269799532052251
 30
0.0
 10
20.96666958574678
 20
4.146822772096386
 30
0.0
 10
20.11693608729041
 20
4.089711972250064
 30
0.0
  0
SPLINE
  5
A7
330
1F
100
AcDbEntity
  8
0
  6
Continuous
 62
     1
370
    15
100
AcDbSpline
210
0.0
220
0.0
230
1.0
 70
     8
 71
     3
 72
    20
 73
    16
 74
     0
 42
0.000000001
 43
0.00000001
 40
0.0
 40
0.0
 40
0.0
 40
0.0
 40
0.0801986085751753
 40
0.1604082321090151
 40
0.2406267803780131
 40
0.3208521509731627
 40
0.4010822321521114
 40
0.4813149057188433
 40
0.5615480499224396
 40
0.6417795423663559
 40
0.722007262919615
 40
0.8022290966212904
 40
0.8824429365697
 40
0.9626466867878013
 40
1.0
 40
1.0
 40
1.0
 40
1.0
 10
55.0
 20
-5.688151654216129
 30
0.0
 10
54.21642635615908
 20
-5.517243318428211
 30
0.0
 10
52.64917144776594
 20
-5.175403173274871
 30
0.0
 10
50.29806303624969
 20
-4.3208077652611
 30
0.0
 10
47.94664636392478
 20
-3.266468764067117
 30
0.0
 10
45.59498835255432
 20
-2.039697338438091
 30
0.0
 10
43.24316511161952
 20
-0.7101273336843514
 30
0.0
 10
40.89125061290426
 20
0.6563709867195568
 30
0.0
 10
38.53931959664597
 20
1.989491942497125
 30
0.0
 10
36.18744664201905
 20
3.221801302914557
 30
0.0
 10
33.83570634467096
 20
4.288882240437808
 30
0.0
 10
31.48417290164662
 20
5.142102471688754
 30
0.0
 10
29.13292096099833
 20
5.716489281274248
 30
0.0
 10
27.20057809782872
 20
6.001288310320652
 30
0.0
 10
26.05200139902273
 20
5.975514554535625
 30
0.0
 10
25.68704548802236
 20
5.967325040912196
 30
0.0
  0
SPLINE
  5
A8
330
1F
100
AcDbEntity
  8
0
  6
Continuous
 62
     1
370
    15
100
AcDbSpline
210
0.0
220
0.0
230
1.0
 70
     8
 71
     3
 72
    15
 73
    11
 74
     0
 42
0.000000001
 43
0.00000001
 40
0.0
 40
0.0
 40
0.0
 40
0.0
 40
0.1257104521175859
 40
0.2513891319108609
 40
0.3770438936457975
 40
0.5026826416587209
 40
0.6283133138752294
 40
0.7539438651802173
 40
0.879582250712597
 40
0.9999999999999999
 40
0.9999999999999999
 40
0.9999999999999999
 40
0.9999999999999999
 10
55.0
 20
-4.728340025034022
 30
0.0
 10
54.34652108859738
 20
-4.59281310826399
 30
0.0
 10
53.03972842742792
 20
-4.32179352808218
 30
0.0
 10
51.07984437024108
 20
-3.716836858271375
 30
0.0
 10
49.12038190572631
 20
-2.991993246691698
 30
0.0
 10
47.16120778154072
 20
-2.157789548350525
 30
0.0
 10
45.20217806381824
 20
-1.247485099376847
 30
0.0
 10
43.24314949778735
 20
-0.2936942972145466
 30
0.0
 10
41.31120262201996
 20
0.6615182841459667
 30
0.0
 10
40.03222262527919
 20
1.268373016489439
 30
0.0
 10
39.40630085054298
 20
1.565362486257112
 30
0.0
  0
LINE
  5
A9
330
1F
100
AcDbEntity
  8
0
  6
Continuous
 62
     1
370
    15
100
AcDbLine
 10
55.0
 20
-5.688151654216132
 30
0.0
 11
55.0
 21
-4.728340025034022
 31
0.0
  0
LINE
  5
AA
330
1F
100
AcDbEntity
  8
0
  6
Continuous
 62
     1
370
    15
100
AcDbLine
 10
54.99999999999995
 20
-5.994506438824565
 30
0.0
 11
54.99999999999999
 21
-5.688151654216137
 31
0.0
  0
SPLINE
  5
AB
330
1F
100
AcDbEntity
  8
0
  6
Continuous
 62
     1
370
    15
100
AcDbSpline
210
0.0
220
0.0
230
1.0
 70
     8
 71
     3
 72
    17
 73
    13
 74
     0
 42
0.000000001
 43
0.00000001
 40
0.0
 40
0.0
 40
0.0
 40
0.0
 40
0.0461445125870325
 40
0.150539774615053
 40
0.2549219052428064
 40
0.3592934719098169
 40
0.463677223928483
 40
0.5680737996687885
 40
0.676044481795608
 40
0.7840281195413776
 40
0.8920161506477752
 40
1.0
 40
1.0
 40
1.0
 40
1.0
 10
32.52342572960006
 20
-4.712363663697081
 30
0.0
 10
32.17698383218929
 20
-4.841426166706149
 30
0.0
 10
31.04676742660773
 20
-5.262473849842785
 30
0.0
 10
29.13292266857145
 20
-5.707421024833113
 30
0.0
 10
26.7819811870966
 20
-6.014664675290791
 30
0.0
 10
24.43121101196596
 20
-6.001147530071926
 30
0.0
 10
22.08023077065146
 20
-5.685169604300222
 30
0.0
 10
19.70222291438841
 20
-5.071185131622439
 30
0.0
 10
17.2969647162704
 20
-4.180972285059402
 30
0.0
 10
14.86471967930689
 20
-3.052190166850092
 30
0.0
 10
12.43234233574673
 20
-1.758179788396325
 30
0.0
 10
10.81077031268798
 20
-0.827780018208642
 30
0.0
 10
9.999999999997634
 20
-0.3625891405446405
 30
0.0
  0
SPLINE
  5
AC
330
1F
100
AcDbEntity
  8
0
  6
Continuous
 62
   131
370
    15
100
AcDbSpline
210
0.0
220
0.0
230
1.0
 70
    24
 71
     3
 72
     8
 73
     4
 74
     0
 42
0.000000001
 43
0.00000001
 40
0.0
 40
0.0
 40
0.0
 40
0.0
 40
1.0
 40
1.0
 40
1.0
 40
1.0
 10
10.00000000000001
 20
-0.0000000000000035
 30
0.0
 10
10.00000000000001
 20
-0.096567422458158
 30
0.0
 10
10.00000000000001
 20
-0.2180994523531098
 30
0.0
 10
10.00000000000001
 20
-0.3625891405410927
 30
0.0
  0
SPLINE
  5
AD
330
1F
100
AcDbEntity
  8
0
  6
Continuous
 62
     1
370
    15
100
AcDbSpline
210
0.0
220
0.0
230
1.0
 70
     8
 71
     3
 72
    17
 73
    13
 74
     0
 42
0.000000001
 43
0.00000001
 40
0.0
 40
0.0
 40
0.0
 40
0.0
 40
0.0481295798531858
 40
0.1542908502810972
 40
0.2604518141891345
 40
0.3666191940767061
 40
0.472799698968936
 40
0.5790000103582528
 40
0.6852267682680441
 40
0.7914570674156398
 40
0.895741745924774
 40
1.0
 40
1.0
 40
1.0
 40
1.0
 10
28.45366968589077
 20
-4.964753163796787
 30
0.0
 10
28.15762125751658
 20
-4.999340781468765
 30
0.0
 10
27.20856739339458
 20
-5.110219641331781
 30
0.0
 10
25.60653469735131
 20
-5.106671763562153
 30
0.0
 10
23.6475077017225
 20
-4.958542222921119
 30
0.0
 10
21.68834672701801
 20
-4.624434146743753
 30
0.0
 10
19.72890599524722
 20
-4.128876281842725
 30
0.0
 10
17.76905061782743
 20
-3.485977753294226
 30
0.0
 10
15.80879854972269
 20
-2.719514764889736
 30
0.0
 10
13.86030733613665
 20
-1.861599553503632
 30
0.0
 10
11.92404926213472
 20
-0.9442744325887458
 30
0.0
 10
10.64129557488923
 20
-0.3147315544448887
 30
0.0
 10
10.0
 20
0.0
 30
0.0
  0
SPLINE
  5
AE
330
1F
100
AcDbEntity
  8
0
  6
Continuous
 62
     1
370
    15
100
AcDbSpline
210
0.0
220
0.0
230
1.0
 70
     8
 71
     3
 72
    15
 73
    11
 74
     0
 42
0.000000001
 43
0.00000001
 40
0.0
 40
0.0
 40
0.0
 40
0.0
 40
0.1477469085717152
 40
0.2954939288171498
 40
0.4305726094484807
 40
0.566590025072745
 40
0.7016631272124596
 40
0.8376733986482268
 40
0.972746400869749
 40
1.0
 40
1.0
 40
1.0
 40
1.0
 10
10.0
 20
-2.002236341887865
 30
0.0
 10
10.62932413278005
 20
-2.338279993205686
 30
0.0
 10
11.88797287401146
 20
-3.010367549838143
 30
0.0
 10
13.72210855866631
 20
-3.875785231682886
 30
0.0
 10
15.5065195597496
 20
-4.605621007967351
 30
0.0
 10
17.23645181886507
 20
-5.184354205423212
 30
0.0
 10
18.97022120905662
 20
-5.624547028310948
 30
0.0
 10
20.70002056759831
 20
-5.893150316596019
 30
0.0
 10
21.97085173208962
 20
-6.010164979507873
 30
0.0
 10
22.66236403352514
 20
-5.98527044538318
 30
0.0
 10
22.77846453030151
 20
-5.981090812175073
 30
0.0
  0
SPLINE
  5
AF
330
1F
100
AcDbEntity
  8
0
  6
Continuous
 62
     1
370
    15
100
AcDbSpline
210
0.0
220
0.0
230
1.0
 70
     8
 71
     3
 72
    12
 73
     8
 74
     0
 42
0.000000001
 43
0.00000001
 40
0.0
 40
0.0
 40
0.0
 40
0.0
 40
0.2001493576619163
 40
0.3970107017714664
 40
0.5950854567081236
 40
0.7968917783871895
 40
1.0
 40
1.0
 40
1.0
 40
1.0
 10
46.74474409777203
 20
4.027977458035638
 30
0.0
 10
47.29559227688412
 20
4.255010862068636
 30
0.0
 10
48.38823941157159
 20
4.705348010854079
 30
0.0
 10
50.02587633560378
 20
5.233339040181681
 30
0.0
 10
51.66760754503074
 20
5.639385459809279
 30
0.0
 10
53.32662992653805
 20
5.915678629139903
 30
0.0
 10
54.44101563405403
 20
5.97211402684998
 30
0.0
 10
54.99999999999999
 20
6.005493561175433
 30
0.0
  0
LINE
  5
B0
330
1F
100
AcDbEntity
  8
0
  6
Continuous
 62
   131
370
    15
100
AcDbLine
 10
10.0
 20
-2.002236341888247
 30
0.0
 11
10.0
 21
-0.3625891405397372
 31
0.0
  0
SPLINE
  5
B1
330
1F
100
AcDbEntity
  8
0
  6
Continuous
 62
     1
370
    15
100
AcDbSpline
210
0.0
220
0.0
230
1.0
 70
    24
 71
     3
 72
    10
 73
     6
 74
     0
 42
0.000000001
 43
0.00000001
 40
0.0
 40
0.0
 40
0.0
 40
0.0
 40
0.5
 40
0.5
 40
1.0
 40
1.0
 40
1.0
 40
1.0
 10
55.0
 20
4.20549356117527
 30
0.0
 10
55.0
 20
4.460087102019154
 30
0.0
 10
55.00000000000001
 20
4.755948374377975
 30
0.0
 10
54.99999999999999
 20
5.376664526940408
 30
0.0
 10
55.00000000000001
 20
5.699934175984111
 30
0.0
 10
54.99999999999999
 20
6.005493561175433
 30
0.0
  0
LINE
  5
B2
330
1F
100
AcDbEntity
  8
0
  6
Continuous
 62
     1
370
    15
100
AcDbLine
 10
55.0
 20
4.205493561175271
 30
0.0
 11
52.76337575032513
 21
4.078499877473232
 31
0.0
  0
SPLINE
  5
B3
330
1F
100
AcDbEntity
  8
0
  6
Continuous
 62
     1
370
    15
100
AcDbSpline
210
0.0
220
0.0
230
1.0
 70
     8
 71
     3
 72
     8
 73
     4
 74
     0
 42
0.000000001
 43
0.00000001
 40
0.0
 40
0.0
 40
0.0
 40
0.0
 40
1.0
 40
1.0
 40
1.0
 40
1.0
 10
51.28766238388622
 20
1.683619930736583
 30
0.0
 10
51.01854352449413
 20
2.002401801256008
 30
0.0
 10
50.78528950873192
 20
2.306510990523968
 30
0.0
 10
50.6006373060663
 20
2.590312218952828
 30
0.0
  0
LINE
  5
B4
330
1F
100
AcDbEntity
  8
0
  6
Continuous
 62
     1
370
    15
100
AcDbLine
 10
50.6006373060663
 20
2.590312218952833
 30
0.0
 11
55.0
 21
0.0054935611752726
 31
0.0
  0
LINE
  5
B5
330
1F
100
AcDbEntity
  8
0
  6
Continuous
 62
     1
370
    15
100
AcDbLine
 10
55.0
 20
0.0054935611752726
 30
0.0
 11
55.0
 21
-1.597964115002596
 31
0.0
  0
SPLINE
  5
B6
330
1F
100
AcDbEntity
  8
0
  6
Continuous
 62
     1
370
    15
100
AcDbSpline
210
0.0
220
0.0
230
1.0
 70
     8
 71
     3
 72
    12
 73
     8
 74
     0
 42
0.000000001
 43
0.00000001
 40
0.0
 40
0.0
 40
0.0
 40
0.0
 40
0.4999999999999984
 40
0.4999999999999984
 40
0.7499999999999992
 40
0.7499999999999992
 40
1.0
 40
1.0
 40
1.0
 40
1.0
 10
55.00000000000001
 20
-1.597964115002602
 30
0.0
 10
54.35738324975082
 20
-1.092759860469696
 30
0.0
 10
53.72550027521569
 20
-0.5668436019054555
 30
0.0
 10
52.79419516594457
 20
0.2539066985128052
 30
0.0
 10
52.48655768172762
 20
0.5328883175009272
 30
0.0
 10
51.87756600981746
 20
1.102975869082646
 30
0.0
 10
51.5778678525838
 20
1.392610793717978
 30
0.0
 10
51.28766238388618
 20
1.683619930736601
 30
0.0
  0
SPLINE
  5
B7
330
1F
100
AcDbEntity
  8
0
  6
Continuous
 62
     1
370
    15
100
AcDbSpline
210
0.0
220
0.0
230
1.0
 70
     8
 71
     3
 72
    14
 73
    10
 74
     0
 42
0.000000001
 43
0.00000001
 40
0.0
 40
0.0
 40
0.0
 40
0.0
 40
0.1568640841451483
 40
0.2986699645699331
 40
0.4404666025491173
 40
0.5822631024773528
 40
0.7240685690404771
 40
0.8658920880184827
 40
1.0
 40
1.0
 40
1.0
 40
1.0
 10
51.28766238387663
 20
1.683619930740735
 30
0.0
 10
50.56519520963976
 20
1.989238377420512
 30
0.0
 10
49.18961426319059
 20
2.571137357924586
 30
0.0
 10
47.16122422545467
 20
3.311076339591703
 30
0.0
 10
45.20218329976157
 20
3.912784196510493
 30
0.0
 10
43.24315975482945
 20
4.375794655449127
 30
0.0
 10
41.28399056341134
 20
4.680520851366438
 30
0.0
 10
39.36020256057014
 20
4.830524413585345
 30
0.0
 10
38.08942195926149
 20
4.789049592610907
 30
0.0
 10
37.47179847057267
 20
4.768892042521934
 30
0.0
  0
SPLINE
  5
B8
330
1F
100
AcDbEntity
  8
0
  6
Continuous
 62
     1
370
    15
100
AcDbSpline
210
0.0
220
0.0
230
1.0
 70
    24
 71
     3
 72
    10
 73
     6
 74
     0
 42
0.000000001
 43
0.00000001
 40
0.0
 40
0.0
 40
0.0
 40
0.0
 40
0.4999999999999998
 40
0.4999999999999998
 40
1.0
 40
1.0
 40
1.0
 40
1.0
 10
55.0
 20
-4.728340025034022
 30
0.0
 10
55.0
 20
-4.365454772847558
 30
0.0
 10
55.0
 20
-3.90693534226354
 30
0.0
 10
54.99999999999999
 20
-2.84092179372881
 30
0.0
 10
55.00000000000001
 20
-2.234351097132591
 30
0.0
 10
55.0
 20
-1.597964115002793
 30
0.0
  0
SPLINE
  5
B9
330
1F
100
AcDbEntity
  8
0
  6
Continuous
 62
     1
370
    15
100
AcDbSpline
210
0.0
220
0.0
230
1.0
 70
     8
 71
     3
 72
    24
 73
    20
 74
     0
 42
0.000000001
 43
0.00000001
 40
0.0
 40
0.0
 40
0.0
 40
0.0
 40
0.031412031453529
 40
0.0920783748531124
 40
0.1527563106078079
 40
0.213449684616346
 40
0.2741440998311337
 40
0.3348228623764632
 40
0.3954897986143276
 40
0.4561487775621971
 40
0.5168036849941202
 40
0.5774584152683847
 40
0.6381168631169508
 40
0.6987829154332198
 40
0.7594604430947112
 40
0.8201532928569667
 40
0.8808481894275421
 40
0.9404317478516454
 40
1.0
 40
1.0
 40
1.0
 40
1.0
 10
42.29860260902461
 20
-4.48584761469292
 30
0.0
 10
41.96042559868867
 20
-4.542794646678951
 30
0.0
 10
40.96912423791915
 20
-4.709724001940146
 30
0.0
 10
39.32454034142993
 20
-4.808573972142436
 30
0.0
 10
37.36467211031349
 20
-4.785984590573499
 30
0.0
 10
35.40441433815278
 20
-4.585401499968532
 30
0.0
 10
33.44413996709252
 20
-4.224249750066265
 30
0.0
 10
31.48424160764119
 20
-3.712522836101144
 30
0.0
 10
29.52476896455103
 20
-3.069188372460111
 30
0.0
 10
27.56558901603353
 20
-2.31685531458996
 30
0.0
 10
25.60655750490366
 20
-1.482239488857227
 30
0.0
 10
23.64753251323519
 20
-0.5948862628441918
 30
0.0
 10
21.68837186097004
 20
0.3137525516862715
 30
0.0
 10
19.72893199273366
 20
1.21156324571586
 30
0.0
 10
17.76907689544641
 20
2.066472753562325
 30
0.0
 10
15.80882938803081
 20
2.849084576540273
 30
0.0
 10
13.86033923155631
 20
3.523776574574181
 30
0.0
 10
11.92406934488205
 20
4.083145523748992
 30
0.0
 10
10.64130152005316
 20
4.333685891325995
 30
0.0
 10
10.0
 20
4.458939982870771
 30
0.0
  0
SPLINE
  5
BA
330
1F
100
AcDbEntity
  8
0
  6
Continuous
 62
   131
370
    15
100
AcDbSpline
210
0.0
220
0.0
230
1.0
 70
    24
 71
     3
 72
    14
 73
    10
 74
     0
 42
0.000000001
 43
0.00000001
 40
0.0
 40
0.0
 40
0.0
 40
0.0
 40
0.25
 40
0.25
 40
0.5
 40
0.5
 40
0.75
 40
0.75
 40
1.0
 40
1.0
 40
1.0
 40
1.0
 10
10.0
 20
4.458939982870771
 30
0.0
 10
10.0
 20
4.237844487107168
 30
0.0
 10
10.0
 20
3.968273604405816
 30
0.0
 10
10.0
 20
3.341351812368003
 30
0.0
 10
10.0
 20
2.984075260455306
 30
0.0
 10
10.0
 20
2.204765022551475
 30
0.0
 10
10.0
 20
1.782956377700225
 30
0.0
 10
10.0
 20
0.906992872678307
 30
0.0
 10
10.0
 20
0.4531084757818122
 30
0.0
 10
10.0
 20
0.0
 30
0.0
  0
SPLINE
  5
BB
330
1F
100
AcDbEntity
  8
0
  6
Continuous
 62
     1
370
    15
100
AcDbSpline
210
0.0
220
0.0
230
1.0
 70
     8
 71
     3
 72
    10
 73
     6
 74
     0
 42
0.000000001
 43
0.00000001
 40
0.0
 40
0.0
 40
0.0
 40
0.0
 40
0.5
 40
0.5
 40
1.0
 40
1.0
 40
1.0
 40
1.0
 10
55.0
 20
4.205493561175271
 30
0.0
 10
54.25332347653938
 20
4.00298418247551
 30
0.0
 10
53.51228338110266
 20
3.770620839452746
 30
0.0
 10
52.04287433025131
 20
3.238780059065468
 30
0.0
 10
51.31450293166837
 20
2.939584295227483
 30
0.0
 10
50.6006373060663
 20
2.59031221895283
 30
0.0
  0
SPLINE
  5
BC
330
1F
100
AcDbEntity
  8
0
  6
Continuous
 62
   131
370
    15
100
AcDbSpline
210
0.0
220
0.0
230
1.0
 70
    24
 71
     3
 72
    13
 73
     9
 74
     0
 42
0.000000001
 43
0.00000001
 40
0.0
 40
0.0
 40
0.0
 40
0.0
 40
0.0757151950122403
 40
0.2819383331456146
 40
0.4823495329090318
 40
0.6885726710424093
 40
0.8869568834262853
 40
1.0
 40
1.0
 40
1.0
 40
1.0
 10
10.0
 20
-2.091725481330217
 30
0.0
 10
10.0
 20
-2.200880993763542
 30
0.0
 10
10.0
 20
-2.607340004060374
 30
0.0
 10
10.0
 20
-3.173061928653689
 30
0.0
 10
10.0
 20
-3.770888802365971
 30
0.0
 10
10.0
 20
-4.178187508219645
 30
0.0
 10
10.0
 20
-4.404668882690713
 30
0.0
 10
10.0
 20
-4.418186206178293
 30
0.0
 10
10.0
 20
-4.423092777415588
 30
0.0
  0
LINE
  5
BD
330
1F
100
AcDbEntity
  8
0
  6
Continuous
 62
     1
370
    15
100
AcDbLine
 10
55.0
 20
0.0054935611752726
 30
0.0
 11
55.0
 21
4.205493561175271
 31
0.0
  0
SPLINE
  5
BE
330
1F
100
AcDbEntity
  8
0
  6
Continuous
 62
   131
370
    15
100
AcDbSpline
210
0.0
220
0.0
230
1.0
 70
    24
 71
     3
 72
     8
 73
     4
 74
     0
 42
0.000000001
 43
0.00000001
 40
0.0
 40
0.0
 40
0.0
 40
0.0
 40
1.0
 40
1.0
 40
1.0
 40
1.0
 10
10.00000000000001
 20
-0.0000000000000035
 30
0.0
 10
10.00000000000001
 20
-0.0965674224581576
 30
0.0
 10
10.00000000000001
 20
-0.2180994523531089
 30
0.0
 10
10.00000000000001
 20
-0.3625891405410912
 30
0.0
  0
SPLINE
  5
BF
330
1F
100
AcDbEntity
  8
0
  6
Continuous
 62
   131
370
    15
100
AcDbSpline
210
0.0
220
0.0
230
1.0
 70
     8
 71
     3
 72
    10
 73
     6
 74
     0
 42
0.000000001
 43
0.00000001
 40
0.0
 40
0.0
 40
0.0
 40
0.0
 40
0.5
 40
0.5
 40
1.0
 40
1.0
 40
1.0
 40
1.0
 10
10.00000000000001
 20
-0.3625891405460063
 30
0.0
 10
9.661007092313366
 20
-0.1674665972588934
 30
0.0
 10
9.324636443943508
 20
0.0277371436677678
 30
0.0
 10
8.648849130038581
 20
0.4180393800515712
 30
0.0
 10
8.309087156110275
 20
0.6132032514078978
 30
0.0
 10
7.969882889159418
 20
0.806982233729238
 30
0.0
  0
SPLINE
  5
C0
330
1F
100
AcDbEntity
  8
0
  6
Continuous
 62
   131
370
    15
100
AcDbSpline
210
0.0
220
0.0
230
1.0
 70
     8
 71
     3
 72
    10
 73
     6
 74
     0
 42
0.000000001
 43
0.00000001
 40
0.0
 40
0.0
 40
0.0
 40
0.0
 40
0.5
 40
0.5
 40
1.0
 40
1.0
 40
1.0
 40
1.0
 10
10.00000000000001
 20
-0.0000000000000035
 30
0.0
 10
9.661007092313366
 20
0.1661670425583602
 30
0.0
 10
9.324636443943508
 20
0.3319137839493899
 30
0.0
 10
8.648849130038581
 20
0.6623425820517054
 30
0.0
 10
8.309087156110275
 20
0.8270778758662568
 30
0.0
 10
7.969882889159418
 20
0.990152438202672
 30
0.0
  0
LINE
  5
C1
330
1F
100
AcDbEntity
  8
0
  6
Continuous
 62
   131
370
    15
100
AcDbLine
 10
7.969942817373459
 20
0.807237071555969
 30
0.0
 11
7.969942817373463
 21
6.005493561175268
 31
0.0
  0
SPLINE
  5
C2
330
1F
100
AcDbEntity
  8
0
  6
Continuous
 62
   131
370
    15
100
AcDbSpline
210
0.0
220
0.0
230
1.0
 70
     8
 71
     3
 72
    10
 73
     6
 74
     0
 42
0.000000001
 43
0.00000001
 40
0.0
 40
0.0
 40
0.0
 40
0.0
 40
0.5
 40
0.5
 40
1.0
 40
1.0
 40
1.0
 40
1.0
 10
7.969942817373459
 20
-0.866458870360571
 30
0.0
 10
8.309137162160624
 20
-1.059908774416682
 30
0.0
 10
8.648889037621872
 20
-1.252071263116806
 30
0.0
 10
9.324656233009437
 20
-1.631089703263852
 30
0.0
 10
9.661017074124485
 20
-1.818020555653602
 30
0.0
 10
10.0
 20
-2.002236341888248
 30
0.0
  0
LINE
  5
C3
330
1F
100
AcDbEntity
  8
0
  6
Continuous
 62
   131
370
    15
100
AcDbLine
 10
7.969942817373466
 20
-5.994506438824732
 30
0.0
 11
7.969942817373459
 21
-0.866461351752799
 31
0.0
  0
LINE
  5
C4
330
1F
100
AcDbEntity
  8
0
  6
Continuous
 62
   131
370
    15
100
AcDbLine
 10
-74.0
 20
6.005493561175257
 30
0.0
 11
-74.0
 21
-5.994506438824738
 31
0.0
  0
LINE
  5
C5
330
1F
100
AcDbEntity
  8
0
  6
Continuous
 62
   131
370
    15
100
AcDbLine
 10
-75.0
 20
5.005493561175258
 30
0.0
 11
-75.0
 21
-4.994506438824739
 31
0.0
  0
SPLINE
  5
C6
330
1F
100
AcDbEntity
  8
0
  6
Continuous
 62
   131
370
    15
100
AcDbSpline
210
0.0
220
0.0
230
1.0
 70
     8
 71
     3
 72
    10
 73
     6
 74
     0
 42
0.000000001
 43
0.00000001
 40
0.0
 40
0.0
 40
0.0
 40
0.0
 40
0.5
 40
0.5
 40
1.0
 40
1.0
 40
1.0
 40
1.0
 10
10.0
 20
4.458939982870774
 30
0.0
 10
9.66101342980778
 20
4.517285003544432
 30
0.0
 10
9.324649008106649
 20
4.568401822949907
 30
0.0
 10
8.648874467534664
 20
4.65615595301282
 30
0.0
 10
8.309118905165787
 20
4.692776705579973
 30
0.0
 10
7.969920937836537
 20
4.721850824840957
 30
0.0
  0
SPLINE
  5
C7
330
1F
100
AcDbEntity
  8
0
  6
Continuous
 62
   131
370
    15
100
AcDbSpline
210
0.0
220
0.0
230
1.0
 70
    24
 71
     3
 72
    14
 73
    10
 74
     0
 42
0.000000001
 43
0.00000001
 40
0.0
 40
0.0
 40
0.0
 40
0.0
 40
0.25
 40
0.25
 40
0.5
 40
0.5
 40
0.75
 40
0.75
 40
1.0
 40
1.0
 40
1.0
 40
1.0
 10
10.0
 20
4.458939982870771
 30
0.0
 10
10.0
 20
4.237844487107168
 30
0.0
 10
10.0
 20
3.968273604405816
 30
0.0
 10
10.0
 20
3.341351812368003
 30
0.0
 10
10.0
 20
2.984075260455306
 30
0.0
 10
10.0
 20
2.204765022551475
 30
0.0
 10
10.0
 20
1.782956377700225
 30
0.0
 10
10.0
 20
0.906992872678307
 30
0.0
 10
10.0
 20
0.4531084757818122
 30
0.0
 10
10.0
 20
0.0
 30
0.0
  0
LINE
  5
C8
330
1F
100
AcDbEntity
  8
0
  6
Continuous
 62
   131
370
    15
100
AcDbLine
 10
9.582050994503877
 20
-4.502080469135874
 30
0.0
 11
7.969920937836541
 21
-4.71086370249042
 31
0.0
  0
SPLINE
  5
C9
330
1F
100
AcDbEntity
  8
0
  6
Continuous
 62
   131
370
    15
100
AcDbSpline
210
0.0
220
0.0
230
1.0
 70
    24
 71
     3
 72
    13
 73
     9
 74
     0
 42
0.000000001
 43
0.00000001
 40
0.0
 40
0.0
 40
0.0
 40
0.0
 40
0.0755250558368147
 40
0.2812303177706736
 40
0.4811382365181331
 40
0.6868434984519949
 40
0.8847295200756913
 40
0.9999999999999999
 40
0.9999999999999999
 40
0.9999999999999999
 40
0.9999999999999999
 10
10.0
 20
-2.091725481330217
 30
0.0
 10
10.0
 20
-2.200880843350659
 30
0.0
 10
10.0
 20
-2.607339293559684
 30
0.0
 10
10.0
 20
-3.173070964184739
 30
0.0
 10
10.0
 20
-3.770856585614963
 30
0.0
 10
10.0
 20
-4.178309508452826
 30
0.0
 10
10.0
 20
-4.405411304472933
 30
0.0
 10
10.0
 20
-4.418838358195963
 30
0.0
 10
10.0
 20
-4.423780752554608
 30
0.0
  0
LINE
  5
CA
330
1F
100
AcDbEntity
  8
중심선
 62
     1
100
AcDbLine
 10
-78.0
 20
0.0054935611752617
 30
0.0
 11
58.0
 21
0.0054935611752728
 31
0.0
  0
CIRCLE
  5
CB
330
1F
100
AcDbEntity
  8
외형선
100
AcDbCircle
 10
0.0000000000000104
 20
0.0
 30
0.0
 40
3.000000000000005
  0
INSERT
  5
CC
330
1F
100
AcDbEntity
  8
0
  6
Continuous
 62
     7
100
AcDbBlockReference
 66
     1
  2
블럭10
 10
-22.93944368806589
 20
-52.04609937292004
 30
0.0
  0
ATTRIB
  5
CD
330
CC
100
AcDbEntity
  8
FORMAT
 62
     2
100
AcDbText
 10
-39.05870472750145
 20
-49.97073246008785
 30
0.0
 40
4.233333333333333
  1
SEME7012045E [ 2 FLUTE ]
 41
0.75
  7
SLDTEXTSTYLE0
 11
-39.05870472750145
 21
-52.08739912675452
 31
0.0
100
AcDbAttribute
  2
AUTOATTR0
 70
     0
 74
     1
  0
SEQEND
  5
CE
330
CC
100
AcDbEntity
  8
0
  6
Continuous
 62
     7
  0
HATCH
  5
CF
330
1F
100
AcDbEntity
  8
중심선
100
AcDbHatch
 10
0.0
 20
0.0
 30
0.0
210
0.0
220
0.0
230
1.0
  2
SOLID
 70
     1
 71
     0
 91
        1
 92
        0
 93
        4
 72
     1
 10
-17.22453438368504
 20
-35.7989250712761
 11
-20.67080962752232
 21
-35.7989250712761
 72
     1
 10
-20.67080962752232
 20
-35.7989250712761
 11
-22.79903948672635
 21
-38.3352506518487
 72
     1
 10
-22.79903948672635
 20
-38.3352506518487
 11
-19.35273115777591
 21
-38.33521122254621
 72
     1
 10
-19.35273115777591
 20
-38.33521122254621
 11
-17.22453438368504
 21
-35.7989250712761
 97
        0
 75
     0
 76
     1
 98
        1
 10
0.0
 20
0.0
  0
HATCH
  5
D0
330
1F
100
AcDbEntity
  8
중심선
100
AcDbHatch
 10
0.0
 20
0.0
 30
0.0
210
0.0
220
0.0
230
1.0
  2
SOLID
 70
     1
 71
     0
 91
        1
 92
        0
 93
        4
 72
     1
 10
-12.21177039264909
 20
-35.7989250712761
 11
-15.65804563648637
 21
-35.7989250712761
 72
     1
 10
-15.65804563648637
 20
-35.7989250712761
 11
-20.18918364484376
 21
-41.19892507127612
 72
     1
 10
-20.18918364484376
 20
-41.19892507127612
 11
-16.74290840100648
 21
-41.19892507127612
 72
     1
 10
-16.74290840100648
 20
-41.19892507127612
 11
-12.21177039264909
 21
-35.7989250712761
 97
        0
 75
     0
 76
     1
 98
        1
 10
0.0
 20
0.0
  0
HATCH
  5
D1
330
1F
100
AcDbEntity
  8
중심선
100
AcDbHatch
 10
0.0
 20
0.0
 30
0.0
210
0.0
220
0.0
230
1.0
  2
SOLID
 70
     1
 71
     0
 91
        1
 92
        0
 93
        4
 72
     1
 10
-7.199006401613195
 20
-35.79892507127613
 11
-10.64528164545031
 21
-35.7989250712761
 72
     1
 10
-10.64528164545031
 20
-35.7989250712761
 11
-17.69371854733956
 21
-44.19892507127612
 72
     1
 10
-17.69371854733956
 20
-44.19892507127612
 11
-14.24744330350228
 21
-44.19892507127612
 72
     1
 10
-14.24744330350228
 20
-44.19892507127612
 11
-7.199006401613195
 21
-35.79892507127613
 97
        0
 75
     0
 76
     1
 98
        1
 10
0.0
 20
0.0
  0
HATCH
  5
D2
330
1F
100
AcDbEntity
  8
중심선
100
AcDbHatch
 10
0.0
 20
0.0
 30
0.0
210
0.0
220
0.0
230
1.0
  2
SOLID
 70
     1
 71
     0
 91
        1
 92
        0
 93
        6
 72
     3
 10
-2.399115970600996
 20
-39.99892507132738
 11
3.960054785062284
 21
1.540850780301639E-10
 40
0.3939339440162633
 50
17.09539180608433
 51
320.0019657685079
 73
     0
 72
     1
 10
-0.7161163149004002
 20
-38.58681907591441
 11
1.589185558800638
 21
-36.65249236586649
 72
     3
 10
-2.399115970653842
 20
-39.99892507127625
 11
6.600054785286829
 21
-1.249000902703301E-13
 40
0.6363583540795982
 50
39.99873849337408
 51
368.4976242363725
 73
     1
 72
     1
 10
4.026216521246767
 20
-39.03892507120613
 11
-3.71904866381792
 21
-39.0389250712061
 72
     1
 10
-3.71904866381792
 20
-39.0389250712061
 11
-3.719073708263854
 21
-40.95892507120602
 72
     1
 10
-3.719073708263854
 20
-40.95892507120602
 11
0.7223060612081831
 21
-40.95892507120599
 97
        0
 75
     0
 76
     1
 98
        1
 10
0.0
 20
0.0
  0
DIMENSION
  5
D3
330
1F
100
AcDbEntity
  8
치수문자_일반주서
100
AcDbDimension
  2
_D
 10
72.0429381959132
 20
6.005493561175497
 30
0.0
 11
72.04293819591315
 21
19.4532435611755
 31
0.0
 70
   160
  1
%%c<>
 71
     2
 42
12.0
 52
-270.0
  3
SLDDIMSTYLE0
100
AcDbAlignedDimension
 13
54.99999999999995
 23
-5.994506438824565
 33
0.0
 14
54.99999999999999
 24
6.005493561175433
 34
0.0
 50
90.0000000000002
100
AcDbRotatedDimension
  0
DIMENSION
  5
E1
330
1F
100
AcDbEntity
  8
치수문자_일반주서
100
AcDbDimension
  2
_D_1
 10
55.0
 20
26.79390400141795
 30
0.0
 11
-10.0
 21
26.79390400141795
 31
0.0
 70
   160
  1
<>
 71
     2
 42
130.0
  3
SLDDIMSTYLE1
100
AcDbAlignedDimension
 13
-75.0
 23
5.005493561175258
 33
0.0
 14
54.99999999999999
 24
6.005493561175433
 34
0.0
 50
-0.0000000000000031
100
AcDbRotatedDimension
  0
DIMENSION
  5
EC
330
1F
100
AcDbEntity
  8
치수문자_일반주서
100
AcDbDimension
  2
_D_2
 10
54.99999999999999
 20
17.80593778903829
 30
0.0
 11
32.49999999999999
 21
17.80593778903829
 31
0.0
 70
   160
  1
<>
 71
     2
 42
44.99999999999999
  3
SLDDIMSTYLE1
100
AcDbAlignedDimension
 13
10.0
 23
4.458939982870771
 33
0.0
 14
54.99999999999999
 24
6.005493561175433
 34
0.0
100
AcDbRotatedDimension
  0
DIMENSION
  5
F6
330
1F
100
AcDbEntity
  8
치수문자_일반주서
100
AcDbDimension
  2
_D_3
 10
-85.9998770571881
 20
-5.994506438824779
 30
0.0
 11
-85.99987705718819
 21
16.54699356117521
 31
0.0
 70
   160
  1
%%c<>
 71
     2
 42
11.99999999999999
 52
-270.0
  3
SLDDIMSTYLE0
100
AcDbAlignedDimension
 13
-74.0
 23
6.005493561175257
 33
0.0
 14
-74.0
 24
-5.994506438824732
 34
0.0
 50
90.0000000000002
100
AcDbRotatedDimension
  0
INSERT
  5
109
330
1F
100
AcDbEntity
  8
외형선
100
AcDbBlockReference
  2
SW_DOWELSYMBOL_0
 10
0.0000000000000104
 20
0.0
 30
0.0
  0
ENDSEC
  0
SECTION
  2
OBJECTS
  0
DICTIONARY
  5
C
330
0
100
AcDbDictionary
281
     1
  3
ACAD_GROUP
350
D
  3
ACAD_IMAGE_VARS
350
12D
  3
ACAD_LAYOUT
350
1A
  3
ACAD_MLINESTYLE
350
17
  3
ACAD_PLOTSETTINGS
350
19
  3
ACAD_PLOTSTYLENAME
350
E
  3
ACAD_SCALELIST
350
47
  3
APPDATA
350
12B
  3
DWGPROPS
350
13B
  0
DICTIONARY
  5
D
102
{ACAD_REACTORS
330
C
102
}
330
C
100
AcDbDictionary
281
     1
  0
RASTERVARIABLES
  5
12D
102
{ACAD_REACTORS
330
C
102
}
330
C
100
AcDbRasterVariables
 90
        0
 70
     1
 71
     1
 72
     1
  0
DICTIONARY
  5
1A
102
{ACAD_REACTORS
330
C
102
}
330
C
100
AcDbDictionary
281
     1
  3
Layout1
350
1E
  3
Layout2
350
26
  3
Model
350
22
  0
DICTIONARY
  5
17
102
{ACAD_REACTORS
330
C
102
}
330
C
100
AcDbDictionary
281
     1
  3
Standard
350
18
  0
DICTIONARY
  5
19
102
{ACAD_REACTORS
330
C
102
}
330
C
100
AcDbDictionary
281
     1
  0
ACDBDICTIONARYWDFLT
  5
E
102
{ACAD_REACTORS
330
C
102
}
330
C
100
AcDbDictionary
281
     1
  3
Normal
350
F
100
AcDbDictionaryWithDefault
340
F
  0
DICTIONARY
  5
47
102
{ACAD_REACTORS
330
C
102
}
330
C
100
AcDbDictionary
281
     1
  3
A0
350
48
  3
A1
350
49
  3
A2
350
4A
  3
A3
350
4B
  3
A4
350
4C
  3
A5
350
4D
  3
A6
350
4E
  3
A7
350
4F
  3
A8
350
50
  3
A9
350
51
  3
B0
350
52
  3
B1
350
53
  3
B2
350
54
  3
B3
350
55
  3
B4
350
56
  3
B5
350
57
  3
B6
350
58
  3
B7
350
59
  3
B8
350
5A
  3
B9
350
5B
  3
C0
350
5C
  3
C1
350
5D
  3
C2
350
5E
  3
C3
350
5F
  3
C4
350
60
  3
C5
350
61
  3
C6
350
62
  3
C7
350
63
  3
C8
350
64
  3
C9
350
65
  3
D0
350
66
  3
D1
350
67
  3
D2
350
68
  0
DICTIONARY
  5
12B
102
{ACAD_REACTORS
330
C
102
}
330
C
100
AcDbDictionary
281
     1
  0
XRECORD
  5
13B
102
{ACAD_REACTORS
330
C
102
}
330
C
100
AcDbXrecord
280
     1
  1
DWGPROPS COOKIE
  2

  3

  4

  6

  7

  8
12014102
  9

300
=
301
=
302
=
303
=
304
=
305
=
306
=
307
=
308
=
309
=
 40
0.0
 41
2458262.172737048
 42
2458266.116614317
  1

 90
        0
  0
LAYOUT
  5
1E
102
{ACAD_REACTORS
330
1A
102
}
330
1A
100
AcDbPlotSettings
  1

  2
none_device
  4

  6

 40
0.0
 41
0.0
 42
0.0
 43
0.0
 44
0.0
 45
0.0
 46
0.0
 47
0.0
 48
0.0
 49
0.0
140
0.0
141
0.0
142
1.0
143
1.0
 70
   688
 72
     1
 73
     0
 74
     5
  7

 75
    16
147
1.0
148
0.0
149
0.0
100
AcDbLayout
  1
Layout1
 70
     1
 71
     1
 10
0.0
 20
0.0
 11
420.0
 21
297.0
 12
0.0
 22
0.0
 32
0.0
 14
1.000000000000000E+20
 24
1.000000000000000E+20
 34
1.000000000000000E+20
 15
-1.000000000000000E+20
 25
-1.000000000000000E+20
 35
-1.000000000000000E+20
146
0.0
 13
0.0
 23
0.0
 33
0.0
 16
1.0
 26
0.0
 36
0.0
 17
0.0
 27
1.0
 37
0.0
 76
     0
330
1B
  0
LAYOUT
  5
26
102
{ACAD_REACTORS
330
1A
102
}
330
1A
100
AcDbPlotSettings
  1

  2
none_device
  4

  6

 40
0.0
 41
0.0
 42
0.0
 43
0.0
 44
0.0
 45
0.0
 46
0.0
 47
0.0
 48
0.0
 49
0.0
140
0.0
141
0.0
142
1.0
143
1.0
 70
   688
 72
     1
 73
     0
 74
     5
  7

 75
    16
147
1.0
148
0.0
149
0.0
100
AcDbLayout
  1
Layout2
 70
     1
 71
     2
 10
0.0
 20
0.0
 11
0.0
 21
0.0
 12
0.0
 22
0.0
 32
0.0
 14
0.0
 24
0.0
 34
0.0
 15
0.0
 25
0.0
 35
0.0
146
0.0
 13
0.0
 23
0.0
 33
0.0
 16
1.0
 26
0.0
 36
0.0
 17
0.0
 27
1.0
 37
0.0
 76
     0
330
23
  0
LAYOUT
  5
22
102
{ACAD_REACTORS
330
1A
102
}
330
1A
100
AcDbPlotSettings
  1

  2
none_device
  4
ANSI_A_(11.00_x_8.50_Inches)
  6

 40
6.35
 41
19.05
 42
6.35000508
 43
19.05000254
 44
279.4
 45
215.9
 46
158.0296594169411
 47
107.2822478803341
 48
0.0
 49
0.0
140
0.0
141
0.0
142
0.0745575495764173
143
1.0
 70
  1696
 72
     0
 73
     0
 74
     0
  7

 75
     0
147
0.0235690232323232
148
0.0
149
0.0
100
AcDbLayout
  1
Model
 70
     1
 71
     0
 10
0.0
 20
0.0
 11
420.0
 21
297.0
 12
0.0
 22
0.0
 32
0.0
 14
-90.3748770571882
 24
-49.97073246008785
 34
0.0
 15
72.59327152924658
 25
31.16890400141796
 35
0.0
146
0.0
 13
0.0
 23
0.0
 33
0.0
 16
1.0
 26
0.0
 36
0.0
 17
0.0
 27
1.0
 37
0.0
 76
     0
330
1F
331
29
  0
MLINESTYLE
  5
18
102
{ACAD_REACTORS
330
17
102
}
330
17
100
AcDbMlineStyle
  2
Standard
 70
     0
  3

 62
   256
 51
90.0
 52
90.0
 71
     2
 49
0.5
 62
   256
  6
BYLAYER
 49
-0.5
 62
   256
  6
BYLAYER
  0
ACDBPLACEHOLDER
  5
F
102
{ACAD_REACTORS
330
E
102
}
330
E
  0
SCALE
  5
48
102
{ACAD_REACTORS
330
47
102
}
330
47
100
AcDbScale
 70
     0
300
1:1
140
1.0
141
1.0
290
     1
  0
SCALE
  5
49
102
{ACAD_REACTORS
330
47
102
}
330
47
100
AcDbScale
 70
     0
300
1:2
140
1.0
141
2.0
290
     0
  0
SCALE
  5
4A
102
{ACAD_REACTORS
330
47
102
}
330
47
100
AcDbScale
 70
     0
300
1:4
140
1.0
141
4.0
290
     0
  0
SCALE
  5
4B
102
{ACAD_REACTORS
330
47
102
}
330
47
100
AcDbScale
 70
     0
300
1:5
140
1.0
141
5.0
290
     0
  0
SCALE
  5
4C
102
{ACAD_REACTORS
330
47
102
}
330
47
100
AcDbScale
 70
     0
300
1:8
140
1.0
141
8.0
290
     0
  0
SCALE
  5
4D
102
{ACAD_REACTORS
330
47
102
}
330
47
100
AcDbScale
 70
     0
300
1:10
140
1.0
141
10.0
290
     0
  0
SCALE
  5
4E
102
{ACAD_REACTORS
330
47
102
}
330
47
100
AcDbScale
 70
     0
300
1:16
140
1.0
141
16.0
290
     0
  0
SCALE
  5
4F
102
{ACAD_REACTORS
330
47
102
}
330
47
100
AcDbScale
 70
     0
300
1:20
140
1.0
141
20.0
290
     0
  0
SCALE
  5
50
102
{ACAD_REACTORS
330
47
102
}
330
47
100
AcDbScale
 70
     0
300
1:30
140
1.0
141
30.0
290
     0
  0
SCALE
  5
51
102
{ACAD_REACTORS
330
47
102
}
330
47
100
AcDbScale
 70
     0
300
1:40
140
1.0
141
40.0
290
     0
  0
SCALE
  5
52
102
{ACAD_REACTORS
330
47
102
}
330
47
100
AcDbScale
 70
     0
300
1:50
140
1.0
141
50.0
290
     0
  0
SCALE
  5
53
102
{ACAD_REACTORS
330
47
102
}
330
47
100
AcDbScale
 70
     0
300
1:100
140
1.0
141
100.0
290
     0
  0
SCALE
  5
54
102
{ACAD_REACTORS
330
47
102
}
330
47
100
AcDbScale
 70
     0
300
2:1
140
2.0
141
1.0
290
     0
  0
SCALE
  5
55
102
{ACAD_REACTORS
330
47
102
}
330
47
100
AcDbScale
 70
     0
300
4:1
140
4.0
141
1.0
290
     0
  0
SCALE
  5
56
102
{ACAD_REACTORS
330
47
102
}
330
47
100
AcDbScale
 70
     0
300
8:1
140
8.0
141
1.0
290
     0
  0
SCALE
  5
57
102
{ACAD_REACTORS
330
47
102
}
330
47
100
AcDbScale
 70
     0
300
10:1
140
10.0
141
1.0
290
     0
  0
SCALE
  5
58
102
{ACAD_REACTORS
330
47
102
}
330
47
100
AcDbScale
 70
     0
300
100:1
140
100.0
141
1.0
290
     0
  0
SCALE
  5
59
102
{ACAD_REACTORS
330
47
102
}
330
47
100
AcDbScale
 70
     0
300
1/128" = 1'-0"
140
0.0078125
141
12.0
290
     0
  0
SCALE
  5
5A
102
{ACAD_REACTORS
330
47
102
}
330
47
100
AcDbScale
 70
     0
300
1/64" = 1'-0"
140
0.015625
141
12.0
290
     0
  0
SCALE
  5
5B
102
{ACAD_REACTORS
330
47
102
}
330
47
100
AcDbScale
 70
     0
300
1/32" = 1'-0"
140
0.03125
141
12.0
290
     0
  0
SCALE
  5
5C
102
{ACAD_REACTORS
330
47
102
}
330
47
100
AcDbScale
 70
     0
300
1/16" = 1'-0"
140
0.0625
141
12.0
290
     0
  0
SCALE
  5
5D
102
{ACAD_REACTORS
330
47
102
}
330
47
100
AcDbScale
 70
     0
300
3/32" = 1'-0"
140
0.09375
141
12.0
290
     0
  0
SCALE
  5
5E
102
{ACAD_REACTORS
330
47
102
}
330
47
100
AcDbScale
 70
     0
300
1/8" = 1'-0"
140
0.125
141
12.0
290
     0
  0
SCALE
  5
5F
102
{ACAD_REACTORS
330
47
102
}
330
47
100
AcDbScale
 70
     0
300
3/16" = 1'-0"
140
0.1875
141
12.0
290
     0
  0
SCALE
  5
60
102
{ACAD_REACTORS
330
47
102
}
330
47
100
AcDbScale
 70
     0
300
1/4" = 1'-0"
140
0.25
141
12.0
290
     0
  0
SCALE
  5
61
102
{ACAD_REACTORS
330
47
102
}
330
47
100
AcDbScale
 70
     0
300
3/8" = 1'-0"
140
0.375
141
12.0
290
     0
  0
SCALE
  5
62
102
{ACAD_REACTORS
330
47
102
}
330
47
100
AcDbScale
 70
     0
300
1/2" = 1'-0"
140
0.5
141
12.0
290
     0
  0
SCALE
  5
63
102
{ACAD_REACTORS
330
47
102
}
330
47
100
AcDbScale
 70
     0
300
3/4" = 1'-0"
140
0.75
141
12.0
290
     0
  0
SCALE
  5
64
102
{ACAD_REACTORS
330
47
102
}
330
47
100
AcDbScale
 70
     0
300
1" = 1'-0"
140
1.0
141
12.0
290
     0
  0
SCALE
  5
65
102
{ACAD_REACTORS
330
47
102
}
330
47
100
AcDbScale
 70
     0
300
1-1/2" = 1'-0"
140
1.5
141
12.0
290
     0
  0
SCALE
  5
66
102
{ACAD_REACTORS
330
47
102
}
330
47
100
AcDbScale
 70
     0
300
3" = 1'-0"
140
3.0
141
12.0
290
     0
  0
SCALE
  5
67
102
{ACAD_REACTORS
330
47
102
}
330
47
100
AcDbScale
 70
     0
300
6" = 1'-0"
140
6.0
141
12.0
290
     0
  0
SCALE
  5
68
102
{ACAD_REACTORS
330
47
102
}
330
47
100
AcDbScale
 70
     0
300
1'-0" = 1'-0"
140
12.0
141
12.0
290
     0
  0
ENDSEC
  0
EOF
