  0
SECTION
  2
HEADER
  9
$ACADVER
  1
AC1015
  9
$ACADMAINTVER
 70
     6
  9
$DWGCODEPAGE
  3
ANSI_949
  9
$INSBASE
 10
0.0
 20
0.0
 30
0.0
  9
$EXTMIN
 10
-106.2218145886232
 20
-49.97073246008785
 30
0.0
  9
$EXTMAX
 10
72.92768859299117
 20
31.16341044024268
 30
0.0
  9
$LIMMIN
 10
0.0
 20
0.0
  9
$LIMMAX
 10
420.0
 20
297.0
  9
$ORTHOMODE
 70
     0
  9
$REGENMODE
 70
     1
  9
$FILLMODE
 70
     1
  9
$QTEXTMODE
 70
     0
  9
$MIRRTEXT
 70
     1
  9
$LTSCALE
 40
1.0
  9
$ATTMODE
 70
     1
  9
$TEXTSIZE
 40
3.5
  9
$TRACEWID
 40
1.0
  9
$TEXTSTYLE
  7
Standard
  9
$CLAYER
  8
0
  9
$CELTYPE
  6
ByLayer
  9
$CECOLOR
 62
   256
  9
$CELTSCALE
 40
1.0
  9
$DISPSILH
 70
     0
  9
$DIMSCALE
 40
1.0
  9
$DIMASZ
 40
3.302
  9
$DIMEXO
 40
1.0
  9
$DIMDLI
 40
3.75
  9
$DIMRND
 40
0.0
  9
$DIMDLE
 40
0.0
  9
$DIMEXE
 40
1.0
  9
$DIMTP
 40
0.0
  9
$DIMTM
 40
0.0
  9
$DIMTXT
 40
3.5
  9
$DIMCEN
 40
2.5
  9
$DIMTSZ
 40
0.0
  9
$DIMTOL
 70
     0
  9
$DIMLIM
 70
     0
  9
$DIMTIH
 70
     1
  9
$DIMTOH
 70
     1
  9
$DIMSE1
 70
     0
  9
$DIMSE2
 70
     0
  9
$DIMTAD
 70
     1
  9
$DIMZIN
 70
     0
  9
$DIMBLK
  1

  9
$DIMASO
 70
     1
  9
$DIMSHO
 70
     1
  9
$DIMPOST
  1

  9
$DIMAPOST
  1

  9
$DIMALT
 70
     0
  9
$DIMALTD
 70
     3
  9
$DIMALTF
 40
0.0393700787401575
  9
$DIMLFAC
 40
1.0
  9
$DIMTOFL
 70
     1
  9
$DIMTVP
 40
0.0
  9
$DIMTIX
 70
     0
  9
$DIMSOXD
 70
     0
  9
$DIMSAH
 70
     0
  9
$DIMBLK1
  1

  9
$DIMBLK2
  1

  9
$DIMSTYLE
  2
ISO-25
  9
$DIMCLRD
 70
     0
  9
$DIMCLRE
 70
     0
  9
$DIMCLRT
 70
     0
  9
$DIMTFAC
 40
1.0
  9
$DIMGAP
 40
1.524
  9
$DIMJUST
 70
     0
  9
$DIMSD1
 70
     0
  9
$DIMSD2
 70
     0
  9
$DIMTOLJ
 70
     0
  9
$DIMTZIN
 70
     0
  9
$DIMALTZ
 70
     0
  9
$DIMALTTZ
 70
     0
  9
$DIMUPT
 70
     0
  9
$DIMDEC
 70
     2
  9
$DIMTDEC
 70
     2
  9
$DIMALTU
 70
     2
  9
$DIMALTTD
 70
     3
  9
$DIMTXSTY
  7
Standard
  9
$DIMAUNIT
 70
     0
  9
$DIMADEC
 70
     2
  9
$DIMALTRND
 40
0.0
  9
$DIMAZIN
 70
     0
  9
$DIMDSEP
 70
    44
  9
$DIMATFIT
 70
     3
  9
$DIMFRAC
 70
     0
  9
$DIMLDRBLK
  1

  9
$DIMLUNIT
 70
     2
  9
$DIMLWD
 70
    -2
  9
$DIMLWE
 70
    -2
  9
$DIMTMOVE
 70
     0
  9
$LUNITS
 70
     2
  9
$LUPREC
 70
     2
  9
$SKETCHINC
 40
1.0
  9
$FILLETRAD
 40
10.0
  9
$AUNITS
 70
     0
  9
$AUPREC
 70
     2
  9
$MENU
  1
.
  9
$ELEVATION
 40
0.0
  9
$PELEVATION
 40
0.0
  9
$THICKNESS
 40
0.0
  9
$LIMCHECK
 70
     0
  9
$CHAMFERA
 40
0.0
  9
$CHAMFERB
 40
0.0
  9
$CHAMFERC
 40
0.0
  9
$CHAMFERD
 40
0.0
  9
$SKPOLY
 70
     0
  9
$TDCREATE
 40
2458262.547924607
  9
$TDUCREATE
 40
2458262.172924607
  9
$TDUPDATE
 40
2458266.683851921
  9
$TDUUPDATE
 40
2458266.308851921
  9
$TDINDWG
 40
0.0012492245
  9
$TDUSRTIMER
 40
2458266.307602755
  9
$USRTIMER
 70
     1
  9
$ANGBASE
 50
0.0
  9
$ANGDIR
 70
     0
  9
$PDMODE
 70
     0
  9
$PDSIZE
 40
-1.0
  9
$PLINEWID
 40
0.0
  9
$SPLFRAME
 70
     0
  9
$SPLINETYPE
 70
     6
  9
$SPLINESEGS
 70
     8
  9
$HANDSEED
  5
141
  9
$SURFTAB1
 70
     6
  9
$SURFTAB2
 70
     6
  9
$SURFTYPE
 70
     6
  9
$SURFU
 70
     6
  9
$SURFV
 70
     6
  9
$UCSBASE
  2

  9
$UCSNAME
  2

  9
$UCSORG
 10
0.0
 20
0.0
 30
0.0
  9
$UCSXDIR
 10
1.0
 20
0.0
 30
0.0
  9
$UCSYDIR
 10
0.0
 20
1.0
 30
0.0
  9
$UCSORTHOREF
  2

  9
$UCSORTHOVIEW
 70
     0
  9
$UCSORGTOP
 10
0.0
 20
0.0
 30
0.0
  9
$UCSORGBOTTOM
 10
0.0
 20
0.0
 30
0.0
  9
$UCSORGLEFT
 10
0.0
 20
0.0
 30
0.0
  9
$UCSORGRIGHT
 10
0.0
 20
0.0
 30
0.0
  9
$UCSORGFRONT
 10
0.0
 20
0.0
 30
0.0
  9
$UCSORGBACK
 10
0.0
 20
0.0
 30
0.0
  9
$PUCSBASE
  2

  9
$PUCSNAME
  2

  9
$PUCSORG
 10
0.0
 20
0.0
 30
0.0
  9
$PUCSXDIR
 10
1.0
 20
0.0
 30
0.0
  9
$PUCSYDIR
 10
0.0
 20
1.0
 30
0.0
  9
$PUCSORTHOREF
  2

  9
$PUCSORTHOVIEW
 70
     0
  9
$PUCSORGTOP
 10
0.0
 20
0.0
 30
0.0
  9
$PUCSORGBOTTOM
 10
0.0
 20
0.0
 30
0.0
  9
$PUCSORGLEFT
 10
0.0
 20
0.0
 30
0.0
  9
$PUCSORGRIGHT
 10
0.0
 20
0.0
 30
0.0
  9
$PUCSORGFRONT
 10
0.0
 20
0.0
 30
0.0
  9
$PUCSORGBACK
 10
0.0
 20
0.0
 30
0.0
  9
$USERI1
 70
     0
  9
$USERI2
 70
     0
  9
$USERI3
 70
     0
  9
$USERI4
 70
     0
  9
$USERI5
 70
     0
  9
$USERR1
 40
0.0
  9
$USERR2
 40
0.0
  9
$USERR3
 40
0.0
  9
$USERR4
 40
0.0
  9
$USERR5
 40
0.0
  9
$WORLDVIEW
 70
     1
  9
$SHADEDGE
 70
     3
  9
$SHADEDIF
 70
    70
  9
$TILEMODE
 70
     1
  9
$MAXACTVP
 70
    64
  9
$PINSBASE
 10
0.0
 20
0.0
 30
0.0
  9
$PLIMCHECK
 70
     0
  9
$PEXTMIN
 10
1.000000000000000E+20
 20
1.000000000000000E+20
 30
1.000000000000000E+20
  9
$PEXTMAX
 10
-1.000000000000000E+20
 20
-1.000000000000000E+20
 30
-1.000000000000000E+20
  9
$PLIMMIN
 10
0.0
 20
0.0
  9
$PLIMMAX
 10
0.0
 20
0.0
  9
$UNITMODE
 70
     0
  9
$VISRETAIN
 70
     1
  9
$PLINEGEN
 70
     0
  9
$PSLTSCALE
 70
     1
  9
$TREEDEPTH
 70
  3020
  9
$CMLSTYLE
  2
Standard
  9
$CMLJUST
 70
     0
  9
$CMLSCALE
 40
20.0
  9
$PROXYGRAPHICS
 70
     1
  9
$MEASUREMENT
 70
     1
  9
$CELWEIGHT
370
    -1
  9
$ENDCAPS
280
     0
  9
$JOINSTYLE
280
     0
  9
$LWDISPLAY
290
     1
  9
$INSUNITS
 70
     4
  9
$HYPERLINKBASE
  1

  9
$STYLESHEET
  1

  9
$XEDIT
290
     1
  9
$CEPSNTYPE
380
     0
  9
$PSTYLEMODE
290
     1
  9
$FINGERPRINTGUID
  2
{93D7EDE6-A25C-42A7-9003-9A713640A5B3}
  9
$VERSIONGUID
  2
{FAEB1C32-E019-11D5-929B-00C0DF256EC4}
  9
$EXTNAMES
290
     1
  9
$PSVPSCALE
 40
0.0
  9
$OLESTARTUP
290
     0
  0
ENDSEC
  0
SECTION
  2
CLASSES
  0
CLASS
  1
ACDBDICTIONARYWDFLT
  2
AcDbDictionaryWithDefault
  3
ObjectDBX Classes
 90
        0
280
     0
281
     0
  0
CLASS
  1
VISUALSTYLE
  2
AcDbVisualStyle
  3
ObjectDBX Classes
 90
     4095
280
     0
281
     0
  0
CLASS
  1
MATERIAL
  2
AcDbMaterial
  3
ObjectDBX Classes
 90
     1153
280
     0
281
     0
  0
CLASS
  1
SCALE
  2
AcDbScale
  3
ObjectDBX Classes
 90
     1153
280
     0
281
     0
  0
CLASS
  1
SUN
  2
AcDbSun
  3
SCENEOE
 90
     1153
280
     0
281
     0
  0
CLASS
  1
ACDBPLACEHOLDER
  2
AcDbPlaceHolder
  3
ObjectDBX Classes
 90
        0
280
     0
281
     0
  0
CLASS
  1
LAYOUT
  2
AcDbLayout
  3
ObjectDBX Classes
 90
        0
280
     0
281
     0
  0
CLASS
  1
TABLESTYLE
  2
AcDbTableStyle
  3
ObjectDBX Classes
 90
     4095
280
     0
281
     0
  0
CLASS
  1
MLEADERSTYLE
  2
AcDbMLeaderStyle
  3
ACDB_MLEADERSTYLE_CLASS
 90
     4095
280
     0
281
     0
  0
CLASS
  1
RASTERVARIABLES
  2
AcDbRasterVariables
  3
ISM
 90
        0
280
     0
281
     0
  0
ENDSEC
  0
SECTION
  2
TABLES
  0
TABLE
  2
VPORT
  5
8
330
0
100
AcDbSymbolTable
 70
     1
  0
VPORT
  5
29
330
8
100
AcDbSymbolTableRecord
100
AcDbViewportTableRecord
  2
*Active
 70
     0
 10
0.0
 20
0.0
 11
1.0
 21
1.0
 12
-16.64706299781599
 22
-9.40366100992258
 13
0.0
 23
0.0
 14
10.0
 24
10.0
 15
10.0
 25
10.0
 16
0.0
 26
0.0
 36
1.0
 17
0.0
 27
0.0
 37
0.0
 40
158.559360730741
 41
1.152454780361757
 42
50.0
 43
0.0
 44
0.0
 50
0.0
 51
0.0
 71
    16
 72
  2000
 73
     1
 74
     3
 75
     0
 76
     0
 77
     0
 78
     0
281
     0
 65
     1
110
0.0
120
0.0
130
0.0
111
1.0
121
0.0
131
0.0
112
0.0
122
1.0
132
0.0
 79
     0
146
0.0
  0
ENDTAB
  0
TABLE
  2
LTYPE
  5
5
330
0
100
AcDbSymbolTable
 70
     6
  0
LTYPE
  5
14
330
5
100
AcDbSymbolTableRecord
100
AcDbLinetypeTableRecord
  2
ByBlock
 70
     0
  3

 72
    65
 73
     0
 40
0.0
  0
LTYPE
  5
15
330
5
100
AcDbSymbolTableRecord
100
AcDbLinetypeTableRecord
  2
ByLayer
 70
     0
  3

 72
    65
 73
     0
 40
0.0
  0
LTYPE
  5
16
330
5
100
AcDbSymbolTableRecord
100
AcDbLinetypeTableRecord
  2
Continuous
 70
     0
  3
Solid line
 72
    65
 73
     0
 40
0.0
  0
LTYPE
  5
6A
330
5
100
AcDbSymbolTableRecord
100
AcDbLinetypeTableRecord
  2
HIDDEN
 70
     0
  3
Hidden __ __ __ __ __ __ __ __ __ __ __ __ __ __
 72
    65
 73
     2
 40
1.905
 49
1.27
 74
     0
 49
-0.635
 74
     0
  0
LTYPE
  5
6B
330
5
100
AcDbSymbolTableRecord
100
AcDbLinetypeTableRecord
  2
PHANTOM
 70
     0
  3
Phantom ______  __  __  ______  __  __  ______
 72
    65
 73
     6
 40
12.7
 49
6.35
 74
     0
 49
-1.27
 74
     0
 49
1.27
 74
     0
 49
-1.27
 74
     0
 49
1.27
 74
     0
 49
-1.27
 74
     0
  0
LTYPE
  5
6C
330
5
100
AcDbSymbolTableRecord
100
AcDbLinetypeTableRecord
  2
CENTER
 70
     0
  3
Center ____ _ ____ _ ____ _ ____ _ ____ _ ____
 72
    65
 73
     4
 40
10.16
 49
6.35
 74
     0
 49
-1.27
 74
     0
 49
1.27
 74
     0
 49
-1.27
 74
     0
  0
LTYPE
  5
6D
330
5
100
AcDbSymbolTableRecord
100
AcDbLinetypeTableRecord
  2
CENTERX2
 70
     0
  3
Center (2x) ________  __  ________  __  _____
 72
    65
 73
     4
 40
20.32
 49
12.7
 74
     0
 49
-2.54
 74
     0
 49
2.54
 74
     0
 49
-2.54
 74
     0
  0
LTYPE
  5
6E
330
5
100
AcDbSymbolTableRecord
100
AcDbLinetypeTableRecord
  2
DOT2
 70
     0
  3
Dot (.5x) ........................................
 72
    65
 73
     2
 40
0.635
 49
0.0
 74
     0
 49
-0.635
 74
     0
  0
ENDTAB
  0
TABLE
  2
LAYER
  5
2
330
0
100
AcDbSymbolTable
 70
    17
  0
LAYER
  5
10
330
2
100
AcDbSymbolTableRecord
100
AcDbLayerTableRecord
  2
0
 70
     0
 62
     7
  6
Continuous
370
    -3
390
F
  0
LAYER
  5
6F
330
2
100
AcDbSymbolTableRecord
100
AcDbLayerTableRecord
  2
FORMAT
 70
     0
 62
     2
  6
Continuous
370
    -3
390
F
  0
LAYER
  5
70
330
2
100
AcDbSymbolTableRecord
100
AcDbLayerTableRecord
  2
외형선
 70
     0
 62
   100
  6
Continuous
370
    30
390
F
  0
LAYER
  5
71
330
2
100
AcDbSymbolTableRecord
100
AcDbLayerTableRecord
  2
숨은선
 70
     0
 62
     2
  6
HIDDEN
370
    15
390
F
  0
LAYER
  5
72
330
2
100
AcDbSymbolTableRecord
100
AcDbLayerTableRecord
  2
중심선
 70
     0
 62
     1
  6
CENTERX2
370
    -3
390
F
  0
LAYER
  5
73
330
2
100
AcDbSymbolTableRecord
100
AcDbLayerTableRecord
  2
파단선
 70
     0
 62
     4
  6
Continuous
370
    -3
390
F
  0
LAYER
  5
74
330
2
100
AcDbSymbolTableRecord
100
AcDbLayerTableRecord
  2
해칭선
 70
     0
 62
     4
  6
Continuous
370
    -3
390
F
  0
LAYER
  5
75
330
2
100
AcDbSymbolTableRecord
100
AcDbLayerTableRecord
  2
가는실선
 70
     0
 62
     4
  6
Continuous
370
    -3
390
F
  0
LAYER
  5
76
330
2
100
AcDbSymbolTableRecord
100
AcDbLayerTableRecord
  2
치수_보조선
 70
     0
 62
     4
  6
Continuous
370
    -3
390
F
  0
LAYER
  5
77
330
2
100
AcDbSymbolTableRecord
100
AcDbLayerTableRecord
  2
치수문자_일반주서
 70
     0
 62
     7
  6
Continuous
370
    15
390
F
  0
LAYER
  5
78
330
2
100
AcDbSymbolTableRecord
100
AcDbLayerTableRecord
  2
개별주서
 70
     0
 62
   100
  6
Continuous
370
    30
390
F
  0
LAYER
  5
79
330
2
100
AcDbSymbolTableRecord
100
AcDbLayerTableRecord
  2
중간선
 70
     0
 62
     2
  6
Continuous
370
    15
390
F
  0
LAYER
  5
7A
330
2
100
AcDbSymbolTableRecord
100
AcDbLayerTableRecord
  2
윤곽선
 70
     0
 62
     3
  6
Continuous
370
    40
390
F
  0
LAYER
  5
7B
330
2
100
AcDbSymbolTableRecord
100
AcDbLayerTableRecord
  2
중심마크
 70
     0
 62
   100
  6
Continuous
370
    30
390
F
  0
LAYER
  5
7C
330
2
100
AcDbSymbolTableRecord
100
AcDbLayerTableRecord
  2
가상선
 70
     0
 62
     4
  6
PHANTOM
370
    -3
390
F
  0
LAYER
  5
7D
330
2
100
AcDbSymbolTableRecord
100
AcDbLayerTableRecord
  2
특수지정선
 70
     0
 62
     5
  6
CENTERX2
370
    60
390
F
  0
LAYER
  5
132
330
2
100
AcDbSymbolTableRecord
100
AcDbLayerTableRecord
  2
Defpoints
 70
     0
 62
     7
  6
Continuous
290
     0
370
    -3
390
F
  0
ENDTAB
  0
TABLE
  2
STYLE
  5
3
330
0
100
AcDbSymbolTable
 70
     2
  0
STYLE
  5
11
330
3
100
AcDbSymbolTableRecord
100
AcDbTextStyleTableRecord
  2
Standard
 70
     0
 40
0.0
 41
1.0
 50
0.0
 71
     0
 42
3.5
  3
txt
  4

  0
STYLE
  5
93
330
3
100
AcDbSymbolTableRecord
100
AcDbTextStyleTableRecord
  2
SLDTEXTSTYLE0
 70
     0
 40
0.0
 41
0.75
 50
0.0
 71
     0
 42
3.5
  3
TXT
  4

  0
ENDTAB
  0
TABLE
  2
VIEW
  5
6
330
0
100
AcDbSymbolTable
 70
     0
  0
ENDTAB
  0
TABLE
  2
UCS
  5
7
330
0
100
AcDbSymbolTable
 70
     0
  0
ENDTAB
  0
TABLE
  2
APPID
  5
9
330
0
100
AcDbSymbolTable
 70
     1
  0
APPID
  5
12
330
9
100
AcDbSymbolTableRecord
100
AcDbRegAppTableRecord
  2
ACAD
 70
     0
  0
ENDTAB
  0
TABLE
  2
DIMSTYLE
  5
A
330
0
100
AcDbSymbolTable
 70
     3
100
AcDbDimStyleTable
  0
DIMSTYLE
105
27
330
A
100
AcDbSymbolTableRecord
100
AcDbDimStyleTableRecord
  2
ISO-25
 70
     0
 41
2.5
 42
0.625
 43
3.75
 44
1.25
 73
     0
 74
     0
 77
     1
 78
     8
140
2.5
141
2.5
143
0.03937007874016
147
0.625
171
     3
172
     1
178
     0
271
     2
272
     2
274
     3
278
    44
283
     0
284
     8
340
11
  0
DIMSTYLE
105
D8
102
{ACAD_REACTORS
330
D7
330
FA
102
}
330
A
100
AcDbSymbolTableRecord
100
AcDbDimStyleTableRecord
  2
SLDDIMSTYLE0
 70
     0
 41
3.302
 44
0.0
 45
0.000000001
 73
     0
 74
     0
 77
     1
 78
    12
 79
     3
140
3.5
147
0.875
172
     1
173
     1
178
     0
271
     2
272
     2
276
     2
284
    12
289
     0
340
93
  0
DIMSTYLE
105
E6
102
{ACAD_REACTORS
330
E5
330
F0
102
}
330
A
100
AcDbSymbolTableRecord
100
AcDbDimStyleTableRecord
  2
SLDDIMSTYLE1
 70
     0
 41
3.302
 44
0.0
 45
0.000000001
 73
     0
 74
     0
 77
     1
 78
    12
 79
     3
140
3.5
147
0.875
173
     1
178
     0
271
     2
272
     2
276
     2
284
    12
340
93
  0
ENDTAB
  0
TABLE
  2
BLOCK_RECORD
  5
1
330
0
100
AcDbSymbolTable
 70
     7
  0
BLOCK_RECORD
  5
1F
330
1
100
AcDbSymbolTableRecord
100
AcDbBlockTableRecord
  2
*Model_Space
340
22
  0
BLOCK_RECORD
  5
1B
330
1
100
AcDbSymbolTableRecord
100
AcDbBlockTableRecord
  2
*Paper_Space
340
1E
  0
BLOCK_RECORD
  5
23
330
1
100
AcDbSymbolTableRecord
100
AcDbBlockTableRecord
  2
*Paper_Space0
340
26
  0
BLOCK_RECORD
  5
7E
330
1
100
AcDbSymbolTableRecord
100
AcDbBlockTableRecord
  2
블럭10
340
0
102
{BLKREFS
331
D0
102
}
  0
BLOCK_RECORD
  5
D9
330
1
100
AcDbSymbolTableRecord
100
AcDbBlockTableRecord
  2
_D
340
0
  0
BLOCK_RECORD
  5
E7
330
1
100
AcDbSymbolTableRecord
100
AcDbBlockTableRecord
  2
_D_1
340
0
  0
BLOCK_RECORD
  5
F1
330
1
100
AcDbSymbolTableRecord
100
AcDbBlockTableRecord
  2
_D_2
340
0
  0
BLOCK_RECORD
  5
FB
330
1
100
AcDbSymbolTableRecord
100
AcDbBlockTableRecord
  2
_D_3
340
0
  0
BLOCK_RECORD
  5
107
330
1
100
AcDbSymbolTableRecord
100
AcDbBlockTableRecord
  2
SW_DOWELSYMBOL_0
340
0
102
{BLKREFS
331
10D
102
}
  0
ENDTAB
  0
ENDSEC
  0
SECTION
  2
BLOCKS
  0
BLOCK
  5
20
330
1F
100
AcDbEntity
  8
0
100
AcDbBlockBegin
  2
*Model_Space
 70
     0
 10
0.0
 20
0.0
 30
0.0
  3
*Model_Space
  1

  0
ENDBLK
  5
21
330
1F
100
AcDbEntity
  8
0
100
AcDbBlockEnd
  0
BLOCK
  5
1C
330
1B
100
AcDbEntity
 67
     1
  8
0
100
AcDbBlockBegin
  2
*Paper_Space
 70
     0
 10
0.0
 20
0.0
 30
0.0
  3
*Paper_Space
  1

  0
ENDBLK
  5
1D
330
1B
100
AcDbEntity
 67
     1
  8
0
100
AcDbBlockEnd
  0
BLOCK
  5
24
330
23
100
AcDbEntity
  8
0
100
AcDbBlockBegin
  2
*Paper_Space0
 70
     0
 10
0.0
 20
0.0
 30
0.0
  3
*Paper_Space0
  1

  0
ENDBLK
  5
25
330
23
100
AcDbEntity
  8
0
100
AcDbBlockEnd
  0
BLOCK
  5
7F
330
7E
100
AcDbEntity
  8
0
100
AcDbBlockBegin
  2
블럭10
 70
     2
 10
0.0
 20
0.0
 30
0.0
  3
블럭10
  1

  0
ELLIPSE
  5
81
330
7E
100
AcDbEntity
  8
중심선
100
AcDbEllipse
 10
20.54032771741204
 20
12.0471743016438
 30
0.0
 11
6.600054785286829
 21
-1.261213355974178E-13
 31
0.0
210
0.0
220
0.0
230
1.0
 40
0.636358354079598
 41
0.9219305317359503
 42
6.513795318482858
  0
ELLIPSE
  5
82
330
7E
100
AcDbEntity
  8
중심선
100
AcDbEllipse
 10
20.54032771746488
 20
12.04717430159265
 30
0.0
 11
3.960054785062283
 21
1.540847449632565E-10
 31
0.0
210
0.0
220
0.0
230
1.0
 40
0.3939339440162632
 41
1.131841032648279
 42
5.62031148352944
  0
LINE
  5
83
330
7E
100
AcDbEntity
  8
중심선
100
AcDbLine
 10
2.268634060543552
 20
16.24717430164393
 30
0.0
 11
5.714909304380834
 21
16.24717430164393
 31
0.0
  0
LINE
  5
84
330
7E
100
AcDbEntity
  8
중심선
100
AcDbLine
 10
5.245725140726316
 20
7.84717430164391
 30
0.0
 11
8.692000384563599
 21
7.84717430164391
 31
0.0
  0
LINE
  5
85
330
7E
100
AcDbEntity
  8
중심선
100
AcDbLine
 10
15.74043728645272
 20
16.24717430164393
 30
0.0
 11
8.692000384563599
 21
7.84717430164391
 31
0.0
  0
LINE
  5
86
330
7E
100
AcDbEntity
  8
중심선
100
AcDbLine
 10
0.1404042013395286
 20
13.71084872107135
 30
0.0
 11
3.58671253028996
 21
13.71088815037384
 31
0.0
  0
LINE
  5
87
330
7E
100
AcDbEntity
  8
중심선
100
AcDbLine
 10
2.750260043222114
 20
10.84717430164391
 30
0.0
 11
6.196535287059397
 21
10.84717430164391
 31
0.0
  0
LINE
  5
88
330
7E
100
AcDbEntity
  8
중심선
100
AcDbLine
 10
12.29416204261559
 20
16.24717430164393
 30
0.0
 11
5.245725140726316
 21
7.84717430164391
 31
0.0
  0
LINE
  5
89
330
7E
100
AcDbEntity
  8
중심선
100
AcDbLine
 10
10.72767329541681
 20
16.24717430164393
 30
0.0
 11
6.196535287059397
 21
10.84717430164391
 31
0.0
  0
LINE
  5
8A
330
7E
100
AcDbEntity
  8
중심선
100
AcDbLine
 10
7.28139805157953
 20
16.24717430164393
 30
0.0
 11
2.750260043222114
 21
10.84717430164391
 31
0.0
  0
LINE
  5
8B
330
7E
100
AcDbEntity
  8
중심선
100
AcDbLine
 10
5.714909304380834
 20
16.24717430164393
 30
0.0
 11
3.58671253028996
 21
13.71088815037384
 31
0.0
  0
LINE
  5
8C
330
7E
100
AcDbEntity
  8
중심선
100
AcDbLine
 10
2.268634060543552
 20
16.24717430164393
 30
0.0
 11
0.1404042013395286
 21
13.71084872107135
 31
0.0
  0
LINE
  5
8D
330
7E
100
AcDbEntity
  8
중심선
100
AcDbLine
 10
7.28139805157953
 20
16.24717430164393
 30
0.0
 11
10.72767329541681
 21
16.24717430164393
 31
0.0
  0
LINE
  5
8E
330
7E
100
AcDbEntity
  8
중심선
100
AcDbLine
 10
12.29416204261559
 20
16.24717430164393
 30
0.0
 11
15.74043728645272
 21
16.24717430164393
 31
0.0
  0
LINE
  5
8F
330
7E
100
AcDbEntity
  8
중심선
100
AcDbLine
 10
19.22036997980202
 20
11.08717430171403
 30
0.0
 11
23.66174974927406
 21
11.08717430171406
 31
0.0
  0
LINE
  5
90
330
7E
100
AcDbEntity
  8
중심선
100
AcDbLine
 10
19.22039502424796
 20
13.00717430171391
 30
0.0
 11
19.22036997980202
 21
11.08717430171403
 31
0.0
  0
LINE
  5
91
330
7E
100
AcDbEntity
  8
중심선
100
AcDbLine
 10
19.22039502424796
 20
13.00717430171391
 30
0.0
 11
26.96566020931264
 21
13.00717430171391
 31
0.0
  0
LINE
  5
92
330
7E
100
AcDbEntity
  8
중심선
100
AcDbLine
 10
22.22332737316547
 20
13.45928029700563
 30
0.0
 11
24.52862924686651
 21
15.39360700705356
 31
0.0
  0
ATTDEF
  5
94
330
7E
100
AcDbEntity
  8
FORMAT
 62
     2
100
AcDbText
 10
-20.85824753159254
 20
2.075366912832191
 30
0.0
 40
4.233333333333333
  1
SEME7012050150E [ 2 FLUTE ]
 41
0.75
  7
SLDTEXTSTYLE0
 11
-20.85824753159254
 21
-0.0412997538344756
 31
0.0
100
AcDbAttributeDefinition
  3

  2
AUTOATTR0
 70
     0
 74
     1
  0
ENDBLK
  5
80
330
7E
100
AcDbEntity
  8
0
100
AcDbBlockEnd
  0
BLOCK
  5
DA
330
D9
100
AcDbEntity
  8
0
100
AcDbBlockBegin
  2
_D
 70
     0
 10
0.0
 20
0.0
 30
0.0
  3
_D
  1

  0
LINE
  5
DC
330
D9
100
AcDbEntity
  8
치수문자_일반주서
 62
     0
370
    -2
100
AcDbLine
 10
60.06249999999974
 20
-5.999999999999807
 30
0.0
 11
72.37735525965786
 21
-5.999999999999762
 31
0.0
  0
LINE
  5
DD
330
D9
100
AcDbEntity
  8
치수문자_일반주서
 62
     0
370
    -2
100
AcDbLine
 10
60.06249999999974
 20
6.000000000000189
 30
0.0
 11
72.37735525965782
 21
6.000000000000234
 31
0.0
  0
LINE
  5
DE
330
D9
100
AcDbEntity
  8
치수문자_일반주서
 62
     0
370
    -2
100
AcDbLine
 10
72.37735525965786
 20
-5.999999999999762
 30
0.0
 11
72.37735525965776
 21
20.47900000000023
 31
0.0
  0
LINE
  5
DF
330
D9
100
AcDbEntity
  8
치수문자_일반주서
 62
     0
370
    -2
100
AcDbLine
 10
72.37735525965786
 20
-5.999999999999762
 30
0.0
 11
72.37735525965782
 21
6.000000000000234
 31
0.0
  0
LINE
  5
E0
330
D9
100
AcDbEntity
  8
치수문자_일반주서
 62
     0
370
    -2
100
AcDbLine
 10
72.37735525965788
 20
-9.301999999999762
 30
0.0
 11
72.37735525965789
 21
-12.60399999999976
 31
0.0
  0
LINE
  5
E1
330
D9
100
AcDbEntity
  8
치수문자_일반주서
 62
     0
370
    -2
100
AcDbLine
 10
72.3773552596578
 20
9.302000000000234
 30
0.0
 11
72.37735525965779
 21
12.60400000000023
 31
0.0
  0
SOLID
  5
E2
330
D9
100
AcDbEntity
  8
치수문자_일반주서
 62
     0
100
AcDbTrace
 10
72.9276885929912
 20
-9.30199999999976
 30
0.0
 11
71.82702192632455
 21
-9.301999999999763
 31
0.0
 12
72.37735525965786
 22
-5.999999999999762
 32
0.0
 13
72.37735525965786
 23
-5.999999999999762
 33
0.0
  0
SOLID
  5
E3
330
D9
100
AcDbEntity
  8
치수문자_일반주서
 62
     0
100
AcDbTrace
 10
71.82702192632448
 20
9.302000000000232
 30
0.0
 11
72.92768859299113
 21
9.302000000000236
 31
0.0
 12
72.37735525965782
 22
6.000000000000234
 32
0.0
 13
72.37735525965782
 23
6.000000000000234
 33
0.0
  0
MTEXT
  5
E4
330
D9
100
AcDbEntity
  8
치수문자_일반주서
 62
     0
100
AcDbMText
 10
68.00235525965778
 20
16.54150000000022
 30
0.0
 40
3.5
 41
0.0
 71
     2
 72
     1
  1
\A1;%%c12
  7
SLDTEXTSTYLE0
 11
-3.552713678800502E-15
 21
1.0
 31
0.0
 73
     1
 44
1.0
  0
POINT
  5
13C
330
D9
100
AcDbEntity
  8
Defpoints
 62
     0
100
AcDbPoint
 10
59.99999999999974
 20
-5.999999999999807
 30
0.0
  0
POINT
  5
13D
330
D9
100
AcDbEntity
  8
Defpoints
 62
     0
100
AcDbPoint
 10
59.99999999999974
 20
6.000000000000189
 30
0.0
  0
POINT
  5
13E
330
D9
100
AcDbEntity
  8
Defpoints
 62
     0
100
AcDbPoint
 10
72.37735525965782
 20
6.000000000000235
 30
0.0
  0
ENDBLK
  5
DB
330
D9
100
AcDbEntity
  8
0
100
AcDbBlockEnd
  0
BLOCK
  5
E8
330
E7
100
AcDbEntity
  8
0
100
AcDbBlockBegin
  2
_D_1
 70
     0
 10
0.0
 20
0.0
 30
0.0
  3
_D_1
  1

  0
LINE
  5
EA
330
E7
100
AcDbEntity
  8
치수문자_일반주서
 62
     0
370
    -2
100
AcDbLine
 10
-89.99999999999999
 20
5.062499999999992
 30
0.0
 11
-89.99999999999997
 21
26.78841044024269
 31
0.0
  0
LINE
  5
EB
330
E7
100
AcDbEntity
  8
치수문자_일반주서
 62
     0
370
    -2
100
AcDbLine
 10
59.99999999999974
 20
6.062500000000189
 30
0.0
 11
59.99999999999975
 21
26.78841044024269
 31
0.0
  0
LINE
  5
EC
330
E7
100
AcDbEntity
  8
치수문자_일반주서
 62
     0
370
    -2
100
AcDbLine
 10
-86.69799999999998
 20
26.78841044024269
 30
0.0
 11
56.69799999999975
 21
26.78841044024269
 31
0.0
  0
SOLID
  5
ED
330
E7
100
AcDbEntity
  8
치수문자_일반주서
 62
     0
100
AcDbTrace
 10
-86.69799999999998
 20
27.33874377357602
 30
0.0
 11
-86.69799999999998
 21
26.23807710690935
 31
0.0
 12
-89.99999999999997
 22
26.78841044024269
 32
0.0
 13
-89.99999999999997
 23
26.78841044024269
 33
0.0
  0
SOLID
  5
EE
330
E7
100
AcDbEntity
  8
치수문자_일반주서
 62
     0
100
AcDbTrace
 10
56.69799999999975
 20
26.23807710690935
 30
0.0
 11
56.69799999999975
 21
27.33874377357602
 31
0.0
 12
59.99999999999975
 22
26.78841044024269
 32
0.0
 13
59.99999999999975
 23
26.78841044024269
 33
0.0
  0
MTEXT
  5
EF
330
E7
100
AcDbEntity
  8
치수문자_일반주서
 62
     0
100
AcDbMText
 10
-15.00000000000012
 20
31.16341044024269
 30
0.0
 40
3.5
 41
0.0
 71
     2
 72
     1
  1
\A1;150
  7
SLDTEXTSTYLE0
 73
     1
 44
1.0
  0
POINT
  5
133
330
E7
100
AcDbEntity
  8
Defpoints
 62
     0
100
AcDbPoint
 10
-89.99999999999999
 20
4.999999999999992
 30
0.0
  0
POINT
  5
134
330
E7
100
AcDbEntity
  8
Defpoints
 62
     0
100
AcDbPoint
 10
59.99999999999974
 20
6.000000000000189
 30
0.0
  0
POINT
  5
135
330
E7
100
AcDbEntity
  8
Defpoints
 62
     0
100
AcDbPoint
 10
59.99999999999974
 20
26.78841044024269
 30
0.0
  0
ENDBLK
  5
E9
330
E7
100
AcDbEntity
  8
0
100
AcDbBlockEnd
  0
BLOCK
  5
F2
330
F1
100
AcDbEntity
  8
0
100
AcDbBlockBegin
  2
_D_2
 70
     0
 10
0.0
 20
0.0
 30
0.0
  3
_D_2
  1

  0
LINE
  5
F4
330
F1
100
AcDbEntity
  8
치수문자_일반주서
 62
     0
370
    -2
100
AcDbLine
 10
10.00000000000001
 20
4.839070974890642
 30
0.0
 11
10.00000000000001
 21
18.12356878105817
 31
0.0
  0
LINE
  5
F5
330
F1
100
AcDbEntity
  8
치수문자_일반주서
 62
     0
370
    -2
100
AcDbLine
 10
59.99999999999974
 20
6.062500000000189
 30
0.0
 11
59.99999999999973
 21
18.12356878105817
 31
0.0
  0
LINE
  5
F6
330
F1
100
AcDbEntity
  8
치수문자_일반주서
 62
     0
370
    -2
100
AcDbLine
 10
13.30200000000001
 20
18.12356878105817
 30
0.0
 11
56.69799999999973
 21
18.12356878105817
 31
0.0
  0
SOLID
  5
F7
330
F1
100
AcDbEntity
  8
치수문자_일반주서
 62
     0
100
AcDbTrace
 10
13.30200000000001
 20
18.67390211439151
 30
0.0
 11
13.30200000000001
 21
17.57323544772484
 31
0.0
 12
10.00000000000001
 22
18.12356878105817
 32
0.0
 13
10.00000000000001
 23
18.12356878105817
 33
0.0
  0
SOLID
  5
F8
330
F1
100
AcDbEntity
  8
치수문자_일반주서
 62
     0
100
AcDbTrace
 10
56.69799999999973
 20
17.57323544772484
 30
0.0
 11
56.69799999999973
 21
18.67390211439151
 31
0.0
 12
59.99999999999973
 22
18.12356878105817
 32
0.0
 13
59.99999999999973
 23
18.12356878105817
 33
0.0
  0
MTEXT
  5
F9
330
F1
100
AcDbEntity
  8
치수문자_일반주서
 62
     0
100
AcDbMText
 10
35.0
 20
22.49856878105817
 30
0.0
 40
3.5
 41
0.0
 71
     2
 72
     1
  1
\A1;50
  7
SLDTEXTSTYLE0
 73
     1
 44
1.0
  0
POINT
  5
136
330
F1
100
AcDbEntity
  8
Defpoints
 62
     0
100
AcDbPoint
 10
10.00000000000001
 20
4.776570974890642
 30
0.0
  0
POINT
  5
137
330
F1
100
AcDbEntity
  8
Defpoints
 62
     0
100
AcDbPoint
 10
59.99999999999974
 20
6.000000000000189
 30
0.0
  0
POINT
  5
138
330
F1
100
AcDbEntity
  8
Defpoints
 62
     0
100
AcDbPoint
 10
59.99999999999974
 20
18.12356878105817
 30
0.0
  0
ENDBLK
  5
F3
330
F1
100
AcDbEntity
  8
0
100
AcDbBlockEnd
  0
BLOCK
  5
FC
330
FB
100
AcDbEntity
  8
0
100
AcDbBlockBegin
  2
_D_3
 70
     0
 10
0.0
 20
0.0
 30
0.0
  3
_D_3
  1

  0
LINE
  5
FE
330
FB
100
AcDbEntity
  8
치수문자_일반주서
 62
     0
370
    -2
100
AcDbLine
 10
-89.06249999999999
 20
5.999999999999993
 30
0.0
 11
-101.8468145886231
 21
5.999999999999945
 31
0.0
  0
LINE
  5
FF
330
FB
100
AcDbEntity
  8
치수문자_일반주서
 62
     0
370
    -2
100
AcDbLine
 10
-89.06249999999999
 20
-5.999999999999995
 30
0.0
 11
-101.8468145886231
 21
-6.000000000000046
 31
0.0
  0
LINE
  5
100
330
FB
100
AcDbEntity
  8
치수문자_일반주서
 62
     0
370
    -2
100
AcDbLine
 10
-101.8468145886231
 20
5.999999999999945
 30
0.0
 11
-101.8468145886232
 21
20.47899999999995
 31
0.0
  0
LINE
  5
101
330
FB
100
AcDbEntity
  8
치수문자_일반주서
 62
     0
370
    -2
100
AcDbLine
 10
-101.8468145886231
 20
5.999999999999945
 30
0.0
 11
-101.8468145886231
 21
-6.000000000000046
 31
0.0
  0
LINE
  5
102
330
FB
100
AcDbEntity
  8
치수문자_일반주서
 62
     0
370
    -2
100
AcDbLine
 10
-101.8468145886231
 20
9.301999999999945
 30
0.0
 11
-101.8468145886232
 21
12.60399999999994
 31
0.0
  0
LINE
  5
103
330
FB
100
AcDbEntity
  8
치수문자_일반주서
 62
     0
370
    -2
100
AcDbLine
 10
-101.8468145886231
 20
-9.302000000000046
 30
0.0
 11
-101.8468145886231
 21
-12.60400000000005
 31
0.0
  0
SOLID
  5
104
330
FB
100
AcDbEntity
  8
치수문자_일반주서
 62
     0
100
AcDbTrace
 10
-102.3971479219565
 20
9.301999999999943
 30
0.0
 11
-101.2964812552898
 21
9.301999999999946
 31
0.0
 12
-101.8468145886231
 22
5.999999999999945
 32
0.0
 13
-101.8468145886231
 23
5.999999999999945
 33
0.0
  0
SOLID
  5
105
330
FB
100
AcDbEntity
  8
치수문자_일반주서
 62
     0
100
AcDbTrace
 10
-101.2964812552897
 20
-9.302000000000044
 30
0.0
 11
-102.3971479219564
 21
-9.302000000000048
 31
0.0
 12
-101.8468145886231
 22
-6.000000000000046
 32
0.0
 13
-101.8468145886231
 23
-6.000000000000046
 33
0.0
  0
MTEXT
  5
106
330
FB
100
AcDbEntity
  8
치수문자_일반주서
 62
     0
100
AcDbMText
 10
-106.2218145886232
 20
16.54149999999993
 30
0.0
 40
3.5
 41
0.0
 71
     2
 72
     1
  1
\A1;%%c12
  7
SLDTEXTSTYLE0
 11
-3.552713678800505E-15
 21
1.0
 31
0.0
 73
     1
 44
1.0
  0
POINT
  5
139
330
FB
100
AcDbEntity
  8
Defpoints
 62
     0
100
AcDbPoint
 10
-88.99999999999999
 20
5.999999999999993
 30
0.0
  0
POINT
  5
13A
330
FB
100
AcDbEntity
  8
Defpoints
 62
     0
100
AcDbPoint
 10
-88.99999999999999
 20
-5.999999999999995
 30
0.0
  0
POINT
  5
13B
330
FB
100
AcDbEntity
  8
Defpoints
 62
     0
100
AcDbPoint
 10
-101.8468145886231
 20
-6.000000000000043
 30
0.0
  0
ENDBLK
  5
FD
330
FB
100
AcDbEntity
  8
0
100
AcDbBlockEnd
  0
BLOCK
  5
108
330
107
100
AcDbEntity
  8
0
100
AcDbBlockBegin
  2
SW_DOWELSYMBOL_0
 70
     0
 10
0.0
 20
0.0
 30
0.0
  3
SW_DOWELSYMBOL_0
  1

  0
CIRCLE
  5
10A
330
107
100
AcDbEntity
  8
외형선
 62
     0
100
AcDbCircle
 10
0.0
 20
0.0
 30
0.0
 40
3.000000000000004
  0
HATCH
  5
10B
330
107
100
AcDbEntity
  8
0
  6
Continuous
 62
     0
370
    30
100
AcDbHatch
 10
0.0
 20
0.0
 30
0.0
210
0.0
220
0.0
230
1.0
  2
SOLID
 70
     1
 71
     0
 91
        1
 92
        0
 93
        3
 72
     2
 10
0.0000000000000104
 20
0.0
 40
3.000000000000004
 50
0.0
 51
90.0
 73
     1
 72
     1
 10
0.0000000000000104
 20
3.000000000000004
 11
0.0000000000000104
 21
0.0
 72
     1
 10
0.0000000000000104
 20
0.0
 11
3.000000000000015
 21
0.0
 97
        0
 75
     0
 76
     1
 98
        1
 10
0.0
 20
0.0
  0
HATCH
  5
10C
330
107
100
AcDbEntity
  8
0
  6
Continuous
 62
     0
370
    30
100
AcDbHatch
 10
0.0
 20
0.0
 30
0.0
210
0.0
220
0.0
230
1.0
  2
SOLID
 70
     1
 71
     0
 91
        1
 92
        0
 93
        3
 72
     2
 10
0.0000000000000104
 20
0.0
 40
3.000000000000004
 50
180.0
 51
270.0000000000008
 73
     1
 72
     1
 10
0.0000000000000104
 20
-3.000000000000004
 11
0.0000000000000104
 21
0.0
 72
     1
 10
0.0000000000000104
 20
0.0
 11
-2.999999999999994
 21
0.0
 97
        0
 75
     0
 76
     1
 98
        1
 10
0.0
 20
0.0
  0
ENDBLK
  5
109
330
107
100
AcDbEntity
  8
0
100
AcDbBlockEnd
  0
ENDSEC
  0
SECTION
  2
ENTITIES
  0
LINE
  5
95
330
1F
100
AcDbEntity
  8
0
  6
Continuous
 62
     1
370
    15
100
AcDbLine
 10
42.8631381582567
 20
2.332709103674143
 30
0.0
 11
42.79054685478997
 21
2.369991479003171
 31
0.0
  0
SPLINE
  5
96
330
1F
100
AcDbEntity
  8
0
  6
Continuous
 62
     1
370
    15
100
AcDbSpline
210
0.0
220
0.0
230
1.0
 70
     8
 71
     3
 72
     9
 73
     5
 74
     0
 42
0.000000001
 43
0.00000001
 40
0.0
 40
0.0
 40
0.0
 40
0.0
 40
0.4569278547883384
 40
0.9999999999999999
 40
0.9999999999999999
 40
0.9999999999999999
 40
0.9999999999999999
 10
44.45602892205567
 20
1.537493793716595
 30
0.0
 10
44.21340847928988
 20
1.652732010627192
 30
0.0
 10
43.68242653055711
 20
1.904934225272167
 30
0.0
 10
43.15148027840502
 20
2.182157088590264
 30
0.0
 10
42.8631381582567
 20
2.332709103674143
 30
0.0
  0
SPLINE
  5
97
330
1F
100
AcDbEntity
  8
0
  6
Continuous
 62
     1
370
    15
100
AcDbSpline
210
0.0
220
0.0
230
1.0
 70
     8
 71
     3
 72
     9
 73
     5
 74
     0
 42
0.000000001
 43
0.00000001
 40
0.0
 40
0.0
 40
0.0
 40
0.0
 40
0.4740142204798837
 40
1.0
 40
1.0
 40
1.0
 40
1.0
 10
11.80783168121698
 20
1.53740418539854
 30
0.0
 10
11.58678437811744
 20
1.642512432465478
 30
0.0
 10
11.12045384719842
 20
1.864253136701162
 30
0.0
 10
10.68012288855366
 20
2.08845391002246
 30
0.0
 10
10.44851506602406
 20
2.206380328546876
 30
0.0
  0
LINE
  5
98
330
1F
100
AcDbEntity
  8
0
  6
Continuous
 62
     1
370
    15
100
AcDbLine
 10
30.68877279491934
 20
6.00000000000001
 30
0.0
 11
27.77808313267129
 21
6.00000000000001
 31
0.0
  0
LINE
  5
99
330
1F
100
AcDbEntity
  8
0
  6
Continuous
 62
     1
370
    15
100
AcDbLine
 10
27.77808313267128
 20
-5.999999999999999
 30
0.0
 11
30.68877279491934
 21
-5.999999999999999
 31
0.0
  0
SPLINE
  5
9A
330
1F
100
AcDbEntity
  8
0
  6
Continuous
 62
     1
370
    15
100
AcDbSpline
210
0.0
220
0.0
230
1.0
 70
     8
 71
     3
 72
    14
 73
    10
 74
     0
 42
0.000000001
 43
0.00000001
 40
0.0
 40
0.0
 40
0.0
 40
0.0
 40
0.1722780978036146
 40
0.2931695952169598
 40
0.4331589518051104
 40
0.6017861746916662
 40
0.7642875583785831
 40
0.8885148522986881
 40
1.0
 40
1.0
 40
1.0
 40
1.0
 10
42.47254253057131
 20
4.767842588541551
 30
0.0
 10
42.19088010257599
 20
4.753845870937788
 30
0.0
 10
41.71156868077619
 20
4.730027335171626
 30
0.0
 10
40.9850262540054
 20
4.706330073382697
 30
0.0
 10
40.26941693589308
 20
4.690375457893233
 30
0.0
 10
39.48888505343605
 20
4.683522234927784
 30
0.0
 10
38.73304664191089
 20
4.689021000704952
 30
0.0
 10
38.07278654330828
 20
4.698729783442938
 30
0.0
 10
37.68166174732008
 20
4.715799852130673
 30
0.0
 10
37.49667106396691
 20
4.723873499477554
 30
0.0
  0
SPLINE
  5
9B
330
1F
100
AcDbEntity
  8
0
  6
Continuous
 62
     1
370
    15
100
AcDbSpline
210
0.0
220
0.0
230
1.0
 70
     8
 71
     3
 72
    22
 73
    18
 74
     0
 42
0.000000001
 43
0.00000001
 40
0.0
 40
0.0
 40
0.0
 40
0.0
 40
0.0845660320068605
 40
0.1452270630305391
 40
0.1832271443456589
 40
0.2169420159378504
 40
0.2517083469839275
 40
0.2882800613995794
 40
0.3915967238189645
 40
0.5027924474657355
 40
0.5869117889117677
 40
0.6600885554826713
 40
0.7342839272830526
 40
0.7722806260652034
 40
0.8230661743810178
 40
0.8990084425091406
 40
1.0
 40
1.0
 40
1.0
 40
1.0
 10
33.44858324400619
 20
-4.992832478201916
 30
0.0
 10
33.70359859908956
 20
-4.968066501506873
 30
0.0
 10
34.14154194546109
 20
-4.925535357817735
 30
0.0
 10
34.69334872813387
 20
-4.879465150534307
 30
0.0
 10
35.09107617475846
 20
-4.848846555457489
 30
0.0
 10
35.41111995032076
 20
-4.825908469497874
 30
0.0
 10
35.72718883142247
 20
-4.804822070261722
 30
0.0
 10
36.25295254941491
 20
-4.772453325607787
 30
0.0
 10
37.00819540258679
 20
-4.734148668647113
 30
0.0
 10
37.90935414616924
 20
-4.703488010682522
 30
0.0
 10
38.71911822715721
 20
-4.688497672362192
 30
0.0
 10
39.41060737724877
 20
-4.684337225346415
 30
0.0
 10
39.97371790253773
 20
-4.687793883647856
 30
0.0
 10
40.44510917135629
 20
-4.694327014289823
 30
0.0
 10
40.93659430541266
 20
-4.70455017557065
 30
0.0
 10
41.62677508693582
 20
-4.726175283085968
 30
0.0
 10
42.16521050334855
 20
-4.752701668243724
 30
0.0
 10
42.47254253057132
 20
-4.767842588541537
 30
0.0
  0
SPLINE
  5
9C
330
1F
100
AcDbEntity
  8
0
  6
Continuous
 62
     1
370
    15
100
AcDbSpline
210
0.0
220
0.0
230
1.0
 70
     8
 71
     3
 72
    15
 73
    11
 74
     0
 42
0.000000001
 43
0.00000001
 40
0.0
 40
0.0
 40
0.0
 40
0.0
 40
0.1563631257630581
 40
0.2781922438303671
 40
0.4207067132139388
 40
0.5334206285686588
 40
0.6637903948575894
 40
0.8066657150514177
 40
0.9548928985289228
 40
1.0
 40
1.0
 40
1.0
 40
1.0
 10
47.2880691475391
 20
-4.512827702660226
 30
0.0
 10
47.52138516486819
 20
-4.477024613672372
 30
0.0
 10
47.93648754956151
 20
-4.413325825272078
 30
0.0
 10
48.56317837618014
 20
-4.327462376131692
 30
0.0
 10
49.1217195156428
 20
-4.257026930517425
 30
0.0
 10
49.69284760820873
 20
-4.192285924960207
 30
0.0
 10
50.26704241650638
 20
-4.134165933496003
 30
0.0
 10
50.89355433759342
 20
-4.080007057460389
 30
0.0
 10
51.3928980862031
 20
-4.042402933363123
 30
0.0
 10
51.68019123212569
 20
-4.026263106331664
 30
0.0
 10
51.74722001126088
 20
-4.022497499958084
 30
0.0
  0
SPLINE
  5
9D
330
1F
100
AcDbEntity
  8
0
  6
Continuous
 62
     1
370
    15
100
AcDbSpline
210
0.0
220
0.0
230
1.0
 70
     8
 71
     3
 72
    25
 73
    21
 74
     0
 42
0.000000001
 43
0.00000001
 40
0.0
 40
0.0
 40
0.0
 40
0.0
 40
0.0690794632495858
 40
0.1228414505541702
 40
0.1795463804843603
 40
0.2199912221686805
 40
0.2660656074505143
 40
0.3190402933279943
 40
0.3794479702660772
 40
0.4348412148519109
 40
0.4774449427980658
 40
0.5148526489673249
 40
0.5729285949329835
 40
0.6427840601994945
 40
0.7228909109512976
 40
0.7733631306420361
 40
0.8173959591601625
 40
0.8542427731172152
 40
0.9111849805170461
 40
1.0
 40
1.0
 40
1.0
 40
1.0
 10
25.12222596021444
 20
4.103712576380918
 30
0.0
 10
24.87946232227515
 20
4.083960465756936
 30
0.0
 10
24.44776473773361
 20
4.048836019120898
 30
0.0
 10
23.81834291198108
 20
4.010205456072169
 30
0.0
 10
23.29275439340611
 20
3.984668072304465
 30
0.0
 10
22.79658037350666
 20
3.966681197470349
 30
0.0
 10
22.30914694502852
 20
3.954401976657179
 30
0.0
 10
21.75179433111534
 20
3.947479058708001
 30
0.0
 10
21.16198399691154
 20
3.948703881797866
 30
0.0
 10
20.6090299046072
 20
3.958147844934444
 30
0.0
 10
20.13600409458268
 20
3.972139576930452
 30
0.0
 10
19.65344414054235
 20
3.991299308968006
 30
0.0
 10
19.0755198617103
 20
4.021184477087547
 30
0.0
 10
18.3492988231357
 20
4.070672343767601
 30
0.0
 10
17.6490733922537
 20
4.131014980532946
 30
0.0
 10
17.03890481812785
 20
4.193048198009246
 30
0.0
 10
16.57952507250191
 20
4.244925086589569
 30
0.0
 10
16.09618671497974
 20
4.304258724019737
 30
0.0
 10
15.45905325249043
 20
4.388129310069078
 30
0.0
 10
14.94999453772404
 20
4.465601339344805
 30
0.0
 10
14.63980710731757
 20
4.512807779372926
 30
0.0
  0
SPLINE
  5
9E
330
1F
100
AcDbEntity
  8
0
  6
Continuous
 62
     1
370
    15
100
AcDbSpline
210
0.0
220
0.0
230
1.0
 70
     8
 71
     3
 72
     9
 73
     5
 74
     0
 42
0.000000001
 43
0.00000001
 40
0.0
 40
0.0
 40
0.0
 40
0.0
 40
0.648172744995937
 40
1.0
 40
1.0
 40
1.0
 40
1.0
 10
14.63980710731758
 20
-4.512807779372916
 30
0.0
 10
15.60857766950223
 20
-4.371506359133051
 30
0.0
 10
17.10319553127415
 20
-4.153506726580233
 30
0.0
 10
18.59634042712704
 20
-4.063318229156935
 30
0.0
 10
19.12166949715829
 20
-4.031587457675555
 30
0.0
  0
SPLINE
  5
9F
330
1F
100
AcDbEntity
  8
0
  6
Continuous
 62
     1
370
    15
100
AcDbSpline
210
0.0
220
0.0
230
1.0
 70
     8
 71
     3
 72
    24
 73
    20
 74
     0
 42
0.000000001
 43
0.00000001
 40
0.0
 40
0.0
 40
0.0
 40
0.0
 40
0.0618299503599578
 40
0.1106613891866407
 40
0.1698710598612125
 40
0.2196387599131461
 40
0.2788921945747322
 40
0.3393929424720955
 40
0.3981557598561197
 40
0.4494527124890755
 40
0.4952373180085024
 40
0.5570573134453832
 40
0.6355967982935372
 40
0.7176661215131144
 40
0.8210558113869646
 40
0.8447418675373264
 40
0.8816750920424952
 40
0.9334932843233996
 40
1.0
 40
1.0
 40
1.0
 40
1.0
 10
57.77056834740017
 20
4.103708591377996
 30
0.0
 10
57.55415052670763
 20
4.08599015116843
 30
0.0
 10
57.16681240750883
 20
4.054278218740921
 30
0.0
 10
56.57324691560438
 20
4.016334725532113
 30
0.0
 10
56.02430813931447
 20
3.988052735178298
 30
0.0
 10
55.43717894125352
 20
3.965923606978138
 30
0.0
 10
54.84270999505215
 20
3.951907784509393
 30
0.0
 10
54.21456979765861
 20
3.946786798539212
 30
0.0
 10
53.61084013778102
 20
3.951005623952644
 30
0.0
 10
53.06820866126796
 20
3.962910334641542
 30
0.0
 10
52.5249799201762
 20
3.981398849155461
 30
0.0
 10
51.87275289864067
 20
4.012097800190818
 30
0.0
 10
51.09668263469018
 20
4.062765763528541
 30
0.0
 10
50.17385075671108
 20
4.140927455274387
 30
0.0
 10
49.44266902069062
 20
4.219018143101025
 30
0.0
 10
48.87285173293476
 20
4.28841867436615
 30
0.0
 10
48.47997751342754
 20
4.338855361343052
 30
0.0
 10
47.93658489046419
 20
4.413314923436865
 30
0.0
 10
47.52142019038825
 20
4.477020690938595
 30
0.0
 10
47.2880691475391
 20
4.512827702660241
 30
0.0
  0
LINE
  5
A0
330
1F
100
AcDbEntity
  8
0
  6
Continuous
 62
   131
370
    15
100
AcDbLine
 10
7.969921738369521
 20
6.000000000000005
 30
0.0
 11
-88.99999999999999
 21
5.999999999999999
 31
0.0
  0
LINE
  5
A1
330
1F
100
AcDbEntity
  8
0
  6
Continuous
 62
   131
370
    15
100
AcDbLine
 10
-88.99999999999999
 20
-6.000000000000001
 30
0.0
 11
7.969921738369521
 21
-5.999999999999995
 31
0.0
  0
LINE
  5
A2
330
1F
100
AcDbEntity
  8
0
  6
Continuous
 62
   131
370
    15
100
AcDbLine
 10
-88.99999999999999
 20
5.999999999999993
 30
0.0
 11
-89.99999999999999
 21
4.999999999999991
 31
0.0
  0
LINE
  5
A3
330
1F
100
AcDbEntity
  8
0
  6
Continuous
 62
   131
370
    15
100
AcDbLine
 10
-89.99999999999999
 20
-4.999999999999995
 30
0.0
 11
-88.99999999999999
 21
-5.999999999999995
 31
0.0
  0
LINE
  5
A4
330
1F
100
AcDbEntity
  8
0
  6
Continuous
 62
   131
370
    15
100
AcDbLine
 10
8.518990758902813
 20
1.672511296130052
 30
0.0
 11
8.439396645593655
 21
1.716215625137548
 31
0.0
  0
SPLINE
  5
A5
330
1F
100
AcDbEntity
  8
0
  6
Continuous
 62
   131
370
    15
100
AcDbSpline
210
0.0
220
0.0
230
1.0
 70
     8
 71
     3
 72
     9
 73
     5
 74
     0
 42
0.000000001
 43
0.00000001
 40
0.0
 40
0.0
 40
0.0
 40
0.0
 40
0.5290287616891007
 40
1.0
 40
1.0
 40
1.0
 40
1.0
 10
9.67092007990908
 20
4.759128222192437
 30
0.0
 10
9.371095892655331
 20
4.745317298637011
 30
0.0
 10
8.804351305278914
 20
4.719211112063467
 30
0.0
 10
8.22877440762895
 20
4.704946207814326
 30
0.0
 10
7.957694243399601
 20
4.698227848195721
 30
0.0
  0
SPLINE
  5
A6
330
1F
100
AcDbEntity
  8
0
  6
Continuous
 62
   131
370
    15
100
AcDbSpline
210
0.0
220
0.0
230
1.0
 70
     8
 71
     3
 72
     9
 73
     5
 74
     0
 42
0.000000001
 43
0.00000001
 40
0.0
 40
0.0
 40
0.0
 40
0.0
 40
0.4709712383108992
 40
1.0
 40
1.0
 40
1.0
 40
1.0
 10
7.957694243399605
 20
-4.698227848195711
 30
0.0
 10
8.22877440762895
 20
-4.704946207814316
 30
0.0
 10
8.804351305278914
 20
-4.719211112063457
 30
0.0
 10
9.371095892655331
 20
-4.745317298637
 30
0.0
 10
9.67092007990908
 20
-4.759128222192428
 30
0.0
  0
SPLINE
  5
A7
330
1F
100
AcDbEntity
  8
0
  6
Continuous
 62
     1
370
    15
100
AcDbSpline
210
0.0
220
0.0
230
1.0
 70
     8
 71
     3
 72
    30
 73
    26
 74
     0
 42
0.000000001
 43
0.00000001
 40
0.0
 40
0.0
 40
0.0
 40
0.0
 40
0.0396037415773018
 40
0.0817867257551796
 40
0.1242628775121938
 40
0.1664457353856593
 40
0.2089208362926407
 40
0.2511037128009689
 40
0.2935791153617522
 40
0.3357619926044674
 40
0.3782374832509729
 40
0.4204203186331524
 40
0.4628951474192365
 40
0.5050780931719618
 40
0.5475540884515877
 40
0.5897369416362652
 40
0.6322119569166753
 40
0.6743948744451127
 40
0.7168705452191516
 40
0.7590534162783417
 40
0.8015288010879296
 40
0.8437116361433276
 40
0.8861865303059124
 40
0.9427384974273263
 40
0.9999999999999999
 40
0.9999999999999999
 40
0.9999999999999999
 40
0.9999999999999999
 10
19.09731561719111
 20
4.021886443927692
 30
0.0
 10
19.63735639471498
 20
4.245037604480003
 30
0.0
 10
20.7526087726184
 20
4.705872920618465
 30
0.0
 10
22.4469029037527
 20
5.249809326246407
 30
0.0
 10
24.17606025492081
 20
5.6696047443912
 30
0.0
 10
25.90916128412865
 20
5.930495442886452
 30
0.0
 10
27.63840316230806
 20
6.027283530936171
 30
0.0
 10
29.37214748717534
 20
5.957145990959004
 30
0.0
 10
31.10151865238364
 20
5.72252578039552
 30
0.0
 10
32.83462595857227
 20
5.328518196278472
 30
0.0
 10
34.56376603711152
 20
4.787898836071173
 30
0.0
 10
36.29701530723468
 20
4.113420484299243
 30
0.0
 10
38.02679321499759
 20
3.327407889024828
 30
0.0
 10
39.76008202053713
 20
2.44681912240048
 30
0.0
 10
41.48923285195655
 20
1.500174953229978
 30
0.0
 10
43.2223373168996
 20
0.5097924091135234
 30
0.0
 10
44.95166823542406
 20
-0.4921317199369805
 30
0.0
 10
46.68542761974055
 20
-1.481882183442832
 30
0.0
 10
48.41470279269639
 20
-2.429337705319961
 30
0.0
 10
50.14780387983598
 20
-3.311818497754684
 30
0.0
 10
51.87694318965626
 20
-4.100366018877195
 30
0.0
 10
53.61033582110964
 20
-4.777609576019909
 30
0.0
 10
55.53589779154299
 20
-5.3784576687454
 30
0.0
 10
57.66716812872641
 20
-5.851832360359754
 30
0.0
 10
59.21916422707181
 20
-5.947032216192326
 30
0.0
 10
60.00000000000001
 20
-5.999999999999808
 30
0.0
  0
SPLINE
  5
A8
330
1F
100
AcDbEntity
  8
0
  6
Continuous
 62
     1
370
    15
100
AcDbSpline
210
0.0
220
0.0
230
1.0
 70
     8
 71
     3
 72
    18
 73
    14
 74
     0
 42
0.000000001
 43
0.00000001
 40
0.0
 40
0.0
 40
0.0
 40
0.0
 40
0.0132032859861482
 40
0.1217704270481405
 40
0.2303375199453179
 40
0.3389045650813313
 40
0.4474715628599933
 40
0.5560385136852772
 40
0.6646054179613153
 40
0.773172276092398
 40
0.8817390884829712
 40
0.9903058555376365
 40
1.0
 40
1.0
 40
1.0
 40
1.0
 10
45.08814297233691
 20
-0.5672864628108094
 30
0.0
 10
45.00025960342108
 20
-0.5327041465566467
 30
0.0
 10
44.18973445274745
 20
-0.2137605575893844
 30
0.0
 10
42.65656793601645
 20
0.4162667456200383
 30
0.0
 10
40.48864374594174
 20
1.276541420974179
 30
0.0
 10
38.32072061788631
 20
2.084851983267346
 30
0.0
 10
36.1527985302888
 20
2.801769742591624
 30
0.0
 10
33.98487747742775
 20
3.397803140332141
 30
0.0
 10
31.81695745037988
 20
3.845117450707826
 30
0.0
 10
29.64903843716777
 20
4.130690262566896
 30
0.0
 10
27.4811204412109
 20
4.218640720803537
 30
0.0
 10
25.97131623152149
 20
4.200629221467919
 30
0.0
 10
25.18415137917968
 20
4.104286991399287
 30
0.0
 10
25.11962549572073
 20
4.09638957640281
 30
0.0
  0
SPLINE
  5
A9
330
1F
100
AcDbEntity
  8
0
  6
Continuous
 62
     1
370
    15
100
AcDbSpline
210
0.0
220
0.0
230
1.0
 70
     8
 71
     3
 72
    18
 73
    14
 74
     0
 42
0.000000001
 43
0.00000001
 40
0.0
 40
0.0
 40
0.0
 40
0.0
 40
0.1060746104215849
 40
0.2130307371664787
 40
0.3101865592024725
 40
0.4080180444575656
 40
0.5050871860986751
 40
0.6028284936661265
 40
0.6998781209246062
 40
0.7976022335196254
 40
0.8946515701918324
 40
0.992373265115225
 40
1.0
 40
1.0
 40
1.0
 40
1.0
 10
10.00000000000002
 20
0.8370242536328957
 30
0.0
 10
10.62870302693067
 20
0.4751111337341764
 30
0.0
 10
11.89133381815891
 20
-0.2517227279771434
 30
0.0
 10
13.72969827129333
 20
-1.309594869909553
 30
0.0
 10
15.51881123830107
 20
-2.297444340418213
 30
0.0
 10
17.24934323680825
 20
-3.189926916048397
 30
0.0
 10
18.98339927682363
 20
-3.995155264586598
 30
0.0
 10
20.71336518662012
 20
-4.687521978171473
 30
0.0
 10
22.44689759892967
 20
-5.250618064092643
 30
0.0
 10
24.1760583997672
 20
-5.672162160106073
 30
0.0
 10
25.90917390587518
 20
-5.919525246175241
 30
0.0
 10
27.10848083633396
 20
-6.023079176949711
 30
0.0
 10
27.73287957659521
 20
-5.995990274127099
 30
0.0
 10
27.77808313267128
 20
-5.994029163928078
 30
0.0
  0
SPLINE
  5
AA
330
1F
100
AcDbEntity
  8
0
  6
Continuous
 62
     1
370
    15
100
AcDbSpline
210
0.0
220
0.0
230
1.0
 70
     8
 71
     3
 72
    12
 73
     8
 74
     0
 42
0.000000001
 43
0.00000001
 40
0.0
 40
0.0
 40
0.0
 40
0.0
 40
0.0160834026317668
 40
0.2252038783610447
 40
0.435772230681735
 40
0.7161273621546551
 40
1.0
 40
1.0
 40
1.0
 40
1.0
 10
51.74829297959617
 20
4.022984624288284
 30
0.0
 10
51.79252079832271
 20
4.043153179249036
 30
0.0
 10
52.41180992119737
 20
4.325558395489048
 30
0.0
 10
53.61034838659723
 20
4.770516909115727
 30
0.0
 10
55.5358931693311
 20
5.381066704726207
 30
0.0
 10
57.66716943670012
 20
5.851094066527511
 30
0.0
 10
59.21916466487131
 20
5.946785097554149
 30
0.0
 10
59.99999999999974
 20
6.000000000000189
 30
0.0
  0
SPLINE
  5
AB
330
1F
100
AcDbEntity
  8
0
  6
Continuous
 62
     1
370
    15
100
AcDbSpline
210
0.0
220
0.0
230
1.0
 70
    24
 71
     3
 72
    10
 73
     6
 74
     0
 42
0.000000001
 43
0.00000001
 40
0.0
 40
0.0
 40
0.0
 40
0.0
 40
0.5
 40
0.5
 40
1.0
 40
1.0
 40
1.0
 40
1.0
 10
60.00000000000003
 20
4.200000000000009
 30
0.0
 10
60.00000000000004
 20
4.454593540843891
 30
0.0
 10
60.00000000000004
 20
4.750454813202712
 30
0.0
 10
60.00000000000004
 20
5.371170965765144
 30
0.0
 10
60.00000000000003
 20
5.69444061480885
 30
0.0
 10
59.99999999999974
 20
6.000000000000189
 30
0.0
  0
SPLINE
  5
AC
330
1F
100
AcDbEntity
  8
0
  6
Continuous
 62
     1
370
    15
100
AcDbSpline
210
0.0
220
0.0
230
1.0
 70
     8
 71
     3
 72
     9
 73
     5
 74
     0
 42
0.000000001
 43
0.00000001
 40
0.0
 40
0.0
 40
0.0
 40
0.0
 40
0.9720316437632988
 40
1.0
 40
1.0
 40
1.0
 40
1.0
 10
60.00000000000003
 20
4.20000000000001
 30
0.0
 10
59.27735567794663
 20
4.198511533643482
 30
0.0
 10
58.53391864409078
 20
4.196980239507041
 30
0.0
 10
57.79048166418355
 20
4.103805779577818
 30
0.0
 10
57.76968895388997
 20
4.101199843090356
 30
0.0
  0
SPLINE
  5
AD
330
1F
100
AcDbEntity
  8
0
  6
Continuous
 62
     1
370
    15
100
AcDbSpline
210
0.0
220
0.0
230
1.0
 70
     8
 71
     3
 72
     9
 73
     5
 74
     0
 42
0.000000001
 43
0.00000001
 40
0.0
 40
0.0
 40
0.0
 40
0.0
 40
0.0887047156325344
 40
1.0
 40
1.0
 40
1.0
 40
1.0
 10
12.45451979446412
 20
-0.5734444512067917
 30
0.0
 10
12.38194382575509
 20
-0.5449321113979866
 30
0.0
 10
11.56376896107613
 20
-0.2235023023344023
 30
0.0
 10
10.74559660755953
 20
0.1102867870273147
 30
0.0
 10
10.00000000000003
 20
0.4144672101359581
 30
0.0
  0
SPLINE
  5
AE
330
1F
100
AcDbEntity
  8
0
  6
Continuous
 62
   131
370
    15
100
AcDbSpline
210
0.0
220
0.0
230
1.0
 70
    24
 71
     3
 72
     9
 73
     5
 74
     0
 42
0.000000001
 43
0.00000001
 40
0.0
 40
0.0
 40
0.0
 40
0.0
 40
0.5378812105372642
 40
1.0
 40
1.0
 40
1.0
 40
1.0
 10
10.00000000000003
 20
0.7339758051019523
 30
0.0
 10
10.00000000000003
 20
0.7002426808967589
 30
0.0
 10
10.00000000000003
 20
0.637527859214293
 30
0.0
 10
10.00000000000003
 20
0.4849679915168811
 30
0.0
 10
10.00000000000003
 20
0.4144672101359579
 30
0.0
  0
SPLINE
  5
AF
330
1F
100
AcDbEntity
  8
0
  6
Continuous
 62
     1
370
    15
100
AcDbSpline
210
0.0
220
0.0
230
1.0
 70
     8
 71
     3
 72
    19
 73
    15
 74
     0
 42
0.000000001
 43
0.00000001
 40
0.0
 40
0.0
 40
0.0
 40
0.0
 40
0.0887202041628139
 40
0.1774877346099723
 40
0.2662723267982884
 40
0.3550435772429591
 40
0.4437711911282044
 40
0.5324846955316138
 40
0.6212480519937083
 40
0.7100321881086274
 40
0.798806704108796
 40
0.8875412785943196
 40
0.9762499521610289
 40
1.0
 40
1.0
 40
1.0
 40
1.0
 10
60.00000000000004
 20
-5.69364521539139
 30
0.0
 10
59.13324807163323
 20
-5.501211955883006
 30
0.0
 10
57.39928186082137
 20
-5.116242786616016
 30
0.0
 10
54.79753453654575
 20
-4.124967051876085
 30
0.0
 10
52.19522625491817
 20
-2.901952824896729
 30
0.0
 10
49.59335767320737
 20
-1.491341034629377
 30
0.0
 10
46.99251566625748
 20
0.0105997047853668
 30
0.0
 10
44.39190592365868
 20
1.512437516632765
 30
0.0
 10
41.79028704533064
 20
2.919973519693108
 30
0.0
 10
39.18799314606448
 20
4.143649696028275
 30
0.0
 10
36.58602317580374
 20
5.116703010038671
 30
0.0
 10
33.98503644936446
 20
5.741920059319435
 30
0.0
 10
32.01963293483131
 20
6.025616406755185
 30
0.0
 10
30.92082827978401
 20
5.974111821996277
 30
0.0
 10
30.68877279491933
 20
5.963234618906462
 30
0.0
  0
SPLINE
  5
B0
330
1F
100
AcDbEntity
  8
0
  6
Continuous
 62
     1
370
    15
100
AcDbSpline
210
0.0
220
0.0
230
1.0
 70
     8
 71
     3
 72
    15
 73
    11
 74
     0
 42
0.000000001
 43
0.00000001
 40
0.0
 40
0.0
 40
0.0
 40
0.0
 40
0.139109531076179
 40
0.2782189994361504
 40
0.4173284055749295
 40
0.5564377499877373
 40
0.6955470331700018
 40
0.8346562556173582
 40
0.9737654178256429
 40
1.0
 40
1.0
 40
1.0
 40
1.0
 10
60.00000000000003
 20
-4.733833586209284
 30
0.0
 10
59.2773548241406
 20
-4.58198927841172
 30
0.0
 10
57.83206479821945
 20
-4.278300731274151
 30
0.0
 10
55.66413042958681
 20
-3.582298677360567
 30
0.0
 10
53.4961971636974
 20
-2.74557906422338
 30
0.0
 10
51.32826500610805
 20
-1.786348505401729
 30
0.0
 10
49.16033394021969
 20
-0.7489166502181723
 30
0.0
 10
46.99240397370463
 20
0.3145342969673797
 30
0.0
 10
45.41083454362724
 20
1.098690294176353
 30
0.0
 10
44.55190847658168
 20
1.48828076988209
 30
0.0
 10
44.41562532555145
 20
1.550095889573561
 30
0.0
  0
LINE
  5
B1
330
1F
100
AcDbEntity
  8
0
  6
Continuous
 62
     1
370
    15
100
AcDbLine
 10
59.99999999999973
 20
-5.693645215391394
 30
0.0
 11
60.00000000000003
 21
-4.733833586209284
 31
0.0
  0
SPLINE
  5
B2
330
1F
100
AcDbEntity
  8
0
  6
Continuous
 62
     1
370
    15
100
AcDbSpline
210
0.0
220
0.0
230
1.0
 70
     8
 71
     3
 72
    19
 73
    15
 74
     0
 42
0.000000001
 43
0.00000001
 40
0.0
 40
0.0
 40
0.0
 40
0.0
 40
0.0334866426809442
 40
0.128034936797469
 40
0.2225556330165095
 40
0.3171296642042516
 40
0.4117297952839041
 40
0.5063236426737566
 40
0.6008788739855524
 40
0.6807033926374159
 40
0.7605277673952662
 40
0.8403519954274568
 40
0.9201760739046771
 40
1.0
 40
1.0
 40
1.0
 40
1.0
 10
37.50690490434398
 20
-4.720110078296443
 30
0.0
 10
37.19982490969061
 20
-4.837164978840397
 30
0.0
 10
36.02571593490271
 20
-5.284720051344205
 30
0.0
 10
33.98505955269906
 20
-5.747869788134113
 30
0.0
 10
31.38451880304638
 20
-6.052656045774247
 30
0.0
 10
28.78303081605799
 20
-5.960587129198793
 30
0.0
 10
26.18076326064136
 20
-5.50218344837755
 30
0.0
 10
23.5787148678783
 20
-4.699518908191768
 30
0.0
 10
21.11228454175265
 20
-3.660672833957803
 30
0.0
 10
18.7818745232693
 20
-2.494014832443838
 30
0.0
 10
16.58637586144928
 20
-1.283451243662018
 30
0.0
 10
14.39091836172332
 20
-0.0179233791051778
 30
0.0
 10
12.19545605415177
 20
1.256210957983439
 30
0.0
 10
10.73181821904103
 20
2.048970329942195
 30
0.0
 10
9.999999999997096
 20
2.445349637582434
 30
0.0
  0
SPLINE
  5
B3
330
1F
100
AcDbEntity
  8
0
  6
Continuous
 62
     1
370
    15
100
AcDbSpline
210
0.0
220
0.0
230
1.0
 70
     8
 71
     3
 72
    18
 73
    14
 74
     0
 42
0.000000001
 43
0.00000001
 40
0.0
 40
0.0
 40
0.0
 40
0.0
 40
0.0755022661333644
 40
0.175495286000837
 40
0.2754882654241894
 40
0.3754812047610994
 40
0.4754741043693794
 40
0.5754669646069751
 40
0.675459785831965
 40
0.7754525684025574
 40
0.8754453126770926
 40
0.9786149699632477
 40
1.0
 40
1.0
 40
1.0
 40
1.0
 10
33.45386784127933
 20
-4.971988472537642
 30
0.0
 10
32.90821973699475
 20
-5.022878960102914
 30
0.0
 10
31.63993104817456
 20
-5.141167339079699
 30
0.0
 10
29.64900222078808
 20
-5.066924035062077
 30
0.0
 10
27.4810816267373
 20
-4.793002597140771
 30
0.0
 10
25.31316201978523
 20
-4.304120654954559
 30
0.0
 10
23.1452434578206
 20
-3.63056178459745
 30
0.0
 10
20.97732566355626
 20
-2.798946161433725
 30
0.0
 10
18.80940963480297
 20
-1.846584547959077
 30
0.0
 10
16.64149160413803
 20
-0.8123441062235197
 30
0.0
 10
14.45062615386673
 20
0.2617352969589025
 30
0.0
 10
12.82781801625076
 20
1.067864679330203
 30
0.0
 10
11.92766738130835
 20
1.476346692666644
 30
0.0
 10
11.77311881489479
 20
1.546479742754324
 30
0.0
  0
LINE
  5
B4
330
1F
100
AcDbEntity
  8
0
  6
Continuous
 62
     1
370
    15
100
AcDbLine
 10
60.00000000000001
 20
-5.999999999999808
 30
0.0
 11
59.99999999999912
 21
-5.69364521539138
 31
0.0
  0
LINE
  5
B5
330
1F
100
AcDbEntity
  8
0
  6
Continuous
 62
   131
370
    15
100
AcDbLine
 10
10.00000000000003
 20
0.8370242536328961
 30
0.0
 11
10.00000000000003
 21
2.44534963758065
 31
0.0
  0
SPLINE
  5
B6
330
1F
100
AcDbEntity
  8
0
  6
Continuous
 62
     1
370
    15
100
AcDbSpline
210
0.0
220
0.0
230
1.0
 70
     8
 71
     3
 72
     8
 73
     4
 74
     0
 42
0.000000001
 43
0.00000001
 40
0.0
 40
0.0
 40
0.0
 40
0.0
 40
1.0
 40
1.0
 40
1.0
 40
1.0
 10
56.28766238388619
 20
1.67812636956135
 30
0.0
 10
56.01854352449411
 20
1.996908240080766
 30
0.0
 10
55.78528950873192
 20
2.301017429348716
 30
0.0
 10
55.60063730606629
 20
2.584818657777566
 30
0.0
  0
LINE
  5
B7
330
1F
100
AcDbEntity
  8
0
  6
Continuous
 62
     1
370
    15
100
AcDbLine
 10
55.60063730606633
 20
2.584818657777566
 30
0.0
 11
60.00000000000003
 21
0.0000000000000111
 31
0.0
  0
LINE
  5
B8
330
1F
100
AcDbEntity
  8
0
  6
Continuous
 62
     1
370
    15
100
AcDbLine
 10
60.00000000000003
 20
0.0000000000000111
 30
0.0
 11
60.00000000000003
 21
-1.603457676177858
 31
0.0
  0
SPLINE
  5
B9
330
1F
100
AcDbEntity
  8
0
  6
Continuous
 62
     1
370
    15
100
AcDbSpline
210
0.0
220
0.0
230
1.0
 70
     8
 71
     3
 72
    12
 73
     8
 74
     0
 42
0.000000001
 43
0.00000001
 40
0.0
 40
0.0
 40
0.0
 40
0.0
 40
0.5
 40
0.5
 40
0.75
 40
0.75
 40
1.0
 40
1.0
 40
1.0
 40
1.0
 10
60.00000000000004
 20
-1.603457676177863
 30
0.0
 10
59.35738324975082
 20
-1.09825342164496
 30
0.0
 10
58.72550027521571
 20
-0.5723371630807234
 30
0.0
 10
57.79419516594461
 20
0.2484131373375328
 30
0.0
 10
57.4865576817277
 20
0.5273947563256584
 30
0.0
 10
56.87756600981754
 20
1.097482307907373
 30
0.0
 10
56.57786785258384
 20
1.387117232542709
 30
0.0
 10
56.28766238388623
 20
1.678126369561331
 30
0.0
  0
SPLINE
  5
BA
330
1F
100
AcDbEntity
  8
0
  6
Continuous
 62
     1
370
    15
100
AcDbSpline
210
0.0
220
0.0
230
1.0
 70
     8
 71
     3
 72
    14
 73
    10
 74
     0
 42
0.000000001
 43
0.00000001
 40
0.0
 40
0.0
 40
0.0
 40
0.0
 40
0.202009056504572
 40
0.3589219855545813
 40
0.5158348445385178
 40
0.6727476340236472
 40
0.8296603545774753
 40
0.9865730067677358
 40
1.0
 40
1.0
 40
1.0
 40
1.0
 10
56.28766238364179
 20
1.678126369667017
 30
0.0
 10
55.35712872051256
 20
2.069329232412471
 30
0.0
 10
53.7037920049472
 20
2.764403555716669
 30
0.0
 10
51.32829659527387
 20
3.581507317092743
 30
0.0
 10
49.16033860048907
 20
4.176366543813748
 30
0.0
 10
46.9924185868712
 20
4.594357311983373
 30
0.0
 10
44.82448973962042
 20
4.791801970661188
 30
0.0
 10
43.3173697333491
 20
4.841034936142398
 30
0.0
 10
42.53289152207275
 20
4.765692980324839
 30
0.0
 10
42.47105516209007
 20
4.759754163625071
 30
0.0
  0
SPLINE
  5
BB
330
1F
100
AcDbEntity
  8
0
  6
Continuous
 62
     1
370
    15
100
AcDbSpline
210
0.0
220
0.0
230
1.0
 70
     8
 71
     3
 72
    10
 73
     6
 74
     0
 42
0.000000001
 43
0.00000001
 40
0.0
 40
0.0
 40
0.0
 40
0.0
 40
0.0364915824671603
 40
0.5182504482779701
 40
1.0
 40
1.0
 40
1.0
 40
1.0
 10
14.64305513830255
 20
-4.50542812020332
 30
0.0
 10
14.58657808027186
 20
-4.51657586195029
 30
0.0
 10
13.78449555430388
 20
-4.674895171967964
 30
0.0
 10
12.23679773023493
 20
-4.802623313962327
 30
0.0
 10
10.74559443833346
 20
-4.785255031949021
 30
0.0
 10
10.00000000000001
 20
-4.776570974890632
 30
0.0
  0
SPLINE
  5
BC
330
1F
100
AcDbEntity
  8
0
  6
Continuous
 62
     1
370
    15
100
AcDbSpline
210
0.0
220
0.0
230
1.0
 70
    24
 71
     3
 72
    10
 73
     6
 74
     0
 42
0.000000001
 43
0.00000001
 40
0.0
 40
0.0
 40
0.0
 40
0.0
 40
0.5
 40
0.5
 40
1.0
 40
1.0
 40
1.0
 40
1.0
 10
60.00000000000003
 20
-4.733833586209284
 30
0.0
 10
60.00000000000004
 20
-4.370948334022818
 30
0.0
 10
60.00000000000004
 20
-3.912428903438802
 30
0.0
 10
60.00000000000004
 20
-2.84641535490407
 30
0.0
 10
60.00000000000003
 20
-2.239844658307852
 30
0.0
 10
60.00000000000004
 20
-1.603457676178054
 30
0.0
  0
SPLINE
  5
BD
330
1F
100
AcDbEntity
  8
0
  6
Continuous
 62
     1
370
    15
100
AcDbSpline
210
0.0
220
0.0
230
1.0
 70
     8
 71
     3
 72
    25
 73
    21
 74
     0
 42
0.000000001
 43
0.00000001
 40
0.0
 40
0.0
 40
0.0
 40
0.0
 40
0.0081014862770941
 40
0.0662313535766433
 40
0.1243611955502336
 40
0.1824910124082736
 40
0.240620804361256
 40
0.2987505716197578
 40
0.3568803143944386
 40
0.4150100328960405
 40
0.4731397273353879
 40
0.5312693979233857
 40
0.5893990448710196
 40
0.6475286683893545
 40
0.7056582686895345
 40
0.7637878459827818
 40
0.8219174004803965
 40
0.8800469323937554
 40
0.9400240459808737
 40
0.9999999999999999
 40
0.9999999999999999
 40
0.9999999999999999
 40
0.9999999999999999
 10
47.29455787011698
 20
-4.500359429827563
 30
0.0
 10
47.1938441258963
 20
-4.519935374470596
 30
0.0
 10
46.37048809277349
 20
-4.679972837585892
 30
0.0
 10
44.8244902064291
 20
-4.793792419493871
 30
0.0
 10
42.65656453032808
 20
-4.814831829262428
 30
0.0
 10
40.4886399273026
 20
-4.608539950126844
 30
0.0
 10
38.32071637286837
 20
-4.207401145390771
 30
0.0
 10
36.15279386233516
 20
-3.6225010445844
 30
0.0
 10
33.98487238560723
 20
-2.880890407955146
 30
0.0
 10
31.81695193439493
 20
-2.014272023853957
 30
0.0
 10
29.64903249856851
 20
-1.060342401279191
 30
0.0
 10
27.48111407353131
 20
-0.0604322915783832
 30
0.0
 10
25.31319663437306
 20
0.9421016892135775
 30
0.0
 10
23.14528023188397
 20
1.903766684474664
 30
0.0
 10
20.97736463434543
 20
2.782964160796036
 30
0.0
 10
18.80945066435248
 20
3.54120478409964
 30
0.0
 10
16.64153520973615
 20
4.146987643523981
 30
0.0
 10
14.45066142181997
 20
4.573383572043394
 30
0.0
 10
12.23679893751865
 20
4.814407805477834
 30
0.0
 10
10.74559484075877
 20
4.789183170472143
 30
0.0
 10
10.00000000000001
 20
4.776570974890642
 30
0.0
  0
SPLINE
  5
BE
330
1F
100
AcDbEntity
  8
0
  6
Continuous
 62
   131
370
    15
100
AcDbSpline
210
0.0
220
0.0
230
1.0
 70
    24
 71
     3
 72
    14
 73
    10
 74
     0
 42
0.000000001
 43
0.00000001
 40
0.0
 40
0.0
 40
0.0
 40
0.0
 40
0.25
 40
0.25
 40
0.5
 40
0.5
 40
0.75
 40
0.75
 40
1.0
 40
1.0
 40
1.0
 40
1.0
 10
10.00000000000002
 20
4.776570974890642
 30
0.0
 10
10.00000000000002
 20
4.768708885321169
 30
0.0
 10
10.00000000000003
 20
4.711461120775526
 30
0.0
 10
10.00000000000003
 20
4.491478645320687
 30
0.0
 10
10.00000000000003
 20
4.328689483619745
 30
0.0
 10
10.00000000000003
 20
3.905541701368073
 30
0.0
 10
10.00000000000002
 20
3.645305273051746
 30
0.0
 10
10.00000000000002
 20
3.049255121834047
 30
0.0
 10
10.00000000000002
 20
2.713683079541906
 30
0.0
 10
10.00000000000002
 20
2.355467705389013
 30
0.0
  0
SPLINE
  5
BF
330
1F
100
AcDbEntity
  8
0
  6
Continuous
 62
     1
370
    15
100
AcDbSpline
210
0.0
220
0.0
230
1.0
 70
     8
 71
     3
 72
    10
 73
     6
 74
     0
 42
0.000000001
 43
0.00000001
 40
0.0
 40
0.0
 40
0.0
 40
0.0
 40
0.5
 40
0.5
 40
1.0
 40
1.0
 40
1.0
 40
1.0
 10
60.00000000000003
 20
4.20000000000001
 30
0.0
 10
59.25332347653938
 20
3.997490621300249
 30
0.0
 10
58.51228338110272
 20
3.765127278277485
 30
0.0
 10
57.04287433025136
 20
3.233286497890206
 30
0.0
 10
56.31450293166839
 20
2.934090734052222
 30
0.0
 10
55.60063730606632
 20
2.584818657777567
 30
0.0
  0
SPLINE
  5
C0
330
1F
100
AcDbEntity
  8
0
  6
Continuous
 62
   131
370
    15
100
AcDbSpline
210
0.0
220
0.0
230
1.0
 70
    24
 71
     3
 72
    14
 73
    10
 74
     0
 42
0.000000001
 43
0.00000001
 40
0.0
 40
0.0
 40
0.0
 40
0.0
 40
0.25
 40
0.25
 40
0.5
 40
0.5
 40
0.75
 40
0.75
 40
1.0
 40
1.0
 40
1.0
 40
1.0
 10
10.00000000000001
 20
0.414467210135964
 30
0.0
 10
10.00000000000001
 20
-0.1134869313805455
 30
0.0
 10
10.00000000000001
 20
-0.6508740981150308
 30
0.0
 10
10.00000000000001
 20
-1.692974724492767
 30
0.0
 10
10.00000000000001
 20
-2.197118042862879
 30
0.0
 10
10.00000000000001
 20
-3.119715191735477
 30
0.0
 10
10.00000000000001
 20
-3.537677423904896
 30
0.0
 10
10.00000000000001
 20
-4.251400266192159
 30
0.0
 10
10.00000000000001
 20
-4.547051959353056
 30
0.0
 10
10.00000000000001
 20
-4.77657097489063
 30
0.0
  0
LINE
  5
C1
330
1F
100
AcDbEntity
  8
0
  6
Continuous
 62
     1
370
    15
100
AcDbLine
 10
60.00000000000003
 20
0.0000000000000111
 30
0.0
 11
60.00000000000003
 21
4.20000000000001
 31
0.0
  0
LINE
  5
C2
330
1F
100
AcDbEntity
  8
0
  6
Continuous
 62
   131
370
    15
100
AcDbLine
 10
7.969921738369521
 20
3.46243656289304
 30
0.0
 11
7.969921738369521
 21
6.000000000000005
 31
0.0
  0
SPLINE
  5
C3
330
1F
100
AcDbEntity
  8
0
  6
Continuous
 62
   131
370
    15
100
AcDbSpline
210
0.0
220
0.0
230
1.0
 70
     8
 71
     3
 72
     8
 73
     4
 74
     0
 42
0.000000001
 43
0.00000001
 40
0.0
 40
0.0
 40
0.0
 40
0.0
 40
1.0
 40
1.0
 40
1.0
 40
1.0
 10
10.00000000000002
 20
2.445349637580888
 30
0.0
 10
9.326556391895943
 20
2.801495226005274
 30
0.0
 10
8.644596795488479
 20
3.143495012967825
 30
0.0
 10
7.969839875716159
 20
3.462226552793604
 30
0.0
  0
SPLINE
  5
C4
330
1F
100
AcDbEntity
  8
0
  6
Continuous
 62
   131
370
    15
100
AcDbSpline
210
0.0
220
0.0
230
1.0
 70
     8
 71
     3
 72
     8
 73
     4
 74
     0
 42
0.000000001
 43
0.00000001
 40
0.0
 40
0.0
 40
0.0
 40
0.0
 40
1.0
 40
1.0
 40
1.0
 40
1.0
 10
7.969921738369518
 20
1.974151004876015
 30
0.0
 10
8.644652048433935
 20
1.605635728824524
 30
0.0
 10
9.326583626322321
 20
1.223201202103038
 30
0.0
 10
10.00000000000002
 20
0.8370242536328961
 30
0.0
  0
LINE
  5
C5
330
1F
100
AcDbEntity
  8
0
  6
Continuous
 62
   131
370
    15
100
AcDbLine
 10
7.969921738369521
 20
-5.999999999999995
 30
0.0
 11
7.969921738369518
 21
1.974148636501721
 31
0.0
  0
LINE
  5
C6
330
1F
100
AcDbEntity
  8
0
  6
Continuous
 62
   131
370
    15
100
AcDbLine
 10
-88.99999999999999
 20
5.999999999999993
 30
0.0
 11
-88.99999999999999
 21
-6.000000000000001
 31
0.0
  0
LINE
  5
C7
330
1F
100
AcDbEntity
  8
0
  6
Continuous
 62
   131
370
    15
100
AcDbLine
 10
-89.99999999999999
 20
4.999999999999992
 30
0.0
 11
-89.99999999999999
 21
-4.999999999999995
 31
0.0
  0
SPLINE
  5
C8
330
1F
100
AcDbEntity
  8
0
  6
Continuous
 62
   131
370
    15
100
AcDbSpline
210
0.0
220
0.0
230
1.0
 70
    24
 71
     3
 72
     9
 73
     5
 74
     0
 42
0.000000001
 43
0.00000001
 40
0.0
 40
0.0
 40
0.0
 40
0.0
 40
0.5379007520610598
 40
0.9999999999999999
 40
0.9999999999999999
 40
0.9999999999999999
 40
0.9999999999999999
 10
10.00000000000003
 20
0.7339858051019524
 30
0.0
 10
10.00000000000003
 20
0.7002503435880227
 30
0.0
 10
10.00000000000003
 20
0.6375334550455426
 30
0.0
 10
10.00000000000003
 20
0.4849677210681591
 30
0.0
 10
10.00000000000003
 20
0.4144672101359579
 30
0.0
  0
SPLINE
  5
C9
330
1F
100
AcDbEntity
  8
0
  6
Continuous
 62
   131
370
    15
100
AcDbSpline
210
0.0
220
0.0
230
1.0
 70
     8
 71
     3
 72
     8
 73
     4
 74
     0
 42
0.000000001
 43
0.00000001
 40
0.0
 40
0.0
 40
0.0
 40
0.0
 40
1.0
 40
1.0
 40
1.0
 40
1.0
 10
10.00000000000002
 20
0.4144672101359588
 30
0.0
 10
9.326577061410811
 20
0.686130693989619
 30
0.0
 10
8.644638729607056
 20
0.956275587349326
 30
0.0
 10
7.969902005210001
 20
1.217715186751108
 30
0.0
  0
LINE
  5
CA
330
1F
100
AcDbEntity
  8
0
  6
Continuous
 62
   131
370
    15
100
AcDbLine
 10
10.00000000000001
 20
4.776570974890642
 30
0.0
 11
9.668720129184049
 21
4.746749897993407
 31
0.0
  0
SPLINE
  5
CB
330
1F
100
AcDbEntity
  8
0
  6
Continuous
 62
   131
370
    15
100
AcDbSpline
210
0.0
220
0.0
230
1.0
 70
    24
 71
     3
 72
    14
 73
    10
 74
     0
 42
0.000000001
 43
0.00000001
 40
0.0
 40
0.0
 40
0.0
 40
0.0
 40
0.25
 40
0.25
 40
0.4999999999999999
 40
0.4999999999999999
 40
0.75
 40
0.75
 40
1.0
 40
1.0
 40
1.0
 40
1.0
 10
10.00000000000002
 20
4.776570974890642
 30
0.0
 10
10.00000000000002
 20
4.768708885321169
 30
0.0
 10
10.00000000000002
 20
4.711461120775525
 30
0.0
 10
10.00000000000002
 20
4.491478645320688
 30
0.0
 10
10.00000000000002
 20
4.328689483619744
 30
0.0
 10
10.00000000000002
 20
3.905541701368075
 30
0.0
 10
10.00000000000002
 20
3.645305273051749
 30
0.0
 10
10.00000000000002
 20
3.049255121834049
 30
0.0
 10
10.00000000000002
 20
2.713683079541909
 30
0.0
 10
10.00000000000002
 20
2.355467705389016
 30
0.0
  0
SPLINE
  5
CC
330
1F
100
AcDbEntity
  8
0
  6
Continuous
 62
   131
370
    15
100
AcDbSpline
210
0.0
220
0.0
230
1.0
 70
     8
 71
     3
 72
     8
 73
     4
 74
     0
 42
0.000000001
 43
0.00000001
 40
0.0
 40
0.0
 40
0.0
 40
0.0
 40
1.0
 40
1.0
 40
1.0
 40
1.0
 10
10.00000000000001
 20
-4.776570974890632
 30
0.0
 10
9.326573676950554
 20
-4.745782279641025
 30
0.0
 10
8.644631863247094
 20
-4.684342115668874
 30
0.0
 10
7.969891832021574
 20
-4.593825154452228
 30
0.0
  0
SPLINE
  5
CD
330
1F
100
AcDbEntity
  8
0
  6
Continuous
 62
   131
370
    15
100
AcDbSpline
210
0.0
220
0.0
230
1.0
 70
    24
 71
     3
 72
    14
 73
    10
 74
     0
 42
0.000000001
 43
0.00000001
 40
0.0
 40
0.0
 40
0.0
 40
0.0
 40
0.25
 40
0.25
 40
0.5
 40
0.5
 40
0.75
 40
0.75
 40
1.0
 40
1.0
 40
1.0
 40
1.0
 10
10.00000000000001
 20
0.414467210135964
 30
0.0
 10
10.00000000000001
 20
-0.1134869313805455
 30
0.0
 10
10.00000000000001
 20
-0.6508740981150308
 30
0.0
 10
10.00000000000001
 20
-1.692974724492767
 30
0.0
 10
10.00000000000001
 20
-2.197118042862879
 30
0.0
 10
10.00000000000001
 20
-3.119715191735477
 30
0.0
 10
10.00000000000001
 20
-3.537677423904896
 30
0.0
 10
10.00000000000001
 20
-4.251400266192159
 30
0.0
 10
10.00000000000001
 20
-4.547051959353056
 30
0.0
 10
10.00000000000001
 20
-4.77657097489063
 30
0.0
  0
LINE
  5
CE
330
1F
100
AcDbEntity
  8
중심선
100
AcDbLine
 10
-92.99999999999999
 20
-0.0000000000000004
 30
0.0
 11
63.00000000000001
 21
0.0000000000000113
 31
0.0
  0
CIRCLE
  5
CF
330
1F
100
AcDbEntity
  8
외형선
100
AcDbCircle
 10
0.0000000000000104
 20
0.0
 30
0.0
 40
3.000000000000005
  0
INSERT
  5
D0
330
1F
100
AcDbEntity
  8
0
  6
Continuous
 62
     7
100
AcDbBlockReference
 66
     1
  2
블럭10
 10
-22.93944368806589
 20
-52.04609937292004
 30
0.0
  0
ATTRIB
  5
D1
330
D0
100
AcDbEntity
  8
FORMAT
 62
     2
100
AcDbText
 10
-43.79769121965843
 20
-49.97073246008785
 30
0.0
 40
4.233333333333333
  1
SEME7012050150E [ 2 FLUTE ]
 41
0.75
  7
SLDTEXTSTYLE0
 11
-43.79769121965843
 21
-52.08739912675452
 31
0.0
100
AcDbAttribute
  2
AUTOATTR0
 70
     0
 74
     1
  0
SEQEND
  5
D2
330
D0
100
AcDbEntity
  8
0
  6
Continuous
 62
     7
  0
HATCH
  5
D3
330
1F
100
AcDbEntity
  8
중심선
100
AcDbHatch
 10
0.0
 20
0.0
 30
0.0
210
0.0
220
0.0
230
1.0
  2
SOLID
 70
     1
 71
     0
 91
        1
 92
        0
 93
        4
 72
     1
 10
-17.22453438368504
 20
-35.7989250712761
 11
-20.67080962752232
 21
-35.7989250712761
 72
     1
 10
-20.67080962752232
 20
-35.7989250712761
 11
-22.79903948672635
 21
-38.3352506518487
 72
     1
 10
-22.79903948672635
 20
-38.3352506518487
 11
-19.35273115777591
 21
-38.33521122254621
 72
     1
 10
-19.35273115777591
 20
-38.33521122254621
 11
-17.22453438368504
 21
-35.7989250712761
 97
        0
 75
     0
 76
     1
 98
        1
 10
0.0
 20
0.0
  0
HATCH
  5
D4
330
1F
100
AcDbEntity
  8
중심선
100
AcDbHatch
 10
0.0
 20
0.0
 30
0.0
210
0.0
220
0.0
230
1.0
  2
SOLID
 70
     1
 71
     0
 91
        1
 92
        0
 93
        4
 72
     1
 10
-12.21177039264909
 20
-35.7989250712761
 11
-15.65804563648637
 21
-35.7989250712761
 72
     1
 10
-15.65804563648637
 20
-35.7989250712761
 11
-20.18918364484376
 21
-41.19892507127612
 72
     1
 10
-20.18918364484376
 20
-41.19892507127612
 11
-16.74290840100648
 21
-41.19892507127612
 72
     1
 10
-16.74290840100648
 20
-41.19892507127612
 11
-12.21177039264909
 21
-35.7989250712761
 97
        0
 75
     0
 76
     1
 98
        1
 10
0.0
 20
0.0
  0
HATCH
  5
D5
330
1F
100
AcDbEntity
  8
중심선
100
AcDbHatch
 10
0.0
 20
0.0
 30
0.0
210
0.0
220
0.0
230
1.0
  2
SOLID
 70
     1
 71
     0
 91
        1
 92
        0
 93
        4
 72
     1
 10
-7.199006401613195
 20
-35.79892507127613
 11
-10.64528164545031
 21
-35.7989250712761
 72
     1
 10
-10.64528164545031
 20
-35.7989250712761
 11
-17.69371854733956
 21
-44.19892507127612
 72
     1
 10
-17.69371854733956
 20
-44.19892507127612
 11
-14.24744330350228
 21
-44.19892507127612
 72
     1
 10
-14.24744330350228
 20
-44.19892507127612
 11
-7.199006401613195
 21
-35.79892507127613
 97
        0
 75
     0
 76
     1
 98
        1
 10
0.0
 20
0.0
  0
HATCH
  5
D6
330
1F
100
AcDbEntity
  8
중심선
100
AcDbHatch
 10
0.0
 20
0.0
 30
0.0
210
0.0
220
0.0
230
1.0
  2
SOLID
 70
     1
 71
     0
 91
        1
 92
        0
 93
        6
 72
     3
 10
-2.399115970600996
 20
-39.99892507132738
 11
3.960054785062284
 21
1.540850780301639E-10
 40
0.3939339440162633
 50
17.09539180608433
 51
320.0019657685079
 73
     0
 72
     1
 10
-0.7161163149004002
 20
-38.58681907591441
 11
1.589185558800638
 21
-36.65249236586649
 72
     3
 10
-2.399115970653842
 20
-39.99892507127625
 11
6.600054785286829
 21
-1.249000902703301E-13
 40
0.6363583540795982
 50
39.99873849337408
 51
368.4976242363725
 73
     1
 72
     1
 10
4.026216521246767
 20
-39.03892507120613
 11
-3.71904866381792
 21
-39.0389250712061
 72
     1
 10
-3.71904866381792
 20
-39.0389250712061
 11
-3.719073708263854
 21
-40.95892507120602
 72
     1
 10
-3.719073708263854
 20
-40.95892507120602
 11
0.7223060612081831
 21
-40.95892507120599
 97
        0
 75
     0
 76
     1
 98
        1
 10
0.0
 20
0.0
  0
DIMENSION
  5
D7
330
1F
100
AcDbEntity
  8
치수문자_일반주서
100
AcDbDimension
  2
_D
 10
72.37735525965782
 20
6.000000000000234
 30
0.0
 11
72.37735525965778
 21
16.54150000000023
 31
0.0
 70
   160
  1
%%c<>
 71
     2
 42
12.0
 52
-270.0
  3
SLDDIMSTYLE0
100
AcDbAlignedDimension
 13
59.99999999999974
 23
-5.999999999999807
 33
0.0
 14
59.99999999999974
 24
6.000000000000189
 34
0.0
 50
90.0000000000002
100
AcDbRotatedDimension
  0
DIMENSION
  5
E5
330
1F
100
AcDbEntity
  8
치수문자_일반주서
100
AcDbDimension
  2
_D_1
 10
59.99999999999975
 20
26.78841044024269
 30
0.0
 11
-15.00000000000012
 21
26.78841044024269
 31
0.0
 70
   160
  1
<>
 71
     2
 42
149.9999999999997
  3
SLDDIMSTYLE1
100
AcDbAlignedDimension
 13
-89.99999999999999
 23
4.999999999999992
 33
0.0
 14
59.99999999999974
 24
6.000000000000189
 34
0.0
 50
-0.0000000000000027
100
AcDbRotatedDimension
  0
DIMENSION
  5
F0
330
1F
100
AcDbEntity
  8
치수문자_일반주서
100
AcDbDimension
  2
_D_2
 10
59.99999999999973
 20
18.12356878105817
 30
0.0
 11
35.0
 21
18.12356878105817
 31
0.0
 70
   160
  1
<>
 71
     2
 42
49.99999999999973
  3
SLDDIMSTYLE1
100
AcDbAlignedDimension
 13
10.00000000000001
 23
4.776570974890642
 33
0.0
 14
59.99999999999974
 24
6.000000000000189
 34
0.0
 50
0.0000000000000204
100
AcDbRotatedDimension
  0
DIMENSION
  5
FA
330
1F
100
AcDbEntity
  8
치수문자_일반주서
100
AcDbDimension
  2
_D_3
 10
-101.8468145886231
 20
-6.000000000000046
 30
0.0
 11
-101.8468145886232
 21
16.54149999999995
 31
0.0
 70
   160
  1
%%c<>
 71
     2
 42
11.99999999999999
 52
-270.0
  3
SLDDIMSTYLE0
100
AcDbAlignedDimension
 13
-88.99999999999999
 23
5.999999999999993
 33
0.0
 14
-88.99999999999999
 24
-5.999999999999995
 34
0.0
 50
90.0000000000002
100
AcDbRotatedDimension
  0
INSERT
  5
10D
330
1F
100
AcDbEntity
  8
외형선
100
AcDbBlockReference
  2
SW_DOWELSYMBOL_0
 10
0.0000000000000104
 20
0.0
 30
0.0
  0
ENDSEC
  0
SECTION
  2
OBJECTS
  0
DICTIONARY
  5
C
330
0
100
AcDbDictionary
281
     1
  3
ACAD_GROUP
350
D
  3
ACAD_IMAGE_VARS
350
131
  3
ACAD_LAYOUT
350
1A
  3
ACAD_MLINESTYLE
350
17
  3
ACAD_PLOTSETTINGS
350
19
  3
ACAD_PLOTSTYLENAME
350
E
  3
ACAD_SCALELIST
350
47
  3
APPDATA
350
12F
  3
DWGPROPS
350
140
  0
DICTIONARY
  5
D
102
{ACAD_REACTORS
330
C
102
}
330
C
100
AcDbDictionary
281
     1
  0
RASTERVARIABLES
  5
131
102
{ACAD_REACTORS
330
C
102
}
330
C
100
AcDbRasterVariables
 90
        0
 70
     1
 71
     1
 72
     1
  0
DICTIONARY
  5
1A
102
{ACAD_REACTORS
330
C
102
}
330
C
100
AcDbDictionary
281
     1
  3
Layout1
350
1E
  3
Layout2
350
26
  3
Model
350
22
  0
DICTIONARY
  5
17
102
{ACAD_REACTORS
330
C
102
}
330
C
100
AcDbDictionary
281
     1
  3
Standard
350
18
  0
DICTIONARY
  5
19
102
{ACAD_REACTORS
330
C
102
}
330
C
100
AcDbDictionary
281
     1
  0
ACDBDICTIONARYWDFLT
  5
E
102
{ACAD_REACTORS
330
C
102
}
330
C
100
AcDbDictionary
281
     1
  3
Normal
350
F
100
AcDbDictionaryWithDefault
340
F
  0
DICTIONARY
  5
47
102
{ACAD_REACTORS
330
C
102
}
330
C
100
AcDbDictionary
281
     1
  3
A0
350
48
  3
A1
350
49
  3
A2
350
4A
  3
A3
350
4B
  3
A4
350
4C
  3
A5
350
4D
  3
A6
350
4E
  3
A7
350
4F
  3
A8
350
50
  3
A9
350
51
  3
B0
350
52
  3
B1
350
53
  3
B2
350
54
  3
B3
350
55
  3
B4
350
56
  3
B5
350
57
  3
B6
350
58
  3
B7
350
59
  3
B8
350
5A
  3
B9
350
5B
  3
C0
350
5C
  3
C1
350
5D
  3
C2
350
5E
  3
C3
350
5F
  3
C4
350
60
  3
C5
350
61
  3
C6
350
62
  3
C7
350
63
  3
C8
350
64
  3
C9
350
65
  3
D0
350
66
  3
D1
350
67
  3
D2
350
68
  0
DICTIONARY
  5
12F
102
{ACAD_REACTORS
330
C
102
}
330
C
100
AcDbDictionary
281
     1
  0
XRECORD
  5
140
102
{ACAD_REACTORS
330
C
102
}
330
C
100
AcDbXrecord
280
     1
  1
DWGPROPS COOKIE
  2

  3

  4

  6

  7

  8
12014102
  9

300
=
301
=
302
=
303
=
304
=
305
=
306
=
307
=
308
=
309
=
 40
0.0
 41
2458262.172924607
 42
2458266.308851921
  1

 90
        0
  0
LAYOUT
  5
1E
102
{ACAD_REACTORS
330
1A
102
}
330
1A
100
AcDbPlotSettings
  1

  2
none_device
  4

  6

 40
0.0
 41
0.0
 42
0.0
 43
0.0
 44
0.0
 45
0.0
 46
0.0
 47
0.0
 48
0.0
 49
0.0
140
0.0
141
0.0
142
1.0
143
1.0
 70
   688
 72
     1
 73
     0
 74
     5
  7

 75
    16
147
1.0
148
0.0
149
0.0
100
AcDbLayout
  1
Layout1
 70
     1
 71
     1
 10
0.0
 20
0.0
 11
420.0
 21
297.0
 12
0.0
 22
0.0
 32
0.0
 14
1.000000000000000E+20
 24
1.000000000000000E+20
 34
1.000000000000000E+20
 15
-1.000000000000000E+20
 25
-1.000000000000000E+20
 35
-1.000000000000000E+20
146
0.0
 13
0.0
 23
0.0
 33
0.0
 16
1.0
 26
0.0
 36
0.0
 17
0.0
 27
1.0
 37
0.0
 76
     0
330
1B
  0
LAYOUT
  5
26
102
{ACAD_REACTORS
330
1A
102
}
330
1A
100
AcDbPlotSettings
  1

  2
none_device
  4

  6

 40
0.0
 41
0.0
 42
0.0
 43
0.0
 44
0.0
 45
0.0
 46
0.0
 47
0.0
 48
0.0
 49
0.0
140
0.0
141
0.0
142
1.0
143
1.0
 70
   688
 72
     1
 73
     0
 74
     5
  7

 75
    16
147
1.0
148
0.0
149
0.0
100
AcDbLayout
  1
Layout2
 70
     1
 71
     2
 10
0.0
 20
0.0
 11
0.0
 21
0.0
 12
0.0
 22
0.0
 32
0.0
 14
0.0
 24
0.0
 34
0.0
 15
0.0
 25
0.0
 35
0.0
146
0.0
 13
0.0
 23
0.0
 33
0.0
 16
1.0
 26
0.0
 36
0.0
 17
0.0
 27
1.0
 37
0.0
 76
     0
330
23
  0
LAYOUT
  5
22
102
{ACAD_REACTORS
330
1A
102
}
330
1A
100
AcDbPlotSettings
  1

  2
none_device
  4
ANSI_A_(11.00_x_8.50_Inches)
  6

 40
6.35
 41
19.05
 42
6.35000508
 43
19.05000254
 44
279.4
 45
215.9
 46
163.3857224710441
 47
105.0683415104176
 48
0.0
 49
0.0
140
0.0
141
0.0
142
0.065578048070227
143
1.0
 70
  1696
 72
     0
 73
     0
 74
     0
  7

 75
     0
147
0.0235690232323232
148
0.0
149
0.0
100
AcDbLayout
  1
Model
 70
     1
 71
     0
 10
0.0
 20
0.0
 11
420.0
 21
297.0
 12
0.0
 22
0.0
 32
0.0
 14
-106.2218145886232
 24
-49.97073246008785
 34
0.0
 15
72.92768859299117
 25
31.16341044024268
 35
0.0
146
0.0
 13
0.0
 23
0.0
 33
0.0
 16
1.0
 26
0.0
 36
0.0
 17
0.0
 27
1.0
 37
0.0
 76
     0
330
1F
331
29
  0
MLINESTYLE
  5
18
102
{ACAD_REACTORS
330
17
102
}
330
17
100
AcDbMlineStyle
  2
Standard
 70
     0
  3

 62
   256
 51
90.0
 52
90.0
 71
     2
 49
0.5
 62
   256
  6
BYLAYER
 49
-0.5
 62
   256
  6
BYLAYER
  0
ACDBPLACEHOLDER
  5
F
102
{ACAD_REACTORS
330
E
102
}
330
E
  0
SCALE
  5
48
102
{ACAD_REACTORS
330
47
102
}
330
47
100
AcDbScale
 70
     0
300
1:1
140
1.0
141
1.0
290
     1
  0
SCALE
  5
49
102
{ACAD_REACTORS
330
47
102
}
330
47
100
AcDbScale
 70
     0
300
1:2
140
1.0
141
2.0
290
     0
  0
SCALE
  5
4A
102
{ACAD_REACTORS
330
47
102
}
330
47
100
AcDbScale
 70
     0
300
1:4
140
1.0
141
4.0
290
     0
  0
SCALE
  5
4B
102
{ACAD_REACTORS
330
47
102
}
330
47
100
AcDbScale
 70
     0
300
1:5
140
1.0
141
5.0
290
     0
  0
SCALE
  5
4C
102
{ACAD_REACTORS
330
47
102
}
330
47
100
AcDbScale
 70
     0
300
1:8
140
1.0
141
8.0
290
     0
  0
SCALE
  5
4D
102
{ACAD_REACTORS
330
47
102
}
330
47
100
AcDbScale
 70
     0
300
1:10
140
1.0
141
10.0
290
     0
  0
SCALE
  5
4E
102
{ACAD_REACTORS
330
47
102
}
330
47
100
AcDbScale
 70
     0
300
1:16
140
1.0
141
16.0
290
     0
  0
SCALE
  5
4F
102
{ACAD_REACTORS
330
47
102
}
330
47
100
AcDbScale
 70
     0
300
1:20
140
1.0
141
20.0
290
     0
  0
SCALE
  5
50
102
{ACAD_REACTORS
330
47
102
}
330
47
100
AcDbScale
 70
     0
300
1:30
140
1.0
141
30.0
290
     0
  0
SCALE
  5
51
102
{ACAD_REACTORS
330
47
102
}
330
47
100
AcDbScale
 70
     0
300
1:40
140
1.0
141
40.0
290
     0
  0
SCALE
  5
52
102
{ACAD_REACTORS
330
47
102
}
330
47
100
AcDbScale
 70
     0
300
1:50
140
1.0
141
50.0
290
     0
  0
SCALE
  5
53
102
{ACAD_REACTORS
330
47
102
}
330
47
100
AcDbScale
 70
     0
300
1:100
140
1.0
141
100.0
290
     0
  0
SCALE
  5
54
102
{ACAD_REACTORS
330
47
102
}
330
47
100
AcDbScale
 70
     0
300
2:1
140
2.0
141
1.0
290
     0
  0
SCALE
  5
55
102
{ACAD_REACTORS
330
47
102
}
330
47
100
AcDbScale
 70
     0
300
4:1
140
4.0
141
1.0
290
     0
  0
SCALE
  5
56
102
{ACAD_REACTORS
330
47
102
}
330
47
100
AcDbScale
 70
     0
300
8:1
140
8.0
141
1.0
290
     0
  0
SCALE
  5
57
102
{ACAD_REACTORS
330
47
102
}
330
47
100
AcDbScale
 70
     0
300
10:1
140
10.0
141
1.0
290
     0
  0
SCALE
  5
58
102
{ACAD_REACTORS
330
47
102
}
330
47
100
AcDbScale
 70
     0
300
100:1
140
100.0
141
1.0
290
     0
  0
SCALE
  5
59
102
{ACAD_REACTORS
330
47
102
}
330
47
100
AcDbScale
 70
     0
300
1/128" = 1'-0"
140
0.0078125
141
12.0
290
     0
  0
SCALE
  5
5A
102
{ACAD_REACTORS
330
47
102
}
330
47
100
AcDbScale
 70
     0
300
1/64" = 1'-0"
140
0.015625
141
12.0
290
     0
  0
SCALE
  5
5B
102
{ACAD_REACTORS
330
47
102
}
330
47
100
AcDbScale
 70
     0
300
1/32" = 1'-0"
140
0.03125
141
12.0
290
     0
  0
SCALE
  5
5C
102
{ACAD_REACTORS
330
47
102
}
330
47
100
AcDbScale
 70
     0
300
1/16" = 1'-0"
140
0.0625
141
12.0
290
     0
  0
SCALE
  5
5D
102
{ACAD_REACTORS
330
47
102
}
330
47
100
AcDbScale
 70
     0
300
3/32" = 1'-0"
140
0.09375
141
12.0
290
     0
  0
SCALE
  5
5E
102
{ACAD_REACTORS
330
47
102
}
330
47
100
AcDbScale
 70
     0
300
1/8" = 1'-0"
140
0.125
141
12.0
290
     0
  0
SCALE
  5
5F
102
{ACAD_REACTORS
330
47
102
}
330
47
100
AcDbScale
 70
     0
300
3/16" = 1'-0"
140
0.1875
141
12.0
290
     0
  0
SCALE
  5
60
102
{ACAD_REACTORS
330
47
102
}
330
47
100
AcDbScale
 70
     0
300
1/4" = 1'-0"
140
0.25
141
12.0
290
     0
  0
SCALE
  5
61
102
{ACAD_REACTORS
330
47
102
}
330
47
100
AcDbScale
 70
     0
300
3/8" = 1'-0"
140
0.375
141
12.0
290
     0
  0
SCALE
  5
62
102
{ACAD_REACTORS
330
47
102
}
330
47
100
AcDbScale
 70
     0
300
1/2" = 1'-0"
140
0.5
141
12.0
290
     0
  0
SCALE
  5
63
102
{ACAD_REACTORS
330
47
102
}
330
47
100
AcDbScale
 70
     0
300
3/4" = 1'-0"
140
0.75
141
12.0
290
     0
  0
SCALE
  5
64
102
{ACAD_REACTORS
330
47
102
}
330
47
100
AcDbScale
 70
     0
300
1" = 1'-0"
140
1.0
141
12.0
290
     0
  0
SCALE
  5
65
102
{ACAD_REACTORS
330
47
102
}
330
47
100
AcDbScale
 70
     0
300
1-1/2" = 1'-0"
140
1.5
141
12.0
290
     0
  0
SCALE
  5
66
102
{ACAD_REACTORS
330
47
102
}
330
47
100
AcDbScale
 70
     0
300
3" = 1'-0"
140
3.0
141
12.0
290
     0
  0
SCALE
  5
67
102
{ACAD_REACTORS
330
47
102
}
330
47
100
AcDbScale
 70
     0
300
6" = 1'-0"
140
6.0
141
12.0
290
     0
  0
SCALE
  5
68
102
{ACAD_REACTORS
330
47
102
}
330
47
100
AcDbScale
 70
     0
300
1'-0" = 1'-0"
140
12.0
141
12.0
290
     0
  0
ENDSEC
  0
EOF
