  0
SECTION
  2
HEADER
  9
$ACADVER
  1
AC1015
  9
$ACADMAINTVER
 70
     6
  9
$DWGCODEPAGE
  3
ANSI_949
  9
$INSBASE
 10
0.0
 20
0.0
 30
0.0
  9
$EXTMIN
 10
-55.42327816870877
 20
-49.97073246008785
 30
0.0
  9
$EXTMAX
 10
76.24508595231868
 20
31.1634104402427
 30
0.0
  9
$LIMMIN
 10
0.0
 20
0.0
  9
$LIMMAX
 10
420.0
 20
297.0
  9
$ORTHOMODE
 70
     0
  9
$REGENMODE
 70
     1
  9
$FILLMODE
 70
     1
  9
$QTEXTMODE
 70
     0
  9
$MIRRTEXT
 70
     1
  9
$LTSCALE
 40
1.0
  9
$ATTMODE
 70
     1
  9
$TEXTSIZE
 40
3.5
  9
$TRACEWID
 40
1.0
  9
$TEXTSTYLE
  7
Standard
  9
$CLAYER
  8
0
  9
$CELTYPE
  6
ByLayer
  9
$CECOLOR
 62
   256
  9
$CELTSCALE
 40
1.0
  9
$DISPSILH
 70
     0
  9
$DIMSCALE
 40
1.0
  9
$DIMASZ
 40
3.302
  9
$DIMEXO
 40
1.0
  9
$DIMDLI
 40
3.75
  9
$DIMRND
 40
0.0
  9
$DIMDLE
 40
0.0
  9
$DIMEXE
 40
1.0
  9
$DIMTP
 40
0.0
  9
$DIMTM
 40
0.0
  9
$DIMTXT
 40
3.5
  9
$DIMCEN
 40
2.5
  9
$DIMTSZ
 40
0.0
  9
$DIMTOL
 70
     0
  9
$DIMLIM
 70
     0
  9
$DIMTIH
 70
     1
  9
$DIMTOH
 70
     1
  9
$DIMSE1
 70
     0
  9
$DIMSE2
 70
     0
  9
$DIMTAD
 70
     1
  9
$DIMZIN
 70
     0
  9
$DIMBLK
  1

  9
$DIMASO
 70
     1
  9
$DIMSHO
 70
     1
  9
$DIMPOST
  1

  9
$DIMAPOST
  1

  9
$DIMALT
 70
     0
  9
$DIMALTD
 70
     3
  9
$DIMALTF
 40
0.0393700787401575
  9
$DIMLFAC
 40
1.0
  9
$DIMTOFL
 70
     1
  9
$DIMTVP
 40
0.0
  9
$DIMTIX
 70
     0
  9
$DIMSOXD
 70
     0
  9
$DIMSAH
 70
     0
  9
$DIMBLK1
  1

  9
$DIMBLK2
  1

  9
$DIMSTYLE
  2
ISO-25
  9
$DIMCLRD
 70
     0
  9
$DIMCLRE
 70
     0
  9
$DIMCLRT
 70
     0
  9
$DIMTFAC
 40
1.0
  9
$DIMGAP
 40
1.524
  9
$DIMJUST
 70
     0
  9
$DIMSD1
 70
     0
  9
$DIMSD2
 70
     0
  9
$DIMTOLJ
 70
     0
  9
$DIMTZIN
 70
     0
  9
$DIMALTZ
 70
     0
  9
$DIMALTTZ
 70
     0
  9
$DIMUPT
 70
     0
  9
$DIMDEC
 70
     2
  9
$DIMTDEC
 70
     2
  9
$DIMALTU
 70
     2
  9
$DIMALTTD
 70
     3
  9
$DIMTXSTY
  7
Standard
  9
$DIMAUNIT
 70
     0
  9
$DIMADEC
 70
     2
  9
$DIMALTRND
 40
0.0
  9
$DIMAZIN
 70
     0
  9
$DIMDSEP
 70
    44
  9
$DIMATFIT
 70
     3
  9
$DIMFRAC
 70
     0
  9
$DIMLDRBLK
  1

  9
$DIMLUNIT
 70
     2
  9
$DIMLWD
 70
    -2
  9
$DIMLWE
 70
    -2
  9
$DIMTMOVE
 70
     0
  9
$LUNITS
 70
     2
  9
$LUPREC
 70
     2
  9
$SKETCHINC
 40
1.0
  9
$FILLETRAD
 40
10.0
  9
$AUNITS
 70
     0
  9
$AUPREC
 70
     2
  9
$MENU
  1
.
  9
$ELEVATION
 40
0.0
  9
$PELEVATION
 40
0.0
  9
$THICKNESS
 40
0.0
  9
$LIMCHECK
 70
     0
  9
$CHAMFERA
 40
0.0
  9
$CHAMFERB
 40
0.0
  9
$CHAMFERC
 40
0.0
  9
$CHAMFERD
 40
0.0
  9
$SKPOLY
 70
     0
  9
$TDCREATE
 40
2458262.548112523
  9
$TDUCREATE
 40
2458262.173112523
  9
$TDUPDATE
 40
2458266.493318056
  9
$TDUUPDATE
 40
2458266.118318056
  9
$TDINDWG
 40
0.0015489236
  9
$TDUSRTIMER
 40
2458266.116769178
  9
$USRTIMER
 70
     1
  9
$ANGBASE
 50
0.0
  9
$ANGDIR
 70
     0
  9
$PDMODE
 70
     0
  9
$PDSIZE
 40
-1.0
  9
$PLINEWID
 40
0.0
  9
$SPLFRAME
 70
     0
  9
$SPLINETYPE
 70
     6
  9
$SPLINESEGS
 70
     8
  9
$HANDSEED
  5
140
  9
$SURFTAB1
 70
     6
  9
$SURFTAB2
 70
     6
  9
$SURFTYPE
 70
     6
  9
$SURFU
 70
     6
  9
$SURFV
 70
     6
  9
$UCSBASE
  2

  9
$UCSNAME
  2

  9
$UCSORG
 10
0.0
 20
0.0
 30
0.0
  9
$UCSXDIR
 10
1.0
 20
0.0
 30
0.0
  9
$UCSYDIR
 10
0.0
 20
1.0
 30
0.0
  9
$UCSORTHOREF
  2

  9
$UCSORTHOVIEW
 70
     0
  9
$UCSORGTOP
 10
0.0
 20
0.0
 30
0.0
  9
$UCSORGBOTTOM
 10
0.0
 20
0.0
 30
0.0
  9
$UCSORGLEFT
 10
0.0
 20
0.0
 30
0.0
  9
$UCSORGRIGHT
 10
0.0
 20
0.0
 30
0.0
  9
$UCSORGFRONT
 10
0.0
 20
0.0
 30
0.0
  9
$UCSORGBACK
 10
0.0
 20
0.0
 30
0.0
  9
$PUCSBASE
  2

  9
$PUCSNAME
  2

  9
$PUCSORG
 10
0.0
 20
0.0
 30
0.0
  9
$PUCSXDIR
 10
1.0
 20
0.0
 30
0.0
  9
$PUCSYDIR
 10
0.0
 20
1.0
 30
0.0
  9
$PUCSORTHOREF
  2

  9
$PUCSORTHOVIEW
 70
     0
  9
$PUCSORGTOP
 10
0.0
 20
0.0
 30
0.0
  9
$PUCSORGBOTTOM
 10
0.0
 20
0.0
 30
0.0
  9
$PUCSORGLEFT
 10
0.0
 20
0.0
 30
0.0
  9
$PUCSORGRIGHT
 10
0.0
 20
0.0
 30
0.0
  9
$PUCSORGFRONT
 10
0.0
 20
0.0
 30
0.0
  9
$PUCSORGBACK
 10
0.0
 20
0.0
 30
0.0
  9
$USERI1
 70
     0
  9
$USERI2
 70
     0
  9
$USERI3
 70
     0
  9
$USERI4
 70
     0
  9
$USERI5
 70
     0
  9
$USERR1
 40
0.0
  9
$USERR2
 40
0.0
  9
$USERR3
 40
0.0
  9
$USERR4
 40
0.0
  9
$USERR5
 40
0.0
  9
$WORLDVIEW
 70
     1
  9
$SHADEDGE
 70
     3
  9
$SHADEDIF
 70
    70
  9
$TILEMODE
 70
     1
  9
$MAXACTVP
 70
    64
  9
$PINSBASE
 10
0.0
 20
0.0
 30
0.0
  9
$PLIMCHECK
 70
     0
  9
$PEXTMIN
 10
1.000000000000000E+20
 20
1.000000000000000E+20
 30
1.000000000000000E+20
  9
$PEXTMAX
 10
-1.000000000000000E+20
 20
-1.000000000000000E+20
 30
-1.000000000000000E+20
  9
$PLIMMIN
 10
0.0
 20
0.0
  9
$PLIMMAX
 10
0.0
 20
0.0
  9
$UNITMODE
 70
     0
  9
$VISRETAIN
 70
     1
  9
$PLINEGEN
 70
     0
  9
$PSLTSCALE
 70
     1
  9
$TREEDEPTH
 70
  3020
  9
$CMLSTYLE
  2
Standard
  9
$CMLJUST
 70
     0
  9
$CMLSCALE
 40
20.0
  9
$PROXYGRAPHICS
 70
     1
  9
$MEASUREMENT
 70
     1
  9
$CELWEIGHT
370
    -1
  9
$ENDCAPS
280
     0
  9
$JOINSTYLE
280
     0
  9
$LWDISPLAY
290
     1
  9
$INSUNITS
 70
     4
  9
$HYPERLINKBASE
  1

  9
$STYLESHEET
  1

  9
$XEDIT
290
     1
  9
$CEPSNTYPE
380
     0
  9
$PSTYLEMODE
290
     1
  9
$FINGERPRINTGUID
  2
{44A0ADD5-3BE7-4AE6-9A54-458E7F2117B1}
  9
$VERSIONGUID
  2
{FAEB1C32-E019-11D5-929B-00C0DF256EC4}
  9
$EXTNAMES
290
     1
  9
$PSVPSCALE
 40
0.0
  9
$OLESTARTUP
290
     0
  0
ENDSEC
  0
SECTION
  2
CLASSES
  0
CLASS
  1
ACDBDICTIONARYWDFLT
  2
AcDbDictionaryWithDefault
  3
ObjectDBX Classes
 90
        0
280
     0
281
     0
  0
CLASS
  1
VISUALSTYLE
  2
AcDbVisualStyle
  3
ObjectDBX Classes
 90
     4095
280
     0
281
     0
  0
CLASS
  1
MATERIAL
  2
AcDbMaterial
  3
ObjectDBX Classes
 90
     1153
280
     0
281
     0
  0
CLASS
  1
SCALE
  2
AcDbScale
  3
ObjectDBX Classes
 90
     1153
280
     0
281
     0
  0
CLASS
  1
SUN
  2
AcDbSun
  3
SCENEOE
 90
     1153
280
     0
281
     0
  0
CLASS
  1
ACDBPLACEHOLDER
  2
AcDbPlaceHolder
  3
ObjectDBX Classes
 90
        0
280
     0
281
     0
  0
CLASS
  1
LAYOUT
  2
AcDbLayout
  3
ObjectDBX Classes
 90
        0
280
     0
281
     0
  0
CLASS
  1
TABLESTYLE
  2
AcDbTableStyle
  3
ObjectDBX Classes
 90
     4095
280
     0
281
     0
  0
CLASS
  1
MLEADERSTYLE
  2
AcDbMLeaderStyle
  3
ACDB_MLEADERSTYLE_CLASS
 90
     4095
280
     0
281
     0
  0
CLASS
  1
RASTERVARIABLES
  2
AcDbRasterVariables
  3
ISM
 90
        0
280
     0
281
     0
  0
ENDSEC
  0
SECTION
  2
TABLES
  0
TABLE
  2
VPORT
  5
8
330
0
100
AcDbSymbolTable
 70
     1
  0
VPORT
  5
29
330
8
100
AcDbSymbolTableRecord
100
AcDbViewportTableRecord
  2
*Active
 70
     0
 10
0.0
 20
0.0
 11
1.0
 21
1.0
 12
10.41090389180496
 22
-9.40366100992258
 13
0.0
 23
0.0
 14
10.0
 24
10.0
 15
10.0
 25
10.0
 16
0.0
 26
0.0
 36
1.0
 17
0.0
 27
0.0
 37
0.0
 40
116.53535886353
 41
1.152454780361757
 42
50.0
 43
0.0
 44
0.0
 50
0.0
 51
0.0
 71
    16
 72
  2000
 73
     1
 74
     3
 75
     0
 76
     0
 77
     0
 78
     0
281
     0
 65
     1
110
0.0
120
0.0
130
0.0
111
1.0
121
0.0
131
0.0
112
0.0
122
1.0
132
0.0
 79
     0
146
0.0
  0
ENDTAB
  0
TABLE
  2
LTYPE
  5
5
330
0
100
AcDbSymbolTable
 70
     6
  0
LTYPE
  5
14
330
5
100
AcDbSymbolTableRecord
100
AcDbLinetypeTableRecord
  2
ByBlock
 70
     0
  3

 72
    65
 73
     0
 40
0.0
  0
LTYPE
  5
15
330
5
100
AcDbSymbolTableRecord
100
AcDbLinetypeTableRecord
  2
ByLayer
 70
     0
  3

 72
    65
 73
     0
 40
0.0
  0
LTYPE
  5
16
330
5
100
AcDbSymbolTableRecord
100
AcDbLinetypeTableRecord
  2
Continuous
 70
     0
  3
Solid line
 72
    65
 73
     0
 40
0.0
  0
LTYPE
  5
6A
330
5
100
AcDbSymbolTableRecord
100
AcDbLinetypeTableRecord
  2
HIDDEN
 70
     0
  3
Hidden __ __ __ __ __ __ __ __ __ __ __ __ __ __
 72
    65
 73
     2
 40
1.905
 49
1.27
 74
     0
 49
-0.635
 74
     0
  0
LTYPE
  5
6B
330
5
100
AcDbSymbolTableRecord
100
AcDbLinetypeTableRecord
  2
PHANTOM
 70
     0
  3
Phantom ______  __  __  ______  __  __  ______
 72
    65
 73
     6
 40
12.7
 49
6.35
 74
     0
 49
-1.27
 74
     0
 49
1.27
 74
     0
 49
-1.27
 74
     0
 49
1.27
 74
     0
 49
-1.27
 74
     0
  0
LTYPE
  5
6C
330
5
100
AcDbSymbolTableRecord
100
AcDbLinetypeTableRecord
  2
CENTER
 70
     0
  3
Center ____ _ ____ _ ____ _ ____ _ ____ _ ____
 72
    65
 73
     4
 40
10.16
 49
6.35
 74
     0
 49
-1.27
 74
     0
 49
1.27
 74
     0
 49
-1.27
 74
     0
  0
LTYPE
  5
6D
330
5
100
AcDbSymbolTableRecord
100
AcDbLinetypeTableRecord
  2
CENTERX2
 70
     0
  3
Center (2x) ________  __  ________  __  _____
 72
    65
 73
     4
 40
20.32
 49
12.7
 74
     0
 49
-2.54
 74
     0
 49
2.54
 74
     0
 49
-2.54
 74
     0
  0
LTYPE
  5
6E
330
5
100
AcDbSymbolTableRecord
100
AcDbLinetypeTableRecord
  2
DOT2
 70
     0
  3
Dot (.5x) ........................................
 72
    65
 73
     2
 40
0.635
 49
0.0
 74
     0
 49
-0.635
 74
     0
  0
ENDTAB
  0
TABLE
  2
LAYER
  5
2
330
0
100
AcDbSymbolTable
 70
    17
  0
LAYER
  5
10
330
2
100
AcDbSymbolTableRecord
100
AcDbLayerTableRecord
  2
0
 70
     0
 62
     7
  6
Continuous
370
    -3
390
F
  0
LAYER
  5
6F
330
2
100
AcDbSymbolTableRecord
100
AcDbLayerTableRecord
  2
FORMAT
 70
     0
 62
     2
  6
Continuous
370
    -3
390
F
  0
LAYER
  5
70
330
2
100
AcDbSymbolTableRecord
100
AcDbLayerTableRecord
  2
외형선
 70
     0
 62
   100
  6
Continuous
370
    30
390
F
  0
LAYER
  5
71
330
2
100
AcDbSymbolTableRecord
100
AcDbLayerTableRecord
  2
숨은선
 70
     0
 62
     2
  6
HIDDEN
370
    15
390
F
  0
LAYER
  5
72
330
2
100
AcDbSymbolTableRecord
100
AcDbLayerTableRecord
  2
중심선
 70
     0
 62
     1
  6
CENTERX2
370
    -3
390
F
  0
LAYER
  5
73
330
2
100
AcDbSymbolTableRecord
100
AcDbLayerTableRecord
  2
파단선
 70
     0
 62
     4
  6
Continuous
370
    -3
390
F
  0
LAYER
  5
74
330
2
100
AcDbSymbolTableRecord
100
AcDbLayerTableRecord
  2
해칭선
 70
     0
 62
     4
  6
Continuous
370
    -3
390
F
  0
LAYER
  5
75
330
2
100
AcDbSymbolTableRecord
100
AcDbLayerTableRecord
  2
가는실선
 70
     0
 62
     4
  6
Continuous
370
    -3
390
F
  0
LAYER
  5
76
330
2
100
AcDbSymbolTableRecord
100
AcDbLayerTableRecord
  2
치수_보조선
 70
     0
 62
     4
  6
Continuous
370
    -3
390
F
  0
LAYER
  5
77
330
2
100
AcDbSymbolTableRecord
100
AcDbLayerTableRecord
  2
치수문자_일반주서
 70
     0
 62
     7
  6
Continuous
370
    15
390
F
  0
LAYER
  5
78
330
2
100
AcDbSymbolTableRecord
100
AcDbLayerTableRecord
  2
개별주서
 70
     0
 62
   100
  6
Continuous
370
    30
390
F
  0
LAYER
  5
79
330
2
100
AcDbSymbolTableRecord
100
AcDbLayerTableRecord
  2
중간선
 70
     0
 62
     2
  6
Continuous
370
    15
390
F
  0
LAYER
  5
7A
330
2
100
AcDbSymbolTableRecord
100
AcDbLayerTableRecord
  2
윤곽선
 70
     0
 62
     3
  6
Continuous
370
    40
390
F
  0
LAYER
  5
7B
330
2
100
AcDbSymbolTableRecord
100
AcDbLayerTableRecord
  2
중심마크
 70
     0
 62
   100
  6
Continuous
370
    30
390
F
  0
LAYER
  5
7C
330
2
100
AcDbSymbolTableRecord
100
AcDbLayerTableRecord
  2
가상선
 70
     0
 62
     4
  6
PHANTOM
370
    -3
390
F
  0
LAYER
  5
7D
330
2
100
AcDbSymbolTableRecord
100
AcDbLayerTableRecord
  2
특수지정선
 70
     0
 62
     5
  6
CENTERX2
370
    60
390
F
  0
LAYER
  5
131
330
2
100
AcDbSymbolTableRecord
100
AcDbLayerTableRecord
  2
Defpoints
 70
     0
 62
     7
  6
Continuous
290
     0
370
    -3
390
F
  0
ENDTAB
  0
TABLE
  2
STYLE
  5
3
330
0
100
AcDbSymbolTable
 70
     2
  0
STYLE
  5
11
330
3
100
AcDbSymbolTableRecord
100
AcDbTextStyleTableRecord
  2
Standard
 70
     0
 40
0.0
 41
1.0
 50
0.0
 71
     0
 42
3.5
  3
txt
  4

  0
STYLE
  5
93
330
3
100
AcDbSymbolTableRecord
100
AcDbTextStyleTableRecord
  2
SLDTEXTSTYLE0
 70
     0
 40
0.0
 41
0.75
 50
0.0
 71
     0
 42
3.5
  3
TXT
  4

  0
ENDTAB
  0
TABLE
  2
VIEW
  5
6
330
0
100
AcDbSymbolTable
 70
     0
  0
ENDTAB
  0
TABLE
  2
UCS
  5
7
330
0
100
AcDbSymbolTable
 70
     0
  0
ENDTAB
  0
TABLE
  2
APPID
  5
9
330
0
100
AcDbSymbolTable
 70
     1
  0
APPID
  5
12
330
9
100
AcDbSymbolTableRecord
100
AcDbRegAppTableRecord
  2
ACAD
 70
     0
  0
ENDTAB
  0
TABLE
  2
DIMSTYLE
  5
A
330
0
100
AcDbSymbolTable
 70
     3
100
AcDbDimStyleTable
  0
DIMSTYLE
105
27
330
A
100
AcDbSymbolTableRecord
100
AcDbDimStyleTableRecord
  2
ISO-25
 70
     0
 41
2.5
 42
0.625
 43
3.75
 44
1.25
 73
     0
 74
     0
 77
     1
 78
     8
140
2.5
141
2.5
143
0.03937007874016
147
0.625
171
     3
172
     1
178
     0
271
     2
272
     2
274
     3
278
    44
283
     0
284
     8
340
11
  0
DIMSTYLE
105
D7
102
{ACAD_REACTORS
330
D6
330
F9
102
}
330
A
100
AcDbSymbolTableRecord
100
AcDbDimStyleTableRecord
  2
SLDDIMSTYLE0
 70
     0
 41
3.302
 44
0.0
 45
0.000000001
 73
     0
 74
     0
 77
     1
 78
    12
 79
     3
140
3.5
147
0.875
172
     1
173
     1
178
     0
271
     2
272
     2
276
     2
284
    12
289
     0
340
93
  0
DIMSTYLE
105
E5
102
{ACAD_REACTORS
330
E4
330
EF
102
}
330
A
100
AcDbSymbolTableRecord
100
AcDbDimStyleTableRecord
  2
SLDDIMSTYLE1
 70
     0
 41
3.302
 44
0.0
 45
0.000000001
 73
     0
 74
     0
 77
     1
 78
    12
 79
     3
140
3.5
147
0.875
173
     1
178
     0
271
     2
272
     2
276
     2
284
    12
340
93
  0
ENDTAB
  0
TABLE
  2
BLOCK_RECORD
  5
1
330
0
100
AcDbSymbolTable
 70
     7
  0
BLOCK_RECORD
  5
1F
330
1
100
AcDbSymbolTableRecord
100
AcDbBlockTableRecord
  2
*Model_Space
340
22
  0
BLOCK_RECORD
  5
1B
330
1
100
AcDbSymbolTableRecord
100
AcDbBlockTableRecord
  2
*Paper_Space
340
1E
  0
BLOCK_RECORD
  5
23
330
1
100
AcDbSymbolTableRecord
100
AcDbBlockTableRecord
  2
*Paper_Space0
340
26
  0
BLOCK_RECORD
  5
7E
330
1
100
AcDbSymbolTableRecord
100
AcDbBlockTableRecord
  2
블럭10
340
0
102
{BLKREFS
331
CF
102
}
  0
BLOCK_RECORD
  5
D8
330
1
100
AcDbSymbolTableRecord
100
AcDbBlockTableRecord
  2
_D
340
0
  0
BLOCK_RECORD
  5
E6
330
1
100
AcDbSymbolTableRecord
100
AcDbBlockTableRecord
  2
_D_1
340
0
  0
BLOCK_RECORD
  5
F0
330
1
100
AcDbSymbolTableRecord
100
AcDbBlockTableRecord
  2
_D_2
340
0
  0
BLOCK_RECORD
  5
FA
330
1
100
AcDbSymbolTableRecord
100
AcDbBlockTableRecord
  2
_D_3
340
0
  0
BLOCK_RECORD
  5
106
330
1
100
AcDbSymbolTableRecord
100
AcDbBlockTableRecord
  2
SW_DOWELSYMBOL_0
340
0
102
{BLKREFS
331
10C
102
}
  0
ENDTAB
  0
ENDSEC
  0
SECTION
  2
BLOCKS
  0
BLOCK
  5
20
330
1F
100
AcDbEntity
  8
0
100
AcDbBlockBegin
  2
*Model_Space
 70
     0
 10
0.0
 20
0.0
 30
0.0
  3
*Model_Space
  1

  0
ENDBLK
  5
21
330
1F
100
AcDbEntity
  8
0
100
AcDbBlockEnd
  0
BLOCK
  5
1C
330
1B
100
AcDbEntity
 67
     1
  8
0
100
AcDbBlockBegin
  2
*Paper_Space
 70
     0
 10
0.0
 20
0.0
 30
0.0
  3
*Paper_Space
  1

  0
ENDBLK
  5
1D
330
1B
100
AcDbEntity
 67
     1
  8
0
100
AcDbBlockEnd
  0
BLOCK
  5
24
330
23
100
AcDbEntity
  8
0
100
AcDbBlockBegin
  2
*Paper_Space0
 70
     0
 10
0.0
 20
0.0
 30
0.0
  3
*Paper_Space0
  1

  0
ENDBLK
  5
25
330
23
100
AcDbEntity
  8
0
100
AcDbBlockEnd
  0
BLOCK
  5
7F
330
7E
100
AcDbEntity
  8
0
100
AcDbBlockBegin
  2
블럭10
 70
     2
 10
0.0
 20
0.0
 30
0.0
  3
블럭10
  1

  0
ELLIPSE
  5
81
330
7E
100
AcDbEntity
  8
중심선
100
AcDbEllipse
 10
20.54032771741204
 20
12.0471743016438
 30
0.0
 11
6.600054785286829
 21
-1.261213355974178E-13
 31
0.0
210
0.0
220
0.0
230
1.0
 40
0.636358354079598
 41
0.9219305317359503
 42
6.513795318482858
  0
ELLIPSE
  5
82
330
7E
100
AcDbEntity
  8
중심선
100
AcDbEllipse
 10
20.54032771746488
 20
12.04717430159265
 30
0.0
 11
3.960054785062283
 21
1.540847449632565E-10
 31
0.0
210
0.0
220
0.0
230
1.0
 40
0.3939339440162632
 41
1.131841032648279
 42
5.62031148352944
  0
LINE
  5
83
330
7E
100
AcDbEntity
  8
중심선
100
AcDbLine
 10
2.268634060543552
 20
16.24717430164393
 30
0.0
 11
5.714909304380834
 21
16.24717430164393
 31
0.0
  0
LINE
  5
84
330
7E
100
AcDbEntity
  8
중심선
100
AcDbLine
 10
5.245725140726316
 20
7.84717430164391
 30
0.0
 11
8.692000384563599
 21
7.84717430164391
 31
0.0
  0
LINE
  5
85
330
7E
100
AcDbEntity
  8
중심선
100
AcDbLine
 10
15.74043728645272
 20
16.24717430164393
 30
0.0
 11
8.692000384563599
 21
7.84717430164391
 31
0.0
  0
LINE
  5
86
330
7E
100
AcDbEntity
  8
중심선
100
AcDbLine
 10
0.1404042013395286
 20
13.71084872107135
 30
0.0
 11
3.58671253028996
 21
13.71088815037384
 31
0.0
  0
LINE
  5
87
330
7E
100
AcDbEntity
  8
중심선
100
AcDbLine
 10
2.750260043222114
 20
10.84717430164391
 30
0.0
 11
6.196535287059397
 21
10.84717430164391
 31
0.0
  0
LINE
  5
88
330
7E
100
AcDbEntity
  8
중심선
100
AcDbLine
 10
12.29416204261559
 20
16.24717430164393
 30
0.0
 11
5.245725140726316
 21
7.84717430164391
 31
0.0
  0
LINE
  5
89
330
7E
100
AcDbEntity
  8
중심선
100
AcDbLine
 10
10.72767329541681
 20
16.24717430164393
 30
0.0
 11
6.196535287059397
 21
10.84717430164391
 31
0.0
  0
LINE
  5
8A
330
7E
100
AcDbEntity
  8
중심선
100
AcDbLine
 10
7.28139805157953
 20
16.24717430164393
 30
0.0
 11
2.750260043222114
 21
10.84717430164391
 31
0.0
  0
LINE
  5
8B
330
7E
100
AcDbEntity
  8
중심선
100
AcDbLine
 10
5.714909304380834
 20
16.24717430164393
 30
0.0
 11
3.58671253028996
 21
13.71088815037384
 31
0.0
  0
LINE
  5
8C
330
7E
100
AcDbEntity
  8
중심선
100
AcDbLine
 10
2.268634060543552
 20
16.24717430164393
 30
0.0
 11
0.1404042013395286
 21
13.71084872107135
 31
0.0
  0
LINE
  5
8D
330
7E
100
AcDbEntity
  8
중심선
100
AcDbLine
 10
7.28139805157953
 20
16.24717430164393
 30
0.0
 11
10.72767329541681
 21
16.24717430164393
 31
0.0
  0
LINE
  5
8E
330
7E
100
AcDbEntity
  8
중심선
100
AcDbLine
 10
12.29416204261559
 20
16.24717430164393
 30
0.0
 11
15.74043728645272
 21
16.24717430164393
 31
0.0
  0
LINE
  5
8F
330
7E
100
AcDbEntity
  8
중심선
100
AcDbLine
 10
19.22036997980202
 20
11.08717430171403
 30
0.0
 11
23.66174974927406
 21
11.08717430171406
 31
0.0
  0
LINE
  5
90
330
7E
100
AcDbEntity
  8
중심선
100
AcDbLine
 10
19.22039502424796
 20
13.00717430171391
 30
0.0
 11
19.22036997980202
 21
11.08717430171403
 31
0.0
  0
LINE
  5
91
330
7E
100
AcDbEntity
  8
중심선
100
AcDbLine
 10
19.22039502424796
 20
13.00717430171391
 30
0.0
 11
26.96566020931264
 21
13.00717430171391
 31
0.0
  0
LINE
  5
92
330
7E
100
AcDbEntity
  8
중심선
100
AcDbLine
 10
22.22332737316547
 20
13.45928029700563
 30
0.0
 11
24.52862924686651
 21
15.39360700705356
 31
0.0
  0
ATTDEF
  5
94
330
7E
100
AcDbEntity
  8
FORMAT
 62
     2
100
AcDbText
 10
-16.11926103943555
 20
2.075366912832191
 30
0.0
 40
4.233333333333333
  1
SEME7012050E [ 2 FLUTE ]
 41
0.75
  7
SLDTEXTSTYLE0
 11
-16.11926103943555
 21
-0.0412997538344756
 31
0.0
100
AcDbAttributeDefinition
  3

  2
AUTOATTR0
 70
     0
 74
     1
  0
ENDBLK
  5
80
330
7E
100
AcDbEntity
  8
0
100
AcDbBlockEnd
  0
BLOCK
  5
D9
330
D8
100
AcDbEntity
  8
0
100
AcDbBlockBegin
  2
_D
 70
     0
 10
0.0
 20
0.0
 30
0.0
  3
_D
  1

  0
LINE
  5
DB
330
D8
100
AcDbEntity
  8
치수문자_일반주서
 62
     0
370
    -2
100
AcDbLine
 10
60.06249999999963
 20
-5.999999999999806
 30
0.0
 11
75.69475261898533
 21
-5.999999999999751
 31
0.0
  0
LINE
  5
DC
330
D8
100
AcDbEntity
  8
치수문자_일반주서
 62
     0
370
    -2
100
AcDbLine
 10
60.0624999999997
 20
6.00000000000019
 30
0.0
 11
75.69475261898529
 21
6.000000000000249
 31
0.0
  0
LINE
  5
DD
330
D8
100
AcDbEntity
  8
치수문자_일반주서
 62
     0
370
    -2
100
AcDbLine
 10
75.69475261898533
 20
-5.999999999999751
 30
0.0
 11
75.69475261898523
 21
20.47900000000025
 31
0.0
  0
LINE
  5
DE
330
D8
100
AcDbEntity
  8
치수문자_일반주서
 62
     0
370
    -2
100
AcDbLine
 10
75.69475261898533
 20
-5.999999999999751
 30
0.0
 11
75.69475261898529
 21
6.000000000000249
 31
0.0
  0
LINE
  5
DF
330
D8
100
AcDbEntity
  8
치수문자_일반주서
 62
     0
370
    -2
100
AcDbLine
 10
75.69475261898535
 20
-9.301999999999751
 30
0.0
 11
75.69475261898536
 21
-12.60399999999975
 31
0.0
  0
LINE
  5
E0
330
D8
100
AcDbEntity
  8
치수문자_일반주서
 62
     0
370
    -2
100
AcDbLine
 10
75.69475261898528
 20
9.302000000000248
 30
0.0
 11
75.69475261898526
 21
12.60400000000025
 31
0.0
  0
SOLID
  5
E1
330
D8
100
AcDbEntity
  8
치수문자_일반주서
 62
     0
100
AcDbTrace
 10
76.24508595231868
 20
-9.30199999999975
 30
0.0
 11
75.14441928565202
 21
-9.301999999999753
 31
0.0
 12
75.69475261898533
 22
-5.999999999999751
 32
0.0
 13
75.69475261898533
 23
-5.999999999999751
 33
0.0
  0
SOLID
  5
E2
330
D8
100
AcDbEntity
  8
치수문자_일반주서
 62
     0
100
AcDbTrace
 10
75.14441928565195
 20
9.302000000000247
 30
0.0
 11
76.2450859523186
 21
9.30200000000025
 31
0.0
 12
75.69475261898529
 22
6.000000000000249
 32
0.0
 13
75.69475261898529
 23
6.000000000000249
 33
0.0
  0
MTEXT
  5
E3
330
D8
100
AcDbEntity
  8
치수문자_일반주서
 62
     0
100
AcDbMText
 10
71.31975261898525
 20
16.54150000000023
 30
0.0
 40
3.5
 41
0.0
 71
     2
 72
     1
  1
\A1;%%c12
  7
SLDTEXTSTYLE0
 11
-3.552713678800502E-15
 21
1.0
 31
0.0
 73
     1
 44
1.0
  0
POINT
  5
13B
330
D8
100
AcDbEntity
  8
Defpoints
 62
     0
100
AcDbPoint
 10
59.99999999999963
 20
-5.999999999999806
 30
0.0
  0
POINT
  5
13C
330
D8
100
AcDbEntity
  8
Defpoints
 62
     0
100
AcDbPoint
 10
59.9999999999997
 20
6.00000000000019
 30
0.0
  0
POINT
  5
13D
330
D8
100
AcDbEntity
  8
Defpoints
 62
     0
100
AcDbPoint
 10
75.69475261898529
 20
6.000000000000249
 30
0.0
  0
ENDBLK
  5
DA
330
D8
100
AcDbEntity
  8
0
100
AcDbBlockEnd
  0
BLOCK
  5
E7
330
E6
100
AcDbEntity
  8
0
100
AcDbBlockBegin
  2
_D_1
 70
     0
 10
0.0
 20
0.0
 30
0.0
  3
_D_1
  1

  0
LINE
  5
E9
330
E6
100
AcDbEntity
  8
치수문자_일반주서
 62
     0
370
    -2
100
AcDbLine
 10
-39.99999999999999
 20
5.062499999999999
 30
0.0
 11
-39.99999999999999
 21
26.7884104402427
 31
0.0
  0
LINE
  5
EA
330
E6
100
AcDbEntity
  8
치수문자_일반주서
 62
     0
370
    -2
100
AcDbLine
 10
59.9999999999997
 20
6.06250000000019
 30
0.0
 11
59.99999999999971
 21
26.7884104402427
 31
0.0
  0
LINE
  5
EB
330
E6
100
AcDbEntity
  8
치수문자_일반주서
 62
     0
370
    -2
100
AcDbLine
 10
-36.69799999999999
 20
26.7884104402427
 30
0.0
 11
56.69799999999971
 21
26.7884104402427
 31
0.0
  0
SOLID
  5
EC
330
E6
100
AcDbEntity
  8
치수문자_일반주서
 62
     0
100
AcDbTrace
 10
-36.69799999999999
 20
27.33874377357603
 30
0.0
 11
-36.69799999999999
 21
26.23807710690936
 31
0.0
 12
-39.99999999999999
 22
26.7884104402427
 32
0.0
 13
-39.99999999999999
 23
26.7884104402427
 33
0.0
  0
SOLID
  5
ED
330
E6
100
AcDbEntity
  8
치수문자_일반주서
 62
     0
100
AcDbTrace
 10
56.69799999999971
 20
26.23807710690936
 30
0.0
 11
56.69799999999971
 21
27.33874377357603
 31
0.0
 12
59.99999999999971
 22
26.7884104402427
 32
0.0
 13
59.99999999999971
 23
26.7884104402427
 33
0.0
  0
MTEXT
  5
EE
330
E6
100
AcDbEntity
  8
치수문자_일반주서
 62
     0
100
AcDbMText
 10
9.999999999999872
 20
31.1634104402427
 30
0.0
 40
3.5
 41
0.0
 71
     2
 72
     1
  1
\A1;100
  7
SLDTEXTSTYLE0
 73
     1
 44
1.0
  0
POINT
  5
132
330
E6
100
AcDbEntity
  8
Defpoints
 62
     0
100
AcDbPoint
 10
-39.99999999999999
 20
4.999999999999999
 30
0.0
  0
POINT
  5
133
330
E6
100
AcDbEntity
  8
Defpoints
 62
     0
100
AcDbPoint
 10
59.9999999999997
 20
6.00000000000019
 30
0.0
  0
POINT
  5
134
330
E6
100
AcDbEntity
  8
Defpoints
 62
     0
100
AcDbPoint
 10
59.9999999999997
 20
26.7884104402427
 30
0.0
  0
ENDBLK
  5
E8
330
E6
100
AcDbEntity
  8
0
100
AcDbBlockEnd
  0
BLOCK
  5
F1
330
F0
100
AcDbEntity
  8
0
100
AcDbBlockBegin
  2
_D_2
 70
     0
 10
0.0
 20
0.0
 30
0.0
  3
_D_2
  1

  0
LINE
  5
F3
330
F0
100
AcDbEntity
  8
치수문자_일반주서
 62
     0
370
    -2
100
AcDbLine
 10
9.999999999999996
 20
4.839070974890642
 30
0.0
 11
10.0
 21
18.12356878105817
 31
0.0
  0
LINE
  5
F4
330
F0
100
AcDbEntity
  8
치수문자_일반주서
 62
     0
370
    -2
100
AcDbLine
 10
59.9999999999997
 20
6.06250000000019
 30
0.0
 11
59.9999999999997
 21
18.12356878105817
 31
0.0
  0
LINE
  5
F5
330
F0
100
AcDbEntity
  8
치수문자_일반주서
 62
     0
370
    -2
100
AcDbLine
 10
13.302
 20
18.12356878105817
 30
0.0
 11
56.6979999999997
 21
18.12356878105817
 31
0.0
  0
SOLID
  5
F6
330
F0
100
AcDbEntity
  8
치수문자_일반주서
 62
     0
100
AcDbTrace
 10
13.302
 20
18.67390211439151
 30
0.0
 11
13.302
 21
17.57323544772484
 31
0.0
 12
10.0
 22
18.12356878105817
 32
0.0
 13
10.0
 23
18.12356878105817
 33
0.0
  0
SOLID
  5
F7
330
F0
100
AcDbEntity
  8
치수문자_일반주서
 62
     0
100
AcDbTrace
 10
56.6979999999997
 20
17.57323544772484
 30
0.0
 11
56.6979999999997
 21
18.67390211439151
 31
0.0
 12
59.9999999999997
 22
18.12356878105817
 32
0.0
 13
59.9999999999997
 23
18.12356878105817
 33
0.0
  0
MTEXT
  5
F8
330
F0
100
AcDbEntity
  8
치수문자_일반주서
 62
     0
100
AcDbMText
 10
34.99999999999999
 20
22.49856878105817
 30
0.0
 40
3.5
 41
0.0
 71
     2
 72
     1
  1
\A1;50
  7
SLDTEXTSTYLE0
 73
     1
 44
1.0
  0
POINT
  5
135
330
F0
100
AcDbEntity
  8
Defpoints
 62
     0
100
AcDbPoint
 10
9.999999999999996
 20
4.776570974890642
 30
0.0
  0
POINT
  5
136
330
F0
100
AcDbEntity
  8
Defpoints
 62
     0
100
AcDbPoint
 10
59.9999999999997
 20
6.00000000000019
 30
0.0
  0
POINT
  5
137
330
F0
100
AcDbEntity
  8
Defpoints
 62
     0
100
AcDbPoint
 10
59.9999999999997
 20
18.12356878105817
 30
0.0
  0
ENDBLK
  5
F2
330
F0
100
AcDbEntity
  8
0
100
AcDbBlockEnd
  0
BLOCK
  5
FB
330
FA
100
AcDbEntity
  8
0
100
AcDbBlockBegin
  2
_D_3
 70
     0
 10
0.0
 20
0.0
 30
0.0
  3
_D_3
  1

  0
LINE
  5
FD
330
FA
100
AcDbEntity
  8
치수문자_일반주서
 62
     0
370
    -2
100
AcDbLine
 10
-39.06249999999999
 20
6.0
 30
0.0
 11
-51.04827816870873
 21
5.999999999999954
 31
0.0
  0
LINE
  5
FE
330
FA
100
AcDbEntity
  8
치수문자_일반주서
 62
     0
370
    -2
100
AcDbLine
 10
-39.06249999999999
 20
-5.999999999999995
 30
0.0
 11
-51.04827816870868
 21
-6.000000000000039
 31
0.0
  0
LINE
  5
FF
330
FA
100
AcDbEntity
  8
치수문자_일반주서
 62
     0
370
    -2
100
AcDbLine
 10
-51.04827816870873
 20
5.999999999999954
 30
0.0
 11
-51.04827816870878
 21
20.47899999999996
 31
0.0
  0
LINE
  5
100
330
FA
100
AcDbEntity
  8
치수문자_일반주서
 62
     0
370
    -2
100
AcDbLine
 10
-51.04827816870873
 20
5.999999999999954
 30
0.0
 11
-51.04827816870868
 21
-6.000000000000039
 31
0.0
  0
LINE
  5
101
330
FA
100
AcDbEntity
  8
치수문자_일반주서
 62
     0
370
    -2
100
AcDbLine
 10
-51.04827816870874
 20
9.301999999999953
 30
0.0
 11
-51.04827816870876
 21
12.60399999999995
 31
0.0
  0
LINE
  5
102
330
FA
100
AcDbEntity
  8
치수문자_일반주서
 62
     0
370
    -2
100
AcDbLine
 10
-51.04827816870867
 20
-9.302000000000039
 30
0.0
 11
-51.04827816870866
 21
-12.60400000000004
 31
0.0
  0
SOLID
  5
103
330
FA
100
AcDbEntity
  8
치수문자_일반주서
 62
     0
100
AcDbTrace
 10
-51.59861150204208
 20
9.301999999999952
 30
0.0
 11
-50.49794483537541
 21
9.301999999999955
 31
0.0
 12
-51.04827816870873
 22
5.999999999999954
 32
0.0
 13
-51.04827816870873
 23
5.999999999999954
 33
0.0
  0
SOLID
  5
104
330
FA
100
AcDbEntity
  8
치수문자_일반주서
 62
     0
100
AcDbTrace
 10
-50.49794483537534
 20
-9.302000000000037
 30
0.0
 11
-51.598611502042
 21
-9.30200000000004
 31
0.0
 12
-51.04827816870868
 22
-6.000000000000039
 32
0.0
 13
-51.04827816870868
 23
-6.000000000000039
 33
0.0
  0
MTEXT
  5
105
330
FA
100
AcDbEntity
  8
치수문자_일반주서
 62
     0
100
AcDbMText
 10
-55.42327816870876
 20
16.54149999999994
 30
0.0
 40
3.5
 41
0.0
 71
     2
 72
     1
  1
\A1;%%c12
  7
SLDTEXTSTYLE0
 11
-3.552713678800503E-15
 21
1.0
 31
0.0
 73
     1
 44
1.0
  0
POINT
  5
138
330
FA
100
AcDbEntity
  8
Defpoints
 62
     0
100
AcDbPoint
 10
-38.99999999999999
 20
6.0
 30
0.0
  0
POINT
  5
139
330
FA
100
AcDbEntity
  8
Defpoints
 62
     0
100
AcDbPoint
 10
-38.99999999999999
 20
-5.999999999999995
 30
0.0
  0
POINT
  5
13A
330
FA
100
AcDbEntity
  8
Defpoints
 62
     0
100
AcDbPoint
 10
-51.04827816870868
 20
-6.00000000000004
 30
0.0
  0
ENDBLK
  5
FC
330
FA
100
AcDbEntity
  8
0
100
AcDbBlockEnd
  0
BLOCK
  5
107
330
106
100
AcDbEntity
  8
0
100
AcDbBlockBegin
  2
SW_DOWELSYMBOL_0
 70
     0
 10
0.0
 20
0.0
 30
0.0
  3
SW_DOWELSYMBOL_0
  1

  0
CIRCLE
  5
109
330
106
100
AcDbEntity
  8
외형선
 62
     0
100
AcDbCircle
 10
0.0
 20
0.0
 30
0.0
 40
3.000000000000004
  0
HATCH
  5
10A
330
106
100
AcDbEntity
  8
0
  6
Continuous
 62
     0
370
    30
100
AcDbHatch
 10
0.0
 20
0.0
 30
0.0
210
0.0
220
0.0
230
1.0
  2
SOLID
 70
     1
 71
     0
 91
        1
 92
        0
 93
        3
 72
     2
 10
0.0000000000000104
 20
0.0
 40
3.000000000000004
 50
0.0
 51
90.0
 73
     1
 72
     1
 10
0.0000000000000104
 20
3.000000000000004
 11
0.0000000000000104
 21
0.0
 72
     1
 10
0.0000000000000104
 20
0.0
 11
3.000000000000015
 21
0.0
 97
        0
 75
     0
 76
     1
 98
        1
 10
0.0
 20
0.0
  0
HATCH
  5
10B
330
106
100
AcDbEntity
  8
0
  6
Continuous
 62
     0
370
    30
100
AcDbHatch
 10
0.0
 20
0.0
 30
0.0
210
0.0
220
0.0
230
1.0
  2
SOLID
 70
     1
 71
     0
 91
        1
 92
        0
 93
        3
 72
     2
 10
0.0000000000000104
 20
0.0
 40
3.000000000000004
 50
180.0
 51
270.0000000000008
 73
     1
 72
     1
 10
0.0000000000000104
 20
-3.000000000000004
 11
0.0000000000000104
 21
0.0
 72
     1
 10
0.0000000000000104
 20
0.0
 11
-2.999999999999994
 21
0.0
 97
        0
 75
     0
 76
     1
 98
        1
 10
0.0
 20
0.0
  0
ENDBLK
  5
108
330
106
100
AcDbEntity
  8
0
100
AcDbBlockEnd
  0
ENDSEC
  0
SECTION
  2
ENTITIES
  0
SPLINE
  5
95
330
1F
100
AcDbEntity
  8
0
  6
Continuous
 62
     1
370
    15
100
AcDbSpline
210
0.0
220
0.0
230
1.0
 70
     8
 71
     3
 72
     9
 73
     5
 74
     0
 42
0.000000001
 43
0.00000001
 40
0.0
 40
0.0
 40
0.0
 40
0.0
 40
0.5236581384035369
 40
1.0
 40
1.0
 40
1.0
 40
1.0
 10
44.45605750642078
 20
1.537480405409486
 30
0.0
 10
44.16533896575244
 20
1.676050017288441
 30
0.0
 10
43.61017039422094
 20
1.940668480588579
 30
0.0
 10
43.05498953036431
 20
2.231475121746748
 30
0.0
 10
42.79053364415211
 20
2.369998498560646
 30
0.0
  0
SPLINE
  5
96
330
1F
100
AcDbEntity
  8
0
  6
Continuous
 62
     1
370
    15
100
AcDbSpline
210
0.0
220
0.0
230
1.0
 70
     8
 71
     3
 72
    10
 73
     6
 74
     0
 42
0.000000001
 43
0.00000001
 40
0.0
 40
0.0
 40
0.0
 40
0.0
 40
0.4088838397757309
 40
0.6252479897976922
 40
1.0
 40
1.0
 40
1.0
 40
1.0
 10
11.80770555423407
 20
1.537463260841652
 30
0.0
 10
11.59220822596856
 20
1.639926842773507
 30
0.0
 10
11.26267876503735
 20
1.79660984757385
 30
0.0
 10
10.74848814864666
 20
2.053302722358187
 30
0.0
 10
10.44670202333834
 20
2.210230538086813
 30
0.0
 10
10.25537760231837
 20
2.309718622423142
 30
0.0
  0
LINE
  5
97
330
1F
100
AcDbEntity
  8
0
  6
Continuous
 62
     1
370
    15
100
AcDbLine
 10
30.68642052359489
 20
6.00000000000001
 30
0.0
 11
27.77808313267128
 21
6.00000000000001
 31
0.0
  0
LINE
  5
98
330
1F
100
AcDbEntity
  8
0
  6
Continuous
 62
     1
370
    15
100
AcDbLine
 10
27.77808313267127
 20
-5.999999999999999
 30
0.0
 11
30.68642052359485
 21
-5.999999999999999
 31
0.0
  0
SPLINE
  5
99
330
1F
100
AcDbEntity
  8
0
  6
Continuous
 62
     1
370
    15
100
AcDbSpline
210
0.0
220
0.0
230
1.0
 70
     8
 71
     3
 72
    16
 73
    12
 74
     0
 42
0.000000001
 43
0.00000001
 40
0.0
 40
0.0
 40
0.0
 40
0.0
 40
0.1355747107058742
 40
0.2393817987162969
 40
0.3269397233354686
 40
0.4368350240411179
 40
0.5640504225019747
 40
0.6924798013342898
 40
0.8058877168062937
 40
0.8960091493840393
 40
1.0
 40
1.0
 40
1.0
 40
1.0
 10
42.4725425305713
 20
4.767842588541551
 30
0.0
 10
42.25258674354507
 20
4.756742032646295
 30
0.0
 10
41.8642148144275
 20
4.737141983174519
 30
0.0
 10
41.32615349062905
 20
4.717178320159098
 30
0.0
 10
40.82420144153736
 20
4.702553963020057
 30
0.0
 10
40.28893940646743
 20
4.691394158520415
 30
0.0
 10
39.68794905663077
 20
4.685179523329803
 30
0.0
 10
39.08060413630422
 20
4.685577964588189
 30
0.0
 10
38.53451798458205
 20
4.691974866500334
 30
0.0
 10
38.02881432462988
 20
4.701561537235824
 30
0.0
 10
37.70939093940349
 20
4.712513769169624
 30
0.0
 10
37.53826776785657
 20
4.718381156313811
 30
0.0
  0
SPLINE
  5
9A
330
1F
100
AcDbEntity
  8
0
  6
Continuous
 62
     1
370
    15
100
AcDbSpline
210
0.0
220
0.0
230
1.0
 70
     8
 71
     3
 72
    25
 73
    21
 74
     0
 42
0.000000001
 43
0.00000001
 40
0.0
 40
0.0
 40
0.0
 40
0.0
 40
0.0739478522830962
 40
0.1303507578175513
 40
0.1690291684192565
 40
0.1975413194657885
 40
0.2267663551725101
 40
0.2567534105086477
 40
0.2882750861617237
 40
0.3545585134369637
 40
0.4288612853408789
 40
0.5027849711783824
 40
0.5869026630474017
 40
0.6600779946247599
 40
0.7342719114567869
 40
0.7649278696596873
 40
0.7997569748534633
 40
0.8504026809647908
 40
0.9172274421378286
 40
1.0
 40
1.0
 40
1.0
 40
1.0
 10
33.44858324400618
 20
-4.992832478201915
 30
0.0
 10
33.67160355535677
 20
-4.971087641711494
 30
0.0
 10
34.06473013977686
 20
-4.932757171959728
 30
0.0
 10
34.57380887991403
 20
-4.889268217977927
 30
0.0
 10
34.94556289350226
 20
-4.859866628816464
 30
0.0
 10
35.23513972650091
 20
-4.838410150069373
 30
0.0
 10
35.49895255087954
 20
-4.819955218017823
 30
0.0
 10
35.7719788591388
 20
-4.802038602024074
 30
0.0
 10
36.15665001184661
 20
-4.778503128635724
 30
0.0
 10
36.67462725694985
 20
-4.750724684823518
 30
0.0
 10
37.32041481924206
 20
-4.723220966890675
 30
0.0
 10
38.02186619934773
 20
-4.701397857770136
 30
0.0
 10
38.71901511177239
 20
-4.688493111697879
 30
0.0
 10
39.41087722945702
 20
-4.684359705152175
 30
0.0
 10
39.95066270421639
 20
-4.687590725309836
 30
0.0
 10
40.3578801178347
 20
-4.693158552136431
 30
0.0
 10
40.69811794642364
 20
-4.699203638016528
 30
0.0
 10
41.15844167756758
 20
-4.711207535795973
 30
0.0
 10
41.76504358789373
 20
-4.732449889634962
 30
0.0
 10
42.22052407640624
 20
-4.755235342467913
 30
0.0
 10
42.4725425305713
 20
-4.767842588541537
 30
0.0
  0
SPLINE
  5
9B
330
1F
100
AcDbEntity
  8
0
  6
Continuous
 62
     1
370
    15
100
AcDbSpline
210
0.0
220
0.0
230
1.0
 70
     8
 71
     3
 72
    18
 73
    14
 74
     0
 42
0.000000001
 43
0.00000001
 40
0.0
 40
0.0
 40
0.0
 40
0.0
 40
0.156354645385339
 40
0.278177156032047
 40
0.3730740287133808
 40
0.4332408014729365
 40
0.4953243036784586
 40
0.5631918398374295
 40
0.6365657279169187
 40
0.7138893089531139
 40
0.7947902378842002
 40
0.9474123843616972
 40
1.0
 40
1.0
 40
1.0
 40
1.0
 10
47.28806914753908
 20
-4.512827702660226
 30
0.0
 10
47.52141857254177
 20
-4.477021131737686
 30
0.0
 10
47.9365803942387
 20
-4.413316148480273
 30
0.0
 10
48.49200127437739
 20
-4.33720612048658
 30
0.0
 10
48.90346007402832
 20
-4.284527471181111
 30
0.0
 10
49.22424446153506
 20
-4.245771997236309
 30
0.0
 10
49.50601888450048
 20
-4.213463370114094
 30
0.0
 10
49.80789296504661
 20
-4.180842364500864
 30
0.0
 10
50.13293619185183
 20
-4.148056448670472
 30
0.0
 10
50.47726798500181
 20
-4.115891234218429
 30
0.0
 10
50.93937619785731
 20
-4.07673104070268
 30
0.0
 10
51.36432637203448
 20
-4.044247280801154
 30
0.0
 10
51.66927867338711
 20
-4.027008851130783
 30
0.0
 10
51.74742658529053
 20
-4.022591283933362
 30
0.0
  0
SPLINE
  5
9C
330
1F
100
AcDbEntity
  8
0
  6
Continuous
 62
     1
370
    15
100
AcDbSpline
210
0.0
220
0.0
230
1.0
 70
     8
 71
     3
 72
    29
 73
    25
 74
     0
 42
0.000000001
 43
0.00000001
 40
0.0
 40
0.0
 40
0.0
 40
0.0
 40
0.0690790498100057
 40
0.1228407153498801
 40
0.1644903097405797
 40
0.1903328995464345
 40
0.2165547971210097
 40
0.2450887099302839
 40
0.2760482432282845
 40
0.3100529354917819
 40
0.3471708461767757
 40
0.4009040308974496
 40
0.4462261167267168
 40
0.481937920923932
 40
0.5148546625394187
 40
0.5729302609213878
 40
0.6427853081039578
 40
0.7228916794174275
 40
0.7652139357555897
 40
0.8036458100791347
 40
0.8363056646149015
 40
0.8696537201169838
 40
0.9237939425704946
 40
1.0
 40
1.0
 40
1.0
 40
1.0
 10
25.12222596021443
 20
4.103712576380918
 30
0.0
 10
24.87941903040529
 20
4.083955933440622
 30
0.0
 10
24.44764446153532
 20
4.048823427154374
 30
0.0
 10
23.87144694115945
 20
4.013478845482588
 30
0.0
 10
23.44765968772666
 20
3.992084810726619
 30
0.0
 10
23.12353942927916
 20
3.978553752533021
 30
0.0
 10
22.84353232873549
 20
3.968640031186629
 30
0.0
 10
22.54477910045513
 20
3.960186619149546
 30
0.0
 10
22.21794496306808
 20
3.953436388658069
 30
0.0
 10
21.86116860001118
 20
3.949045415782578
 30
0.0
 10
21.42481677937975
 20
3.947650229317312
 30
0.0
 10
20.94912687668058
 20
3.951680863031607
 30
0.0
 10
20.47866939222191
 20
3.961706208094026
 30
0.0
 10
20.08052482921992
 20
3.974279576981012
 30
0.0
 10
19.63775203066828
 20
3.992111372729977
 30
0.0
 10
19.07551700110874
 20
4.021184421100156
 30
0.0
 10
18.34930408294463
 20
4.070671962010166
 30
0.0
 10
17.67752875314984
 20
4.128562914479869
 30
0.0
 10
17.11546301174224
 20
4.185162808758351
 30
0.0
 10
16.71883785461223
 20
4.228912592544548
 30
0.0
 10
16.35308344337597
 20
4.272418410813137
 30
0.0
 10
15.93223725509404
 20
4.325581121060544
 30
0.0
 10
15.36129179416027
 20
4.402496628657573
 30
0.0
 10
14.90599389656146
 20
4.472109242644146
 30
0.0
 10
14.63980710731756
 20
4.512807779372926
 30
0.0
  0
SPLINE
  5
9D
330
1F
100
AcDbEntity
  8
0
  6
Continuous
 62
     1
370
    15
100
AcDbSpline
210
0.0
220
0.0
230
1.0
 70
     8
 71
     3
 72
    16
 73
    12
 74
     0
 42
0.000000001
 43
0.00000001
 40
0.0
 40
0.0
 40
0.0
 40
0.0
 40
0.1567642949623078
 40
0.2755185347656224
 40
0.355755394729223
 40
0.4162524901784545
 40
0.4862172981346942
 40
0.56619108698194
 40
0.6517005265533194
 40
0.8400933504814282
 40
1.0
 40
1.0
 40
1.0
 40
1.0
 10
14.63980710731756
 20
-4.512807779372916
 30
0.0
 10
14.87262096225677
 20
-4.477082684184597
 30
0.0
 10
15.2817991632075
 20
-4.414294624677713
 30
0.0
 10
15.80969638448214
 20
-4.341862157391992
 30
0.0
 10
16.19525631710535
 20
-4.2921090728403
 30
0.0
 10
16.50945576894627
 20
-4.253612630330553
 30
0.0
 10
16.82251885518615
 20
-4.217277090808986
 30
0.0
 10
17.17260994466085
 20
-4.179323535799165
 30
0.0
 10
17.69835996733914
 20
-4.126856918411575
 30
0.0
 10
18.34274812107854
 20
-4.070499648511188
 30
0.0
 10
18.85989155894686
 20
-4.037182549810767
 30
0.0
 10
19.09731561719109
 20
-4.02188644392768
 30
0.0
  0
SPLINE
  5
9E
330
1F
100
AcDbEntity
  8
0
  6
Continuous
 62
     1
370
    15
100
AcDbSpline
210
0.0
220
0.0
230
1.0
 70
     8
 71
     3
 72
    28
 73
    24
 74
     0
 42
0.000000001
 43
0.00000001
 40
0.0
 40
0.0
 40
0.0
 40
0.0
 40
0.0618294910848445
 40
0.1106605671898292
 40
0.154447158569278
 40
0.1840381540914318
 40
0.2174452813263692
 40
0.2554031046780298
 40
0.2950668024350882
 40
0.3345708900702303
 40
0.3951936989725269
 40
0.4481844392099567
 40
0.4952359745692229
 40
0.540593854987618
 40
0.593850728106308
 40
0.6568964741709667
 40
0.717665902183569
 40
0.7731163194898393
 40
0.8210571405908862
 40
0.8447430208003641
 40
0.881675970964202
 40
0.9334937783376953
 40
1.0
 40
1.0
 40
1.0
 40
1.0
 10
57.77056834740016
 20
4.103708591377996
 30
0.0
 10
57.55413347760592
 20
4.085987947336886
 30
0.0
 10
57.16676484443667
 20
4.054272070557837
 30
0.0
 10
56.62727580396379
 20
4.01979755629817
 30
0.0
 10
56.20135603483846
 20
3.997055655396784
 30
0.0
 10
55.82992737980166
 20
3.980696335899392
 30
0.0
 10
55.47714021325997
 20
3.967924994520167
 30
0.0
 10
55.08827446312375
 20
3.95747451223103
 30
0.0
 10
54.67689277364656
 20
3.950531281383914
 30
0.0
 10
54.18480205000692
 20
3.947234739226431
 30
0.0
 10
53.64268300542067
 20
3.950471620671321
 30
0.0
 10
53.08256943620032
 20
3.962442939519143
 30
0.0
 10
52.58581395000604
 20
3.979283338385377
 30
0.0
 10
52.07666507191858
 20
4.002233399749549
 30
0.0
 10
51.51191318978132
 20
4.034805359859844
 30
0.0
 10
50.89355263588921
 20
4.079629582444301
 30
0.0
 10
50.26700977272183
 20
4.13426019564544
 30
0.0
 10
49.69296002000988
 20
4.192252877267078
 30
0.0
 10
49.25003840820929
 20
4.242483476675774
 30
0.0
 10
48.87284727838373
 20
4.288417981648201
 30
0.0
 10
48.47997952967891
 20
4.338855674886104
 30
0.0
 10
47.93658412772311
 20
4.413314804824591
 30
0.0
 10
47.52141991593625
 20
4.47702064825914
 30
0.0
 10
47.28806914753908
 20
4.512827702660241
 30
0.0
  0
LINE
  5
9F
330
1F
100
AcDbEntity
  8
0
  6
Continuous
 62
   131
370
    15
100
AcDbLine
 10
7.969921738369507
 20
6.000000000000005
 30
0.0
 11
-38.99999999999999
 21
6.000000000000003
 31
0.0
  0
LINE
  5
A0
330
1F
100
AcDbEntity
  8
0
  6
Continuous
 62
   131
370
    15
100
AcDbLine
 10
-38.99999999999999
 20
-5.999999999999997
 30
0.0
 11
7.969921738369507
 21
-5.999999999999995
 31
0.0
  0
LINE
  5
A1
330
1F
100
AcDbEntity
  8
0
  6
Continuous
 62
   131
370
    15
100
AcDbLine
 10
-38.99999999999999
 20
6.0
 30
0.0
 11
-39.99999999999999
 21
4.999999999999998
 31
0.0
  0
LINE
  5
A2
330
1F
100
AcDbEntity
  8
0
  6
Continuous
 62
   131
370
    15
100
AcDbLine
 10
-39.99999999999999
 20
-4.999999999999995
 30
0.0
 11
-38.99999999999999
 21
-5.999999999999995
 31
0.0
  0
LINE
  5
A3
330
1F
100
AcDbEntity
  8
0
  6
Continuous
 62
   131
370
    15
100
AcDbLine
 10
8.518990758902799
 20
1.672511296130052
 30
0.0
 11
8.439396645593641
 21
1.716215625137548
 31
0.0
  0
SPLINE
  5
A4
330
1F
100
AcDbEntity
  8
0
  6
Continuous
 62
   131
370
    15
100
AcDbSpline
210
0.0
220
0.0
230
1.0
 70
     8
 71
     3
 72
     9
 73
     5
 74
     0
 42
0.000000001
 43
0.00000001
 40
0.0
 40
0.0
 40
0.0
 40
0.0
 40
0.5290287616891007
 40
1.0
 40
1.0
 40
1.0
 40
1.0
 10
9.670920079909067
 20
4.759128222192437
 30
0.0
 10
9.371095892655317
 20
4.745317298637011
 30
0.0
 10
8.8043513052789
 20
4.719211112063467
 30
0.0
 10
8.228774407628936
 20
4.704946207814326
 30
0.0
 10
7.957694243399587
 20
4.698227848195721
 30
0.0
  0
SPLINE
  5
A5
330
1F
100
AcDbEntity
  8
0
  6
Continuous
 62
   131
370
    15
100
AcDbSpline
210
0.0
220
0.0
230
1.0
 70
     8
 71
     3
 72
     9
 73
     5
 74
     0
 42
0.000000001
 43
0.00000001
 40
0.0
 40
0.0
 40
0.0
 40
0.0
 40
0.4709712383108992
 40
1.0
 40
1.0
 40
1.0
 40
1.0
 10
7.95769424339959
 20
-4.698227848195711
 30
0.0
 10
8.228774407628936
 20
-4.704946207814316
 30
0.0
 10
8.8043513052789
 20
-4.719211112063457
 30
0.0
 10
9.371095892655317
 20
-4.745317298637
 30
0.0
 10
9.670920079909067
 20
-4.759128222192428
 30
0.0
  0
SPLINE
  5
A6
330
1F
100
AcDbEntity
  8
0
  6
Continuous
 62
     1
370
    15
100
AcDbSpline
210
0.0
220
0.0
230
1.0
 70
     8
 71
     3
 72
    32
 73
    28
 74
     0
 42
0.000000001
 43
0.00000001
 40
0.0
 40
0.0
 40
0.0
 40
0.0
 40
0.0396019755437805
 40
0.081783078673022
 40
0.1242573363082974
 40
0.1664383131387589
 40
0.2089115199708617
 40
0.2510925154353548
 40
0.293566023907808
 40
0.3357470201066554
 40
0.3782206166609028
 40
0.4204015710010812
 40
0.4628745057244212
 40
0.5050555704302238
 40
0.5475296715950886
 40
0.5897106437369711
 40
0.6321837649463209
 40
0.674364801429094
 40
0.7168385781028426
 40
0.7590195681184405
 40
0.8014930588404898
 40
0.8436740128539013
 40
0.8861470129508268
 40
0.9144326777013152
 40
0.9427183144532618
 40
0.9713591804755605
 40
1.0
 40
1.0
 40
1.0
 40
1.0
 10
19.09731561719109
 20
4.021886443927692
 30
0.0
 10
19.63735639471496
 20
4.24503760448
 30
0.0
 10
20.75260877261839
 20
4.705872920618459
 30
0.0
 10
22.44690290375269
 20
5.249809326246435
 30
0.0
 10
24.17606025492081
 20
5.66960474439109
 30
0.0
 10
25.90916128412859
 20
5.930495442886867
 30
0.0
 10
27.63840316230818
 20
6.027283530934612
 30
0.0
 10
29.3721474871749
 20
5.957145990964807
 30
0.0
 10
31.1015186523852
 20
5.722525780373751
 30
0.0
 10
32.83462595856641
 20
5.328518196359313
 30
0.0
 10
34.56376603713339
 20
4.787898835767954
 30
0.0
 10
36.29701530715349
 20
4.113420485425252
 30
0.0
 10
38.02679321530205
 20
3.327407884801509
 30
0.0
 10
39.7600820194064
 20
2.446819138084135
 30
0.0
 10
41.48923285619763
 20
1.500174894404408
 30
0.0
 10
43.22233730115057
 20
0.5097926275580397
 30
0.0
 10
44.95166829449403
 20
-0.4921325392594236
 30
0.0
 10
46.68542740038095
 20
-1.481879140844415
 30
0.0
 10
48.41470361545737
 20
-2.429349117318413
 30
0.0
 10
50.14780082453341
 20
-3.311776119581408
 30
0.0
 10
51.87695464926714
 20
-4.100524967906125
 30
0.0
 10
53.61029326603367
 20
-4.777019321425008
 30
0.0
 10
55.15060784133445
 20
-5.260096417765789
 30
0.0
 10
56.50083280768258
 20
-5.588329339513619
 30
0.0
 10
57.6622529924678
 20
-5.80006248162658
 30
0.0
 10
58.82892701890977
 20
-5.945084771518902
 30
0.0
 10
59.60964255088247
 20
-5.978314193749421
 30
0.0
 10
59.99999999999963
 20
-5.999999999999806
 30
0.0
  0
SPLINE
  5
A7
330
1F
100
AcDbEntity
  8
0
  6
Continuous
 62
     1
370
    15
100
AcDbSpline
210
0.0
220
0.0
230
1.0
 70
     8
 71
     3
 72
    18
 73
    14
 74
     0
 42
0.000000001
 43
0.00000001
 40
0.0
 40
0.0
 40
0.0
 40
0.0
 40
0.0132032859861482
 40
0.1217704270481405
 40
0.2303375199453179
 40
0.3389045650813313
 40
0.4474715628599933
 40
0.5560385136852772
 40
0.6646054179613153
 40
0.773172276092398
 40
0.8817390884829712
 40
0.9903058555376365
 40
1.0
 40
1.0
 40
1.0
 40
1.0
 10
45.0881429723369
 20
-0.5672864628108094
 30
0.0
 10
45.00025960342106
 20
-0.5327041465566467
 30
0.0
 10
44.18973445274744
 20
-0.2137605575893844
 30
0.0
 10
42.65656793601644
 20
0.4162667456200384
 30
0.0
 10
40.48864374594172
 20
1.276541420974179
 30
0.0
 10
38.32072061788629
 20
2.084851983267346
 30
0.0
 10
36.15279853028878
 20
2.801769742591624
 30
0.0
 10
33.98487747742774
 20
3.397803140332141
 30
0.0
 10
31.81695745037987
 20
3.845117450707826
 30
0.0
 10
29.64903843716776
 20
4.130690262566896
 30
0.0
 10
27.48112044121088
 20
4.218640720803537
 30
0.0
 10
25.97131623152148
 20
4.200629221467919
 30
0.0
 10
25.18415137917967
 20
4.104286991399287
 30
0.0
 10
25.11962549572072
 20
4.09638957640281
 30
0.0
  0
SPLINE
  5
A8
330
1F
100
AcDbEntity
  8
0
  6
Continuous
 62
     1
370
    15
100
AcDbSpline
210
0.0
220
0.0
230
1.0
 70
     8
 71
     3
 72
    18
 73
    14
 74
     0
 42
0.000000001
 43
0.00000001
 40
0.0
 40
0.0
 40
0.0
 40
0.0
 40
0.1060746104215849
 40
0.2130307371664787
 40
0.3101865592024725
 40
0.4080180444575656
 40
0.5050871860986751
 40
0.6028284936661265
 40
0.6998781209246062
 40
0.7976022335196254
 40
0.8946515701918324
 40
0.992373265115225
 40
1.0
 40
1.0
 40
1.0
 40
1.0
 10
10.00000000000001
 20
0.8370242536328957
 30
0.0
 10
10.62870302693066
 20
0.4751111337341765
 30
0.0
 10
11.8913338181589
 20
-0.2517227279771433
 30
0.0
 10
13.72969827129332
 20
-1.309594869909553
 30
0.0
 10
15.51881123830105
 20
-2.297444340418213
 30
0.0
 10
17.24934323680824
 20
-3.189926916048397
 30
0.0
 10
18.98339927682362
 20
-3.995155264586598
 30
0.0
 10
20.71336518662011
 20
-4.687521978171473
 30
0.0
 10
22.44689759892965
 20
-5.250618064092643
 30
0.0
 10
24.17605839976719
 20
-5.672162160106073
 30
0.0
 10
25.90917390587516
 20
-5.919525246175241
 30
0.0
 10
27.10848083633395
 20
-6.023079176949711
 30
0.0
 10
27.7328795765952
 20
-5.995990274127099
 30
0.0
 10
27.77808313267127
 20
-5.994029163928078
 30
0.0
  0
SPLINE
  5
A9
330
1F
100
AcDbEntity
  8
0
  6
Continuous
 62
     1
370
    15
100
AcDbSpline
210
0.0
220
0.0
230
1.0
 70
     8
 71
     3
 72
    14
 73
    10
 74
     0
 42
0.000000001
 43
0.00000001
 40
0.0
 40
0.0
 40
0.0
 40
0.0
 40
0.0162077722350327
 40
0.225254843716328
 40
0.4357492835638513
 40
0.5759318735335159
 40
0.7161143247435602
 40
0.8580572775925179
 40
1.0
 40
1.0
 40
1.0
 40
1.0
 10
51.74722001126086
 20
4.022497499958099
 30
0.0
 10
51.79180552481918
 20
4.042830573933205
 30
0.0
 10
52.41145286085982
 20
4.325418664024665
 30
0.0
 10
53.61030353631449
 20
4.769709319649495
 30
0.0
 10
55.15060608551908
 20
5.261346141484463
 30
0.0
 10
56.5008331955775
 20
5.588053250411559
 30
0.0
 10
57.66225288757759
 20
5.800137138564686
 30
0.0
 10
58.82892704526849
 20
5.945066010364573
 30
0.0
 10
59.60964255966871
 20
5.978307940034709
 30
0.0
 10
59.9999999999997
 20
6.00000000000019
 30
0.0
  0
SPLINE
  5
AA
330
1F
100
AcDbEntity
  8
0
  6
Continuous
 62
     1
370
    15
100
AcDbSpline
210
0.0
220
0.0
230
1.0
 70
    24
 71
     3
 72
    10
 73
     6
 74
     0
 42
0.000000001
 43
0.00000001
 40
0.0
 40
0.0
 40
0.0
 40
0.0
 40
0.5
 40
0.5
 40
1.0
 40
1.0
 40
1.0
 40
1.0
 10
60.00000000000001
 20
4.200000000000009
 30
0.0
 10
60.00000000000003
 20
4.454593540843891
 30
0.0
 10
60.00000000000003
 20
4.750454813202712
 30
0.0
 10
60.00000000000003
 20
5.371170965765144
 30
0.0
 10
60.00000000000001
 20
5.69444061480885
 30
0.0
 10
59.9999999999997
 20
6.00000000000019
 30
0.0
  0
SPLINE
  5
AB
330
1F
100
AcDbEntity
  8
0
  6
Continuous
 62
     1
370
    15
100
AcDbSpline
210
0.0
220
0.0
230
1.0
 70
     8
 71
     3
 72
     9
 73
     5
 74
     0
 42
0.000000001
 43
0.00000001
 40
0.0
 40
0.0
 40
0.0
 40
0.0
 40
0.9720316437632988
 40
1.0
 40
1.0
 40
1.0
 40
1.0
 10
60.00000000000001
 20
4.20000000000001
 30
0.0
 10
59.27735567794662
 20
4.198511533643482
 30
0.0
 10
58.53391864409077
 20
4.196980239507041
 30
0.0
 10
57.79048166418353
 20
4.103805779577818
 30
0.0
 10
57.76968895388995
 20
4.101199843090356
 30
0.0
  0
SPLINE
  5
AC
330
1F
100
AcDbEntity
  8
0
  6
Continuous
 62
     1
370
    15
100
AcDbSpline
210
0.0
220
0.0
230
1.0
 70
     8
 71
     3
 72
     9
 73
     5
 74
     0
 42
0.000000001
 43
0.00000001
 40
0.0
 40
0.0
 40
0.0
 40
0.0
 40
0.0887047156325344
 40
1.0
 40
1.0
 40
1.0
 40
1.0
 10
12.45451979446411
 20
-0.5734444512067917
 30
0.0
 10
12.38194382575507
 20
-0.5449321113979866
 30
0.0
 10
11.56376896107612
 20
-0.2235023023344023
 30
0.0
 10
10.74559660755952
 20
0.1102867870273147
 30
0.0
 10
10.00000000000001
 20
0.4144672101359581
 30
0.0
  0
SPLINE
  5
AD
330
1F
100
AcDbEntity
  8
0
  6
Continuous
 62
   131
370
    15
100
AcDbSpline
210
0.0
220
0.0
230
1.0
 70
    24
 71
     3
 72
    10
 73
     6
 74
     0
 42
0.000000001
 43
0.00000001
 40
0.0
 40
0.0
 40
0.0
 40
0.0
 40
0.0462610944223166
 40
0.5470838599425779
 40
1.0
 40
1.0
 40
1.0
 40
1.0
 10
10.00000000000001
 20
0.7677747843575551
 30
0.0
 10
10.00000000000001
 20
0.7651735413126239
 30
0.0
 10
10.00000000000001
 20
0.7344112322181112
 30
0.0
 10
10.00000000000001
 20
0.6210059423639276
 30
0.0
 10
10.00000000000001
 20
0.4809687491332536
 30
0.0
 10
10.00000000000001
 20
0.414467210135958
 30
0.0
  0
SPLINE
  5
AE
330
1F
100
AcDbEntity
  8
0
  6
Continuous
 62
     1
370
    15
100
AcDbSpline
210
0.0
220
0.0
230
1.0
 70
     8
 71
     3
 72
    21
 73
    17
 74
     0
 42
0.000000001
 43
0.00000001
 40
0.0
 40
0.0
 40
0.0
 40
0.0
 40
0.0739566576457398
 40
0.1479132833743111
 40
0.2218698774376812
 40
0.2958264400879203
 40
0.3697829715772046
 40
0.4437394721578123
 40
0.5176959420821247
 40
0.5916523816026241
 40
0.6656087909718954
 40
0.7395651704426218
 40
0.813521520267586
 40
0.8874778406996697
 40
0.9614341319918517
 40
1.0
 40
1.0
 40
1.0
 40
1.0
 10
60.00000000000003
 20
-5.69364521539139
 30
0.0
 10
59.27735482119549
 20
-5.538106837028416
 30
0.0
 10
57.83206477545539
 20
-5.22703014742752
 30
0.0
 10
55.66413040932271
 20
-4.467626431271633
 30
0.0
 10
53.49619714314474
 20
-3.532234890107896
 30
0.0
 10
51.32826498519538
 20
-2.43893995695758
 30
0.0
 10
49.16033392202204
 20
-1.241166208314438
 30
0.0
 10
46.99240394599367
 20
0.0107593169570969
 30
0.0
 10
44.82447504789699
 20
1.262144847024072
 30
0.0
 10
42.6565472190035
 20
2.458761690699185
 30
0.0
 10
40.48862045020547
 20
3.549014235928742
 30
0.0
 10
38.32069473340513
 20
4.484445880235249
 30
0.0
 10
36.15277005682209
 20
5.228946166783309
 30
0.0
 10
33.98484642237487
 20
5.73362326419394
 30
0.0
 10
32.1627300035869
 20
5.98994513247129
 30
0.0
 10
31.06325486023166
 20
5.973193793168488
 30
0.0
 10
30.68642052359488
 20
5.967452435692516
 30
0.0
  0
SPLINE
  5
AF
330
1F
100
AcDbEntity
  8
0
  6
Continuous
 62
     1
370
    15
100
AcDbSpline
210
0.0
220
0.0
230
1.0
 70
     8
 71
     3
 72
    15
 73
    11
 74
     0
 42
0.000000001
 43
0.00000001
 40
0.0
 40
0.0
 40
0.0
 40
0.0
 40
0.1390870101852608
 40
0.2781739576644675
 40
0.4172608429325548
 40
0.556347666484664
 40
0.6954344288161427
 40
0.8345211304225459
 40
0.9736077717996295
 40
1.0
 40
1.0
 40
1.0
 40
1.0
 10
60.00000000000001
 20
-4.733833586209284
 30
0.0
 10
59.27735482414059
 20
-4.581989281653049
 30
0.0
 10
57.83206479821945
 20
-4.278300740998144
 30
0.0
 10
55.66413042958672
 20
-3.582298638464621
 30
0.0
 10
53.49619716369766
 20
-2.745579210083078
 30
0.0
 10
51.32826500610696
 20
-1.786347960859215
 30
0.0
 10
49.16033394022376
 20
-0.7489186825272864
 30
0.0
 10
46.99240397368938
 20
0.3145418816567266
 30
0.0
 10
45.40999340606475
 20
1.099088724687739
 30
0.0
 10
44.55022620151022
 20
1.48905100045608
 30
0.0
 10
44.41310191295459
 20
1.551246091574928
 30
0.0
  0
LINE
  5
B0
330
1F
100
AcDbEntity
  8
0
  6
Continuous
 62
     1
370
    15
100
AcDbLine
 10
59.99999999999972
 20
-5.693645215391394
 30
0.0
 11
60.00000000000001
 21
-4.733833586209284
 31
0.0
  0
SPLINE
  5
B1
330
1F
100
AcDbEntity
  8
0
  6
Continuous
 62
     1
370
    15
100
AcDbSpline
210
0.0
220
0.0
230
1.0
 70
     8
 71
     3
 72
    20
 73
    16
 74
     0
 42
0.000000001
 43
0.00000001
 40
0.0
 40
0.0
 40
0.0
 40
0.0
 40
0.0503845403867333
 40
0.1291026402419383
 40
0.207820709081029
 40
0.2865387471733758
 40
0.3652567547884508
 40
0.4439747321958283
 40
0.5226926796651815
 40
0.6014105974662838
 40
0.6811287710310576
 40
0.7608468008935192
 40
0.8405646842257943
 40
0.9202824182023416
 40
1.0
 40
1.0
 40
1.0
 40
1.0
 10
37.54037754187647
 20
-4.717664556008081
 30
0.0
 10
37.07784162161406
 20
-4.882628411111702
 30
0.0
 10
35.89266442134065
 20
-5.305322933576251
 30
0.0
 10
33.98484642255054
 20
-5.73652979032771
 30
0.0
 10
31.81692379549976
 20
-6.00937707403734
 30
0.0
 10
29.64900221505535
 20
-6.013201521973169
 30
0.0
 10
27.48108155129079
 20
-5.758567580397433
 30
0.0
 10
25.31316221578475
 20
-5.253639094106426
 30
0.0
 10
23.14524263874245
 20
-4.521086954672278
 30
0.0
 10
20.96814592104811
 20
-3.588506934870222
 30
0.0
 10
18.78185112158516
 20
-2.494004927030868
 30
0.0
 10
16.58638212974033
 20
-1.283453896890359
 30
0.0
 10
14.39091669018371
 20
-0.0179226715796067
 30
0.0
 10
12.19545647203539
 20
1.25621078110258
 30
0.0
 10
10.73181835833548
 20
2.048970270981946
 30
0.0
 10
9.999999999997081
 20
2.445349637582434
 30
0.0
  0
SPLINE
  5
B2
330
1F
100
AcDbEntity
  8
0
  6
Continuous
 62
     1
370
    15
100
AcDbSpline
210
0.0
220
0.0
230
1.0
 70
     8
 71
     3
 72
    18
 73
    14
 74
     0
 42
0.000000001
 43
0.00000001
 40
0.0
 40
0.0
 40
0.0
 40
0.0
 40
0.0755576730219987
 40
0.1756210772969788
 40
0.2756844410993703
 40
0.3757477647871028
 40
0.4758110487182407
 40
0.5758742932509816
 40
0.6759374987436558
 40
0.776000665554724
 40
0.8760637940427788
 40
0.9793060717499438
 40
1.0
 40
1.0
 40
1.0
 40
1.0
 10
33.45391683465076
 20
-4.971984820413485
 30
0.0
 10
32.90825239924214
 20
-5.022876994703506
 30
0.0
 10
31.63994737929785
 20
-5.14116727704448
 30
0.0
 10
29.64900222078702
 20
-5.066924231520618
 30
0.0
 10
27.48108162674075
 20
-4.793002559453947
 30
0.0
 10
25.31316201977241
 20
-4.304120609243463
 30
0.0
 10
23.14524345786832
 20
-3.630562005128497
 30
0.0
 10
20.97732566337812
 20
-2.798945325021099
 30
0.0
 10
18.80940963546773
 20
-1.846587673076842
 30
0.0
 10
16.64149160165699
 20
-0.8123324421713441
 30
0.0
 10
14.4506261632503
 20
0.2616911813413877
 30
0.0
 10
12.83291779370598
 20
1.065444044538657
 30
0.0
 10
11.93786690104909
 20
1.471670768816717
 30
0.0
 10
11.78841808736518
 20
1.539499428089756
 30
0.0
  0
LINE
  5
B3
330
1F
100
AcDbEntity
  8
0
  6
Continuous
 62
     1
370
    15
100
AcDbLine
 10
59.99999999999963
 20
-5.999999999999806
 30
0.0
 11
59.9999999999991
 21
-5.69364521539138
 31
0.0
  0
LINE
  5
B4
330
1F
100
AcDbEntity
  8
0
  6
Continuous
 62
   131
370
    15
100
AcDbLine
 10
10.00000000000001
 20
0.8370242536328961
 30
0.0
 11
10.00000000000001
 21
2.44534963758065
 31
0.0
  0
SPLINE
  5
B5
330
1F
100
AcDbEntity
  8
0
  6
Continuous
 62
     1
370
    15
100
AcDbSpline
210
0.0
220
0.0
230
1.0
 70
     8
 71
     3
 72
     8
 73
     4
 74
     0
 42
0.000000001
 43
0.00000001
 40
0.0
 40
0.0
 40
0.0
 40
0.0
 40
1.0
 40
1.0
 40
1.0
 40
1.0
 10
56.28766238388617
 20
1.67812636956135
 30
0.0
 10
56.01854352449409
 20
1.996908240080766
 30
0.0
 10
55.78528950873191
 20
2.301017429348716
 30
0.0
 10
55.60063730606628
 20
2.584818657777566
 30
0.0
  0
LINE
  5
B6
330
1F
100
AcDbEntity
  8
0
  6
Continuous
 62
     1
370
    15
100
AcDbLine
 10
55.60063730606632
 20
2.584818657777566
 30
0.0
 11
60.00000000000001
 21
0.0000000000000111
 31
0.0
  0
LINE
  5
B7
330
1F
100
AcDbEntity
  8
0
  6
Continuous
 62
     1
370
    15
100
AcDbLine
 10
60.00000000000001
 20
0.0000000000000111
 30
0.0
 11
60.00000000000001
 21
-1.603457676177858
 31
0.0
  0
SPLINE
  5
B8
330
1F
100
AcDbEntity
  8
0
  6
Continuous
 62
     1
370
    15
100
AcDbSpline
210
0.0
220
0.0
230
1.0
 70
     8
 71
     3
 72
    12
 73
     8
 74
     0
 42
0.000000001
 43
0.00000001
 40
0.0
 40
0.0
 40
0.0
 40
0.0
 40
0.5
 40
0.5
 40
0.75
 40
0.75
 40
1.0
 40
1.0
 40
1.0
 40
1.0
 10
60.00000000000003
 20
-1.603457676177863
 30
0.0
 10
59.35738324975081
 20
-1.09825342164496
 30
0.0
 10
58.72550027521569
 20
-0.5723371630807234
 30
0.0
 10
57.7941951659446
 20
0.2484131373375328
 30
0.0
 10
57.48655768172768
 20
0.5273947563256584
 30
0.0
 10
56.87756600981753
 20
1.097482307907373
 30
0.0
 10
56.57786785258383
 20
1.387117232542709
 30
0.0
 10
56.28766238388621
 20
1.678126369561331
 30
0.0
  0
SPLINE
  5
B9
330
1F
100
AcDbEntity
  8
0
  6
Continuous
 62
     1
370
    15
100
AcDbSpline
210
0.0
220
0.0
230
1.0
 70
     8
 71
     3
 72
    15
 73
    11
 74
     0
 42
0.000000001
 43
0.00000001
 40
0.0
 40
0.0
 40
0.0
 40
0.0
 40
0.1009463146226187
 40
0.2020727065013035
 40
0.3589729570576751
 40
0.5158731375536353
 40
0.672773248556404
 40
0.8296732906334406
 40
0.9865732643524335
 40
1.0
 40
1.0
 40
1.0
 40
1.0
 10
56.28766238364177
 20
1.678126369667017
 30
0.0
 10
55.82291509997073
 20
1.876563795509197
 30
0.0
 10
54.89259147397582
 20
2.273792637998275
 30
0.0
 10
53.23935396154425
 20
2.920148578103835
 30
0.0
 10
51.32826384842098
 20
3.582782621042654
 30
0.0
 10
49.16034737744806
 20
4.176024739582013
 30
0.0
 10
46.99241622586773
 20
4.594449225749075
 30
0.0
 10
44.8244904066806
 20
4.791776119621254
 30
0.0
 10
43.31736591270234
 20
4.841035169073305
 30
0.0
 10
42.53288390055636
 20
4.765692328012963
 30
0.0
 10
42.4710437309404
 20
4.759753104425449
 30
0.0
  0
SPLINE
  5
BA
330
1F
100
AcDbEntity
  8
0
  6
Continuous
 62
     1
370
    15
100
AcDbSpline
210
0.0
220
0.0
230
1.0
 70
     8
 71
     3
 72
    10
 73
     6
 74
     0
 42
0.000000001
 43
0.00000001
 40
0.0
 40
0.0
 40
0.0
 40
0.0
 40
0.0365805352118995
 40
0.5182949242203935
 40
1.0
 40
1.0
 40
1.0
 40
1.0
 10
14.64348382965176
 20
-4.505344658520217
 30
0.0
 10
14.58686387460567
 20
-4.516520961403947
 30
0.0
 10
13.78463845226056
 20
-4.674873512087864
 30
0.0
 10
12.23679773078198
 20
-4.802627324902653
 30
0.0
 10
10.7455944385158
 20
-4.785256368920512
 30
0.0
 10
10.0
 20
-4.776570974890632
 30
0.0
  0
SPLINE
  5
BB
330
1F
100
AcDbEntity
  8
0
  6
Continuous
 62
     1
370
    15
100
AcDbSpline
210
0.0
220
0.0
230
1.0
 70
    24
 71
     3
 72
    10
 73
     6
 74
     0
 42
0.000000001
 43
0.00000001
 40
0.0
 40
0.0
 40
0.0
 40
0.0
 40
0.5
 40
0.5
 40
1.0
 40
1.0
 40
1.0
 40
1.0
 10
60.00000000000001
 20
-4.733833586209284
 30
0.0
 10
60.00000000000003
 20
-4.370948334022818
 30
0.0
 10
60.00000000000003
 20
-3.912428903438802
 30
0.0
 10
60.00000000000003
 20
-2.84641535490407
 30
0.0
 10
60.00000000000001
 20
-2.239844658307852
 30
0.0
 10
60.00000000000003
 20
-1.603457676178054
 30
0.0
  0
SPLINE
  5
BC
330
1F
100
AcDbEntity
  8
0
  6
Continuous
 62
     1
370
    15
100
AcDbSpline
210
0.0
220
0.0
230
1.0
 70
     8
 71
     3
 72
    25
 73
    21
 74
     0
 42
0.000000001
 43
0.00000001
 40
0.0
 40
0.0
 40
0.0
 40
0.0
 40
0.0081014862770939
 40
0.0662313535766432
 40
0.1243611955502335
 40
0.1824910124082735
 40
0.2406208043612559
 40
0.2987505716197577
 40
0.3568803143944385
 40
0.4150100328960404
 40
0.4731397273353879
 40
0.5312693979233857
 40
0.5893990448710196
 40
0.6475286683893545
 40
0.7056582686895346
 40
0.7637878459827818
 40
0.8219174004803966
 40
0.8800469323937555
 40
0.9400240459808739
 40
1.0
 40
1.0
 40
1.0
 40
1.0
 10
47.29455787011695
 20
-4.500359429827564
 30
0.0
 10
47.19384412589628
 20
-4.519935374470596
 30
0.0
 10
46.37048809277349
 20
-4.679972837585897
 30
0.0
 10
44.82449020642907
 20
-4.793792419493871
 30
0.0
 10
42.65656453032808
 20
-4.814831829262431
 30
0.0
 10
40.48863992730256
 20
-4.608539950126842
 30
0.0
 10
38.32071637286835
 20
-4.207401145390771
 30
0.0
 10
36.15279386233514
 20
-3.6225010445844
 30
0.0
 10
33.98487238560721
 20
-2.880890407955146
 30
0.0
 10
31.81695193439493
 20
-2.014272023853958
 30
0.0
 10
29.64903249856849
 20
-1.060342401279191
 30
0.0
 10
27.48111407353129
 20
-0.0604322915783839
 30
0.0
 10
25.31319663437305
 20
0.9421016892135775
 30
0.0
 10
23.14528023188394
 20
1.903766684474664
 30
0.0
 10
20.97736463434543
 20
2.782964160796036
 30
0.0
 10
18.80945066435246
 20
3.541204784099642
 30
0.0
 10
16.64153520973614
 20
4.146987643523979
 30
0.0
 10
14.45066142181996
 20
4.573383572043395
 30
0.0
 10
12.23679893751864
 20
4.814407805477835
 30
0.0
 10
10.74559484075876
 20
4.789183170472143
 30
0.0
 10
9.999999999999996
 20
4.776570974890642
 30
0.0
  0
SPLINE
  5
BD
330
1F
100
AcDbEntity
  8
0
  6
Continuous
 62
   131
370
    15
100
AcDbSpline
210
0.0
220
0.0
230
1.0
 70
    24
 71
     3
 72
    14
 73
    10
 74
     0
 42
0.000000001
 43
0.00000001
 40
0.0
 40
0.0
 40
0.0
 40
0.0
 40
0.25
 40
0.25
 40
0.5
 40
0.5
 40
0.75
 40
0.75
 40
1.0
 40
1.0
 40
1.0
 40
1.0
 10
10.00000000000001
 20
4.776570974890642
 30
0.0
 10
10.00000000000001
 20
4.768708885321169
 30
0.0
 10
10.00000000000001
 20
4.711461120775526
 30
0.0
 10
10.00000000000001
 20
4.491478645320687
 30
0.0
 10
10.00000000000001
 20
4.328689483619745
 30
0.0
 10
10.00000000000001
 20
3.905541701368073
 30
0.0
 10
10.00000000000001
 20
3.645305273051746
 30
0.0
 10
10.00000000000001
 20
3.049255121834047
 30
0.0
 10
10.00000000000001
 20
2.713683079541906
 30
0.0
 10
10.00000000000001
 20
2.355467705389013
 30
0.0
  0
SPLINE
  5
BE
330
1F
100
AcDbEntity
  8
0
  6
Continuous
 62
     1
370
    15
100
AcDbSpline
210
0.0
220
0.0
230
1.0
 70
     8
 71
     3
 72
    10
 73
     6
 74
     0
 42
0.000000001
 43
0.00000001
 40
0.0
 40
0.0
 40
0.0
 40
0.0
 40
0.5
 40
0.5
 40
1.0
 40
1.0
 40
1.0
 40
1.0
 10
60.00000000000001
 20
4.20000000000001
 30
0.0
 10
59.25332347653936
 20
3.997490621300249
 30
0.0
 10
58.5122833811027
 20
3.765127278277485
 30
0.0
 10
57.04287433025134
 20
3.233286497890206
 30
0.0
 10
56.31450293166837
 20
2.934090734052222
 30
0.0
 10
55.6006373060663
 20
2.584818657777567
 30
0.0
  0
SPLINE
  5
BF
330
1F
100
AcDbEntity
  8
0
  6
Continuous
 62
   131
370
    15
100
AcDbSpline
210
0.0
220
0.0
230
1.0
 70
    24
 71
     3
 72
    14
 73
    10
 74
     0
 42
0.000000001
 43
0.00000001
 40
0.0
 40
0.0
 40
0.0
 40
0.0
 40
0.25
 40
0.25
 40
0.5
 40
0.5
 40
0.75
 40
0.75
 40
1.0
 40
1.0
 40
1.0
 40
1.0
 10
9.999999999999996
 20
0.414467210135964
 30
0.0
 10
9.999999999999996
 20
-0.1134869313805455
 30
0.0
 10
9.999999999999996
 20
-0.6508740981150308
 30
0.0
 10
9.999999999999996
 20
-1.692974724492767
 30
0.0
 10
9.999999999999996
 20
-2.197118042862879
 30
0.0
 10
9.999999999999996
 20
-3.119715191735477
 30
0.0
 10
9.999999999999996
 20
-3.537677423904896
 30
0.0
 10
10.0
 20
-4.251400266192159
 30
0.0
 10
10.0
 20
-4.547051959353056
 30
0.0
 10
10.0
 20
-4.77657097489063
 30
0.0
  0
LINE
  5
C0
330
1F
100
AcDbEntity
  8
0
  6
Continuous
 62
     1
370
    15
100
AcDbLine
 10
60.00000000000001
 20
0.0000000000000111
 30
0.0
 11
60.00000000000001
 21
4.20000000000001
 31
0.0
  0
LINE
  5
C1
330
1F
100
AcDbEntity
  8
0
  6
Continuous
 62
   131
370
    15
100
AcDbLine
 10
7.969921738369507
 20
3.46243656289304
 30
0.0
 11
7.969921738369507
 21
6.000000000000005
 31
0.0
  0
SPLINE
  5
C2
330
1F
100
AcDbEntity
  8
0
  6
Continuous
 62
   131
370
    15
100
AcDbSpline
210
0.0
220
0.0
230
1.0
 70
     8
 71
     3
 72
     8
 73
     4
 74
     0
 42
0.000000001
 43
0.00000001
 40
0.0
 40
0.0
 40
0.0
 40
0.0
 40
1.0
 40
1.0
 40
1.0
 40
1.0
 10
10.0
 20
2.445349637580888
 30
0.0
 10
9.326556391895929
 20
2.801495226005274
 30
0.0
 10
8.644596795488464
 20
3.143495012967825
 30
0.0
 10
7.969839875716145
 20
3.462226552793604
 30
0.0
  0
SPLINE
  5
C3
330
1F
100
AcDbEntity
  8
0
  6
Continuous
 62
   131
370
    15
100
AcDbSpline
210
0.0
220
0.0
230
1.0
 70
     8
 71
     3
 72
     8
 73
     4
 74
     0
 42
0.000000001
 43
0.00000001
 40
0.0
 40
0.0
 40
0.0
 40
0.0
 40
1.0
 40
1.0
 40
1.0
 40
1.0
 10
7.969921738369504
 20
1.974151004876015
 30
0.0
 10
8.64465204843392
 20
1.605635728824524
 30
0.0
 10
9.326583626322307
 20
1.223201202103038
 30
0.0
 10
10.00000000000001
 20
0.8370242536328961
 30
0.0
  0
LINE
  5
C4
330
1F
100
AcDbEntity
  8
0
  6
Continuous
 62
   131
370
    15
100
AcDbLine
 10
7.969921738369507
 20
-5.999999999999995
 30
0.0
 11
7.969921738369504
 21
1.974148636501721
 31
0.0
  0
LINE
  5
C5
330
1F
100
AcDbEntity
  8
0
  6
Continuous
 62
   131
370
    15
100
AcDbLine
 10
-38.99999999999999
 20
6.0
 30
0.0
 11
-38.99999999999999
 21
-5.999999999999999
 31
0.0
  0
LINE
  5
C6
330
1F
100
AcDbEntity
  8
0
  6
Continuous
 62
   131
370
    15
100
AcDbLine
 10
-39.99999999999999
 20
4.999999999999999
 30
0.0
 11
-39.99999999999999
 21
-4.999999999999995
 31
0.0
  0
SPLINE
  5
C7
330
1F
100
AcDbEntity
  8
0
  6
Continuous
 62
   131
370
    15
100
AcDbSpline
210
0.0
220
0.0
230
1.0
 70
    24
 71
     3
 72
    10
 73
     6
 74
     0
 42
0.000000001
 43
0.00000001
 40
0.0
 40
0.0
 40
0.0
 40
0.0
 40
0.0463160543346802
 40
0.547109959571335
 40
0.9999999999999999
 40
0.9999999999999999
 40
0.9999999999999999
 40
0.9999999999999999
 10
10.00000000000002
 20
0.767784784357555
 30
0.0
 10
10.00000000000002
 20
0.7651803848955244
 30
0.0
 10
10.00000000000002
 20
0.7344158280944896
 30
0.0
 10
10.00000000000002
 20
0.62100663996479
 30
0.0
 10
10.00000000000002
 20
0.4809689737474478
 30
0.0
 10
10.00000000000002
 20
0.414467210135958
 30
0.0
  0
SPLINE
  5
C8
330
1F
100
AcDbEntity
  8
0
  6
Continuous
 62
   131
370
    15
100
AcDbSpline
210
0.0
220
0.0
230
1.0
 70
     8
 71
     3
 72
     8
 73
     4
 74
     0
 42
0.000000001
 43
0.00000001
 40
0.0
 40
0.0
 40
0.0
 40
0.0
 40
1.0
 40
1.0
 40
1.0
 40
1.0
 10
10.0
 20
0.4144672101359588
 30
0.0
 10
9.326577061410797
 20
0.686130693989619
 30
0.0
 10
8.644638729607042
 20
0.956275587349326
 30
0.0
 10
7.969902005209986
 20
1.217715186751108
 30
0.0
  0
LINE
  5
C9
330
1F
100
AcDbEntity
  8
0
  6
Continuous
 62
   131
370
    15
100
AcDbLine
 10
9.999999999999996
 20
4.776570974890642
 30
0.0
 11
9.668720129184035
 21
4.746749897993407
 31
0.0
  0
SPLINE
  5
CA
330
1F
100
AcDbEntity
  8
0
  6
Continuous
 62
   131
370
    15
100
AcDbSpline
210
0.0
220
0.0
230
1.0
 70
    24
 71
     3
 72
    14
 73
    10
 74
     0
 42
0.000000001
 43
0.00000001
 40
0.0
 40
0.0
 40
0.0
 40
0.0
 40
0.25
 40
0.25
 40
0.4999999999999999
 40
0.4999999999999999
 40
0.75
 40
0.75
 40
1.0
 40
1.0
 40
1.0
 40
1.0
 10
10.0
 20
4.776570974890642
 30
0.0
 10
10.0
 20
4.768708885321169
 30
0.0
 10
10.00000000000001
 20
4.711461120775525
 30
0.0
 10
10.0
 20
4.491478645320688
 30
0.0
 10
10.00000000000001
 20
4.328689483619744
 30
0.0
 10
10.0
 20
3.905541701368075
 30
0.0
 10
10.0
 20
3.645305273051749
 30
0.0
 10
10.0
 20
3.049255121834049
 30
0.0
 10
10.0
 20
2.713683079541909
 30
0.0
 10
10.0
 20
2.355467705389016
 30
0.0
  0
SPLINE
  5
CB
330
1F
100
AcDbEntity
  8
0
  6
Continuous
 62
   131
370
    15
100
AcDbSpline
210
0.0
220
0.0
230
1.0
 70
     8
 71
     3
 72
     8
 73
     4
 74
     0
 42
0.000000001
 43
0.00000001
 40
0.0
 40
0.0
 40
0.0
 40
0.0
 40
1.0
 40
1.0
 40
1.0
 40
1.0
 10
10.0
 20
-4.776570974890632
 30
0.0
 10
9.32657367695054
 20
-4.745782279641025
 30
0.0
 10
8.64463186324708
 20
-4.684342115668874
 30
0.0
 10
7.96989183202156
 20
-4.593825154452228
 30
0.0
  0
SPLINE
  5
CC
330
1F
100
AcDbEntity
  8
0
  6
Continuous
 62
   131
370
    15
100
AcDbSpline
210
0.0
220
0.0
230
1.0
 70
    24
 71
     3
 72
    14
 73
    10
 74
     0
 42
0.000000001
 43
0.00000001
 40
0.0
 40
0.0
 40
0.0
 40
0.0
 40
0.25
 40
0.25
 40
0.5
 40
0.5
 40
0.75
 40
0.75
 40
1.0
 40
1.0
 40
1.0
 40
1.0
 10
9.999999999999996
 20
0.414467210135964
 30
0.0
 10
9.999999999999996
 20
-0.1134869313805455
 30
0.0
 10
9.999999999999996
 20
-0.6508740981150308
 30
0.0
 10
9.999999999999996
 20
-1.692974724492767
 30
0.0
 10
9.999999999999996
 20
-2.197118042862879
 30
0.0
 10
9.999999999999996
 20
-3.119715191735477
 30
0.0
 10
9.999999999999996
 20
-3.537677423904896
 30
0.0
 10
10.0
 20
-4.251400266192159
 30
0.0
 10
10.0
 20
-4.547051959353056
 30
0.0
 10
10.0
 20
-4.77657097489063
 30
0.0
  0
LINE
  5
CD
330
1F
100
AcDbEntity
  8
중심선
 62
     1
100
AcDbLine
 10
-43.0
 20
-0.0000000000000004
 30
0.0
 11
63.00000000000001
 21
0.0000000000000114
 31
0.0
  0
CIRCLE
  5
CE
330
1F
100
AcDbEntity
  8
외형선
100
AcDbCircle
 10
0.0000000000000104
 20
0.0
 30
0.0
 40
3.000000000000005
  0
INSERT
  5
CF
330
1F
100
AcDbEntity
  8
0
  6
Continuous
 62
     7
100
AcDbBlockReference
 66
     1
  2
블럭10
 10
-22.93944368806589
 20
-52.04609937292004
 30
0.0
  0
ATTRIB
  5
D0
330
CF
100
AcDbEntity
  8
FORMAT
 62
     2
100
AcDbText
 10
-39.05870472750145
 20
-49.97073246008785
 30
0.0
 40
4.233333333333333
  1
SEME7012050E [ 2 FLUTE ]
 41
0.75
  7
SLDTEXTSTYLE0
 11
-39.05870472750145
 21
-52.08739912675452
 31
0.0
100
AcDbAttribute
  2
AUTOATTR0
 70
     0
 74
     1
  0
SEQEND
  5
D1
330
CF
100
AcDbEntity
  8
0
  6
Continuous
 62
     7
  0
HATCH
  5
D2
330
1F
100
AcDbEntity
  8
중심선
100
AcDbHatch
 10
0.0
 20
0.0
 30
0.0
210
0.0
220
0.0
230
1.0
  2
SOLID
 70
     1
 71
     0
 91
        1
 92
        0
 93
        4
 72
     1
 10
-17.22453438368504
 20
-35.7989250712761
 11
-20.67080962752232
 21
-35.7989250712761
 72
     1
 10
-20.67080962752232
 20
-35.7989250712761
 11
-22.79903948672635
 21
-38.3352506518487
 72
     1
 10
-22.79903948672635
 20
-38.3352506518487
 11
-19.35273115777591
 21
-38.33521122254621
 72
     1
 10
-19.35273115777591
 20
-38.33521122254621
 11
-17.22453438368504
 21
-35.7989250712761
 97
        0
 75
     0
 76
     1
 98
        1
 10
0.0
 20
0.0
  0
HATCH
  5
D3
330
1F
100
AcDbEntity
  8
중심선
100
AcDbHatch
 10
0.0
 20
0.0
 30
0.0
210
0.0
220
0.0
230
1.0
  2
SOLID
 70
     1
 71
     0
 91
        1
 92
        0
 93
        4
 72
     1
 10
-12.21177039264909
 20
-35.7989250712761
 11
-15.65804563648637
 21
-35.7989250712761
 72
     1
 10
-15.65804563648637
 20
-35.7989250712761
 11
-20.18918364484376
 21
-41.19892507127612
 72
     1
 10
-20.18918364484376
 20
-41.19892507127612
 11
-16.74290840100648
 21
-41.19892507127612
 72
     1
 10
-16.74290840100648
 20
-41.19892507127612
 11
-12.21177039264909
 21
-35.7989250712761
 97
        0
 75
     0
 76
     1
 98
        1
 10
0.0
 20
0.0
  0
HATCH
  5
D4
330
1F
100
AcDbEntity
  8
중심선
100
AcDbHatch
 10
0.0
 20
0.0
 30
0.0
210
0.0
220
0.0
230
1.0
  2
SOLID
 70
     1
 71
     0
 91
        1
 92
        0
 93
        4
 72
     1
 10
-7.199006401613195
 20
-35.79892507127613
 11
-10.64528164545031
 21
-35.7989250712761
 72
     1
 10
-10.64528164545031
 20
-35.7989250712761
 11
-17.69371854733956
 21
-44.19892507127612
 72
     1
 10
-17.69371854733956
 20
-44.19892507127612
 11
-14.24744330350228
 21
-44.19892507127612
 72
     1
 10
-14.24744330350228
 20
-44.19892507127612
 11
-7.199006401613195
 21
-35.79892507127613
 97
        0
 75
     0
 76
     1
 98
        1
 10
0.0
 20
0.0
  0
HATCH
  5
D5
330
1F
100
AcDbEntity
  8
중심선
100
AcDbHatch
 10
0.0
 20
0.0
 30
0.0
210
0.0
220
0.0
230
1.0
  2
SOLID
 70
     1
 71
     0
 91
        1
 92
        0
 93
        6
 72
     3
 10
-2.399115970600996
 20
-39.99892507132738
 11
3.960054785062284
 21
1.540850780301639E-10
 40
0.3939339440162633
 50
17.09539180608433
 51
320.0019657685079
 73
     0
 72
     1
 10
-0.7161163149004002
 20
-38.58681907591441
 11
1.589185558800638
 21
-36.65249236586649
 72
     3
 10
-2.399115970653842
 20
-39.99892507127625
 11
6.600054785286829
 21
-1.249000902703301E-13
 40
0.6363583540795982
 50
39.99873849337408
 51
368.4976242363725
 73
     1
 72
     1
 10
4.026216521246767
 20
-39.03892507120613
 11
-3.71904866381792
 21
-39.0389250712061
 72
     1
 10
-3.71904866381792
 20
-39.0389250712061
 11
-3.719073708263854
 21
-40.95892507120602
 72
     1
 10
-3.719073708263854
 20
-40.95892507120602
 11
0.7223060612081831
 21
-40.95892507120599
 97
        0
 75
     0
 76
     1
 98
        1
 10
0.0
 20
0.0
  0
DIMENSION
  5
D6
330
1F
100
AcDbEntity
  8
치수문자_일반주서
100
AcDbDimension
  2
_D
 10
75.69475261898529
 20
6.000000000000249
 30
0.0
 11
75.69475261898525
 21
16.54150000000025
 31
0.0
 70
   160
  1
%%c<>
 71
     2
 42
12.0
 52
-270.0
  3
SLDDIMSTYLE0
100
AcDbAlignedDimension
 13
59.99999999999963
 23
-5.999999999999806
 33
0.0
 14
59.9999999999997
 24
6.00000000000019
 34
0.0
 50
90.0000000000002
100
AcDbRotatedDimension
  0
DIMENSION
  5
E4
330
1F
100
AcDbEntity
  8
치수문자_일반주서
100
AcDbDimension
  2
_D_1
 10
59.99999999999971
 20
26.7884104402427
 30
0.0
 11
9.999999999999872
 21
26.7884104402427
 31
0.0
 70
   160
  1
<>
 71
     2
 42
99.99999999999969
  3
SLDDIMSTYLE1
100
AcDbAlignedDimension
 13
-39.99999999999999
 23
4.999999999999999
 33
0.0
 14
59.9999999999997
 24
6.00000000000019
 34
0.0
 50
-0.0000000000000041
100
AcDbRotatedDimension
  0
DIMENSION
  5
EF
330
1F
100
AcDbEntity
  8
치수문자_일반주서
100
AcDbDimension
  2
_D_2
 10
59.9999999999997
 20
18.12356878105817
 30
0.0
 11
34.99999999999999
 21
18.12356878105817
 31
0.0
 70
   160
  1
<>
 71
     2
 42
49.9999999999997
  3
SLDDIMSTYLE1
100
AcDbAlignedDimension
 13
9.999999999999996
 23
4.776570974890642
 33
0.0
 14
59.9999999999997
 24
6.00000000000019
 34
0.0
 50
0.0000000000000204
100
AcDbRotatedDimension
  0
DIMENSION
  5
F9
330
1F
100
AcDbEntity
  8
치수문자_일반주서
100
AcDbDimension
  2
_D_3
 10
-51.04827816870868
 20
-6.000000000000039
 30
0.0
 11
-51.04827816870876
 21
16.54149999999996
 31
0.0
 70
   160
  1
%%c<>
 71
     2
 42
11.99999999999999
 52
-270.0
  3
SLDDIMSTYLE0
100
AcDbAlignedDimension
 13
-38.99999999999999
 23
6.0
 33
0.0
 14
-38.99999999999999
 24
-5.999999999999995
 34
0.0
 50
90.0000000000002
100
AcDbRotatedDimension
  0
INSERT
  5
10C
330
1F
100
AcDbEntity
  8
외형선
100
AcDbBlockReference
  2
SW_DOWELSYMBOL_0
 10
0.0000000000000104
 20
0.0
 30
0.0
  0
ENDSEC
  0
SECTION
  2
OBJECTS
  0
DICTIONARY
  5
C
330
0
100
AcDbDictionary
281
     1
  3
ACAD_GROUP
350
D
  3
ACAD_IMAGE_VARS
350
130
  3
ACAD_LAYOUT
350
1A
  3
ACAD_MLINESTYLE
350
17
  3
ACAD_PLOTSETTINGS
350
19
  3
ACAD_PLOTSTYLENAME
350
E
  3
ACAD_SCALELIST
350
47
  3
APPDATA
350
12E
  3
DWGPROPS
350
13F
  0
DICTIONARY
  5
D
102
{ACAD_REACTORS
330
C
102
}
330
C
100
AcDbDictionary
281
     1
  0
RASTERVARIABLES
  5
130
102
{ACAD_REACTORS
330
C
102
}
330
C
100
AcDbRasterVariables
 90
        0
 70
     1
 71
     1
 72
     1
  0
DICTIONARY
  5
1A
102
{ACAD_REACTORS
330
C
102
}
330
C
100
AcDbDictionary
281
     1
  3
Layout1
350
1E
  3
Layout2
350
26
  3
Model
350
22
  0
DICTIONARY
  5
17
102
{ACAD_REACTORS
330
C
102
}
330
C
100
AcDbDictionary
281
     1
  3
Standard
350
18
  0
DICTIONARY
  5
19
102
{ACAD_REACTORS
330
C
102
}
330
C
100
AcDbDictionary
281
     1
  0
ACDBDICTIONARYWDFLT
  5
E
102
{ACAD_REACTORS
330
C
102
}
330
C
100
AcDbDictionary
281
     1
  3
Normal
350
F
100
AcDbDictionaryWithDefault
340
F
  0
DICTIONARY
  5
47
102
{ACAD_REACTORS
330
C
102
}
330
C
100
AcDbDictionary
281
     1
  3
A0
350
48
  3
A1
350
49
  3
A2
350
4A
  3
A3
350
4B
  3
A4
350
4C
  3
A5
350
4D
  3
A6
350
4E
  3
A7
350
4F
  3
A8
350
50
  3
A9
350
51
  3
B0
350
52
  3
B1
350
53
  3
B2
350
54
  3
B3
350
55
  3
B4
350
56
  3
B5
350
57
  3
B6
350
58
  3
B7
350
59
  3
B8
350
5A
  3
B9
350
5B
  3
C0
350
5C
  3
C1
350
5D
  3
C2
350
5E
  3
C3
350
5F
  3
C4
350
60
  3
C5
350
61
  3
C6
350
62
  3
C7
350
63
  3
C8
350
64
  3
C9
350
65
  3
D0
350
66
  3
D1
350
67
  3
D2
350
68
  0
DICTIONARY
  5
12E
102
{ACAD_REACTORS
330
C
102
}
330
C
100
AcDbDictionary
281
     1
  0
XRECORD
  5
13F
102
{ACAD_REACTORS
330
C
102
}
330
C
100
AcDbXrecord
280
     1
  1
DWGPROPS COOKIE
  2

  3

  4

  6

  7

  8
12014102
  9

300
=
301
=
302
=
303
=
304
=
305
=
306
=
307
=
308
=
309
=
 40
0.0
 41
2458262.173112523
 42
2458266.118318056
  1

 90
        0
  0
LAYOUT
  5
1E
102
{ACAD_REACTORS
330
1A
102
}
330
1A
100
AcDbPlotSettings
  1

  2
none_device
  4

  6

 40
0.0
 41
0.0
 42
0.0
 43
0.0
 44
0.0
 45
0.0
 46
0.0
 47
0.0
 48
0.0
 49
0.0
140
0.0
141
0.0
142
1.0
143
1.0
 70
   688
 72
     1
 73
     0
 74
     5
  7

 75
    16
147
1.0
148
0.0
149
0.0
100
AcDbLayout
  1
Layout1
 70
     1
 71
     1
 10
0.0
 20
0.0
 11
420.0
 21
297.0
 12
0.0
 22
0.0
 32
0.0
 14
1.000000000000000E+20
 24
1.000000000000000E+20
 34
1.000000000000000E+20
 15
-1.000000000000000E+20
 25
-1.000000000000000E+20
 35
-1.000000000000000E+20
146
0.0
 13
0.0
 23
0.0
 33
0.0
 16
1.0
 26
0.0
 36
0.0
 17
0.0
 27
1.0
 37
0.0
 76
     0
330
1B
  0
LAYOUT
  5
26
102
{ACAD_REACTORS
330
1A
102
}
330
1A
100
AcDbPlotSettings
  1

  2
none_device
  4

  6

 40
0.0
 41
0.0
 42
0.0
 43
0.0
 44
0.0
 45
0.0
 46
0.0
 47
0.0
 48
0.0
 49
0.0
140
0.0
141
0.0
142
1.0
143
1.0
 70
   688
 72
     1
 73
     0
 74
     5
  7

 75
    16
147
1.0
148
0.0
149
0.0
100
AcDbLayout
  1
Layout2
 70
     1
 71
     2
 10
0.0
 20
0.0
 11
0.0
 21
0.0
 12
0.0
 22
0.0
 32
0.0
 14
0.0
 24
0.0
 34
0.0
 15
0.0
 25
0.0
 35
0.0
146
0.0
 13
0.0
 23
0.0
 33
0.0
 16
1.0
 26
0.0
 36
0.0
 17
0.0
 27
1.0
 37
0.0
 76
     0
330
23
  0
LAYOUT
  5
22
102
{ACAD_REACTORS
330
1A
102
}
330
1A
100
AcDbPlotSettings
  1

  2
none_device
  4
ANSI_A_(11.00_x_8.50_Inches)
  6

 40
6.35
 41
19.05
 42
6.35000508
 43
19.05000254
 44
279.4
 45
215.9
 46
116.7435892330353
 47
112.0337518643677
 48
0.0
 49
0.0
140
0.0
141
0.0
142
0.0938294292552811
143
1.0
 70
  1696
 72
     0
 73
     0
 74
     0
  7

 75
     0
147
0.0235690232323232
148
0.0
149
0.0
100
AcDbLayout
  1
Model
 70
     1
 71
     0
 10
0.0
 20
0.0
 11
420.0
 21
297.0
 12
0.0
 22
0.0
 32
0.0
 14
-55.42327816870877
 24
-49.97073246008785
 34
0.0
 15
76.24508595231868
 25
31.1634104402427
 35
0.0
146
0.0
 13
0.0
 23
0.0
 33
0.0
 16
1.0
 26
0.0
 36
0.0
 17
0.0
 27
1.0
 37
0.0
 76
     0
330
1F
331
29
  0
MLINESTYLE
  5
18
102
{ACAD_REACTORS
330
17
102
}
330
17
100
AcDbMlineStyle
  2
Standard
 70
     0
  3

 62
   256
 51
90.0
 52
90.0
 71
     2
 49
0.5
 62
   256
  6
BYLAYER
 49
-0.5
 62
   256
  6
BYLAYER
  0
ACDBPLACEHOLDER
  5
F
102
{ACAD_REACTORS
330
E
102
}
330
E
  0
SCALE
  5
48
102
{ACAD_REACTORS
330
47
102
}
330
47
100
AcDbScale
 70
     0
300
1:1
140
1.0
141
1.0
290
     1
  0
SCALE
  5
49
102
{ACAD_REACTORS
330
47
102
}
330
47
100
AcDbScale
 70
     0
300
1:2
140
1.0
141
2.0
290
     0
  0
SCALE
  5
4A
102
{ACAD_REACTORS
330
47
102
}
330
47
100
AcDbScale
 70
     0
300
1:4
140
1.0
141
4.0
290
     0
  0
SCALE
  5
4B
102
{ACAD_REACTORS
330
47
102
}
330
47
100
AcDbScale
 70
     0
300
1:5
140
1.0
141
5.0
290
     0
  0
SCALE
  5
4C
102
{ACAD_REACTORS
330
47
102
}
330
47
100
AcDbScale
 70
     0
300
1:8
140
1.0
141
8.0
290
     0
  0
SCALE
  5
4D
102
{ACAD_REACTORS
330
47
102
}
330
47
100
AcDbScale
 70
     0
300
1:10
140
1.0
141
10.0
290
     0
  0
SCALE
  5
4E
102
{ACAD_REACTORS
330
47
102
}
330
47
100
AcDbScale
 70
     0
300
1:16
140
1.0
141
16.0
290
     0
  0
SCALE
  5
4F
102
{ACAD_REACTORS
330
47
102
}
330
47
100
AcDbScale
 70
     0
300
1:20
140
1.0
141
20.0
290
     0
  0
SCALE
  5
50
102
{ACAD_REACTORS
330
47
102
}
330
47
100
AcDbScale
 70
     0
300
1:30
140
1.0
141
30.0
290
     0
  0
SCALE
  5
51
102
{ACAD_REACTORS
330
47
102
}
330
47
100
AcDbScale
 70
     0
300
1:40
140
1.0
141
40.0
290
     0
  0
SCALE
  5
52
102
{ACAD_REACTORS
330
47
102
}
330
47
100
AcDbScale
 70
     0
300
1:50
140
1.0
141
50.0
290
     0
  0
SCALE
  5
53
102
{ACAD_REACTORS
330
47
102
}
330
47
100
AcDbScale
 70
     0
300
1:100
140
1.0
141
100.0
290
     0
  0
SCALE
  5
54
102
{ACAD_REACTORS
330
47
102
}
330
47
100
AcDbScale
 70
     0
300
2:1
140
2.0
141
1.0
290
     0
  0
SCALE
  5
55
102
{ACAD_REACTORS
330
47
102
}
330
47
100
AcDbScale
 70
     0
300
4:1
140
4.0
141
1.0
290
     0
  0
SCALE
  5
56
102
{ACAD_REACTORS
330
47
102
}
330
47
100
AcDbScale
 70
     0
300
8:1
140
8.0
141
1.0
290
     0
  0
SCALE
  5
57
102
{ACAD_REACTORS
330
47
102
}
330
47
100
AcDbScale
 70
     0
300
10:1
140
10.0
141
1.0
290
     0
  0
SCALE
  5
58
102
{ACAD_REACTORS
330
47
102
}
330
47
100
AcDbScale
 70
     0
300
100:1
140
100.0
141
1.0
290
     0
  0
SCALE
  5
59
102
{ACAD_REACTORS
330
47
102
}
330
47
100
AcDbScale
 70
     0
300
1/128" = 1'-0"
140
0.0078125
141
12.0
290
     0
  0
SCALE
  5
5A
102
{ACAD_REACTORS
330
47
102
}
330
47
100
AcDbScale
 70
     0
300
1/64" = 1'-0"
140
0.015625
141
12.0
290
     0
  0
SCALE
  5
5B
102
{ACAD_REACTORS
330
47
102
}
330
47
100
AcDbScale
 70
     0
300
1/32" = 1'-0"
140
0.03125
141
12.0
290
     0
  0
SCALE
  5
5C
102
{ACAD_REACTORS
330
47
102
}
330
47
100
AcDbScale
 70
     0
300
1/16" = 1'-0"
140
0.0625
141
12.0
290
     0
  0
SCALE
  5
5D
102
{ACAD_REACTORS
330
47
102
}
330
47
100
AcDbScale
 70
     0
300
3/32" = 1'-0"
140
0.09375
141
12.0
290
     0
  0
SCALE
  5
5E
102
{ACAD_REACTORS
330
47
102
}
330
47
100
AcDbScale
 70
     0
300
1/8" = 1'-0"
140
0.125
141
12.0
290
     0
  0
SCALE
  5
5F
102
{ACAD_REACTORS
330
47
102
}
330
47
100
AcDbScale
 70
     0
300
3/16" = 1'-0"
140
0.1875
141
12.0
290
     0
  0
SCALE
  5
60
102
{ACAD_REACTORS
330
47
102
}
330
47
100
AcDbScale
 70
     0
300
1/4" = 1'-0"
140
0.25
141
12.0
290
     0
  0
SCALE
  5
61
102
{ACAD_REACTORS
330
47
102
}
330
47
100
AcDbScale
 70
     0
300
3/8" = 1'-0"
140
0.375
141
12.0
290
     0
  0
SCALE
  5
62
102
{ACAD_REACTORS
330
47
102
}
330
47
100
AcDbScale
 70
     0
300
1/2" = 1'-0"
140
0.5
141
12.0
290
     0
  0
SCALE
  5
63
102
{ACAD_REACTORS
330
47
102
}
330
47
100
AcDbScale
 70
     0
300
3/4" = 1'-0"
140
0.75
141
12.0
290
     0
  0
SCALE
  5
64
102
{ACAD_REACTORS
330
47
102
}
330
47
100
AcDbScale
 70
     0
300
1" = 1'-0"
140
1.0
141
12.0
290
     0
  0
SCALE
  5
65
102
{ACAD_REACTORS
330
47
102
}
330
47
100
AcDbScale
 70
     0
300
1-1/2" = 1'-0"
140
1.5
141
12.0
290
     0
  0
SCALE
  5
66
102
{ACAD_REACTORS
330
47
102
}
330
47
100
AcDbScale
 70
     0
300
3" = 1'-0"
140
3.0
141
12.0
290
     0
  0
SCALE
  5
67
102
{ACAD_REACTORS
330
47
102
}
330
47
100
AcDbScale
 70
     0
300
6" = 1'-0"
140
6.0
141
12.0
290
     0
  0
SCALE
  5
68
102
{ACAD_REACTORS
330
47
102
}
330
47
100
AcDbScale
 70
     0
300
1'-0" = 1'-0"
140
12.0
141
12.0
290
     0
  0
ENDSEC
  0
EOF
