  0
SECTION
  2
HEADER
  9
$ACADVER
  1
AC1015
  9
$ACADMAINTVER
 70
     6
  9
$DWGCODEPAGE
  3
ANSI_949
  9
$INSBASE
 10
0.0
 20
0.0
 30
0.0
  9
$EXTMIN
 10
-60.97866571683556
 20
-49.97073246008785
 30
0.0
  9
$EXTMAX
 10
81.33982037964273
 20
31.1634104402427
 30
0.0
  9
$LIMMIN
 10
0.0
 20
0.0
  9
$LIMMAX
 10
420.0
 20
297.0
  9
$ORTHOMODE
 70
     0
  9
$REGENMODE
 70
     1
  9
$FILLMODE
 70
     1
  9
$QTEXTMODE
 70
     0
  9
$MIRRTEXT
 70
     1
  9
$LTSCALE
 40
1.0
  9
$ATTMODE
 70
     1
  9
$TEXTSIZE
 40
3.5
  9
$TRACEWID
 40
1.0
  9
$TEXTSTYLE
  7
Standard
  9
$CLAYER
  8
0
  9
$CELTYPE
  6
ByLayer
  9
$CECOLOR
 62
   256
  9
$CELTSCALE
 40
1.0
  9
$DISPSILH
 70
     0
  9
$DIMSCALE
 40
1.0
  9
$DIMASZ
 40
3.302
  9
$DIMEXO
 40
1.0
  9
$DIMDLI
 40
3.75
  9
$DIMRND
 40
0.0
  9
$DIMDLE
 40
0.0
  9
$DIMEXE
 40
1.0
  9
$DIMTP
 40
0.0
  9
$DIMTM
 40
0.0
  9
$DIMTXT
 40
3.5
  9
$DIMCEN
 40
2.5
  9
$DIMTSZ
 40
0.0
  9
$DIMTOL
 70
     0
  9
$DIMLIM
 70
     0
  9
$DIMTIH
 70
     1
  9
$DIMTOH
 70
     1
  9
$DIMSE1
 70
     0
  9
$DIMSE2
 70
     0
  9
$DIMTAD
 70
     1
  9
$DIMZIN
 70
     0
  9
$DIMBLK
  1

  9
$DIMASO
 70
     1
  9
$DIMSHO
 70
     1
  9
$DIMPOST
  1

  9
$DIMAPOST
  1

  9
$DIMALT
 70
     0
  9
$DIMALTD
 70
     3
  9
$DIMALTF
 40
0.0393700787401575
  9
$DIMLFAC
 40
1.0
  9
$DIMTOFL
 70
     1
  9
$DIMTVP
 40
0.0
  9
$DIMTIX
 70
     0
  9
$DIMSOXD
 70
     0
  9
$DIMSAH
 70
     0
  9
$DIMBLK1
  1

  9
$DIMBLK2
  1

  9
$DIMSTYLE
  2
ISO-25
  9
$DIMCLRD
 70
     0
  9
$DIMCLRE
 70
     0
  9
$DIMCLRT
 70
     0
  9
$DIMTFAC
 40
1.0
  9
$DIMGAP
 40
1.524
  9
$DIMJUST
 70
     0
  9
$DIMSD1
 70
     0
  9
$DIMSD2
 70
     0
  9
$DIMTOLJ
 70
     0
  9
$DIMTZIN
 70
     0
  9
$DIMALTZ
 70
     0
  9
$DIMALTTZ
 70
     0
  9
$DIMUPT
 70
     0
  9
$DIMDEC
 70
     2
  9
$DIMTDEC
 70
     2
  9
$DIMALTU
 70
     2
  9
$DIMALTTD
 70
     3
  9
$DIMTXSTY
  7
Standard
  9
$DIMAUNIT
 70
     0
  9
$DIMADEC
 70
     2
  9
$DIMALTRND
 40
0.0
  9
$DIMAZIN
 70
     0
  9
$DIMDSEP
 70
    44
  9
$DIMATFIT
 70
     3
  9
$DIMFRAC
 70
     0
  9
$DIMLDRBLK
  1

  9
$DIMLUNIT
 70
     2
  9
$DIMLWD
 70
    -2
  9
$DIMLWE
 70
    -2
  9
$DIMTMOVE
 70
     0
  9
$LUNITS
 70
     2
  9
$LUPREC
 70
     2
  9
$SKETCHINC
 40
1.0
  9
$FILLETRAD
 40
10.0
  9
$AUNITS
 70
     0
  9
$AUPREC
 70
     2
  9
$MENU
  1
.
  9
$ELEVATION
 40
0.0
  9
$PELEVATION
 40
0.0
  9
$THICKNESS
 40
0.0
  9
$LIMCHECK
 70
     0
  9
$CHAMFERA
 40
0.0
  9
$CHAMFERB
 40
0.0
  9
$CHAMFERC
 40
0.0
  9
$CHAMFERD
 40
0.0
  9
$SKPOLY
 70
     0
  9
$TDCREATE
 40
2458262.548300614
  9
$TDUCREATE
 40
2458262.173300614
  9
$TDUPDATE
 40
2458266.539848137
  9
$TDUUPDATE
 40
2458266.164848137
  9
$TDINDWG
 40
0.0013183449
  9
$TDUSRTIMER
 40
2458266.163529838
  9
$USRTIMER
 70
     1
  9
$ANGBASE
 50
0.0
  9
$ANGDIR
 70
     0
  9
$PDMODE
 70
     0
  9
$PDSIZE
 40
-1.0
  9
$PLINEWID
 40
0.0
  9
$SPLFRAME
 70
     0
  9
$SPLINETYPE
 70
     6
  9
$SPLINESEGS
 70
     8
  9
$HANDSEED
  5
141
  9
$SURFTAB1
 70
     6
  9
$SURFTAB2
 70
     6
  9
$SURFTYPE
 70
     6
  9
$SURFU
 70
     6
  9
$SURFV
 70
     6
  9
$UCSBASE
  2

  9
$UCSNAME
  2

  9
$UCSORG
 10
0.0
 20
0.0
 30
0.0
  9
$UCSXDIR
 10
1.0
 20
0.0
 30
0.0
  9
$UCSYDIR
 10
0.0
 20
1.0
 30
0.0
  9
$UCSORTHOREF
  2

  9
$UCSORTHOVIEW
 70
     0
  9
$UCSORGTOP
 10
0.0
 20
0.0
 30
0.0
  9
$UCSORGBOTTOM
 10
0.0
 20
0.0
 30
0.0
  9
$UCSORGLEFT
 10
0.0
 20
0.0
 30
0.0
  9
$UCSORGRIGHT
 10
0.0
 20
0.0
 30
0.0
  9
$UCSORGFRONT
 10
0.0
 20
0.0
 30
0.0
  9
$UCSORGBACK
 10
0.0
 20
0.0
 30
0.0
  9
$PUCSBASE
  2

  9
$PUCSNAME
  2

  9
$PUCSORG
 10
0.0
 20
0.0
 30
0.0
  9
$PUCSXDIR
 10
1.0
 20
0.0
 30
0.0
  9
$PUCSYDIR
 10
0.0
 20
1.0
 30
0.0
  9
$PUCSORTHOREF
  2

  9
$PUCSORTHOVIEW
 70
     0
  9
$PUCSORGTOP
 10
0.0
 20
0.0
 30
0.0
  9
$PUCSORGBOTTOM
 10
0.0
 20
0.0
 30
0.0
  9
$PUCSORGLEFT
 10
0.0
 20
0.0
 30
0.0
  9
$PUCSORGRIGHT
 10
0.0
 20
0.0
 30
0.0
  9
$PUCSORGFRONT
 10
0.0
 20
0.0
 30
0.0
  9
$PUCSORGBACK
 10
0.0
 20
0.0
 30
0.0
  9
$USERI1
 70
     0
  9
$USERI2
 70
     0
  9
$USERI3
 70
     0
  9
$USERI4
 70
     0
  9
$USERI5
 70
     0
  9
$USERR1
 40
0.0
  9
$USERR2
 40
0.0
  9
$USERR3
 40
0.0
  9
$USERR4
 40
0.0
  9
$USERR5
 40
0.0
  9
$WORLDVIEW
 70
     1
  9
$SHADEDGE
 70
     3
  9
$SHADEDIF
 70
    70
  9
$TILEMODE
 70
     1
  9
$MAXACTVP
 70
    64
  9
$PINSBASE
 10
0.0
 20
0.0
 30
0.0
  9
$PLIMCHECK
 70
     0
  9
$PEXTMIN
 10
1.000000000000000E+20
 20
1.000000000000000E+20
 30
1.000000000000000E+20
  9
$PEXTMAX
 10
-1.000000000000000E+20
 20
-1.000000000000000E+20
 30
-1.000000000000000E+20
  9
$PLIMMIN
 10
0.0
 20
0.0
  9
$PLIMMAX
 10
0.0
 20
0.0
  9
$UNITMODE
 70
     0
  9
$VISRETAIN
 70
     1
  9
$PLINEGEN
 70
     0
  9
$PSLTSCALE
 70
     1
  9
$TREEDEPTH
 70
  3020
  9
$CMLSTYLE
  2
Standard
  9
$CMLJUST
 70
     0
  9
$CMLSCALE
 40
20.0
  9
$PROXYGRAPHICS
 70
     1
  9
$MEASUREMENT
 70
     1
  9
$CELWEIGHT
370
    -1
  9
$ENDCAPS
280
     0
  9
$JOINSTYLE
280
     0
  9
$LWDISPLAY
290
     1
  9
$INSUNITS
 70
     4
  9
$HYPERLINKBASE
  1

  9
$STYLESHEET
  1

  9
$XEDIT
290
     1
  9
$CEPSNTYPE
380
     0
  9
$PSTYLEMODE
290
     1
  9
$FINGERPRINTGUID
  2
{312C995E-6F29-425A-AE0E-A6DFDEF05D29}
  9
$VERSIONGUID
  2
{FAEB1C32-E019-11D5-929B-00C0DF256EC4}
  9
$EXTNAMES
290
     1
  9
$PSVPSCALE
 40
0.0
  9
$OLESTARTUP
290
     0
  0
ENDSEC
  0
SECTION
  2
CLASSES
  0
CLASS
  1
ACDBDICTIONARYWDFLT
  2
AcDbDictionaryWithDefault
  3
ObjectDBX Classes
 90
        0
280
     0
281
     0
  0
CLASS
  1
VISUALSTYLE
  2
AcDbVisualStyle
  3
ObjectDBX Classes
 90
     4095
280
     0
281
     0
  0
CLASS
  1
MATERIAL
  2
AcDbMaterial
  3
ObjectDBX Classes
 90
     1153
280
     0
281
     0
  0
CLASS
  1
SCALE
  2
AcDbScale
  3
ObjectDBX Classes
 90
     1153
280
     0
281
     0
  0
CLASS
  1
SUN
  2
AcDbSun
  3
SCENEOE
 90
     1153
280
     0
281
     0
  0
CLASS
  1
ACDBPLACEHOLDER
  2
AcDbPlaceHolder
  3
ObjectDBX Classes
 90
        0
280
     0
281
     0
  0
CLASS
  1
LAYOUT
  2
AcDbLayout
  3
ObjectDBX Classes
 90
        0
280
     0
281
     0
  0
CLASS
  1
TABLESTYLE
  2
AcDbTableStyle
  3
ObjectDBX Classes
 90
     4095
280
     0
281
     0
  0
CLASS
  1
MLEADERSTYLE
  2
AcDbMLeaderStyle
  3
ACDB_MLEADERSTYLE_CLASS
 90
     4095
280
     0
281
     0
  0
CLASS
  1
RASTERVARIABLES
  2
AcDbRasterVariables
  3
ISM
 90
        0
280
     0
281
     0
  0
ENDSEC
  0
SECTION
  2
TABLES
  0
TABLE
  2
VPORT
  5
8
330
0
100
AcDbSymbolTable
 70
     1
  0
VPORT
  5
29
330
8
100
AcDbSymbolTableRecord
100
AcDbViewportTableRecord
  2
*Active
 70
     0
 10
0.0
 20
0.0
 11
1.0
 21
1.0
 12
10.18057733140358
 22
-9.40366100992258
 13
0.0
 23
0.0
 14
10.0
 24
10.0
 15
10.0
 25
10.0
 16
0.0
 26
0.0
 36
1.0
 17
0.0
 27
0.0
 37
0.0
 40
125.9614331877216
 41
1.152454780361757
 42
50.0
 43
0.0
 44
0.0
 50
0.0
 51
0.0
 71
    16
 72
  2000
 73
     1
 74
     3
 75
     0
 76
     0
 77
     0
 78
     0
281
     0
 65
     1
110
0.0
120
0.0
130
0.0
111
1.0
121
0.0
131
0.0
112
0.0
122
1.0
132
0.0
 79
     0
146
0.0
  0
ENDTAB
  0
TABLE
  2
LTYPE
  5
5
330
0
100
AcDbSymbolTable
 70
     6
  0
LTYPE
  5
14
330
5
100
AcDbSymbolTableRecord
100
AcDbLinetypeTableRecord
  2
ByBlock
 70
     0
  3

 72
    65
 73
     0
 40
0.0
  0
LTYPE
  5
15
330
5
100
AcDbSymbolTableRecord
100
AcDbLinetypeTableRecord
  2
ByLayer
 70
     0
  3

 72
    65
 73
     0
 40
0.0
  0
LTYPE
  5
16
330
5
100
AcDbSymbolTableRecord
100
AcDbLinetypeTableRecord
  2
Continuous
 70
     0
  3
Solid line
 72
    65
 73
     0
 40
0.0
  0
LTYPE
  5
6A
330
5
100
AcDbSymbolTableRecord
100
AcDbLinetypeTableRecord
  2
HIDDEN
 70
     0
  3
Hidden __ __ __ __ __ __ __ __ __ __ __ __ __ __
 72
    65
 73
     2
 40
1.905
 49
1.27
 74
     0
 49
-0.635
 74
     0
  0
LTYPE
  5
6B
330
5
100
AcDbSymbolTableRecord
100
AcDbLinetypeTableRecord
  2
PHANTOM
 70
     0
  3
Phantom ______  __  __  ______  __  __  ______
 72
    65
 73
     6
 40
12.7
 49
6.35
 74
     0
 49
-1.27
 74
     0
 49
1.27
 74
     0
 49
-1.27
 74
     0
 49
1.27
 74
     0
 49
-1.27
 74
     0
  0
LTYPE
  5
6C
330
5
100
AcDbSymbolTableRecord
100
AcDbLinetypeTableRecord
  2
CENTER
 70
     0
  3
Center ____ _ ____ _ ____ _ ____ _ ____ _ ____
 72
    65
 73
     4
 40
10.16
 49
6.35
 74
     0
 49
-1.27
 74
     0
 49
1.27
 74
     0
 49
-1.27
 74
     0
  0
LTYPE
  5
6D
330
5
100
AcDbSymbolTableRecord
100
AcDbLinetypeTableRecord
  2
CENTERX2
 70
     0
  3
Center (2x) ________  __  ________  __  _____
 72
    65
 73
     4
 40
20.32
 49
12.7
 74
     0
 49
-2.54
 74
     0
 49
2.54
 74
     0
 49
-2.54
 74
     0
  0
LTYPE
  5
6E
330
5
100
AcDbSymbolTableRecord
100
AcDbLinetypeTableRecord
  2
DOT2
 70
     0
  3
Dot (.5x) ........................................
 72
    65
 73
     2
 40
0.635
 49
0.0
 74
     0
 49
-0.635
 74
     0
  0
ENDTAB
  0
TABLE
  2
LAYER
  5
2
330
0
100
AcDbSymbolTable
 70
    17
  0
LAYER
  5
10
330
2
100
AcDbSymbolTableRecord
100
AcDbLayerTableRecord
  2
0
 70
     0
 62
     7
  6
Continuous
370
    -3
390
F
  0
LAYER
  5
6F
330
2
100
AcDbSymbolTableRecord
100
AcDbLayerTableRecord
  2
FORMAT
 70
     0
 62
     2
  6
Continuous
370
    -3
390
F
  0
LAYER
  5
70
330
2
100
AcDbSymbolTableRecord
100
AcDbLayerTableRecord
  2
외형선
 70
     0
 62
   100
  6
Continuous
370
    30
390
F
  0
LAYER
  5
71
330
2
100
AcDbSymbolTableRecord
100
AcDbLayerTableRecord
  2
숨은선
 70
     0
 62
     2
  6
HIDDEN
370
    15
390
F
  0
LAYER
  5
72
330
2
100
AcDbSymbolTableRecord
100
AcDbLayerTableRecord
  2
중심선
 70
     0
 62
     1
  6
CENTERX2
370
    -3
390
F
  0
LAYER
  5
73
330
2
100
AcDbSymbolTableRecord
100
AcDbLayerTableRecord
  2
파단선
 70
     0
 62
     4
  6
Continuous
370
    -3
390
F
  0
LAYER
  5
74
330
2
100
AcDbSymbolTableRecord
100
AcDbLayerTableRecord
  2
해칭선
 70
     0
 62
     4
  6
Continuous
370
    -3
390
F
  0
LAYER
  5
75
330
2
100
AcDbSymbolTableRecord
100
AcDbLayerTableRecord
  2
가는실선
 70
     0
 62
     4
  6
Continuous
370
    -3
390
F
  0
LAYER
  5
76
330
2
100
AcDbSymbolTableRecord
100
AcDbLayerTableRecord
  2
치수_보조선
 70
     0
 62
     4
  6
Continuous
370
    -3
390
F
  0
LAYER
  5
77
330
2
100
AcDbSymbolTableRecord
100
AcDbLayerTableRecord
  2
치수문자_일반주서
 70
     0
 62
     7
  6
Continuous
370
    15
390
F
  0
LAYER
  5
78
330
2
100
AcDbSymbolTableRecord
100
AcDbLayerTableRecord
  2
개별주서
 70
     0
 62
   100
  6
Continuous
370
    30
390
F
  0
LAYER
  5
79
330
2
100
AcDbSymbolTableRecord
100
AcDbLayerTableRecord
  2
중간선
 70
     0
 62
     2
  6
Continuous
370
    15
390
F
  0
LAYER
  5
7A
330
2
100
AcDbSymbolTableRecord
100
AcDbLayerTableRecord
  2
윤곽선
 70
     0
 62
     3
  6
Continuous
370
    40
390
F
  0
LAYER
  5
7B
330
2
100
AcDbSymbolTableRecord
100
AcDbLayerTableRecord
  2
중심마크
 70
     0
 62
   100
  6
Continuous
370
    30
390
F
  0
LAYER
  5
7C
330
2
100
AcDbSymbolTableRecord
100
AcDbLayerTableRecord
  2
가상선
 70
     0
 62
     4
  6
PHANTOM
370
    -3
390
F
  0
LAYER
  5
7D
330
2
100
AcDbSymbolTableRecord
100
AcDbLayerTableRecord
  2
특수지정선
 70
     0
 62
     5
  6
CENTERX2
370
    60
390
F
  0
LAYER
  5
133
330
2
100
AcDbSymbolTableRecord
100
AcDbLayerTableRecord
  2
Defpoints
 70
     0
 62
     7
  6
Continuous
290
     0
370
    -3
390
F
  0
ENDTAB
  0
TABLE
  2
STYLE
  5
3
330
0
100
AcDbSymbolTable
 70
     2
  0
STYLE
  5
11
330
3
100
AcDbSymbolTableRecord
100
AcDbTextStyleTableRecord
  2
Standard
 70
     0
 40
0.0
 41
1.0
 50
0.0
 71
     0
 42
3.5
  3
txt
  4

  0
STYLE
  5
93
330
3
100
AcDbSymbolTableRecord
100
AcDbTextStyleTableRecord
  2
SLDTEXTSTYLE0
 70
     0
 40
0.0
 41
0.75
 50
0.0
 71
     0
 42
3.5
  3
TXT
  4

  0
ENDTAB
  0
TABLE
  2
VIEW
  5
6
330
0
100
AcDbSymbolTable
 70
     0
  0
ENDTAB
  0
TABLE
  2
UCS
  5
7
330
0
100
AcDbSymbolTable
 70
     0
  0
ENDTAB
  0
TABLE
  2
APPID
  5
9
330
0
100
AcDbSymbolTable
 70
     1
  0
APPID
  5
12
330
9
100
AcDbSymbolTableRecord
100
AcDbRegAppTableRecord
  2
ACAD
 70
     0
  0
ENDTAB
  0
TABLE
  2
DIMSTYLE
  5
A
330
0
100
AcDbSymbolTable
 70
     3
100
AcDbDimStyleTable
  0
DIMSTYLE
105
27
330
A
100
AcDbSymbolTableRecord
100
AcDbDimStyleTableRecord
  2
ISO-25
 70
     0
 41
2.5
 42
0.625
 43
3.75
 44
1.25
 73
     0
 74
     0
 77
     1
 78
     8
140
2.5
141
2.5
143
0.03937007874016
147
0.625
171
     3
172
     1
178
     0
271
     2
272
     2
274
     3
278
    44
283
     0
284
     8
340
11
  0
DIMSTYLE
105
D9
102
{ACAD_REACTORS
330
D8
330
FB
102
}
330
A
100
AcDbSymbolTableRecord
100
AcDbDimStyleTableRecord
  2
SLDDIMSTYLE0
 70
     0
 41
3.302
 44
0.0
 45
0.000000001
 73
     0
 74
     0
 77
     1
 78
    12
 79
     3
140
3.5
147
0.875
172
     1
173
     1
178
     0
271
     2
272
     2
276
     2
284
    12
289
     0
340
93
  0
DIMSTYLE
105
E7
102
{ACAD_REACTORS
330
E6
330
F1
102
}
330
A
100
AcDbSymbolTableRecord
100
AcDbDimStyleTableRecord
  2
SLDDIMSTYLE1
 70
     0
 41
3.302
 44
0.0
 45
0.000000001
 73
     0
 74
     0
 77
     1
 78
    12
 79
     3
140
3.5
147
0.875
173
     1
178
     0
271
     2
272
     2
276
     2
284
    12
340
93
  0
ENDTAB
  0
TABLE
  2
BLOCK_RECORD
  5
1
330
0
100
AcDbSymbolTable
 70
     7
  0
BLOCK_RECORD
  5
1F
330
1
100
AcDbSymbolTableRecord
100
AcDbBlockTableRecord
  2
*Model_Space
340
22
  0
BLOCK_RECORD
  5
1B
330
1
100
AcDbSymbolTableRecord
100
AcDbBlockTableRecord
  2
*Paper_Space
340
1E
  0
BLOCK_RECORD
  5
23
330
1
100
AcDbSymbolTableRecord
100
AcDbBlockTableRecord
  2
*Paper_Space0
340
26
  0
BLOCK_RECORD
  5
7E
330
1
100
AcDbSymbolTableRecord
100
AcDbBlockTableRecord
  2
블럭10
340
0
102
{BLKREFS
331
D1
102
}
  0
BLOCK_RECORD
  5
DA
330
1
100
AcDbSymbolTableRecord
100
AcDbBlockTableRecord
  2
_D
340
0
  0
BLOCK_RECORD
  5
E8
330
1
100
AcDbSymbolTableRecord
100
AcDbBlockTableRecord
  2
_D_1
340
0
  0
BLOCK_RECORD
  5
F2
330
1
100
AcDbSymbolTableRecord
100
AcDbBlockTableRecord
  2
_D_2
340
0
  0
BLOCK_RECORD
  5
FC
330
1
100
AcDbSymbolTableRecord
100
AcDbBlockTableRecord
  2
_D_3
340
0
  0
BLOCK_RECORD
  5
108
330
1
100
AcDbSymbolTableRecord
100
AcDbBlockTableRecord
  2
SW_DOWELSYMBOL_0
340
0
102
{BLKREFS
331
10E
102
}
  0
ENDTAB
  0
ENDSEC
  0
SECTION
  2
BLOCKS
  0
BLOCK
  5
20
330
1F
100
AcDbEntity
  8
0
100
AcDbBlockBegin
  2
*Model_Space
 70
     0
 10
0.0
 20
0.0
 30
0.0
  3
*Model_Space
  1

  0
ENDBLK
  5
21
330
1F
100
AcDbEntity
  8
0
100
AcDbBlockEnd
  0
BLOCK
  5
1C
330
1B
100
AcDbEntity
 67
     1
  8
0
100
AcDbBlockBegin
  2
*Paper_Space
 70
     0
 10
0.0
 20
0.0
 30
0.0
  3
*Paper_Space
  1

  0
ENDBLK
  5
1D
330
1B
100
AcDbEntity
 67
     1
  8
0
100
AcDbBlockEnd
  0
BLOCK
  5
24
330
23
100
AcDbEntity
  8
0
100
AcDbBlockBegin
  2
*Paper_Space0
 70
     0
 10
0.0
 20
0.0
 30
0.0
  3
*Paper_Space0
  1

  0
ENDBLK
  5
25
330
23
100
AcDbEntity
  8
0
100
AcDbBlockEnd
  0
BLOCK
  5
7F
330
7E
100
AcDbEntity
  8
0
100
AcDbBlockBegin
  2
블럭10
 70
     2
 10
0.0
 20
0.0
 30
0.0
  3
블럭10
  1

  0
ELLIPSE
  5
81
330
7E
100
AcDbEntity
  8
중심선
100
AcDbEllipse
 10
20.54032771741204
 20
12.0471743016438
 30
0.0
 11
6.600054785286829
 21
-1.261213355974178E-13
 31
0.0
210
0.0
220
0.0
230
1.0
 40
0.636358354079598
 41
0.9219305317359503
 42
6.513795318482858
  0
ELLIPSE
  5
82
330
7E
100
AcDbEntity
  8
중심선
100
AcDbEllipse
 10
20.54032771746488
 20
12.04717430159265
 30
0.0
 11
3.960054785062283
 21
1.540847449632565E-10
 31
0.0
210
0.0
220
0.0
230
1.0
 40
0.3939339440162632
 41
1.131841032648279
 42
5.62031148352944
  0
LINE
  5
83
330
7E
100
AcDbEntity
  8
중심선
100
AcDbLine
 10
2.268634060543552
 20
16.24717430164393
 30
0.0
 11
5.714909304380834
 21
16.24717430164393
 31
0.0
  0
LINE
  5
84
330
7E
100
AcDbEntity
  8
중심선
100
AcDbLine
 10
5.245725140726316
 20
7.84717430164391
 30
0.0
 11
8.692000384563599
 21
7.84717430164391
 31
0.0
  0
LINE
  5
85
330
7E
100
AcDbEntity
  8
중심선
100
AcDbLine
 10
15.74043728645272
 20
16.24717430164393
 30
0.0
 11
8.692000384563599
 21
7.84717430164391
 31
0.0
  0
LINE
  5
86
330
7E
100
AcDbEntity
  8
중심선
100
AcDbLine
 10
0.1404042013395286
 20
13.71084872107135
 30
0.0
 11
3.58671253028996
 21
13.71088815037384
 31
0.0
  0
LINE
  5
87
330
7E
100
AcDbEntity
  8
중심선
100
AcDbLine
 10
2.750260043222114
 20
10.84717430164391
 30
0.0
 11
6.196535287059397
 21
10.84717430164391
 31
0.0
  0
LINE
  5
88
330
7E
100
AcDbEntity
  8
중심선
100
AcDbLine
 10
12.29416204261559
 20
16.24717430164393
 30
0.0
 11
5.245725140726316
 21
7.84717430164391
 31
0.0
  0
LINE
  5
89
330
7E
100
AcDbEntity
  8
중심선
100
AcDbLine
 10
10.72767329541681
 20
16.24717430164393
 30
0.0
 11
6.196535287059397
 21
10.84717430164391
 31
0.0
  0
LINE
  5
8A
330
7E
100
AcDbEntity
  8
중심선
100
AcDbLine
 10
7.28139805157953
 20
16.24717430164393
 30
0.0
 11
2.750260043222114
 21
10.84717430164391
 31
0.0
  0
LINE
  5
8B
330
7E
100
AcDbEntity
  8
중심선
100
AcDbLine
 10
5.714909304380834
 20
16.24717430164393
 30
0.0
 11
3.58671253028996
 21
13.71088815037384
 31
0.0
  0
LINE
  5
8C
330
7E
100
AcDbEntity
  8
중심선
100
AcDbLine
 10
2.268634060543552
 20
16.24717430164393
 30
0.0
 11
0.1404042013395286
 21
13.71084872107135
 31
0.0
  0
LINE
  5
8D
330
7E
100
AcDbEntity
  8
중심선
100
AcDbLine
 10
7.28139805157953
 20
16.24717430164393
 30
0.0
 11
10.72767329541681
 21
16.24717430164393
 31
0.0
  0
LINE
  5
8E
330
7E
100
AcDbEntity
  8
중심선
100
AcDbLine
 10
12.29416204261559
 20
16.24717430164393
 30
0.0
 11
15.74043728645272
 21
16.24717430164393
 31
0.0
  0
LINE
  5
8F
330
7E
100
AcDbEntity
  8
중심선
100
AcDbLine
 10
19.22036997980202
 20
11.08717430171403
 30
0.0
 11
23.66174974927406
 21
11.08717430171406
 31
0.0
  0
LINE
  5
90
330
7E
100
AcDbEntity
  8
중심선
100
AcDbLine
 10
19.22039502424796
 20
13.00717430171391
 30
0.0
 11
19.22036997980202
 21
11.08717430171403
 31
0.0
  0
LINE
  5
91
330
7E
100
AcDbEntity
  8
중심선
100
AcDbLine
 10
19.22039502424796
 20
13.00717430171391
 30
0.0
 11
26.96566020931264
 21
13.00717430171391
 31
0.0
  0
LINE
  5
92
330
7E
100
AcDbEntity
  8
중심선
100
AcDbLine
 10
22.22332737316547
 20
13.45928029700563
 30
0.0
 11
24.52862924686651
 21
15.39360700705356
 31
0.0
  0
ATTDEF
  5
94
330
7E
100
AcDbEntity
  8
FORMAT
 62
     2
100
AcDbText
 10
-16.11926103943555
 20
2.075366912832191
 30
0.0
 40
4.233333333333333
  1
SEME7012055E [ 2 FLUTE ]
 41
0.75
  7
SLDTEXTSTYLE0
 11
-16.11926103943555
 21
-0.0412997538344756
 31
0.0
100
AcDbAttributeDefinition
  3

  2
AUTOATTR0
 70
     0
 74
     1
  0
ENDBLK
  5
80
330
7E
100
AcDbEntity
  8
0
100
AcDbBlockEnd
  0
BLOCK
  5
DB
330
DA
100
AcDbEntity
  8
0
100
AcDbBlockBegin
  2
_D
 70
     0
 10
0.0
 20
0.0
 30
0.0
  3
_D
  1

  0
LINE
  5
DD
330
DA
100
AcDbEntity
  8
치수문자_일반주서
 62
     0
370
    -2
100
AcDbLine
 10
65.0625
 20
-5.999999999999786
 30
0.0
 11
80.78948704630938
 21
-5.999999999999726
 31
0.0
  0
LINE
  5
DE
330
DA
100
AcDbEntity
  8
치수문자_일반주서
 62
     0
370
    -2
100
AcDbLine
 10
65.0625
 20
6.00000000000021
 30
0.0
 11
80.78948704630933
 21
6.000000000000268
 31
0.0
  0
LINE
  5
DF
330
DA
100
AcDbEntity
  8
치수문자_일반주서
 62
     0
370
    -2
100
AcDbLine
 10
80.78948704630938
 20
-5.999999999999726
 30
0.0
 11
80.78948704630928
 21
22.22900000000027
 31
0.0
  0
LINE
  5
E0
330
DA
100
AcDbEntity
  8
치수문자_일반주서
 62
     0
370
    -2
100
AcDbLine
 10
80.78948704630938
 20
-5.999999999999726
 30
0.0
 11
80.78948704630933
 21
6.000000000000268
 31
0.0
  0
LINE
  5
E1
330
DA
100
AcDbEntity
  8
치수문자_일반주서
 62
     0
370
    -2
100
AcDbLine
 10
80.78948704630939
 20
-9.301999999999726
 30
0.0
 11
80.7894870463094
 21
-12.60399999999973
 31
0.0
  0
LINE
  5
E2
330
DA
100
AcDbEntity
  8
치수문자_일반주서
 62
     0
370
    -2
100
AcDbLine
 10
80.78948704630932
 20
9.302000000000268
 30
0.0
 11
80.7894870463093
 21
12.60400000000027
 31
0.0
  0
SOLID
  5
E3
330
DA
100
AcDbEntity
  8
치수문자_일반주서
 62
     0
100
AcDbTrace
 10
81.33982037964272
 20
-9.301999999999724
 30
0.0
 11
80.23915371297606
 21
-9.301999999999728
 31
0.0
 12
80.78948704630938
 22
-5.999999999999726
 32
0.0
 13
80.78948704630938
 23
-5.999999999999726
 33
0.0
  0
SOLID
  5
E4
330
DA
100
AcDbEntity
  8
치수문자_일반주서
 62
     0
100
AcDbTrace
 10
80.23915371297599
 20
9.302000000000266
 30
0.0
 11
81.33982037964265
 21
9.30200000000027
 31
0.0
 12
80.78948704630933
 22
6.000000000000268
 32
0.0
 13
80.78948704630933
 23
6.000000000000268
 33
0.0
  0
MTEXT
  5
E5
330
DA
100
AcDbEntity
  8
치수문자_일반주서
 62
     0
100
AcDbMText
 10
76.41448704630929
 20
18.29150000000025
 30
0.0
 40
3.5
 41
0.0
 71
     2
 72
     1
  1
\A1;%%c12
  7
SLDTEXTSTYLE0
 11
-3.552713678800503E-15
 21
1.0
 31
0.0
 73
     1
 44
1.0
  0
POINT
  5
13D
330
DA
100
AcDbEntity
  8
Defpoints
 62
     0
100
AcDbPoint
 10
65.0
 20
-5.999999999999786
 30
0.0
  0
POINT
  5
13E
330
DA
100
AcDbEntity
  8
Defpoints
 62
     0
100
AcDbPoint
 10
65.0
 20
6.00000000000021
 30
0.0
  0
POINT
  5
13F
330
DA
100
AcDbEntity
  8
Defpoints
 62
     0
100
AcDbPoint
 10
80.78948704630933
 20
6.000000000000268
 30
0.0
  0
ENDBLK
  5
DC
330
DA
100
AcDbEntity
  8
0
100
AcDbBlockEnd
  0
BLOCK
  5
E9
330
E8
100
AcDbEntity
  8
0
100
AcDbBlockBegin
  2
_D_1
 70
     0
 10
0.0
 20
0.0
 30
0.0
  3
_D_1
  1

  0
LINE
  5
EB
330
E8
100
AcDbEntity
  8
치수문자_일반주서
 62
     0
370
    -2
100
AcDbLine
 10
-45.00000000000001
 20
5.062499999999999
 30
0.0
 11
-45.0
 21
26.7884104402427
 31
0.0
  0
LINE
  5
EC
330
E8
100
AcDbEntity
  8
치수문자_일반주서
 62
     0
370
    -2
100
AcDbLine
 10
65.0
 20
6.06250000000021
 30
0.0
 11
65.00000000000001
 21
26.7884104402427
 31
0.0
  0
LINE
  5
ED
330
E8
100
AcDbEntity
  8
치수문자_일반주서
 62
     0
370
    -2
100
AcDbLine
 10
-41.698
 20
26.7884104402427
 30
0.0
 11
61.69800000000001
 21
26.7884104402427
 31
0.0
  0
SOLID
  5
EE
330
E8
100
AcDbEntity
  8
치수문자_일반주서
 62
     0
100
AcDbTrace
 10
-41.698
 20
27.33874377357603
 30
0.0
 11
-41.698
 21
26.23807710690936
 31
0.0
 12
-45.0
 22
26.7884104402427
 32
0.0
 13
-45.0
 23
26.7884104402427
 33
0.0
  0
SOLID
  5
EF
330
E8
100
AcDbEntity
  8
치수문자_일반주서
 62
     0
100
AcDbTrace
 10
61.69800000000001
 20
26.23807710690936
 30
0.0
 11
61.69800000000001
 21
27.33874377357603
 31
0.0
 12
65.00000000000001
 22
26.7884104402427
 32
0.0
 13
65.00000000000001
 23
26.7884104402427
 33
0.0
  0
MTEXT
  5
F0
330
E8
100
AcDbEntity
  8
치수문자_일반주서
 62
     0
100
AcDbMText
 10
10.0
 20
31.1634104402427
 30
0.0
 40
3.5
 41
0.0
 71
     2
 72
     1
  1
\A1;110
  7
SLDTEXTSTYLE0
 73
     1
 44
1.0
  0
POINT
  5
134
330
E8
100
AcDbEntity
  8
Defpoints
 62
     0
100
AcDbPoint
 10
-45.00000000000001
 20
4.999999999999999
 30
0.0
  0
POINT
  5
135
330
E8
100
AcDbEntity
  8
Defpoints
 62
     0
100
AcDbPoint
 10
65.0
 20
6.00000000000021
 30
0.0
  0
POINT
  5
136
330
E8
100
AcDbEntity
  8
Defpoints
 62
     0
100
AcDbPoint
 10
65.0
 20
26.7884104402427
 30
0.0
  0
ENDBLK
  5
EA
330
E8
100
AcDbEntity
  8
0
100
AcDbBlockEnd
  0
BLOCK
  5
F3
330
F2
100
AcDbEntity
  8
0
100
AcDbBlockBegin
  2
_D_2
 70
     0
 10
0.0
 20
0.0
 30
0.0
  3
_D_2
  1

  0
LINE
  5
F5
330
F2
100
AcDbEntity
  8
치수문자_일반주서
 62
     0
370
    -2
100
AcDbLine
 10
10.0
 20
4.766163010265275
 30
0.0
 11
10.0
 21
18.05066081643277
 31
0.0
  0
LINE
  5
F6
330
F2
100
AcDbEntity
  8
치수문자_일반주서
 62
     0
370
    -2
100
AcDbLine
 10
65.0
 20
6.06250000000021
 30
0.0
 11
65.0
 21
18.05066081643277
 31
0.0
  0
LINE
  5
F7
330
F2
100
AcDbEntity
  8
치수문자_일반주서
 62
     0
370
    -2
100
AcDbLine
 10
13.302
 20
18.05066081643277
 30
0.0
 11
61.698
 21
18.05066081643277
 31
0.0
  0
SOLID
  5
F8
330
F2
100
AcDbEntity
  8
치수문자_일반주서
 62
     0
100
AcDbTrace
 10
13.302
 20
18.60099414976611
 30
0.0
 11
13.302
 21
17.50032748309944
 31
0.0
 12
10.0
 22
18.05066081643277
 32
0.0
 13
10.0
 23
18.05066081643277
 33
0.0
  0
SOLID
  5
F9
330
F2
100
AcDbEntity
  8
치수문자_일반주서
 62
     0
100
AcDbTrace
 10
61.698
 20
17.50032748309944
 30
0.0
 11
61.698
 21
18.60099414976611
 31
0.0
 12
65.0
 22
18.05066081643277
 32
0.0
 13
65.0
 23
18.05066081643277
 33
0.0
  0
MTEXT
  5
FA
330
F2
100
AcDbEntity
  8
치수문자_일반주서
 62
     0
100
AcDbMText
 10
37.50000000000001
 20
22.42566081643277
 30
0.0
 40
3.5
 41
0.0
 71
     2
 72
     1
  1
\A1;55
  7
SLDTEXTSTYLE0
 73
     1
 44
1.0
  0
POINT
  5
137
330
F2
100
AcDbEntity
  8
Defpoints
 62
     0
100
AcDbPoint
 10
10.0
 20
4.703663010265275
 30
0.0
  0
POINT
  5
138
330
F2
100
AcDbEntity
  8
Defpoints
 62
     0
100
AcDbPoint
 10
65.0
 20
6.00000000000021
 30
0.0
  0
POINT
  5
139
330
F2
100
AcDbEntity
  8
Defpoints
 62
     0
100
AcDbPoint
 10
65.0
 20
18.05066081643277
 30
0.0
  0
ENDBLK
  5
F4
330
F2
100
AcDbEntity
  8
0
100
AcDbBlockEnd
  0
BLOCK
  5
FD
330
FC
100
AcDbEntity
  8
0
100
AcDbBlockBegin
  2
_D_3
 70
     0
 10
0.0
 20
0.0
 30
0.0
  3
_D_3
  1

  0
LINE
  5
FF
330
FC
100
AcDbEntity
  8
치수문자_일반주서
 62
     0
370
    -2
100
AcDbLine
 10
-44.0625
 20
6.0
 30
0.0
 11
-56.60366571683551
 21
5.99999999999995
 31
0.0
  0
LINE
  5
100
330
FC
100
AcDbEntity
  8
치수문자_일반주서
 62
     0
370
    -2
100
AcDbLine
 10
-44.0625
 20
-5.999999999999996
 30
0.0
 11
-56.60366571683547
 21
-6.000000000000046
 31
0.0
  0
LINE
  5
101
330
FC
100
AcDbEntity
  8
치수문자_일반주서
 62
     0
370
    -2
100
AcDbLine
 10
-56.60366571683551
 20
5.99999999999995
 30
0.0
 11
-56.60366571683556
 21
20.47899999999995
 31
0.0
  0
LINE
  5
102
330
FC
100
AcDbEntity
  8
치수문자_일반주서
 62
     0
370
    -2
100
AcDbLine
 10
-56.60366571683551
 20
5.99999999999995
 30
0.0
 11
-56.60366571683547
 21
-6.000000000000046
 31
0.0
  0
LINE
  5
103
330
FC
100
AcDbEntity
  8
치수문자_일반주서
 62
     0
370
    -2
100
AcDbLine
 10
-56.60366571683553
 20
9.30199999999995
 30
0.0
 11
-56.60366571683554
 21
12.60399999999995
 31
0.0
  0
LINE
  5
104
330
FC
100
AcDbEntity
  8
치수문자_일반주서
 62
     0
370
    -2
100
AcDbLine
 10
-56.60366571683546
 20
-9.302000000000046
 30
0.0
 11
-56.60366571683544
 21
-12.60400000000005
 31
0.0
  0
SOLID
  5
105
330
FC
100
AcDbEntity
  8
치수문자_일반주서
 62
     0
100
AcDbTrace
 10
-57.15399905016886
 20
9.301999999999948
 30
0.0
 11
-56.05333238350219
 21
9.301999999999952
 31
0.0
 12
-56.60366571683551
 22
5.99999999999995
 32
0.0
 13
-56.60366571683551
 23
5.99999999999995
 33
0.0
  0
SOLID
  5
106
330
FC
100
AcDbEntity
  8
치수문자_일반주서
 62
     0
100
AcDbTrace
 10
-56.05333238350212
 20
-9.302000000000044
 30
0.0
 11
-57.15399905016879
 21
-9.302000000000048
 31
0.0
 12
-56.60366571683547
 22
-6.000000000000046
 32
0.0
 13
-56.60366571683547
 23
-6.000000000000046
 33
0.0
  0
MTEXT
  5
107
330
FC
100
AcDbEntity
  8
치수문자_일반주서
 62
     0
100
AcDbMText
 10
-60.97866571683555
 20
16.54149999999993
 30
0.0
 40
3.5
 41
0.0
 71
     2
 72
     1
  1
\A1;%%c12
  7
SLDTEXTSTYLE0
 11
-3.552713678800503E-15
 21
1.0
 31
0.0
 73
     1
 44
1.0
  0
POINT
  5
13A
330
FC
100
AcDbEntity
  8
Defpoints
 62
     0
100
AcDbPoint
 10
-44.0
 20
6.0
 30
0.0
  0
POINT
  5
13B
330
FC
100
AcDbEntity
  8
Defpoints
 62
     0
100
AcDbPoint
 10
-44.0
 20
-5.999999999999996
 30
0.0
  0
POINT
  5
13C
330
FC
100
AcDbEntity
  8
Defpoints
 62
     0
100
AcDbPoint
 10
-56.60366571683547
 20
-6.000000000000044
 30
0.0
  0
ENDBLK
  5
FE
330
FC
100
AcDbEntity
  8
0
100
AcDbBlockEnd
  0
BLOCK
  5
109
330
108
100
AcDbEntity
  8
0
100
AcDbBlockBegin
  2
SW_DOWELSYMBOL_0
 70
     0
 10
0.0
 20
0.0
 30
0.0
  3
SW_DOWELSYMBOL_0
  1

  0
CIRCLE
  5
10B
330
108
100
AcDbEntity
  8
외형선
 62
     0
100
AcDbCircle
 10
0.0
 20
0.0
 30
0.0
 40
3.000000000000004
  0
HATCH
  5
10C
330
108
100
AcDbEntity
  8
0
  6
Continuous
 62
     0
370
    30
100
AcDbHatch
 10
0.0
 20
0.0
 30
0.0
210
0.0
220
0.0
230
1.0
  2
SOLID
 70
     1
 71
     0
 91
        1
 92
        0
 93
        3
 72
     2
 10
0.0000000000000104
 20
0.0
 40
3.000000000000004
 50
0.0
 51
90.0
 73
     1
 72
     1
 10
0.0000000000000104
 20
3.000000000000004
 11
0.0000000000000104
 21
0.0
 72
     1
 10
0.0000000000000104
 20
0.0
 11
3.000000000000015
 21
0.0
 97
        0
 75
     0
 76
     1
 98
        1
 10
0.0
 20
0.0
  0
HATCH
  5
10D
330
108
100
AcDbEntity
  8
0
  6
Continuous
 62
     0
370
    30
100
AcDbHatch
 10
0.0
 20
0.0
 30
0.0
210
0.0
220
0.0
230
1.0
  2
SOLID
 70
     1
 71
     0
 91
        1
 92
        0
 93
        3
 72
     2
 10
0.0000000000000104
 20
0.0
 40
3.000000000000004
 50
180.0
 51
270.0000000000008
 73
     1
 72
     1
 10
0.0000000000000104
 20
-3.000000000000004
 11
0.0000000000000104
 21
0.0
 72
     1
 10
0.0000000000000104
 20
0.0
 11
-2.999999999999994
 21
0.0
 97
        0
 75
     0
 76
     1
 98
        1
 10
0.0
 20
0.0
  0
ENDBLK
  5
10A
330
108
100
AcDbEntity
  8
0
100
AcDbBlockEnd
  0
ENDSEC
  0
SECTION
  2
ENTITIES
  0
LINE
  5
95
330
1F
100
AcDbEntity
  8
0
  6
Continuous
 62
   131
370
    15
100
AcDbLine
 10
13.51621500861538
 20
1.674144641651998
 30
0.0
 11
13.42347945501971
 21
1.725010503487176
 31
0.0
  0
LINE
  5
96
330
1F
100
AcDbEntity
  8
0
  6
Continuous
 62
     1
370
    15
100
AcDbLine
 10
46.15914791244305
 20
1.677138199342653
 30
0.0
 11
46.07185540939691
 21
1.725017465121343
 31
0.0
  0
LINE
  5
97
330
1F
100
AcDbEntity
  8
0
  6
Continuous
 62
     1
370
    15
100
AcDbLine
 10
35.68765690076439
 20
6.000000000000011
 30
0.0
 11
32.77817885062193
 21
6.000000000000011
 31
0.0
  0
LINE
  5
98
330
1F
100
AcDbEntity
  8
0
  6
Continuous
 62
     1
370
    15
100
AcDbLine
 10
32.77817885062191
 20
-6.0
 30
0.0
 11
35.68765690076441
 21
-6.0
 31
0.0
  0
SPLINE
  5
99
330
1F
100
AcDbEntity
  8
0
  6
Continuous
 62
     1
370
    15
100
AcDbSpline
210
0.0
220
0.0
230
1.0
 70
     8
 71
     3
 72
     9
 73
     5
 74
     0
 42
0.000000001
 43
0.00000001
 40
0.0
 40
0.0
 40
0.0
 40
0.0
 40
0.4792491136447256
 40
1.0
 40
1.0
 40
1.0
 40
1.0
 10
16.807649926186
 20
1.53748931585586
 30
0.0
 10
16.54070701254963
 20
1.664558772785228
 30
0.0
 10
15.9837045976547
 20
1.929701583301861
 30
0.0
 10
15.43032076254562
 20
2.219227386581216
 30
0.0
 10
15.14214563991789
 20
2.369998205261664
 30
0.0
  0
SPLINE
  5
9A
330
1F
100
AcDbEntity
  8
0
  6
Continuous
 62
     1
370
    15
100
AcDbSpline
210
0.0
220
0.0
230
1.0
 70
     8
 71
     3
 72
     9
 73
     5
 74
     0
 42
0.000000001
 43
0.00000001
 40
0.0
 40
0.0
 40
0.0
 40
0.0
 40
0.4740735989114015
 40
1.0
 40
1.0
 40
1.0
 40
1.0
 10
49.45606554082269
 20
1.537476642264351
 30
0.0
 10
49.19193938538938
 20
1.66318450071024
 30
0.0
 10
48.63479771785124
 20
1.928349780393705
 30
0.0
 10
48.08151919231648
 20
2.217779061065864
 30
0.0
 10
47.79053540858239
 20
2.369997561019435
 30
0.0
  0
SPLINE
  5
9B
330
1F
100
AcDbEntity
  8
0
  6
Continuous
 62
     1
370
    15
100
AcDbSpline
210
0.0
220
0.0
230
1.0
 70
     8
 71
     3
 72
    10
 73
     6
 74
     0
 42
0.000000001
 43
0.00000001
 40
0.0
 40
0.0
 40
0.0
 40
0.0
 40
0.3239561561111481
 40
0.4782591532116026
 40
1.0
 40
1.0
 40
1.0
 40
1.0
 10
9.999999999999995
 20
-4.713347981190039
 30
0.0
 10
10.52087994654405
 20
-4.701172296389637
 30
0.0
 10
11.2898593206344
 20
-4.683197232194794
 30
0.0
 10
12.89767395255248
 20
-4.687712734408032
 30
0.0
 10
13.98501266880839
 20
-4.732939539427951
 30
0.0
 10
14.82417277313208
 20
-4.767843594485815
 30
0.0
  0
SPLINE
  5
9C
330
1F
100
AcDbEntity
  8
0
  6
Continuous
 62
     1
370
    15
100
AcDbSpline
210
0.0
220
0.0
230
1.0
 70
     8
 71
     3
 72
    15
 73
    11
 74
     0
 42
0.000000001
 43
0.00000001
 40
0.0
 40
0.0
 40
0.0
 40
0.0
 40
0.1489496887812211
 40
0.2577843762395479
 40
0.336484713856665
 40
0.4175691734860187
 40
0.503897553897512
 40
0.7005613695690528
 40
0.9162381270411146
 40
1.0
 40
1.0
 40
1.0
 40
1.0
 10
47.47250705783717
 20
4.767840690312283
 30
0.0
 10
47.23235887534501
 20
4.755831069625625
 30
0.0
 10
46.81673901111198
 20
4.735046248905853
 30
0.0
 10
46.27201057871819
 20
4.715519442923114
 30
0.0
 10
45.83310029025841
 20
4.703009054313894
 30
0.0
 10
45.43284489752989
 20
4.694359505063197
 30
0.0
 10
44.8425694401268
 20
4.685723995426283
 30
0.0
 10
44.03383093410655
 20
4.684856051637669
 30
0.0
 10
43.2297794205164
 20
4.693989389064698
 30
0.0
 10
42.74422152380998
 20
4.712306051514072
 30
0.0
 10
42.60839656762588
 20
4.717429765681836
 30
0.0
  0
SPLINE
  5
9D
330
1F
100
AcDbEntity
  8
0
  6
Continuous
 62
     1
370
    15
100
AcDbSpline
210
0.0
220
0.0
230
1.0
 70
     8
 71
     3
 72
    22
 73
    18
 74
     0
 42
0.000000001
 43
0.00000001
 40
0.0
 40
0.0
 40
0.0
 40
0.0
 40
0.08465064107376
 40
0.1488904354924078
 40
0.1929008361533339
 40
0.2303683677872183
 40
0.2676127758450814
 40
0.30511069885327
 40
0.3984481908731212
 40
0.5061134976233402
 40
0.604730040327952
 40
0.6984281349780503
 40
0.7781190688122901
 40
0.8208927168208984
 40
0.8627627879636295
 40
0.9209565617374974
 40
1.0
 40
1.0
 40
1.0
 40
1.0
 10
38.44862372365656
 20
-4.992828426516293
 30
0.0
 10
38.70389952218315
 20
-4.96804002020991
 30
0.0
 10
39.15289936827028
 20
-4.92444015418049
 30
0.0
 10
39.73369190749845
 20
-4.876113914233172
 30
0.0
 10
40.17090540342193
 20
-4.842878578834869
 30
0.0
 10
40.52702325751899
 20
-4.817949042427778
 30
0.0
 10
40.86434561885055
 20
-4.796154283350135
 30
0.0
 10
41.3699316999253
 20
-4.766241828232329
 30
0.0
 10
42.08734267909541
 20
-4.731202243989662
 30
0.0
 10
42.98873161201435
 20
-4.701209182299677
 30
0.0
 10
43.89065979618081
 20
-4.685898467851024
 30
0.0
 10
44.70913753225069
 20
-4.684631536828365
 30
0.0
 10
45.35896483690319
 20
-4.692622841082536
 30
0.0
 10
45.85486645593168
 20
-4.703577011047341
 30
0.0
 10
46.28781046313909
 20
-4.716046254967682
 30
0.0
 10
46.82558558264241
 20
-4.735456332783007
 30
0.0
 10
47.23607861352381
 20
-4.756005276642586
 30
0.0
 10
47.47250705783716
 20
-4.767840690312268
 30
0.0
  0
SPLINE
  5
9E
330
1F
100
AcDbEntity
  8
0
  6
Continuous
 62
     1
370
    15
100
AcDbSpline
210
0.0
220
0.0
230
1.0
 70
     8
 71
     3
 72
    15
 73
    11
 74
     0
 42
0.000000001
 43
0.00000001
 40
0.0
 40
0.0
 40
0.0
 40
0.0
 40
0.1489759328524533
 40
0.2583717243921012
 40
0.3355499956936367
 40
0.4088752611588075
 40
0.4829759456171822
 40
0.5984343310253307
 40
0.7711305953403533
 40
1.0
 40
1.0
 40
1.0
 40
1.0
 10
14.82417277313208
 20
4.767843594485826
 30
0.0
 10
14.58583708496658
 20
4.755920269401718
 30
0.0
 10
14.17248707898618
 20
4.735241425487247
 30
0.0
 10
13.63384815329763
 20
4.715872469171216
 30
0.0
 10
13.21288357905193
 20
4.70377953669723
 30
0.0
 10
12.85041482045126
 20
4.695695896889153
 30
0.0
 10
12.4276145845731
 20
4.688881475277497
 30
0.0
 10
11.8448755752919
 20
4.684406581386329
 30
0.0
 10
11.01331968497989
 20
4.687218117165394
 30
0.0
 10
10.3678695598173
 20
4.703861950553009
 30
0.0
 10
9.999999999999995
 20
4.71334798119005
 30
0.0
  0
SPLINE
  5
9F
330
1F
100
AcDbEntity
  8
0
  6
Continuous
 62
     1
370
    15
100
AcDbSpline
210
0.0
220
0.0
230
1.0
 70
     8
 71
     3
 72
    15
 73
    11
 74
     0
 42
0.000000001
 43
0.00000001
 40
0.0
 40
0.0
 40
0.0
 40
0.0
 40
0.1684170045951177
 40
0.2926057865311884
 40
0.3758263026606563
 40
0.4589207912097107
 40
0.553366959196891
 40
0.6560877662833019
 40
0.9020248198360306
 40
1.0
 40
1.0
 40
1.0
 40
1.0
 10
52.28812001311724
 20
-4.512819692608926
 30
0.0
 10
52.53723813711444
 20
-4.474655293172222
 30
0.0
 10
52.97005312979649
 20
-4.408348900052872
 30
0.0
 10
53.52554040133708
 20
-4.332754272706488
 30
0.0
 10
53.95706231626995
 20
-4.27772255098889
 30
0.0
 10
54.3459408915575
 20
-4.231226724638626
 30
0.0
 10
54.76488807969338
 20
-4.184905404713599
 30
0.0
 10
55.42803081788835
 20
-4.118778132379683
 30
0.0
 10
56.09370447502454
 20
-4.060577789385114
 30
0.0
 10
56.60472646309115
 20
-4.032281908179119
 30
0.0
 10
56.75030858096898
 20
-4.024220857168822
 30
0.0
  0
SPLINE
  5
A0
330
1F
100
AcDbEntity
  8
0
  6
Continuous
 62
     1
370
    15
100
AcDbSpline
210
0.0
220
0.0
230
1.0
 70
     8
 71
     3
 72
    27
 73
    23
 74
     0
 42
0.000000001
 43
0.00000001
 40
0.0
 40
0.0
 40
0.0
 40
0.0
 40
0.0719971239357284
 40
0.1298623029115126
 40
0.1774875308833048
 40
0.2076279518592843
 40
0.2330016919934206
 40
0.2583698030857778
 40
0.2837945633390398
 40
0.3108860152006984
 40
0.3402685353004931
 40
0.4310303189857171
 40
0.5290525725129166
 40
0.599738539570063
 40
0.6576026006486558
 40
0.7137782034100184
 40
0.74043603075668
 40
0.7659432242586272
 40
0.7985460828219103
 40
0.8482945898478088
 40
0.9155202532513048
 40
1.0
 40
1.0
 40
1.0
 40
1.0
 10
30.12226875470495
 20
4.103716270044875
 30
0.0
 10
29.86871616169037
 20
4.08313863610567
 30
0.0
 10
29.41137950936171
 20
4.046022446100629
 30
0.0
 10
28.78882745179602
 20
4.008632106809946
 30
0.0
 10
28.31417122952197
 20
3.985874063599887
 30
0.0
 10
27.9581415209889
 20
3.972424676617961
 30
0.0
 10
27.67901641327676
 20
3.963796620002641
 30
0.0
 10
27.4143454042865
 20
3.957318289021135
 30
0.0
 10
27.1421869192045
 20
3.95242784586335
 30
0.0
 10
26.85581460695436
 20
3.949214230501064
 30
0.0
 10
26.34111965439793
 20
3.947158567046852
 30
0.0
 10
25.57922730355244
 20
3.955936665364324
 30
0.0
 10
24.67259306608016
 20
3.988278552283005
 30
0.0
 10
23.88079239653466
 20
4.033342888859906
 30
0.0
 10
23.23552430340445
 20
4.080644452124024
 30
0.0
 10
22.74363772676743
 20
4.123346680792426
 30
0.0
 10
22.36506248124574
 20
4.159949806630899
 30
0.0
 10
22.06892811459931
 20
4.190423680253653
 30
0.0
 10
21.69255538134605
 20
4.231725828107986
 30
0.0
 10
21.17083541533733
 20
4.294343514676477
 30
0.0
 10
20.46689347673118
 20
4.386798950348881
 30
0.0
 10
19.93558908873753
 20
4.467744876639539
 30
0.0
 10
19.63972317268914
 20
4.512820997171519
 30
0.0
  0
SPLINE
  5
A1
330
1F
100
AcDbEntity
  8
0
  6
Continuous
 62
     1
370
    15
100
AcDbSpline
210
0.0
220
0.0
230
1.0
 70
     8
 71
     3
 72
    15
 73
    11
 74
     0
 42
0.000000001
 43
0.00000001
 40
0.0
 40
0.0
 40
0.0
 40
0.0
 40
0.1671639738346059
 40
0.2903768155182034
 40
0.37298271507486
 40
0.456077617851925
 40
0.5512193507409558
 40
0.6549066536439813
 40
0.9000388951156895
 40
1.0
 40
1.0
 40
1.0
 40
1.0
 10
19.63972317268915
 20
-4.512820997171508
 30
0.0
 10
19.88700986710751
 20
-4.474928210038596
 30
0.0
 10
20.31656607588891
 20
-4.409105493538384
 30
0.0
 10
20.86886411735452
 20
-4.33387318110356
 30
0.0
 10
21.30154806848433
 20
-4.278691022908095
 30
0.0
 10
21.69158496700587
 20
-4.231979011445246
 30
0.0
 10
22.11193323781794
 20
-4.185409880580113
 30
0.0
 10
22.77251192161507
 20
-4.119425885084095
 30
0.0
 10
23.444977143732
 20
-4.060603606858042
 30
0.0
 10
23.95712488827562
 20
-4.032201553532178
 30
0.0
 10
24.10547563148518
 20
-4.023974502325843
 30
0.0
  0
SPLINE
  5
A2
330
1F
100
AcDbEntity
  8
0
  6
Continuous
 62
     1
370
    15
100
AcDbSpline
210
0.0
220
0.0
230
1.0
 70
     8
 71
     3
 72
    27
 73
    23
 74
     0
 42
0.000000001
 43
0.00000001
 40
0.0
 40
0.0
 40
0.0
 40
0.0
 40
0.0716393141665786
 40
0.1292498863830537
 40
0.1767158043311076
 40
0.2068217232145664
 40
0.2321914900589817
 40
0.257557147039902
 40
0.2829831354702483
 40
0.310125830501944
 40
0.3396281502108668
 40
0.4309065213083085
 40
0.5290309427238515
 40
0.5993945461327204
 40
0.6568542225638615
 40
0.7129963344255282
 40
0.7397652422357068
 40
0.7654650496790447
 40
0.7982788208630691
 40
0.8481768314749331
 40
0.9154913571162533
 40
0.9999999999999999
 40
0.9999999999999999
 40
0.9999999999999999
 40
0.9999999999999999
 10
62.77064925757937
 20
4.103715574952757
 30
0.0
 10
62.51836041697572
 20
4.08323417136462
 30
0.0
 10
62.06318710378752
 20
4.046282127399255
 30
0.0
 10
61.44334244108695
 20
4.008976717997652
 30
0.0
 10
60.97025884042181
 20
3.986212194695958
 30
0.0
 10
60.61488725979843
 20
3.972715962080485
 30
0.0
 10
60.33588681079426
 20
3.9640326236978
 30
0.0
 10
60.07122687574795
 20
3.957499431530175
 30
0.0
 10
59.79889417050496
 20
3.952549149415417
 30
0.0
 10
59.51191984959768
 20
3.949271082369469
 30
0.0
 10
58.99482020528881
 20
3.947113173079879
 30
0.0
 10
58.2303511877038
 20
3.955845456000213
 30
0.0
 10
57.32268940211606
 20
3.988208241224233
 30
0.0
 10
56.53306604758323
 20
4.033111050105805
 30
0.0
 10
55.89045497333327
 20
4.080131602277724
 30
0.0
 10
55.39971954864333
 20
4.122644900871602
 30
0.0
 10
55.02020425841696
 20
4.15927328879848
 30
0.0
 10
54.72227196560945
 20
4.189891438873812
 30
0.0
 10
54.34396417077168
 20
4.231371873988959
 30
0.0
 10
53.82067654407901
 20
4.294154801032422
 30
0.0
 10
53.11580168324399
 20
4.386721790219481
 30
0.0
 10
52.58408632533395
 20
4.467729010411329
 30
0.0
 10
52.28812001311722
 20
4.512819692608941
 30
0.0
  0
LINE
  5
A3
330
1F
100
AcDbEntity
  8
0
  6
Continuous
 62
   131
370
    15
100
AcDbLine
 10
7.97010745424801
 20
6.000000000000005
 30
0.0
 11
-44.0
 21
6.000000000000002
 31
0.0
  0
LINE
  5
A4
330
1F
100
AcDbEntity
  8
0
  6
Continuous
 62
   131
370
    15
100
AcDbLine
 10
-44.0
 20
-5.999999999999998
 30
0.0
 11
7.97010745424801
 21
-5.999999999999995
 31
0.0
  0
LINE
  5
A5
330
1F
100
AcDbEntity
  8
0
  6
Continuous
 62
   131
370
    15
100
AcDbLine
 10
-44.0
 20
6.0
 30
0.0
 11
-45.00000000000001
 21
4.999999999999999
 31
0.0
  0
LINE
  5
A6
330
1F
100
AcDbEntity
  8
0
  6
Continuous
 62
   131
370
    15
100
AcDbLine
 10
-45.00000000000001
 20
-4.999999999999996
 30
0.0
 11
-44.0
 21
-5.999999999999996
 31
0.0
  0
SPLINE
  5
A7
330
1F
100
AcDbEntity
  8
0
  6
Continuous
 62
   131
370
    15
100
AcDbSpline
210
0.0
220
0.0
230
1.0
 70
     8
 71
     3
 72
     9
 73
     5
 74
     0
 42
0.000000001
 43
0.00000001
 40
0.0
 40
0.0
 40
0.0
 40
0.0
 40
0.4363206470426941
 40
1.0
 40
1.0
 40
1.0
 40
1.0
 10
7.970148542288348
 20
-4.812158233112491
 30
0.0
 10
8.26542854804256
 20
-4.793752004503268
 30
0.0
 10
8.942178566075324
 20
-4.751566907983135
 30
0.0
 10
9.618673674822569
 20
-4.727125243059431
 30
0.0
 10
10.0
 20
-4.71334798119004
 30
0.0
  0
SPLINE
  5
A8
330
1F
100
AcDbEntity
  8
0
  6
Continuous
 62
     1
370
    15
100
AcDbSpline
210
0.0
220
0.0
230
1.0
 70
     8
 71
     3
 72
    19
 73
    15
 74
     0
 42
0.000000001
 43
0.00000001
 40
0.0
 40
0.0
 40
0.0
 40
0.0
 40
0.0894620401660015
 40
0.1789205292158768
 40
0.2683768231891561
 40
0.3578322799900309
 40
0.4472882582341034
 40
0.536746116093847
 40
0.62615695770414
 40
0.7155724767965025
 40
0.8049940569651028
 40
0.8944230765843763
 40
0.9838609076321496
 40
1.0
 40
1.0
 40
1.0
 40
1.0
 10
9.9999999999998
 20
3.491946595987816
 30
0.0
 10
10.67925736213926
 20
3.160058302871974
 30
0.0
 10
12.03774512390125
 20
2.496294890650937
 30
0.0
 10
14.07542445455946
 20
1.369085233930053
 30
0.0
 10
16.11304538844281
 20
0.1990194999687689
 30
0.0
 10
18.15064305495725
 20
-0.9812376988834585
 30
0.0
 10
20.18825493121622
 20
-2.123226068266268
 30
0.0
 10
22.22553718122017
 20
-3.183720704659532
 30
0.0
 10
24.26252481313627
 20
-4.122418961923436
 30
0.0
 10
26.29925903230708
 20
-4.901644163063219
 30
0.0
 10
28.33615841900231
 20
-5.498739748386198
 30
0.0
 10
30.37326218742529
 20
-5.864598960057359
 30
0.0
 10
31.85396108686393
 20
-6.023404831716213
 30
0.0
 10
32.65563100216264
 20
-5.988344309121803
 30
0.0
 10
32.77817885062191
 20
-5.98298475710693
 30
0.0
  0
SPLINE
  5
A9
330
1F
100
AcDbEntity
  8
0
  6
Continuous
 62
     1
370
    15
100
AcDbSpline
210
0.0
220
0.0
230
1.0
 70
     8
 71
     3
 72
    12
 73
     8
 74
     0
 42
0.000000001
 43
0.00000001
 40
0.0
 40
0.0
 40
0.0
 40
0.0
 40
0.0125722492798634
 40
0.2593978761297306
 40
0.5062418482231474
 40
0.7531079632810391
 40
1.0
 40
1.0
 40
1.0
 40
1.0
 10
56.74785513526616
 20
4.023092959496806
 30
0.0
 10
56.7824365337649
 20
4.039045911623518
 30
0.0
 10
57.49593983174164
 20
4.368196392778561
 30
0.0
 10
58.88843631205562
 20
4.873003475941359
 30
0.0
 10
60.92541632881747
 20
5.480866378505614
 30
0.0
 10
62.96261446374685
 20
5.879214649450946
 30
0.0
 10
64.32084771942223
 20
5.956356127459795
 30
0.0
 10
65.0
 20
6.00000000000021
 30
0.0
  0
SPLINE
  5
AA
330
1F
100
AcDbEntity
  8
0
  6
Continuous
 62
     1
370
    15
100
AcDbSpline
210
0.0
220
0.0
230
1.0
 70
    24
 71
     3
 72
    10
 73
     6
 74
     0
 42
0.000000001
 43
0.00000001
 40
0.0
 40
0.0
 40
0.0
 40
0.0
 40
0.5
 40
0.5
 40
1.0
 40
1.0
 40
1.0
 40
1.0
 10
65.0
 20
4.20000000000001
 30
0.0
 10
65.0
 20
4.454593540843893
 30
0.0
 10
65.0
 20
4.750454813202713
 30
0.0
 10
65.0
 20
5.371170965765145
 30
0.0
 10
65.0
 20
5.69444061480885
 30
0.0
 10
65.0
 20
6.00000000000021
 30
0.0
  0
LINE
  5
AB
330
1F
100
AcDbEntity
  8
0
  6
Continuous
 62
     1
370
    15
100
AcDbLine
 10
65.0
 20
4.200000000000011
 30
0.0
 11
62.76896005770876
 21
4.097349852507554
 31
0.0
  0
SPLINE
  5
AC
330
1F
100
AcDbEntity
  8
0
  6
Continuous
 62
     1
370
    15
100
AcDbSpline
210
0.0
220
0.0
230
1.0
 70
     8
 71
     3
 72
    10
 73
     6
 74
     0
 42
0.000000001
 43
0.00000001
 40
0.0
 40
0.0
 40
0.0
 40
0.0
 40
0.3166572445960946
 40
0.6582492550320188
 40
1.0
 40
1.0
 40
1.0
 40
1.0
 10
17.45910649012091
 20
-0.5770352606584652
 30
0.0
 10
16.67179457442872
 20
-0.2594397448604803
 30
0.0
 10
15.03517488286519
 20
0.4007599355295628
 30
0.0
 10
12.54887720820905
 20
1.400539581978656
 30
0.0
 10
10.84975729962323
 20
2.001402958509717
 30
0.0
 10
9.999999999999988
 20
2.301904434422918
 30
0.0
  0
SPLINE
  5
AD
330
1F
100
AcDbEntity
  8
0
  6
Continuous
 62
   131
370
    15
100
AcDbSpline
210
0.0
220
0.0
230
1.0
 70
    24
 71
     3
 72
    10
 73
     6
 74
     0
 42
0.000000001
 43
0.00000001
 40
0.0
 40
0.0
 40
0.0
 40
0.0
 40
0.5
 40
0.5
 40
1.0
 40
1.0
 40
1.0
 40
1.0
 10
10.0
 20
3.491946595987718
 30
0.0
 10
10.0
 20
3.391567788477261
 30
0.0
 10
10.0
 20
3.229646957099133
 30
0.0
 10
10.0
 20
2.815330045121551
 30
0.0
 10
10.0
 20
2.564386824885085
 30
0.0
 10
10.0
 20
2.301904434422912
 30
0.0
  0
SPLINE
  5
AE
330
1F
100
AcDbEntity
  8
0
  6
Continuous
 62
     1
370
    15
100
AcDbSpline
210
0.0
220
0.0
230
1.0
 70
     8
 71
     3
 72
    28
 73
    24
 74
     0
 42
0.000000001
 43
0.00000001
 40
0.0
 40
0.0
 40
0.0
 40
0.0
 40
0.0038966194442686
 40
0.0536987152729463
 40
0.1035041869619076
 40
0.1533138022295125
 40
0.2031283252313787
 40
0.2529465277756537
 40
0.3027602538243331
 40
0.3525691883135215
 40
0.402374095983757
 40
0.4521757450388385
 40
0.5019749064894474
 40
0.5517723534916189
 40
0.6015688606812677
 40
0.6513652035059896
 40
0.7011621575553694
 40
0.7509604978910271
 40
0.8007609983776355
 40
0.8505644310161415
 40
0.9003715652804188
 40
0.9501831674585578
 40
1.0
 40
1.0
 40
1.0
 40
1.0
 10
24.10313707574048
 20
4.02290405911043
 30
0.0
 10
24.15625569018848
 20
4.047346474402201
 30
0.0
 10
24.88827517367486
 20
4.384183652912538
 30
0.0
 10
26.29926025201486
 20
4.892807541386928
 30
0.0
 10
28.33615821611489
 20
5.497886672130795
 30
0.0
 10
30.37326177907027
 20
5.876850544249451
 30
0.0
 10
32.41057746536919
 20
6.034942263430094
 30
0.0
 10
34.44799919660645
 20
5.960805001415304
 30
0.0
 10
36.48528634382438
 20
5.658690363313135
 30
0.0
 10
38.52235661036691
 20
5.13980539562311
 30
0.0
 10
40.55922838834287
 20
4.424145319130595
 30
0.0
 10
42.59594054436347
 20
3.539097670207133
 30
0.0
 10
44.63253058052373
 20
2.518563282356067
 30
0.0
 10
46.66903651332203
 20
1.401613466369157
 30
0.0
 10
48.70549632759532
 20
0.2310110112372652
 30
0.0
 10
50.74194807684939
 20
-0.9484405676878523
 30
0.0
 10
52.77842982189991
 20
-2.091562706482126
 30
0.0
 10
54.81497956944583
 20
-3.15470235575821
 30
0.0
 10
56.85163537251752
 20
-4.096754883551137
 30
0.0
 10
58.88843478376376
 20
-4.883147355774502
 30
0.0
 10
60.92541673641416
 20
-5.478160997495081
 30
0.0
 10
62.96261436183139
 20
-5.879891102839895
 30
0.0
 10
64.32084768544922
 20
-5.956581619814393
 30
0.0
 10
65.0
 20
-5.999999999999786
 30
0.0
  0
SPLINE
  5
AF
330
1F
100
AcDbEntity
  8
0
  6
Continuous
 62
     1
370
    15
100
AcDbSpline
210
0.0
220
0.0
230
1.0
 70
     8
 71
     3
 72
    16
 73
    12
 74
     0
 42
0.000000001
 43
0.00000001
 40
0.0
 40
0.0
 40
0.0
 40
0.0
 40
0.0864721536616247
 40
0.2054344433854169
 40
0.324383890346951
 40
0.4433154938316639
 40
0.5622245725069317
 40
0.6811384510477644
 40
0.8000741244668077
 40
0.9190266170140593
 40
1.0
 40
1.0
 40
1.0
 40
1.0
 10
50.09270599063031
 20
-0.5687630978126008
 30
0.0
 10
49.51686094418847
 20
-0.3375818958790659
 30
0.0
 10
48.14880889988596
 20
0.2116420973873821
 30
0.0
 10
45.98865129680859
 20
1.083607163623924
 30
0.0
 10
43.61236430327745
 20
1.983105004232179
 30
0.0
 10
41.23646364090124
 20
2.780371123701258
 30
0.0
 10
38.86086576650538
 20
3.432141302659936
 30
0.0
 10
36.48522338855368
 20
3.907465156624434
 30
0.0
 10
34.10923628055103
 20
4.171279494628074
 30
0.0
 10
31.98587317166196
 20
4.240015582326582
 30
0.0
 10
30.65451026822596
 20
4.125885527817292
 30
0.0
 10
30.11528562816531
 20
4.079660912872678
 30
0.0
  0
SPLINE
  5
B0
330
1F
100
AcDbEntity
  8
0
  6
Continuous
 62
     1
370
    15
100
AcDbSpline
210
0.0
220
0.0
230
1.0
 70
     8
 71
     3
 72
    22
 73
    18
 74
     0
 42
0.000000001
 43
0.00000001
 40
0.0
 40
0.0
 40
0.0
 40
0.0
 40
0.0695042261027655
 40
0.1390011544220491
 40
0.2084918488180868
 40
0.2779773785073537
 40
0.347458817151556
 40
0.4169372419384675
 40
0.4864137326562945
 40
0.5558893707632515
 40
0.6253652384540662
 40
0.694842417725126
 40
0.7643219894399901
 40
0.8338050323969866
 40
0.9032926224006145
 40
0.9727858313384466
 40
1.0
 40
1.0
 40
1.0
 40
1.0
 10
65.0
 20
-5.69364521539139
 30
0.0
 10
64.32084902016453
 20
-5.548865947195917
 30
0.0
 10
62.96261836978051
 20
-5.259322612294307
 30
0.0
 10
60.92542476205227
 20
-4.56516014771625
 30
0.0
 10
58.88844683733115
 20
-3.711860935998537
 30
0.0
 10
56.85165146128175
 20
-2.712262502894621
 30
0.0
 10
54.81499969723768
 20
-1.609961741791539
 30
0.0
 10
52.77845398965208
 20
-0.4457361320579008
 30
0.0
 10
50.74197628083935
 20
0.7354561399777144
 30
0.0
 10
48.70552856589832
 20
1.888526310605035
 30
0.0
 10
46.66907276174957
 20
2.969213172272382
 30
0.0
 10
44.6325708824412
 20
3.936506819552965
 30
0.0
 10
42.59598467552069
 20
4.752055636817553
 30
0.0
 10
40.55927710789121
 20
5.389545600305332
 30
0.0
 10
38.52240699169279
 20
5.806215072606371
 30
0.0
 10
36.89852159942676
 20
6.004186407562169
 30
0.0
 10
35.95357253150008
 20
5.979509875460736
 30
0.0
 10
35.6876569007644
 20
5.972565717494086
 30
0.0
  0
LINE
  5
B1
330
1F
100
AcDbEntity
  8
0
  6
Continuous
 62
     1
370
    15
100
AcDbLine
 10
65.0
 20
-5.999999999999786
 30
0.0
 11
65.0
 21
-5.693645215391403
 31
0.0
  0
SPLINE
  5
B2
330
1F
100
AcDbEntity
  8
0
  6
Continuous
 62
     1
370
    15
100
AcDbSpline
210
0.0
220
0.0
230
1.0
 70
     8
 71
     3
 72
    24
 73
    20
 74
     0
 42
0.000000001
 43
0.00000001
 40
0.0
 40
0.0
 40
0.0
 40
0.0
 40
0.0004497121170041
 40
0.0629052737674321
 40
0.125364922578398
 40
0.1878296220272844
 40
0.2503003312474332
 40
0.3127766522698724
 40
0.3752483551162607
 40
0.437713903342063
 40
0.5001742553513157
 40
0.56263037401614
 40
0.6250832258545794
 40
0.6875694740043735
 40
0.7500544100006012
 40
0.8125389822307322
 40
0.8750241393913052
 40
0.9375108296818985
 40
1.0
 40
1.0
 40
1.0
 40
1.0
 10
42.610680448205
 20
-4.716520105107023
 30
0.0
 10
42.6057920717552
 20
-4.718468494978333
 30
0.0
 10
41.92201094328083
 20
-4.991007289522993
 30
0.0
 10
40.55927522888761
 20
-5.374023216520134
 30
0.0
 10
38.52240917149994
 20
-5.818781048417441
 30
0.0
 10
36.48534236123469
 20
-6.019812899667081
 30
0.0
 10
34.44805925900851
 20
-5.995921124996409
 30
0.0
 10
32.41064152030773
 20
-5.74092094314232
 30
0.0
 10
30.37332982197115
 20
-5.266460736190562
 30
0.0
 10
28.33623080284973
 20
-4.59022405325431
 30
0.0
 10
26.29933536264044
 20
-3.738270397799182
 30
0.0
 10
24.26260528932072
 20
-2.743188516096551
 30
0.0
 10
22.22561570617706
 20
-1.642905535727426
 30
0.0
 10
20.18832542632369
 20
-0.4794101511691017
 30
0.0
 10
18.15069946662987
 20
0.7024233855041299
 30
0.0
 10
16.11308769733554
 20
1.858259849864621
 30
0.0
 10
14.07545265446511
 20
2.939405087903808
 30
0.0
 10
12.03775921904304
 20
3.920837486096613
 30
0.0
 10
10.67926205904112
 20
4.442717716803857
 30
0.0
 10
9.999999999995852
 20
4.703663010266763
 30
0.0
  0
LINE
  5
B3
330
1F
100
AcDbEntity
  8
0
  6
Continuous
 62
   131
370
    15
100
AcDbLine
 10
10.0
 20
3.491946595987719
 30
0.0
 11
10.0
 21
4.703663010254298
 31
0.0
  0
SPLINE
  5
B4
330
1F
100
AcDbEntity
  8
0
  6
Continuous
 62
     1
370
    15
100
AcDbSpline
210
0.0
220
0.0
230
1.0
 70
     8
 71
     3
 72
    17
 73
    13
 74
     0
 42
0.000000001
 43
0.00000001
 40
0.0
 40
0.0
 40
0.0
 40
0.0
 40
0.0907742989221139
 40
0.2003354412629292
 40
0.3099114660841246
 40
0.4194979438437469
 40
0.5290904261568806
 40
0.6386844538007331
 40
0.7482755647616506
 40
0.8578593022929394
 40
0.967431222952297
 40
1.0
 40
1.0
 40
1.0
 40
1.0
 10
38.45393927041014
 20
-4.973562855984488
 30
0.0
 10
37.79776359387778
 20
-5.029646703436295
 30
0.0
 10
36.34960871672582
 20
-5.153421631586618
 30
0.0
 10
34.10928875116233
 20
-5.024620216310002
 30
0.0
 10
31.73293713845613
 20
-4.654001570055224
 30
0.0
 10
29.35632325829716
 20
-4.033729555604187
 30
0.0
 10
26.97956036127588
 20
-3.205293072961807
 30
0.0
 10
24.60275915372419
 20
-2.209907500235339
 30
0.0
 10
22.22602944188215
 20
-1.097886893737805
 30
0.0
 10
19.84948760285672
 20
0.0648306686764123
 30
0.0
 10
18.02976438677632
 20
0.9710850014031467
 30
0.0
 10
17.002256710866
 20
1.439355250487838
 30
0.0
 10
16.76682330613843
 20
1.546650272860267
 30
0.0
  0
SPLINE
  5
B5
330
1F
100
AcDbEntity
  8
0
  6
Continuous
 62
     1
370
    15
100
AcDbSpline
210
0.0
220
0.0
230
1.0
 70
     8
 71
     3
 72
    14
 73
    10
 74
     0
 42
0.000000001
 43
0.00000001
 40
0.0
 40
0.0
 40
0.0
 40
0.0
 40
0.1524569872574721
 40
0.3049414409885736
 40
0.4574472378701825
 40
0.609968216189645
 40
0.7624981868721599
 40
0.9150309446138256
 40
1.0
 40
1.0
 40
1.0
 40
1.0
 10
65.0
 20
-4.733833586209283
 30
0.0
 10
64.20817916566983
 20
-4.5653018141233
 30
0.0
 10
62.62439484348827
 20
-4.228207907463156
 30
0.0
 10
60.24845184905642
 20
-3.436428509996721
 30
0.0
 10
57.87213273230863
 20
-2.483682376005083
 30
0.0
 10
55.49554037647938
 20
-1.39585317899149
 30
0.0
 10
53.11878831087893
 20
-0.2403511856515647
 30
0.0
 10
51.09290218662654
 20
0.7674506043415349
 30
0.0
 10
49.85928797656338
 20
1.340160031750909
 30
0.0
 10
49.41794804420839
 20
1.545053537265065
 30
0.0
  0
LINE
  5
B6
330
1F
100
AcDbEntity
  8
0
  6
Continuous
 62
     1
370
    15
100
AcDbLine
 10
65.0
 20
-5.693645215391395
 30
0.0
 11
65.0
 21
-4.733833586209283
 31
0.0
  0
SPLINE
  5
B7
330
1F
100
AcDbEntity
  8
0
  6
Continuous
 62
     1
370
    15
100
AcDbSpline
210
0.0
220
0.0
230
1.0
 70
     8
 71
     3
 72
     8
 73
     4
 74
     0
 42
0.000000001
 43
0.00000001
 40
0.0
 40
0.0
 40
0.0
 40
0.0
 40
1.0
 40
1.0
 40
1.0
 40
1.0
 10
61.28766238388618
 20
1.678126369561344
 30
0.0
 10
61.01854352449408
 20
1.996908240080762
 30
0.0
 10
60.78528950873193
 20
2.301017429348715
 30
0.0
 10
60.60063730606628
 20
2.584818657777567
 30
0.0
  0
LINE
  5
B8
330
1F
100
AcDbEntity
  8
0
  6
Continuous
 62
     1
370
    15
100
AcDbLine
 10
60.60063730606631
 20
2.584818657777565
 30
0.0
 11
65.0
 21
0.0000000000000117
 31
0.0
  0
LINE
  5
B9
330
1F
100
AcDbEntity
  8
0
  6
Continuous
 62
     1
370
    15
100
AcDbLine
 10
65.0
 20
0.0000000000000117
 30
0.0
 11
65.0
 21
-1.603457676177857
 31
0.0
  0
SPLINE
  5
BA
330
1F
100
AcDbEntity
  8
0
  6
Continuous
 62
     1
370
    15
100
AcDbSpline
210
0.0
220
0.0
230
1.0
 70
     8
 71
     3
 72
    12
 73
     8
 74
     0
 42
0.000000001
 43
0.00000001
 40
0.0
 40
0.0
 40
0.0
 40
0.0
 40
0.4999999999999984
 40
0.4999999999999984
 40
0.7499999999999992
 40
0.7499999999999992
 40
1.0
 40
1.0
 40
1.0
 40
1.0
 10
65.0
 20
-1.603457676177863
 30
0.0
 10
64.35738324975082
 20
-1.098253421644957
 30
0.0
 10
63.72550027521569
 20
-0.572337163080715
 30
0.0
 10
62.79419516594455
 20
0.2484131373375471
 30
0.0
 10
62.48655768172765
 20
0.5273947563256737
 30
0.0
 10
61.87756600981748
 20
1.097482307907393
 30
0.0
 10
61.5778678525838
 20
1.387117232542719
 30
0.0
 10
61.28766238388618
 20
1.678126369561344
 30
0.0
  0
SPLINE
  5
BB
330
1F
100
AcDbEntity
  8
0
  6
Continuous
 62
   131
370
    15
100
AcDbSpline
210
0.0
220
0.0
230
1.0
 70
    24
 71
     3
 72
    11
 73
     7
 74
     0
 42
0.000000001
 43
0.00000001
 40
0.0
 40
0.0
 40
0.0
 40
0.0
 40
0.2433979818039215
 40
0.4899694946382469
 40
0.848016736440304
 40
1.0
 40
1.0
 40
1.0
 40
1.0
 10
10.0
 20
-4.014868037036843
 30
0.0
 10
10.0
 20
-4.119183652215299
 30
0.0
 10
10.0
 20
-4.329174995911162
 30
0.0
 10
10.0
 20
-4.570050260616076
 30
0.0
 10
10.0
 20
-4.715195694345016
 30
0.0
 10
10.0
 20
-4.695746292691503
 30
0.0
 10
10.0
 20
-4.689950593205866
 30
0.0
  0
SPLINE
  5
BC
330
1F
100
AcDbEntity
  8
0
  6
Continuous
 62
     1
370
    15
100
AcDbSpline
210
0.0
220
0.0
230
1.0
 70
     8
 71
     3
 72
    14
 73
    10
 74
     0
 42
0.000000001
 43
0.00000001
 40
0.0
 40
0.0
 40
0.0
 40
0.0
 40
0.1235930483326957
 40
0.2471902477824648
 40
0.4191487031503455
 40
0.5911174385395299
 40
0.7630893596866811
 40
0.9350573665595688
 40
1.0
 40
1.0
 40
1.0
 40
1.0
 10
61.28766238388616
 20
1.678126369561348
 30
0.0
 10
60.71842038688437
 20
1.920162022095244
 30
0.0
 10
59.57991727376204
 20
2.404241456409325
 30
0.0
 10
57.64958515500811
 20
3.138476840898645
 30
0.0
 10
55.49547218456215
 20
3.835970375367017
 30
0.0
 10
53.11878724188961
 20
4.408864668148157
 30
0.0
 10
50.74196466342894
 20
4.736622589728323
 30
0.0
 10
48.85823805417724
 20
4.848040000694767
 30
0.0
 10
47.76679901328125
 20
4.762015881640687
 30
0.0
 10
47.46761057049225
 20
4.738434700046746
 30
0.0
  0
SPLINE
  5
BD
330
1F
100
AcDbEntity
  8
0
  6
Continuous
 62
     1
370
    15
100
AcDbSpline
210
0.0
220
0.0
230
1.0
 70
     8
 71
     3
 72
    11
 73
     7
 74
     0
 42
0.000000001
 43
0.00000001
 40
0.0
 40
0.0
 40
0.0
 40
0.0
 40
0.2251204310328935
 40
0.4714807684194473
 40
0.7356805967328562
 40
1.0
 40
1.0
 40
1.0
 40
1.0
 10
19.64415209435259
 20
-4.502633918326111
 30
0.0
 10
18.92045330735092
 20
-4.601663396269663
 30
0.0
 10
17.40477541603632
 20
-4.809065692644
 30
0.0
 10
15.03983775219467
 20
-4.8169184179303
 30
0.0
 10
12.54890066996518
 20
-4.591012073308631
 30
0.0
 10
10.84976169734947
 20
-4.206945013573862
 30
0.0
 10
9.999999999999995
 20
-4.014868037036842
 30
0.0
  0
SPLINE
  5
BE
330
1F
100
AcDbEntity
  8
0
  6
Continuous
 62
     1
370
    15
100
AcDbSpline
210
0.0
220
0.0
230
1.0
 70
    24
 71
     3
 72
    10
 73
     6
 74
     0
 42
0.000000001
 43
0.00000001
 40
0.0
 40
0.0
 40
0.0
 40
0.0
 40
0.5
 40
0.5
 40
1.0
 40
1.0
 40
1.0
 40
1.0
 10
65.0
 20
-4.733833586209283
 30
0.0
 10
65.0
 20
-4.370948334022818
 30
0.0
 10
65.0
 20
-3.912428903438802
 30
0.0
 10
64.99999999999997
 20
-2.84641535490407
 30
0.0
 10
65.0
 20
-2.239844658307852
 30
0.0
 10
65.0
 20
-1.603457676178054
 30
0.0
  0
SPLINE
  5
BF
330
1F
100
AcDbEntity
  8
0
  6
Continuous
 62
     1
370
    15
100
AcDbSpline
210
0.0
220
0.0
230
1.0
 70
     8
 71
     3
 72
    24
 73
    20
 74
     0
 42
0.000000001
 43
0.00000001
 40
0.0
 40
0.0
 40
0.0
 40
0.0
 40
0.0416036480811
 40
0.1050175505163885
 40
0.1684273939950109
 40
0.2318305703094071
 40
0.2952244832989981
 40
0.358606702438717
 40
0.4219914127328344
 40
0.485387437974563
 40
0.548792194901162
 40
0.6122030844979385
 40
0.6756174966651683
 40
0.7390328149278541
 40
0.80244642117016
 40
0.8658557003762006
 40
0.9292580453588277
 40
0.9926508614581209
 40
1.0
 40
1.0
 40
1.0
 40
1.0
 10
52.30127415733688
 20
-4.484060906467684
 30
0.0
 10
51.78149956377909
 20
-4.566896579735328
 30
0.0
 10
50.46946426991057
 20
-4.775993615768954
 30
0.0
 10
48.36522413357124
 20
-4.834000646847592
 30
0.0
 10
45.98865236230905
 20
-4.682705762217774
 30
0.0
 10
43.61236517075876
 20
-4.278308290126541
 30
0.0
 10
41.23646274178049
 20
-3.65375191868132
 30
0.0
 10
38.86087375704216
 20
-2.838293298581999
 30
0.0
 10
36.4852363345693
 20
-1.875295501519953
 30
0.0
 10
34.10924854259425
 20
-0.8146530703759931
 30
0.0
 10
31.73289364727406
 20
0.2884364027061802
 30
0.0
 10
29.35627765651116
 20
1.376589351672547
 30
0.0
 10
26.97951238907215
 20
2.392958452131782
 30
0.0
 10
24.60270881139721
 20
3.285261104888152
 30
0.0
 10
22.22597714295259
 20
4.004596727354951
 30
0.0
 10
19.84943186935217
 20
4.52258733075542
 30
0.0
 10
17.47317035572393
 20
4.778424092281346
 30
0.0
 10
15.79734013920184
 20
4.853705345614532
 30
0.0
 10
14.91356137713498
 20
4.76345269949855
 30
0.0
 10
14.82174863891274
 20
4.754076662273653
 30
0.0
  0
SPLINE
  5
C0
330
1F
100
AcDbEntity
  8
0
  6
Continuous
 62
     1
370
    15
100
AcDbSpline
210
0.0
220
0.0
230
1.0
 70
     8
 71
     3
 72
    10
 73
     6
 74
     0
 42
0.000000001
 43
0.00000001
 40
0.0
 40
0.0
 40
0.0
 40
0.0
 40
0.5
 40
0.5
 40
1.0
 40
1.0
 40
1.0
 40
1.0
 10
65.0
 20
4.200000000000011
 30
0.0
 10
64.25342417078966
 20
3.997517931024639
 30
0.0
 10
63.51177972161536
 20
3.764963796806372
 30
0.0
 10
62.04225163442664
 20
3.233042289695108
 30
0.0
 10
61.31423208593016
 20
2.933958217721527
 30
0.0
 10
60.60063730606625
 20
2.58481865777757
 30
0.0
  0
SPLINE
  5
C1
330
1F
100
AcDbEntity
  8
0
  6
Continuous
 62
   131
370
    15
100
AcDbSpline
210
0.0
220
0.0
230
1.0
 70
    24
 71
     3
 72
    14
 73
    10
 74
     0
 42
0.000000001
 43
0.00000001
 40
0.0
 40
0.0
 40
0.0
 40
0.0
 40
0.25
 40
0.25
 40
0.5
 40
0.5
 40
0.75
 40
0.75
 40
1.0
 40
1.0
 40
1.0
 40
1.0
 10
10.0
 20
2.301904434422913
 30
0.0
 10
10.0
 20
1.80550973768956
 30
0.0
 10
10.0
 20
1.269887926954127
 30
0.0
 10
10.0
 20
0.1625021071582469
 30
0.0
 10
10.0
 20
-0.4087938392719548
 30
0.0
 10
10.0
 20
-1.531466427012865
 30
0.0
 10
10.0
 20
-2.082244861431882
 30
0.0
 10
10.0
 20
-3.111452331124433
 30
0.0
 10
10.0
 20
-3.589523109478751
 30
0.0
 10
10.0
 20
-4.014868037036841
 30
0.0
  0
LINE
  5
C2
330
1F
100
AcDbEntity
  8
0
  6
Continuous
 62
     1
370
    15
100
AcDbLine
 10
65.0
 20
0.0000000000000117
 30
0.0
 11
65.0
 21
4.200000000000011
 31
0.0
  0
SPLINE
  5
C3
330
1F
100
AcDbEntity
  8
0
  6
Continuous
 62
   131
370
    15
100
AcDbSpline
210
0.0
220
0.0
230
1.0
 70
     8
 71
     3
 72
    10
 73
     6
 74
     0
 42
0.000000001
 43
0.00000001
 40
0.0
 40
0.0
 40
0.0
 40
0.0
 40
0.5
 40
0.5
 40
1.0
 40
1.0
 40
1.0
 40
1.0
 10
9.9999999999998
 20
-4.703663010265337
 30
0.0
 10
9.661355755822692
 20
-4.824965268895362
 30
0.0
 10
9.321512445643137
 20
-4.938910360760366
 30
0.0
 10
8.644284050139941
 20
-5.150459310006093
 30
0.0
 10
8.308467349896503
 20
-5.247939738495814
 30
0.0
 10
7.970219959409278
 20
-5.337172956075483
 30
0.0
  0
LINE
  5
C4
330
1F
100
AcDbEntity
  8
0
  6
Continuous
 62
   131
370
    15
100
AcDbLine
 10
7.97010745424801
 20
5.337290434479195
 30
0.0
 11
7.97010745424801
 21
6.000000000000005
 31
0.0
  0
SPLINE
  5
C5
330
1F
100
AcDbEntity
  8
0
  6
Continuous
 62
   131
370
    15
100
AcDbSpline
210
0.0
220
0.0
230
1.0
 70
     8
 71
     3
 72
    10
 73
     6
 74
     0
 42
0.000000001
 43
0.00000001
 40
0.0
 40
0.0
 40
0.0
 40
0.0
 40
0.5
 40
0.5
 40
1.0
 40
1.0
 40
1.0
 40
1.0
 10
9.9999999999998
 20
4.703663010265347
 30
0.0
 10
9.661355755822692
 20
4.824965268895371
 30
0.0
 10
9.321512445643133
 20
4.938910360760377
 30
0.0
 10
8.644284050139941
 20
5.150459310006104
 30
0.0
 10
8.308467349896503
 20
5.247939738495824
 30
0.0
 10
7.970219959409278
 20
5.337172956075492
 30
0.0
  0
SPLINE
  5
C6
330
1F
100
AcDbEntity
  8
0
  6
Continuous
 62
   131
370
    15
100
AcDbSpline
210
0.0
220
0.0
230
1.0
 70
     8
 71
     3
 72
    10
 73
     6
 74
     0
 42
0.000000001
 43
0.00000001
 40
0.0
 40
0.0
 40
0.0
 40
0.0
 40
0.4999999999999999
 40
0.4999999999999999
 40
1.0
 40
1.0
 40
1.0
 40
1.0
 10
9.9999999999998
 20
3.491946595987813
 30
0.0
 10
9.661336982972278
 20
3.650842910616054
 30
0.0
 10
9.321474767111207
 20
3.804357694841039
 30
0.0
 10
8.644209101585846
 20
4.098431288463272
 30
0.0
 10
8.308373938585921
 20
4.238794086763275
 30
0.0
 10
7.97010745424801
 20
4.37254460730419
 30
0.0
  0
LINE
  5
C7
330
1F
100
AcDbEntity
  8
0
  6
Continuous
 62
   131
370
    15
100
AcDbLine
 10
7.97010745424801
 20
-5.999999999999995
 30
0.0
 11
7.97010745424801
 21
4.372542889883714
 31
0.0
  0
LINE
  5
C8
330
1F
100
AcDbEntity
  8
0
  6
Continuous
 62
   131
370
    15
100
AcDbLine
 10
-44.0
 20
6.0
 30
0.0
 11
-44.0
 21
-5.999999999999998
 31
0.0
  0
LINE
  5
C9
330
1F
100
AcDbEntity
  8
0
  6
Continuous
 62
   131
370
    15
100
AcDbLine
 10
-45.00000000000001
 20
4.999999999999999
 30
0.0
 11
-45.00000000000001
 21
-4.999999999999996
 31
0.0
  0
SPLINE
  5
CA
330
1F
100
AcDbEntity
  8
0
  6
Continuous
 62
   131
370
    15
100
AcDbSpline
210
0.0
220
0.0
230
1.0
 70
    24
 71
     3
 72
    10
 73
     6
 74
     0
 42
0.000000001
 43
0.00000001
 40
0.0
 40
0.0
 40
0.0
 40
0.0
 40
0.5
 40
0.5
 40
1.0
 40
1.0
 40
1.0
 40
1.0
 10
10.0
 20
3.491946595987718
 30
0.0
 10
10.0
 20
3.391567788477261
 30
0.0
 10
10.0
 20
3.229646957099133
 30
0.0
 10
10.0
 20
2.815330045121551
 30
0.0
 10
10.0
 20
2.564386824885085
 30
0.0
 10
10.0
 20
2.301904434422912
 30
0.0
  0
SPLINE
  5
CB
330
1F
100
AcDbEntity
  8
0
  6
Continuous
 62
   131
370
    15
100
AcDbSpline
210
0.0
220
0.0
230
1.0
 70
     8
 71
     3
 72
    10
 73
     6
 74
     0
 42
0.000000001
 43
0.00000001
 40
0.0
 40
0.0
 40
0.0
 40
0.0
 40
0.5
 40
0.5
 40
1.0
 40
1.0
 40
1.0
 40
1.0
 10
9.999999999999421
 20
2.301904434423109
 30
0.0
 10
9.661341506512672
 20
2.416308463287572
 30
0.0
 10
9.321483846200257
 20
2.527176422575591
 30
0.0
 10
8.644227161322924
 20
2.74025646460421
 30
0.0
 10
8.308396447160144
 20
2.842324681941671
 30
0.0
 10
7.970134563709887
 20
2.939965567021274
 30
0.0
  0
SPLINE
  5
CC
330
1F
100
AcDbEntity
  8
0
  6
Continuous
 62
   131
370
    15
100
AcDbSpline
210
0.0
220
0.0
230
1.0
 70
     8
 71
     3
 72
    10
 73
     6
 74
     0
 42
0.000000001
 43
0.00000001
 40
0.0
 40
0.0
 40
0.0
 40
0.0
 40
0.5
 40
0.5
 40
1.0
 40
1.0
 40
1.0
 40
1.0
 10
9.99999999999958
 20
-4.014868037036736
 30
0.0
 10
9.66134383900766
 20
-3.929196169120544
 30
0.0
 10
9.3214885276943
 20
-3.8370215445126
 30
0.0
 10
8.644236473552553
 20
-3.640985144933832
 30
0.0
 10
8.308408053360555
 20
-3.537304987455333
 30
0.0
 10
7.970148542288348
 20
-3.427928737886917
 30
0.0
  0
SPLINE
  5
CD
330
1F
100
AcDbEntity
  8
0
  6
Continuous
 62
   131
370
    15
100
AcDbSpline
210
0.0
220
0.0
230
1.0
 70
    24
 71
     3
 72
    14
 73
    10
 74
     0
 42
0.000000001
 43
0.00000001
 40
0.0
 40
0.0
 40
0.0
 40
0.0
 40
0.25
 40
0.25
 40
0.5
 40
0.5
 40
0.75
 40
0.75
 40
1.0
 40
1.0
 40
1.0
 40
1.0
 10
10.0
 20
2.301904434422913
 30
0.0
 10
10.0
 20
1.80550973768956
 30
0.0
 10
10.0
 20
1.269887926954127
 30
0.0
 10
10.0
 20
0.1625021071582469
 30
0.0
 10
10.0
 20
-0.4087938392719548
 30
0.0
 10
10.0
 20
-1.531466427012865
 30
0.0
 10
10.0
 20
-2.082244861431882
 30
0.0
 10
10.0
 20
-3.111452331124433
 30
0.0
 10
10.0
 20
-3.589523109478751
 30
0.0
 10
10.0
 20
-4.014868037036841
 30
0.0
  0
SPLINE
  5
CE
330
1F
100
AcDbEntity
  8
0
  6
Continuous
 62
   131
370
    15
100
AcDbSpline
210
0.0
220
0.0
230
1.0
 70
    24
 71
     3
 72
    11
 73
     7
 74
     0
 42
0.000000001
 43
0.00000001
 40
0.0
 40
0.0
 40
0.0
 40
0.0
 40
0.2447116552706488
 40
0.4894233105412976
 40
0.8470751228182717
 40
1.0
 40
1.0
 40
1.0
 40
1.0
 10
10.0
 20
-4.014868037036843
 30
0.0
 10
10.0
 20
-4.119753932493742
 30
0.0
 10
10.0
 20
-4.329525723407542
 30
0.0
 10
10.00000000000001
 20
-4.570444567608561
 30
0.0
 10
10.0
 20
-4.715296047669953
 30
0.0
 10
10.0
 20
-4.695753046211307
 30
0.0
 10
10.0
 20
-4.68989964326611
 30
0.0
  0
LINE
  5
CF
330
1F
100
AcDbEntity
  8
중심선
 62
     1
100
AcDbLine
 10
-48.00000000000001
 20
-0.0000000000000004
 30
0.0
 11
68.0
 21
0.000000000000012
 31
0.0
  0
CIRCLE
  5
D0
330
1F
100
AcDbEntity
  8
외형선
100
AcDbCircle
 10
0.0000000000000104
 20
0.0
 30
0.0
 40
3.000000000000005
  0
INSERT
  5
D1
330
1F
100
AcDbEntity
  8
0
  6
Continuous
 62
     7
100
AcDbBlockReference
 66
     1
  2
블럭10
 10
-22.93944368806589
 20
-52.04609937292004
 30
0.0
  0
ATTRIB
  5
D2
330
D1
100
AcDbEntity
  8
FORMAT
 62
     2
100
AcDbText
 10
-39.05870472750145
 20
-49.97073246008785
 30
0.0
 40
4.233333333333333
  1
SEME7012055E [ 2 FLUTE ]
 41
0.75
  7
SLDTEXTSTYLE0
 11
-39.05870472750145
 21
-52.08739912675452
 31
0.0
100
AcDbAttribute
  2
AUTOATTR0
 70
     0
 74
     1
  0
SEQEND
  5
D3
330
D1
100
AcDbEntity
  8
0
  6
Continuous
 62
     7
  0
HATCH
  5
D4
330
1F
100
AcDbEntity
  8
중심선
100
AcDbHatch
 10
0.0
 20
0.0
 30
0.0
210
0.0
220
0.0
230
1.0
  2
SOLID
 70
     1
 71
     0
 91
        1
 92
        0
 93
        4
 72
     1
 10
-17.22453438368504
 20
-35.7989250712761
 11
-20.67080962752232
 21
-35.7989250712761
 72
     1
 10
-20.67080962752232
 20
-35.7989250712761
 11
-22.79903948672635
 21
-38.3352506518487
 72
     1
 10
-22.79903948672635
 20
-38.3352506518487
 11
-19.35273115777591
 21
-38.33521122254621
 72
     1
 10
-19.35273115777591
 20
-38.33521122254621
 11
-17.22453438368504
 21
-35.7989250712761
 97
        0
 75
     0
 76
     1
 98
        1
 10
0.0
 20
0.0
  0
HATCH
  5
D5
330
1F
100
AcDbEntity
  8
중심선
100
AcDbHatch
 10
0.0
 20
0.0
 30
0.0
210
0.0
220
0.0
230
1.0
  2
SOLID
 70
     1
 71
     0
 91
        1
 92
        0
 93
        4
 72
     1
 10
-12.21177039264909
 20
-35.7989250712761
 11
-15.65804563648637
 21
-35.7989250712761
 72
     1
 10
-15.65804563648637
 20
-35.7989250712761
 11
-20.18918364484376
 21
-41.19892507127612
 72
     1
 10
-20.18918364484376
 20
-41.19892507127612
 11
-16.74290840100648
 21
-41.19892507127612
 72
     1
 10
-16.74290840100648
 20
-41.19892507127612
 11
-12.21177039264909
 21
-35.7989250712761
 97
        0
 75
     0
 76
     1
 98
        1
 10
0.0
 20
0.0
  0
HATCH
  5
D6
330
1F
100
AcDbEntity
  8
중심선
100
AcDbHatch
 10
0.0
 20
0.0
 30
0.0
210
0.0
220
0.0
230
1.0
  2
SOLID
 70
     1
 71
     0
 91
        1
 92
        0
 93
        4
 72
     1
 10
-7.199006401613195
 20
-35.79892507127613
 11
-10.64528164545031
 21
-35.7989250712761
 72
     1
 10
-10.64528164545031
 20
-35.7989250712761
 11
-17.69371854733956
 21
-44.19892507127612
 72
     1
 10
-17.69371854733956
 20
-44.19892507127612
 11
-14.24744330350228
 21
-44.19892507127612
 72
     1
 10
-14.24744330350228
 20
-44.19892507127612
 11
-7.199006401613195
 21
-35.79892507127613
 97
        0
 75
     0
 76
     1
 98
        1
 10
0.0
 20
0.0
  0
HATCH
  5
D7
330
1F
100
AcDbEntity
  8
중심선
100
AcDbHatch
 10
0.0
 20
0.0
 30
0.0
210
0.0
220
0.0
230
1.0
  2
SOLID
 70
     1
 71
     0
 91
        1
 92
        0
 93
        6
 72
     3
 10
-2.399115970600996
 20
-39.99892507132738
 11
3.960054785062284
 21
1.540850780301639E-10
 40
0.3939339440162633
 50
17.09539180608433
 51
320.0019657685079
 73
     0
 72
     1
 10
-0.7161163149004002
 20
-38.58681907591441
 11
1.589185558800638
 21
-36.65249236586649
 72
     3
 10
-2.399115970653842
 20
-39.99892507127625
 11
6.600054785286829
 21
-1.249000902703301E-13
 40
0.6363583540795982
 50
39.99873849337408
 51
368.4976242363725
 73
     1
 72
     1
 10
4.026216521246767
 20
-39.03892507120613
 11
-3.71904866381792
 21
-39.0389250712061
 72
     1
 10
-3.71904866381792
 20
-39.0389250712061
 11
-3.719073708263854
 21
-40.95892507120602
 72
     1
 10
-3.719073708263854
 20
-40.95892507120602
 11
0.7223060612081831
 21
-40.95892507120599
 97
        0
 75
     0
 76
     1
 98
        1
 10
0.0
 20
0.0
  0
DIMENSION
  5
D8
330
1F
100
AcDbEntity
  8
치수문자_일반주서
100
AcDbDimension
  2
_D
 10
80.78948704630933
 20
6.000000000000268
 30
0.0
 11
80.78948704630929
 21
18.29150000000027
 31
0.0
 70
   160
  1
%%c<>
 71
     2
 42
12.0
 52
-270.0
  3
SLDDIMSTYLE0
100
AcDbAlignedDimension
 13
65.0
 23
-5.999999999999786
 33
0.0
 14
65.0
 24
6.00000000000021
 34
0.0
 50
90.0000000000002
100
AcDbRotatedDimension
  0
DIMENSION
  5
E6
330
1F
100
AcDbEntity
  8
치수문자_일반주서
100
AcDbDimension
  2
_D_1
 10
65.00000000000001
 20
26.7884104402427
 30
0.0
 11
10.0
 21
26.7884104402427
 31
0.0
 70
   160
  1
<>
 71
     2
 42
110.0
  3
SLDDIMSTYLE1
100
AcDbAlignedDimension
 13
-45.00000000000001
 23
4.999999999999999
 33
0.0
 14
65.0
 24
6.00000000000021
 34
0.0
 50
-0.0000000000000037
100
AcDbRotatedDimension
  0
DIMENSION
  5
F1
330
1F
100
AcDbEntity
  8
치수문자_일반주서
100
AcDbDimension
  2
_D_2
 10
65.0
 20
18.05066081643277
 30
0.0
 11
37.50000000000001
 21
18.05066081643277
 31
0.0
 70
   160
  1
<>
 71
     2
 42
55.0
  3
SLDDIMSTYLE1
100
AcDbAlignedDimension
 13
10.0
 23
4.703663010265275
 33
0.0
 14
65.0
 24
6.00000000000021
 34
0.0
 50
-0.0000000000000481
100
AcDbRotatedDimension
  0
DIMENSION
  5
FB
330
1F
100
AcDbEntity
  8
치수문자_일반주서
100
AcDbDimension
  2
_D_3
 10
-56.60366571683547
 20
-6.000000000000046
 30
0.0
 11
-56.60366571683555
 21
16.54149999999995
 31
0.0
 70
   160
  1
%%c<>
 71
     2
 42
12.0
 52
-270.0
  3
SLDDIMSTYLE0
100
AcDbAlignedDimension
 13
-44.0
 23
6.0
 33
0.0
 14
-44.0
 24
-5.999999999999996
 34
0.0
 50
90.0000000000002
100
AcDbRotatedDimension
  0
INSERT
  5
10E
330
1F
100
AcDbEntity
  8
외형선
100
AcDbBlockReference
  2
SW_DOWELSYMBOL_0
 10
0.0000000000000104
 20
0.0
 30
0.0
  0
ENDSEC
  0
SECTION
  2
OBJECTS
  0
DICTIONARY
  5
C
330
0
100
AcDbDictionary
281
     1
  3
ACAD_GROUP
350
D
  3
ACAD_IMAGE_VARS
350
132
  3
ACAD_LAYOUT
350
1A
  3
ACAD_MLINESTYLE
350
17
  3
ACAD_PLOTSETTINGS
350
19
  3
ACAD_PLOTSTYLENAME
350
E
  3
ACAD_SCALELIST
350
47
  3
APPDATA
350
130
  3
DWGPROPS
350
140
  0
DICTIONARY
  5
D
102
{ACAD_REACTORS
330
C
102
}
330
C
100
AcDbDictionary
281
     1
  0
RASTERVARIABLES
  5
132
102
{ACAD_REACTORS
330
C
102
}
330
C
100
AcDbRasterVariables
 90
        0
 70
     1
 71
     1
 72
     1
  0
DICTIONARY
  5
1A
102
{ACAD_REACTORS
330
C
102
}
330
C
100
AcDbDictionary
281
     1
  3
Layout1
350
1E
  3
Layout2
350
26
  3
Model
350
22
  0
DICTIONARY
  5
17
102
{ACAD_REACTORS
330
C
102
}
330
C
100
AcDbDictionary
281
     1
  3
Standard
350
18
  0
DICTIONARY
  5
19
102
{ACAD_REACTORS
330
C
102
}
330
C
100
AcDbDictionary
281
     1
  0
ACDBDICTIONARYWDFLT
  5
E
102
{ACAD_REACTORS
330
C
102
}
330
C
100
AcDbDictionary
281
     1
  3
Normal
350
F
100
AcDbDictionaryWithDefault
340
F
  0
DICTIONARY
  5
47
102
{ACAD_REACTORS
330
C
102
}
330
C
100
AcDbDictionary
281
     1
  3
A0
350
48
  3
A1
350
49
  3
A2
350
4A
  3
A3
350
4B
  3
A4
350
4C
  3
A5
350
4D
  3
A6
350
4E
  3
A7
350
4F
  3
A8
350
50
  3
A9
350
51
  3
B0
350
52
  3
B1
350
53
  3
B2
350
54
  3
B3
350
55
  3
B4
350
56
  3
B5
350
57
  3
B6
350
58
  3
B7
350
59
  3
B8
350
5A
  3
B9
350
5B
  3
C0
350
5C
  3
C1
350
5D
  3
C2
350
5E
  3
C3
350
5F
  3
C4
350
60
  3
C5
350
61
  3
C6
350
62
  3
C7
350
63
  3
C8
350
64
  3
C9
350
65
  3
D0
350
66
  3
D1
350
67
  3
D2
350
68
  0
DICTIONARY
  5
130
102
{ACAD_REACTORS
330
C
102
}
330
C
100
AcDbDictionary
281
     1
  0
XRECORD
  5
140
102
{ACAD_REACTORS
330
C
102
}
330
C
100
AcDbXrecord
280
     1
  1
DWGPROPS COOKIE
  2

  3

  4

  6

  7

  8
12014102
  9

300
=
301
=
302
=
303
=
304
=
305
=
306
=
307
=
308
=
309
=
 40
0.0
 41
2458262.173300614
 42
2458266.164848137
  1

 90
        0
  0
LAYOUT
  5
1E
102
{ACAD_REACTORS
330
1A
102
}
330
1A
100
AcDbPlotSettings
  1

  2
none_device
  4

  6

 40
0.0
 41
0.0
 42
0.0
 43
0.0
 44
0.0
 45
0.0
 46
0.0
 47
0.0
 48
0.0
 49
0.0
140
0.0
141
0.0
142
1.0
143
1.0
 70
   688
 72
     1
 73
     0
 74
     5
  7

 75
    16
147
1.0
148
0.0
149
0.0
100
AcDbLayout
  1
Layout1
 70
     1
 71
     1
 10
0.0
 20
0.0
 11
420.0
 21
297.0
 12
0.0
 22
0.0
 32
0.0
 14
1.000000000000000E+20
 24
1.000000000000000E+20
 34
1.000000000000000E+20
 15
-1.000000000000000E+20
 25
-1.000000000000000E+20
 35
-1.000000000000000E+20
146
0.0
 13
0.0
 23
0.0
 33
0.0
 16
1.0
 26
0.0
 36
0.0
 17
0.0
 27
1.0
 37
0.0
 76
     0
330
1B
  0
LAYOUT
  5
26
102
{ACAD_REACTORS
330
1A
102
}
330
1A
100
AcDbPlotSettings
  1

  2
none_device
  4

  6

 40
0.0
 41
0.0
 42
0.0
 43
0.0
 44
0.0
 45
0.0
 46
0.0
 47
0.0
 48
0.0
 49
0.0
140
0.0
141
0.0
142
1.0
143
1.0
 70
   688
 72
     1
 73
     0
 74
     5
  7

 75
    16
147
1.0
148
0.0
149
0.0
100
AcDbLayout
  1
Layout2
 70
     1
 71
     2
 10
0.0
 20
0.0
 11
0.0
 21
0.0
 12
0.0
 22
0.0
 32
0.0
 14
0.0
 24
0.0
 34
0.0
 15
0.0
 25
0.0
 35
0.0
146
0.0
 13
0.0
 23
0.0
 33
0.0
 16
1.0
 26
0.0
 36
0.0
 17
0.0
 27
1.0
 37
0.0
 76
     0
330
23
  0
LAYOUT
  5
22
102
{ACAD_REACTORS
330
1A
102
}
330
1A
100
AcDbPlotSettings
  1

  2
none_device
  4
ANSI_A_(11.00_x_8.50_Inches)
  6

 40
6.35
 41
19.05
 42
6.35000508
 43
19.05000254
 44
279.4
 45
215.9
 46
118.060913411296
 47
110.1986378576956
 48
0.0
 49
0.0
140
0.0
141
0.0
142
0.0863862919975999
143
1.0
 70
  1696
 72
     0
 73
     0
 74
     0
  7

 75
     0
147
0.0235690232323232
148
0.0
149
0.0
100
AcDbLayout
  1
Model
 70
     1
 71
     0
 10
0.0
 20
0.0
 11
420.0
 21
297.0
 12
0.0
 22
0.0
 32
0.0
 14
-60.97866571683556
 24
-49.97073246008785
 34
0.0
 15
81.33982037964273
 25
31.1634104402427
 35
0.0
146
0.0
 13
0.0
 23
0.0
 33
0.0
 16
1.0
 26
0.0
 36
0.0
 17
0.0
 27
1.0
 37
0.0
 76
     0
330
1F
331
29
  0
MLINESTYLE
  5
18
102
{ACAD_REACTORS
330
17
102
}
330
17
100
AcDbMlineStyle
  2
Standard
 70
     0
  3

 62
   256
 51
90.0
 52
90.0
 71
     2
 49
0.5
 62
   256
  6
BYLAYER
 49
-0.5
 62
   256
  6
BYLAYER
  0
ACDBPLACEHOLDER
  5
F
102
{ACAD_REACTORS
330
E
102
}
330
E
  0
SCALE
  5
48
102
{ACAD_REACTORS
330
47
102
}
330
47
100
AcDbScale
 70
     0
300
1:1
140
1.0
141
1.0
290
     1
  0
SCALE
  5
49
102
{ACAD_REACTORS
330
47
102
}
330
47
100
AcDbScale
 70
     0
300
1:2
140
1.0
141
2.0
290
     0
  0
SCALE
  5
4A
102
{ACAD_REACTORS
330
47
102
}
330
47
100
AcDbScale
 70
     0
300
1:4
140
1.0
141
4.0
290
     0
  0
SCALE
  5
4B
102
{ACAD_REACTORS
330
47
102
}
330
47
100
AcDbScale
 70
     0
300
1:5
140
1.0
141
5.0
290
     0
  0
SCALE
  5
4C
102
{ACAD_REACTORS
330
47
102
}
330
47
100
AcDbScale
 70
     0
300
1:8
140
1.0
141
8.0
290
     0
  0
SCALE
  5
4D
102
{ACAD_REACTORS
330
47
102
}
330
47
100
AcDbScale
 70
     0
300
1:10
140
1.0
141
10.0
290
     0
  0
SCALE
  5
4E
102
{ACAD_REACTORS
330
47
102
}
330
47
100
AcDbScale
 70
     0
300
1:16
140
1.0
141
16.0
290
     0
  0
SCALE
  5
4F
102
{ACAD_REACTORS
330
47
102
}
330
47
100
AcDbScale
 70
     0
300
1:20
140
1.0
141
20.0
290
     0
  0
SCALE
  5
50
102
{ACAD_REACTORS
330
47
102
}
330
47
100
AcDbScale
 70
     0
300
1:30
140
1.0
141
30.0
290
     0
  0
SCALE
  5
51
102
{ACAD_REACTORS
330
47
102
}
330
47
100
AcDbScale
 70
     0
300
1:40
140
1.0
141
40.0
290
     0
  0
SCALE
  5
52
102
{ACAD_REACTORS
330
47
102
}
330
47
100
AcDbScale
 70
     0
300
1:50
140
1.0
141
50.0
290
     0
  0
SCALE
  5
53
102
{ACAD_REACTORS
330
47
102
}
330
47
100
AcDbScale
 70
     0
300
1:100
140
1.0
141
100.0
290
     0
  0
SCALE
  5
54
102
{ACAD_REACTORS
330
47
102
}
330
47
100
AcDbScale
 70
     0
300
2:1
140
2.0
141
1.0
290
     0
  0
SCALE
  5
55
102
{ACAD_REACTORS
330
47
102
}
330
47
100
AcDbScale
 70
     0
300
4:1
140
4.0
141
1.0
290
     0
  0
SCALE
  5
56
102
{ACAD_REACTORS
330
47
102
}
330
47
100
AcDbScale
 70
     0
300
8:1
140
8.0
141
1.0
290
     0
  0
SCALE
  5
57
102
{ACAD_REACTORS
330
47
102
}
330
47
100
AcDbScale
 70
     0
300
10:1
140
10.0
141
1.0
290
     0
  0
SCALE
  5
58
102
{ACAD_REACTORS
330
47
102
}
330
47
100
AcDbScale
 70
     0
300
100:1
140
100.0
141
1.0
290
     0
  0
SCALE
  5
59
102
{ACAD_REACTORS
330
47
102
}
330
47
100
AcDbScale
 70
     0
300
1/128" = 1'-0"
140
0.0078125
141
12.0
290
     0
  0
SCALE
  5
5A
102
{ACAD_REACTORS
330
47
102
}
330
47
100
AcDbScale
 70
     0
300
1/64" = 1'-0"
140
0.015625
141
12.0
290
     0
  0
SCALE
  5
5B
102
{ACAD_REACTORS
330
47
102
}
330
47
100
AcDbScale
 70
     0
300
1/32" = 1'-0"
140
0.03125
141
12.0
290
     0
  0
SCALE
  5
5C
102
{ACAD_REACTORS
330
47
102
}
330
47
100
AcDbScale
 70
     0
300
1/16" = 1'-0"
140
0.0625
141
12.0
290
     0
  0
SCALE
  5
5D
102
{ACAD_REACTORS
330
47
102
}
330
47
100
AcDbScale
 70
     0
300
3/32" = 1'-0"
140
0.09375
141
12.0
290
     0
  0
SCALE
  5
5E
102
{ACAD_REACTORS
330
47
102
}
330
47
100
AcDbScale
 70
     0
300
1/8" = 1'-0"
140
0.125
141
12.0
290
     0
  0
SCALE
  5
5F
102
{ACAD_REACTORS
330
47
102
}
330
47
100
AcDbScale
 70
     0
300
3/16" = 1'-0"
140
0.1875
141
12.0
290
     0
  0
SCALE
  5
60
102
{ACAD_REACTORS
330
47
102
}
330
47
100
AcDbScale
 70
     0
300
1/4" = 1'-0"
140
0.25
141
12.0
290
     0
  0
SCALE
  5
61
102
{ACAD_REACTORS
330
47
102
}
330
47
100
AcDbScale
 70
     0
300
3/8" = 1'-0"
140
0.375
141
12.0
290
     0
  0
SCALE
  5
62
102
{ACAD_REACTORS
330
47
102
}
330
47
100
AcDbScale
 70
     0
300
1/2" = 1'-0"
140
0.5
141
12.0
290
     0
  0
SCALE
  5
63
102
{ACAD_REACTORS
330
47
102
}
330
47
100
AcDbScale
 70
     0
300
3/4" = 1'-0"
140
0.75
141
12.0
290
     0
  0
SCALE
  5
64
102
{ACAD_REACTORS
330
47
102
}
330
47
100
AcDbScale
 70
     0
300
1" = 1'-0"
140
1.0
141
12.0
290
     0
  0
SCALE
  5
65
102
{ACAD_REACTORS
330
47
102
}
330
47
100
AcDbScale
 70
     0
300
1-1/2" = 1'-0"
140
1.5
141
12.0
290
     0
  0
SCALE
  5
66
102
{ACAD_REACTORS
330
47
102
}
330
47
100
AcDbScale
 70
     0
300
3" = 1'-0"
140
3.0
141
12.0
290
     0
  0
SCALE
  5
67
102
{ACAD_REACTORS
330
47
102
}
330
47
100
AcDbScale
 70
     0
300
6" = 1'-0"
140
6.0
141
12.0
290
     0
  0
SCALE
  5
68
102
{ACAD_REACTORS
330
47
102
}
330
47
100
AcDbScale
 70
     0
300
1'-0" = 1'-0"
140
12.0
141
12.0
290
     0
  0
ENDSEC
  0
EOF
