  0
SECTION
  2
HEADER
  9
$ACADVER
  1
AC1015
  9
$ACADMAINTVER
 70
     6
  9
$DWGCODEPAGE
  3
ANSI_949
  9
$INSBASE
 10
0.0
 20
0.0
 30
0.0
  9
$EXTMIN
 10
-55.24999793642756
 20
-49.97073246008785
 30
0.0
  9
$EXTMAX
 10
83.91520268679817
 20
31.1634104402427
 30
0.0
  9
$LIMMIN
 10
0.0
 20
0.0
  9
$LIMMAX
 10
420.0
 20
297.0
  9
$ORTHOMODE
 70
     0
  9
$REGENMODE
 70
     1
  9
$FILLMODE
 70
     1
  9
$QTEXTMODE
 70
     0
  9
$MIRRTEXT
 70
     1
  9
$LTSCALE
 40
1.0
  9
$ATTMODE
 70
     1
  9
$TEXTSIZE
 40
3.5
  9
$TRACEWID
 40
1.0
  9
$TEXTSTYLE
  7
Standard
  9
$CLAYER
  8
0
  9
$CELTYPE
  6
ByLayer
  9
$CECOLOR
 62
   256
  9
$CELTSCALE
 40
1.0
  9
$DISPSILH
 70
     0
  9
$DIMSCALE
 40
1.0
  9
$DIMASZ
 40
3.302
  9
$DIMEXO
 40
1.0
  9
$DIMDLI
 40
3.75
  9
$DIMRND
 40
0.0
  9
$DIMDLE
 40
0.0
  9
$DIMEXE
 40
1.0
  9
$DIMTP
 40
0.0
  9
$DIMTM
 40
0.0
  9
$DIMTXT
 40
3.5
  9
$DIMCEN
 40
2.5
  9
$DIMTSZ
 40
0.0
  9
$DIMTOL
 70
     0
  9
$DIMLIM
 70
     0
  9
$DIMTIH
 70
     1
  9
$DIMTOH
 70
     1
  9
$DIMSE1
 70
     0
  9
$DIMSE2
 70
     0
  9
$DIMTAD
 70
     1
  9
$DIMZIN
 70
     0
  9
$DIMBLK
  1

  9
$DIMASO
 70
     1
  9
$DIMSHO
 70
     1
  9
$DIMPOST
  1

  9
$DIMAPOST
  1

  9
$DIMALT
 70
     0
  9
$DIMALTD
 70
     3
  9
$DIMALTF
 40
0.0393700787401575
  9
$DIMLFAC
 40
1.0
  9
$DIMTOFL
 70
     1
  9
$DIMTVP
 40
0.0
  9
$DIMTIX
 70
     0
  9
$DIMSOXD
 70
     0
  9
$DIMSAH
 70
     0
  9
$DIMBLK1
  1

  9
$DIMBLK2
  1

  9
$DIMSTYLE
  2
ISO-25
  9
$DIMCLRD
 70
     0
  9
$DIMCLRE
 70
     0
  9
$DIMCLRT
 70
     0
  9
$DIMTFAC
 40
1.0
  9
$DIMGAP
 40
1.524
  9
$DIMJUST
 70
     0
  9
$DIMSD1
 70
     0
  9
$DIMSD2
 70
     0
  9
$DIMTOLJ
 70
     0
  9
$DIMTZIN
 70
     0
  9
$DIMALTZ
 70
     0
  9
$DIMALTTZ
 70
     0
  9
$DIMUPT
 70
     0
  9
$DIMDEC
 70
     2
  9
$DIMTDEC
 70
     2
  9
$DIMALTU
 70
     2
  9
$DIMALTTD
 70
     3
  9
$DIMTXSTY
  7
Standard
  9
$DIMAUNIT
 70
     0
  9
$DIMADEC
 70
     2
  9
$DIMALTRND
 40
0.0
  9
$DIMAZIN
 70
     0
  9
$DIMDSEP
 70
    44
  9
$DIMATFIT
 70
     3
  9
$DIMFRAC
 70
     0
  9
$DIMLDRBLK
  1

  9
$DIMLUNIT
 70
     2
  9
$DIMLWD
 70
    -2
  9
$DIMLWE
 70
    -2
  9
$DIMTMOVE
 70
     0
  9
$LUNITS
 70
     2
  9
$LUPREC
 70
     2
  9
$SKETCHINC
 40
1.0
  9
$FILLETRAD
 40
10.0
  9
$AUNITS
 70
     0
  9
$AUPREC
 70
     2
  9
$MENU
  1
.
  9
$ELEVATION
 40
0.0
  9
$PELEVATION
 40
0.0
  9
$THICKNESS
 40
0.0
  9
$LIMCHECK
 70
     0
  9
$CHAMFERA
 40
0.0
  9
$CHAMFERB
 40
0.0
  9
$CHAMFERC
 40
0.0
  9
$CHAMFERD
 40
0.0
  9
$SKPOLY
 70
     0
  9
$TDCREATE
 40
2458262.548863993
  9
$TDUCREATE
 40
2458262.173863993
  9
$TDUPDATE
 40
2458266.541306898
  9
$TDUUPDATE
 40
2458266.166306898
  9
$TDINDWG
 40
0.0013645833
  9
$TDUSRTIMER
 40
2458266.164942349
  9
$USRTIMER
 70
     1
  9
$ANGBASE
 50
0.0
  9
$ANGDIR
 70
     0
  9
$PDMODE
 70
     0
  9
$PDSIZE
 40
-1.0
  9
$PLINEWID
 40
0.0
  9
$SPLFRAME
 70
     0
  9
$SPLINETYPE
 70
     6
  9
$SPLINESEGS
 70
     8
  9
$HANDSEED
  5
146
  9
$SURFTAB1
 70
     6
  9
$SURFTAB2
 70
     6
  9
$SURFTYPE
 70
     6
  9
$SURFU
 70
     6
  9
$SURFV
 70
     6
  9
$UCSBASE
  2

  9
$UCSNAME
  2

  9
$UCSORG
 10
0.0
 20
0.0
 30
0.0
  9
$UCSXDIR
 10
1.0
 20
0.0
 30
0.0
  9
$UCSYDIR
 10
0.0
 20
1.0
 30
0.0
  9
$UCSORTHOREF
  2

  9
$UCSORTHOVIEW
 70
     0
  9
$UCSORGTOP
 10
0.0
 20
0.0
 30
0.0
  9
$UCSORGBOTTOM
 10
0.0
 20
0.0
 30
0.0
  9
$UCSORGLEFT
 10
0.0
 20
0.0
 30
0.0
  9
$UCSORGRIGHT
 10
0.0
 20
0.0
 30
0.0
  9
$UCSORGFRONT
 10
0.0
 20
0.0
 30
0.0
  9
$UCSORGBACK
 10
0.0
 20
0.0
 30
0.0
  9
$PUCSBASE
  2

  9
$PUCSNAME
  2

  9
$PUCSORG
 10
0.0
 20
0.0
 30
0.0
  9
$PUCSXDIR
 10
1.0
 20
0.0
 30
0.0
  9
$PUCSYDIR
 10
0.0
 20
1.0
 30
0.0
  9
$PUCSORTHOREF
  2

  9
$PUCSORTHOVIEW
 70
     0
  9
$PUCSORGTOP
 10
0.0
 20
0.0
 30
0.0
  9
$PUCSORGBOTTOM
 10
0.0
 20
0.0
 30
0.0
  9
$PUCSORGLEFT
 10
0.0
 20
0.0
 30
0.0
  9
$PUCSORGRIGHT
 10
0.0
 20
0.0
 30
0.0
  9
$PUCSORGFRONT
 10
0.0
 20
0.0
 30
0.0
  9
$PUCSORGBACK
 10
0.0
 20
0.0
 30
0.0
  9
$USERI1
 70
     0
  9
$USERI2
 70
     0
  9
$USERI3
 70
     0
  9
$USERI4
 70
     0
  9
$USERI5
 70
     0
  9
$USERR1
 40
0.0
  9
$USERR2
 40
0.0
  9
$USERR3
 40
0.0
  9
$USERR4
 40
0.0
  9
$USERR5
 40
0.0
  9
$WORLDVIEW
 70
     1
  9
$SHADEDGE
 70
     3
  9
$SHADEDIF
 70
    70
  9
$TILEMODE
 70
     1
  9
$MAXACTVP
 70
    64
  9
$PINSBASE
 10
0.0
 20
0.0
 30
0.0
  9
$PLIMCHECK
 70
     0
  9
$PEXTMIN
 10
1.000000000000000E+20
 20
1.000000000000000E+20
 30
1.000000000000000E+20
  9
$PEXTMAX
 10
-1.000000000000000E+20
 20
-1.000000000000000E+20
 30
-1.000000000000000E+20
  9
$PLIMMIN
 10
0.0
 20
0.0
  9
$PLIMMAX
 10
0.0
 20
0.0
  9
$UNITMODE
 70
     0
  9
$VISRETAIN
 70
     1
  9
$PLINEGEN
 70
     0
  9
$PSLTSCALE
 70
     1
  9
$TREEDEPTH
 70
  3020
  9
$CMLSTYLE
  2
Standard
  9
$CMLJUST
 70
     0
  9
$CMLSCALE
 40
20.0
  9
$PROXYGRAPHICS
 70
     1
  9
$MEASUREMENT
 70
     1
  9
$CELWEIGHT
370
    -1
  9
$ENDCAPS
280
     0
  9
$JOINSTYLE
280
     0
  9
$LWDISPLAY
290
     1
  9
$INSUNITS
 70
     4
  9
$HYPERLINKBASE
  1

  9
$STYLESHEET
  1

  9
$XEDIT
290
     1
  9
$CEPSNTYPE
380
     0
  9
$PSTYLEMODE
290
     1
  9
$FINGERPRINTGUID
  2
{ACD42489-55F7-441C-A813-871D8A7E61EE}
  9
$VERSIONGUID
  2
{FAEB1C32-E019-11D5-929B-00C0DF256EC4}
  9
$EXTNAMES
290
     1
  9
$PSVPSCALE
 40
0.0
  9
$OLESTARTUP
290
     0
  0
ENDSEC
  0
SECTION
  2
CLASSES
  0
CLASS
  1
ACDBDICTIONARYWDFLT
  2
AcDbDictionaryWithDefault
  3
ObjectDBX Classes
 90
        0
280
     0
281
     0
  0
CLASS
  1
VISUALSTYLE
  2
AcDbVisualStyle
  3
ObjectDBX Classes
 90
     4095
280
     0
281
     0
  0
CLASS
  1
MATERIAL
  2
AcDbMaterial
  3
ObjectDBX Classes
 90
     1153
280
     0
281
     0
  0
CLASS
  1
SCALE
  2
AcDbScale
  3
ObjectDBX Classes
 90
     1153
280
     0
281
     0
  0
CLASS
  1
SUN
  2
AcDbSun
  3
SCENEOE
 90
     1153
280
     0
281
     0
  0
CLASS
  1
ACDBPLACEHOLDER
  2
AcDbPlaceHolder
  3
ObjectDBX Classes
 90
        0
280
     0
281
     0
  0
CLASS
  1
LAYOUT
  2
AcDbLayout
  3
ObjectDBX Classes
 90
        0
280
     0
281
     0
  0
CLASS
  1
TABLESTYLE
  2
AcDbTableStyle
  3
ObjectDBX Classes
 90
     4095
280
     0
281
     0
  0
CLASS
  1
MLEADERSTYLE
  2
AcDbMLeaderStyle
  3
ACDB_MLEADERSTYLE_CLASS
 90
     4095
280
     0
281
     0
  0
CLASS
  1
RASTERVARIABLES
  2
AcDbRasterVariables
  3
ISM
 90
        0
280
     0
281
     0
  0
ENDSEC
  0
SECTION
  2
TABLES
  0
TABLE
  2
VPORT
  5
8
330
0
100
AcDbSymbolTable
 70
     1
  0
VPORT
  5
29
330
8
100
AcDbSymbolTableRecord
100
AcDbViewportTableRecord
  2
*Active
 70
     0
 10
0.0
 20
0.0
 11
1.0
 21
1.0
 12
14.3326023751853
 22
-9.40366100992258
 13
0.0
 23
0.0
 14
10.0
 24
10.0
 15
10.0
 25
10.0
 16
0.0
 26
0.0
 36
1.0
 17
0.0
 27
0.0
 37
0.0
 40
123.1705634394891
 41
1.152454780361757
 42
50.0
 43
0.0
 44
0.0
 50
0.0
 51
0.0
 71
    16
 72
  2000
 73
     1
 74
     3
 75
     0
 76
     0
 77
     0
 78
     0
281
     0
 65
     1
110
0.0
120
0.0
130
0.0
111
1.0
121
0.0
131
0.0
112
0.0
122
1.0
132
0.0
 79
     0
146
0.0
  0
ENDTAB
  0
TABLE
  2
LTYPE
  5
5
330
0
100
AcDbSymbolTable
 70
     6
  0
LTYPE
  5
14
330
5
100
AcDbSymbolTableRecord
100
AcDbLinetypeTableRecord
  2
ByBlock
 70
     0
  3

 72
    65
 73
     0
 40
0.0
  0
LTYPE
  5
15
330
5
100
AcDbSymbolTableRecord
100
AcDbLinetypeTableRecord
  2
ByLayer
 70
     0
  3

 72
    65
 73
     0
 40
0.0
  0
LTYPE
  5
16
330
5
100
AcDbSymbolTableRecord
100
AcDbLinetypeTableRecord
  2
Continuous
 70
     0
  3
Solid line
 72
    65
 73
     0
 40
0.0
  0
LTYPE
  5
6A
330
5
100
AcDbSymbolTableRecord
100
AcDbLinetypeTableRecord
  2
HIDDEN
 70
     0
  3
Hidden __ __ __ __ __ __ __ __ __ __ __ __ __ __
 72
    65
 73
     2
 40
1.905
 49
1.27
 74
     0
 49
-0.635
 74
     0
  0
LTYPE
  5
6B
330
5
100
AcDbSymbolTableRecord
100
AcDbLinetypeTableRecord
  2
PHANTOM
 70
     0
  3
Phantom ______  __  __  ______  __  __  ______
 72
    65
 73
     6
 40
12.7
 49
6.35
 74
     0
 49
-1.27
 74
     0
 49
1.27
 74
     0
 49
-1.27
 74
     0
 49
1.27
 74
     0
 49
-1.27
 74
     0
  0
LTYPE
  5
6C
330
5
100
AcDbSymbolTableRecord
100
AcDbLinetypeTableRecord
  2
CENTER
 70
     0
  3
Center ____ _ ____ _ ____ _ ____ _ ____ _ ____
 72
    65
 73
     4
 40
10.16
 49
6.35
 74
     0
 49
-1.27
 74
     0
 49
1.27
 74
     0
 49
-1.27
 74
     0
  0
LTYPE
  5
6D
330
5
100
AcDbSymbolTableRecord
100
AcDbLinetypeTableRecord
  2
CENTERX2
 70
     0
  3
Center (2x) ________  __  ________  __  _____
 72
    65
 73
     4
 40
20.32
 49
12.7
 74
     0
 49
-2.54
 74
     0
 49
2.54
 74
     0
 49
-2.54
 74
     0
  0
LTYPE
  5
6E
330
5
100
AcDbSymbolTableRecord
100
AcDbLinetypeTableRecord
  2
DOT2
 70
     0
  3
Dot (.5x) ........................................
 72
    65
 73
     2
 40
0.635
 49
0.0
 74
     0
 49
-0.635
 74
     0
  0
ENDTAB
  0
TABLE
  2
LAYER
  5
2
330
0
100
AcDbSymbolTable
 70
    17
  0
LAYER
  5
10
330
2
100
AcDbSymbolTableRecord
100
AcDbLayerTableRecord
  2
0
 70
     0
 62
     7
  6
Continuous
370
    -3
390
F
  0
LAYER
  5
6F
330
2
100
AcDbSymbolTableRecord
100
AcDbLayerTableRecord
  2
FORMAT
 70
     0
 62
     2
  6
Continuous
370
    -3
390
F
  0
LAYER
  5
70
330
2
100
AcDbSymbolTableRecord
100
AcDbLayerTableRecord
  2
외형선
 70
     0
 62
   100
  6
Continuous
370
    30
390
F
  0
LAYER
  5
71
330
2
100
AcDbSymbolTableRecord
100
AcDbLayerTableRecord
  2
숨은선
 70
     0
 62
     2
  6
HIDDEN
370
    15
390
F
  0
LAYER
  5
72
330
2
100
AcDbSymbolTableRecord
100
AcDbLayerTableRecord
  2
중심선
 70
     0
 62
     1
  6
CENTERX2
370
    -3
390
F
  0
LAYER
  5
73
330
2
100
AcDbSymbolTableRecord
100
AcDbLayerTableRecord
  2
파단선
 70
     0
 62
     4
  6
Continuous
370
    -3
390
F
  0
LAYER
  5
74
330
2
100
AcDbSymbolTableRecord
100
AcDbLayerTableRecord
  2
해칭선
 70
     0
 62
     4
  6
Continuous
370
    -3
390
F
  0
LAYER
  5
75
330
2
100
AcDbSymbolTableRecord
100
AcDbLayerTableRecord
  2
가는실선
 70
     0
 62
     4
  6
Continuous
370
    -3
390
F
  0
LAYER
  5
76
330
2
100
AcDbSymbolTableRecord
100
AcDbLayerTableRecord
  2
치수_보조선
 70
     0
 62
     4
  6
Continuous
370
    -3
390
F
  0
LAYER
  5
77
330
2
100
AcDbSymbolTableRecord
100
AcDbLayerTableRecord
  2
치수문자_일반주서
 70
     0
 62
     7
  6
Continuous
370
    15
390
F
  0
LAYER
  5
78
330
2
100
AcDbSymbolTableRecord
100
AcDbLayerTableRecord
  2
개별주서
 70
     0
 62
   100
  6
Continuous
370
    30
390
F
  0
LAYER
  5
79
330
2
100
AcDbSymbolTableRecord
100
AcDbLayerTableRecord
  2
중간선
 70
     0
 62
     2
  6
Continuous
370
    15
390
F
  0
LAYER
  5
7A
330
2
100
AcDbSymbolTableRecord
100
AcDbLayerTableRecord
  2
윤곽선
 70
     0
 62
     3
  6
Continuous
370
    40
390
F
  0
LAYER
  5
7B
330
2
100
AcDbSymbolTableRecord
100
AcDbLayerTableRecord
  2
중심마크
 70
     0
 62
   100
  6
Continuous
370
    30
390
F
  0
LAYER
  5
7C
330
2
100
AcDbSymbolTableRecord
100
AcDbLayerTableRecord
  2
가상선
 70
     0
 62
     4
  6
PHANTOM
370
    -3
390
F
  0
LAYER
  5
7D
330
2
100
AcDbSymbolTableRecord
100
AcDbLayerTableRecord
  2
특수지정선
 70
     0
 62
     5
  6
CENTERX2
370
    60
390
F
  0
LAYER
  5
138
330
2
100
AcDbSymbolTableRecord
100
AcDbLayerTableRecord
  2
Defpoints
 70
     0
 62
     7
  6
Continuous
290
     0
370
    -3
390
F
  0
ENDTAB
  0
TABLE
  2
STYLE
  5
3
330
0
100
AcDbSymbolTable
 70
     2
  0
STYLE
  5
11
330
3
100
AcDbSymbolTableRecord
100
AcDbTextStyleTableRecord
  2
Standard
 70
     0
 40
0.0
 41
1.0
 50
0.0
 71
     0
 42
3.5
  3
txt
  4

  0
STYLE
  5
93
330
3
100
AcDbSymbolTableRecord
100
AcDbTextStyleTableRecord
  2
SLDTEXTSTYLE0
 70
     0
 40
0.0
 41
0.75
 50
0.0
 71
     0
 42
3.5
  3
TXT
  4

  0
ENDTAB
  0
TABLE
  2
VIEW
  5
6
330
0
100
AcDbSymbolTable
 70
     0
  0
ENDTAB
  0
TABLE
  2
UCS
  5
7
330
0
100
AcDbSymbolTable
 70
     0
  0
ENDTAB
  0
TABLE
  2
APPID
  5
9
330
0
100
AcDbSymbolTable
 70
     1
  0
APPID
  5
12
330
9
100
AcDbSymbolTableRecord
100
AcDbRegAppTableRecord
  2
ACAD
 70
     0
  0
ENDTAB
  0
TABLE
  2
DIMSTYLE
  5
A
330
0
100
AcDbSymbolTable
 70
     3
100
AcDbDimStyleTable
  0
DIMSTYLE
105
27
330
A
100
AcDbSymbolTableRecord
100
AcDbDimStyleTableRecord
  2
ISO-25
 70
     0
 41
2.5
 42
0.625
 43
3.75
 44
1.25
 73
     0
 74
     0
 77
     1
 78
     8
140
2.5
141
2.5
143
0.03937007874016
147
0.625
171
     3
172
     1
178
     0
271
     2
272
     2
274
     3
278
    44
283
     0
284
     8
340
11
  0
DIMSTYLE
105
DE
102
{ACAD_REACTORS
330
DD
330
100
102
}
330
A
100
AcDbSymbolTableRecord
100
AcDbDimStyleTableRecord
  2
SLDDIMSTYLE0
 70
     0
 41
3.302
 44
0.0
 45
0.000000001
 73
     0
 74
     0
 77
     1
 78
    12
 79
     3
140
3.5
147
0.875
172
     1
173
     1
178
     0
271
     2
272
     2
276
     2
284
    12
289
     0
340
93
  0
DIMSTYLE
105
EC
102
{ACAD_REACTORS
330
EB
330
F6
102
}
330
A
100
AcDbSymbolTableRecord
100
AcDbDimStyleTableRecord
  2
SLDDIMSTYLE1
 70
     0
 41
3.302
 44
0.0
 45
0.000000001
 73
     0
 74
     0
 77
     1
 78
    12
 79
     3
140
3.5
147
0.875
173
     1
178
     0
271
     2
272
     2
276
     2
284
    12
340
93
  0
ENDTAB
  0
TABLE
  2
BLOCK_RECORD
  5
1
330
0
100
AcDbSymbolTable
 70
     7
  0
BLOCK_RECORD
  5
1F
330
1
100
AcDbSymbolTableRecord
100
AcDbBlockTableRecord
  2
*Model_Space
340
22
  0
BLOCK_RECORD
  5
1B
330
1
100
AcDbSymbolTableRecord
100
AcDbBlockTableRecord
  2
*Paper_Space
340
1E
  0
BLOCK_RECORD
  5
23
330
1
100
AcDbSymbolTableRecord
100
AcDbBlockTableRecord
  2
*Paper_Space0
340
26
  0
BLOCK_RECORD
  5
7E
330
1
100
AcDbSymbolTableRecord
100
AcDbBlockTableRecord
  2
블럭10
340
0
102
{BLKREFS
331
D6
102
}
  0
BLOCK_RECORD
  5
DF
330
1
100
AcDbSymbolTableRecord
100
AcDbBlockTableRecord
  2
_D
340
0
  0
BLOCK_RECORD
  5
ED
330
1
100
AcDbSymbolTableRecord
100
AcDbBlockTableRecord
  2
_D_1
340
0
  0
BLOCK_RECORD
  5
F7
330
1
100
AcDbSymbolTableRecord
100
AcDbBlockTableRecord
  2
_D_2
340
0
  0
BLOCK_RECORD
  5
101
330
1
100
AcDbSymbolTableRecord
100
AcDbBlockTableRecord
  2
_D_3
340
0
  0
BLOCK_RECORD
  5
10D
330
1
100
AcDbSymbolTableRecord
100
AcDbBlockTableRecord
  2
SW_DOWELSYMBOL_0
340
0
102
{BLKREFS
331
113
102
}
  0
ENDTAB
  0
ENDSEC
  0
SECTION
  2
BLOCKS
  0
BLOCK
  5
20
330
1F
100
AcDbEntity
  8
0
100
AcDbBlockBegin
  2
*Model_Space
 70
     0
 10
0.0
 20
0.0
 30
0.0
  3
*Model_Space
  1

  0
ENDBLK
  5
21
330
1F
100
AcDbEntity
  8
0
100
AcDbBlockEnd
  0
BLOCK
  5
1C
330
1B
100
AcDbEntity
 67
     1
  8
0
100
AcDbBlockBegin
  2
*Paper_Space
 70
     0
 10
0.0
 20
0.0
 30
0.0
  3
*Paper_Space
  1

  0
ENDBLK
  5
1D
330
1B
100
AcDbEntity
 67
     1
  8
0
100
AcDbBlockEnd
  0
BLOCK
  5
24
330
23
100
AcDbEntity
  8
0
100
AcDbBlockBegin
  2
*Paper_Space0
 70
     0
 10
0.0
 20
0.0
 30
0.0
  3
*Paper_Space0
  1

  0
ENDBLK
  5
25
330
23
100
AcDbEntity
  8
0
100
AcDbBlockEnd
  0
BLOCK
  5
7F
330
7E
100
AcDbEntity
  8
0
100
AcDbBlockBegin
  2
블럭10
 70
     2
 10
0.0
 20
0.0
 30
0.0
  3
블럭10
  1

  0
ELLIPSE
  5
81
330
7E
100
AcDbEntity
  8
중심선
100
AcDbEllipse
 10
20.54032771741204
 20
12.0471743016438
 30
0.0
 11
6.600054785286829
 21
-1.261213355974178E-13
 31
0.0
210
0.0
220
0.0
230
1.0
 40
0.636358354079598
 41
0.9219305317359503
 42
6.513795318482858
  0
ELLIPSE
  5
82
330
7E
100
AcDbEntity
  8
중심선
100
AcDbEllipse
 10
20.54032771746488
 20
12.04717430159265
 30
0.0
 11
3.960054785062283
 21
1.540847449632565E-10
 31
0.0
210
0.0
220
0.0
230
1.0
 40
0.3939339440162632
 41
1.131841032648279
 42
5.62031148352944
  0
LINE
  5
83
330
7E
100
AcDbEntity
  8
중심선
100
AcDbLine
 10
2.268634060543552
 20
16.24717430164393
 30
0.0
 11
5.714909304380834
 21
16.24717430164393
 31
0.0
  0
LINE
  5
84
330
7E
100
AcDbEntity
  8
중심선
100
AcDbLine
 10
5.245725140726316
 20
7.84717430164391
 30
0.0
 11
8.692000384563599
 21
7.84717430164391
 31
0.0
  0
LINE
  5
85
330
7E
100
AcDbEntity
  8
중심선
100
AcDbLine
 10
15.74043728645272
 20
16.24717430164393
 30
0.0
 11
8.692000384563599
 21
7.84717430164391
 31
0.0
  0
LINE
  5
86
330
7E
100
AcDbEntity
  8
중심선
100
AcDbLine
 10
0.1404042013395286
 20
13.71084872107135
 30
0.0
 11
3.58671253028996
 21
13.71088815037384
 31
0.0
  0
LINE
  5
87
330
7E
100
AcDbEntity
  8
중심선
100
AcDbLine
 10
2.750260043222114
 20
10.84717430164391
 30
0.0
 11
6.196535287059397
 21
10.84717430164391
 31
0.0
  0
LINE
  5
88
330
7E
100
AcDbEntity
  8
중심선
100
AcDbLine
 10
12.29416204261559
 20
16.24717430164393
 30
0.0
 11
5.245725140726316
 21
7.84717430164391
 31
0.0
  0
LINE
  5
89
330
7E
100
AcDbEntity
  8
중심선
100
AcDbLine
 10
10.72767329541681
 20
16.24717430164393
 30
0.0
 11
6.196535287059397
 21
10.84717430164391
 31
0.0
  0
LINE
  5
8A
330
7E
100
AcDbEntity
  8
중심선
100
AcDbLine
 10
7.28139805157953
 20
16.24717430164393
 30
0.0
 11
2.750260043222114
 21
10.84717430164391
 31
0.0
  0
LINE
  5
8B
330
7E
100
AcDbEntity
  8
중심선
100
AcDbLine
 10
5.714909304380834
 20
16.24717430164393
 30
0.0
 11
3.58671253028996
 21
13.71088815037384
 31
0.0
  0
LINE
  5
8C
330
7E
100
AcDbEntity
  8
중심선
100
AcDbLine
 10
2.268634060543552
 20
16.24717430164393
 30
0.0
 11
0.1404042013395286
 21
13.71084872107135
 31
0.0
  0
LINE
  5
8D
330
7E
100
AcDbEntity
  8
중심선
100
AcDbLine
 10
7.28139805157953
 20
16.24717430164393
 30
0.0
 11
10.72767329541681
 21
16.24717430164393
 31
0.0
  0
LINE
  5
8E
330
7E
100
AcDbEntity
  8
중심선
100
AcDbLine
 10
12.29416204261559
 20
16.24717430164393
 30
0.0
 11
15.74043728645272
 21
16.24717430164393
 31
0.0
  0
LINE
  5
8F
330
7E
100
AcDbEntity
  8
중심선
100
AcDbLine
 10
19.22036997980202
 20
11.08717430171403
 30
0.0
 11
23.66174974927406
 21
11.08717430171406
 31
0.0
  0
LINE
  5
90
330
7E
100
AcDbEntity
  8
중심선
100
AcDbLine
 10
19.22039502424796
 20
13.00717430171391
 30
0.0
 11
19.22036997980202
 21
11.08717430171403
 31
0.0
  0
LINE
  5
91
330
7E
100
AcDbEntity
  8
중심선
100
AcDbLine
 10
19.22039502424796
 20
13.00717430171391
 30
0.0
 11
26.96566020931264
 21
13.00717430171391
 31
0.0
  0
LINE
  5
92
330
7E
100
AcDbEntity
  8
중심선
100
AcDbLine
 10
22.22332737316547
 20
13.45928029700563
 30
0.0
 11
24.52862924686651
 21
15.39360700705356
 31
0.0
  0
ATTDEF
  5
94
330
7E
100
AcDbEntity
  8
FORMAT
 62
     2
100
AcDbText
 10
-16.11926103943555
 20
2.075366912832191
 30
0.0
 40
4.233333333333333
  1
SEME7012060E [ 2 FLUTE ]
 41
0.75
  7
SLDTEXTSTYLE0
 11
-16.11926103943555
 21
-0.0412997538344756
 31
0.0
100
AcDbAttributeDefinition
  3

  2
AUTOATTR0
 70
     0
 74
     1
  0
ENDBLK
  5
80
330
7E
100
AcDbEntity
  8
0
100
AcDbBlockEnd
  0
BLOCK
  5
E0
330
DF
100
AcDbEntity
  8
0
100
AcDbBlockBegin
  2
_D
 70
     0
 10
0.0
 20
0.0
 30
0.0
  3
_D
  1

  0
LINE
  5
E2
330
DF
100
AcDbEntity
  8
치수문자_일반주서
 62
     0
370
    -2
100
AcDbLine
 10
70.06249999999999
 20
-5.999999999999769
 30
0.0
 11
83.36486935346483
 21
-5.999999999999719
 31
0.0
  0
LINE
  5
E3
330
DF
100
AcDbEntity
  8
치수문자_일반주서
 62
     0
370
    -2
100
AcDbLine
 10
70.06249999999972
 20
6.000000000000227
 30
0.0
 11
83.36486935346478
 21
6.000000000000277
 31
0.0
  0
LINE
  5
E4
330
DF
100
AcDbEntity
  8
치수문자_일반주서
 62
     0
370
    -2
100
AcDbLine
 10
83.36486935346483
 20
-5.999999999999719
 30
0.0
 11
83.36486935346473
 21
20.47900000000028
 31
0.0
  0
LINE
  5
E5
330
DF
100
AcDbEntity
  8
치수문자_일반주서
 62
     0
370
    -2
100
AcDbLine
 10
83.36486935346483
 20
-5.999999999999719
 30
0.0
 11
83.36486935346478
 21
6.000000000000277
 31
0.0
  0
LINE
  5
E6
330
DF
100
AcDbEntity
  8
치수문자_일반주서
 62
     0
370
    -2
100
AcDbLine
 10
83.36486935346484
 20
-9.301999999999719
 30
0.0
 11
83.36486935346485
 21
-12.60399999999972
 31
0.0
  0
LINE
  5
E7
330
DF
100
AcDbEntity
  8
치수문자_일반주서
 62
     0
370
    -2
100
AcDbLine
 10
83.36486935346477
 20
9.302000000000277
 30
0.0
 11
83.36486935346475
 21
12.60400000000028
 31
0.0
  0
SOLID
  5
E8
330
DF
100
AcDbEntity
  8
치수문자_일반주서
 62
     0
100
AcDbTrace
 10
83.91520268679817
 20
-9.301999999999717
 30
0.0
 11
82.81453602013151
 21
-9.30199999999972
 31
0.0
 12
83.36486935346483
 22
-5.999999999999719
 32
0.0
 13
83.36486935346483
 23
-5.999999999999719
 33
0.0
  0
SOLID
  5
E9
330
DF
100
AcDbEntity
  8
치수문자_일반주서
 62
     0
100
AcDbTrace
 10
82.81453602013144
 20
9.302000000000275
 30
0.0
 11
83.9152026867981
 21
9.302000000000278
 31
0.0
 12
83.36486935346478
 22
6.000000000000277
 32
0.0
 13
83.36486935346478
 23
6.000000000000277
 33
0.0
  0
MTEXT
  5
EA
330
DF
100
AcDbEntity
  8
치수문자_일반주서
 62
     0
100
AcDbMText
 10
78.98986935346474
 20
16.54150000000026
 30
0.0
 40
3.5
 41
0.0
 71
     2
 72
     1
  1
\A1;%%c12
  7
SLDTEXTSTYLE0
 11
-3.552713678800502E-15
 21
1.0
 31
0.0
 73
     1
 44
1.0
  0
POINT
  5
142
330
DF
100
AcDbEntity
  8
Defpoints
 62
     0
100
AcDbPoint
 10
69.99999999999999
 20
-5.999999999999769
 30
0.0
  0
POINT
  5
143
330
DF
100
AcDbEntity
  8
Defpoints
 62
     0
100
AcDbPoint
 10
69.99999999999972
 20
6.000000000000227
 30
0.0
  0
POINT
  5
144
330
DF
100
AcDbEntity
  8
Defpoints
 62
     0
100
AcDbPoint
 10
83.36486935346478
 20
6.000000000000277
 30
0.0
  0
ENDBLK
  5
E1
330
DF
100
AcDbEntity
  8
0
100
AcDbBlockEnd
  0
BLOCK
  5
EE
330
ED
100
AcDbEntity
  8
0
100
AcDbBlockBegin
  2
_D_1
 70
     0
 10
0.0
 20
0.0
 30
0.0
  3
_D_1
  1

  0
LINE
  5
F0
330
ED
100
AcDbEntity
  8
치수문자_일반주서
 62
     0
370
    -2
100
AcDbLine
 10
-40.0
 20
5.062499999999999
 30
0.0
 11
-40.0
 21
26.7884104402427
 31
0.0
  0
LINE
  5
F1
330
ED
100
AcDbEntity
  8
치수문자_일반주서
 62
     0
370
    -2
100
AcDbLine
 10
69.99999999999972
 20
6.062500000000227
 30
0.0
 11
69.99999999999972
 21
26.7884104402427
 31
0.0
  0
LINE
  5
F2
330
ED
100
AcDbEntity
  8
치수문자_일반주서
 62
     0
370
    -2
100
AcDbLine
 10
-36.698
 20
26.7884104402427
 30
0.0
 11
66.69799999999972
 21
26.7884104402427
 31
0.0
  0
SOLID
  5
F3
330
ED
100
AcDbEntity
  8
치수문자_일반주서
 62
     0
100
AcDbTrace
 10
-36.698
 20
27.33874377357603
 30
0.0
 11
-36.698
 21
26.23807710690936
 31
0.0
 12
-40.0
 22
26.7884104402427
 32
0.0
 13
-40.0
 23
26.7884104402427
 33
0.0
  0
SOLID
  5
F4
330
ED
100
AcDbEntity
  8
치수문자_일반주서
 62
     0
100
AcDbTrace
 10
66.69799999999972
 20
26.23807710690936
 30
0.0
 11
66.69799999999972
 21
27.33874377357603
 31
0.0
 12
69.99999999999972
 22
26.7884104402427
 32
0.0
 13
69.99999999999972
 23
26.7884104402427
 33
0.0
  0
MTEXT
  5
F5
330
ED
100
AcDbEntity
  8
치수문자_일반주서
 62
     0
100
AcDbMText
 10
14.99999999999985
 20
31.1634104402427
 30
0.0
 40
3.5
 41
0.0
 71
     2
 72
     1
  1
\A1;110
  7
SLDTEXTSTYLE0
 73
     1
 44
1.0
  0
POINT
  5
139
330
ED
100
AcDbEntity
  8
Defpoints
 62
     0
100
AcDbPoint
 10
-40.0
 20
4.999999999999999
 30
0.0
  0
POINT
  5
13A
330
ED
100
AcDbEntity
  8
Defpoints
 62
     0
100
AcDbPoint
 10
69.99999999999972
 20
6.000000000000227
 30
0.0
  0
POINT
  5
13B
330
ED
100
AcDbEntity
  8
Defpoints
 62
     0
100
AcDbPoint
 10
69.99999999999972
 20
26.7884104402427
 30
0.0
  0
ENDBLK
  5
EF
330
ED
100
AcDbEntity
  8
0
100
AcDbBlockEnd
  0
BLOCK
  5
F8
330
F7
100
AcDbEntity
  8
0
100
AcDbBlockBegin
  2
_D_2
 70
     0
 10
0.0
 20
0.0
 30
0.0
  3
_D_2
  1

  0
LINE
  5
FA
330
F7
100
AcDbEntity
  8
치수문자_일반주서
 62
     0
370
    -2
100
AcDbLine
 10
9.999999999999996
 20
5.955911867549767
 30
0.0
 11
10.0
 21
19.24040967371729
 31
0.0
  0
LINE
  5
FB
330
F7
100
AcDbEntity
  8
치수문자_일반주서
 62
     0
370
    -2
100
AcDbLine
 10
69.99999999999972
 20
6.062500000000227
 30
0.0
 11
69.99999999999972
 21
19.24040967371729
 31
0.0
  0
LINE
  5
FC
330
F7
100
AcDbEntity
  8
치수문자_일반주서
 62
     0
370
    -2
100
AcDbLine
 10
13.302
 20
19.24040967371729
 30
0.0
 11
66.69799999999972
 21
19.24040967371729
 31
0.0
  0
SOLID
  5
FD
330
F7
100
AcDbEntity
  8
치수문자_일반주서
 62
     0
100
AcDbTrace
 10
13.302
 20
19.79074300705062
 30
0.0
 11
13.302
 21
18.69007634038395
 31
0.0
 12
10.0
 22
19.24040967371729
 32
0.0
 13
10.0
 23
19.24040967371729
 33
0.0
  0
SOLID
  5
FE
330
F7
100
AcDbEntity
  8
치수문자_일반주서
 62
     0
100
AcDbTrace
 10
66.69799999999972
 20
18.69007634038395
 30
0.0
 11
66.69799999999972
 21
19.79074300705062
 31
0.0
 12
69.99999999999972
 22
19.24040967371729
 32
0.0
 13
69.99999999999972
 23
19.24040967371729
 33
0.0
  0
MTEXT
  5
FF
330
F7
100
AcDbEntity
  8
치수문자_일반주서
 62
     0
100
AcDbMText
 10
40.0
 20
23.61540967371729
 30
0.0
 40
3.5
 41
0.0
 71
     2
 72
     1
  1
\A1;60
  7
SLDTEXTSTYLE0
 73
     1
 44
1.0
  0
POINT
  5
13C
330
F7
100
AcDbEntity
  8
Defpoints
 62
     0
100
AcDbPoint
 10
9.999999999999996
 20
5.893411867549767
 30
0.0
  0
POINT
  5
13D
330
F7
100
AcDbEntity
  8
Defpoints
 62
     0
100
AcDbPoint
 10
69.99999999999972
 20
6.000000000000227
 30
0.0
  0
POINT
  5
13E
330
F7
100
AcDbEntity
  8
Defpoints
 62
     0
100
AcDbPoint
 10
69.99999999999972
 20
19.24040967371729
 30
0.0
  0
ENDBLK
  5
F9
330
F7
100
AcDbEntity
  8
0
100
AcDbBlockEnd
  0
BLOCK
  5
102
330
101
100
AcDbEntity
  8
0
100
AcDbBlockBegin
  2
_D_3
 70
     0
 10
0.0
 20
0.0
 30
0.0
  3
_D_3
  1

  0
LINE
  5
104
330
101
100
AcDbEntity
  8
치수문자_일반주서
 62
     0
370
    -2
100
AcDbLine
 10
-39.0625
 20
6.0
 30
0.0
 11
-50.87499793642752
 21
5.999999999999956
 31
0.0
  0
LINE
  5
105
330
101
100
AcDbEntity
  8
치수문자_일반주서
 62
     0
370
    -2
100
AcDbLine
 10
-39.0625
 20
-5.999999999999995
 30
0.0
 11
-50.87499793642748
 21
-6.000000000000039
 31
0.0
  0
LINE
  5
106
330
101
100
AcDbEntity
  8
치수문자_일반주서
 62
     0
370
    -2
100
AcDbLine
 10
-50.87499793642752
 20
5.999999999999956
 30
0.0
 11
-50.87499793642757
 21
20.47899999999996
 31
0.0
  0
LINE
  5
107
330
101
100
AcDbEntity
  8
치수문자_일반주서
 62
     0
370
    -2
100
AcDbLine
 10
-50.87499793642752
 20
5.999999999999956
 30
0.0
 11
-50.87499793642748
 21
-6.000000000000039
 31
0.0
  0
LINE
  5
108
330
101
100
AcDbEntity
  8
치수문자_일반주서
 62
     0
370
    -2
100
AcDbLine
 10
-50.87499793642753
 20
9.301999999999955
 30
0.0
 11
-50.87499793642755
 21
12.60399999999995
 31
0.0
  0
LINE
  5
109
330
101
100
AcDbEntity
  8
치수문자_일반주서
 62
     0
370
    -2
100
AcDbLine
 10
-50.87499793642746
 20
-9.302000000000039
 30
0.0
 11
-50.87499793642745
 21
-12.60400000000004
 31
0.0
  0
SOLID
  5
10A
330
101
100
AcDbEntity
  8
치수문자_일반주서
 62
     0
100
AcDbTrace
 10
-51.42533126976087
 20
9.301999999999953
 30
0.0
 11
-50.3246646030942
 21
9.301999999999957
 31
0.0
 12
-50.87499793642752
 22
5.999999999999956
 32
0.0
 13
-50.87499793642752
 23
5.999999999999956
 33
0.0
  0
SOLID
  5
10B
330
101
100
AcDbEntity
  8
치수문자_일반주서
 62
     0
100
AcDbTrace
 10
-50.32466460309413
 20
-9.302000000000037
 30
0.0
 11
-51.4253312697608
 21
-9.30200000000004
 31
0.0
 12
-50.87499793642748
 22
-6.000000000000039
 32
0.0
 13
-50.87499793642748
 23
-6.000000000000039
 33
0.0
  0
MTEXT
  5
10C
330
101
100
AcDbEntity
  8
치수문자_일반주서
 62
     0
100
AcDbMText
 10
-55.24999793642755
 20
16.54149999999994
 30
0.0
 40
3.5
 41
0.0
 71
     2
 72
     1
  1
\A1;%%c12
  7
SLDTEXTSTYLE0
 11
-3.552713678800503E-15
 21
1.0
 31
0.0
 73
     1
 44
1.0
  0
POINT
  5
13F
330
101
100
AcDbEntity
  8
Defpoints
 62
     0
100
AcDbPoint
 10
-39.0
 20
6.0
 30
0.0
  0
POINT
  5
140
330
101
100
AcDbEntity
  8
Defpoints
 62
     0
100
AcDbPoint
 10
-39.0
 20
-5.999999999999995
 30
0.0
  0
POINT
  5
141
330
101
100
AcDbEntity
  8
Defpoints
 62
     0
100
AcDbPoint
 10
-50.87499793642748
 20
-6.000000000000039
 30
0.0
  0
ENDBLK
  5
103
330
101
100
AcDbEntity
  8
0
100
AcDbBlockEnd
  0
BLOCK
  5
10E
330
10D
100
AcDbEntity
  8
0
100
AcDbBlockBegin
  2
SW_DOWELSYMBOL_0
 70
     0
 10
0.0
 20
0.0
 30
0.0
  3
SW_DOWELSYMBOL_0
  1

  0
CIRCLE
  5
110
330
10D
100
AcDbEntity
  8
외형선
 62
     0
100
AcDbCircle
 10
0.0
 20
0.0
 30
0.0
 40
3.000000000000004
  0
HATCH
  5
111
330
10D
100
AcDbEntity
  8
0
  6
Continuous
 62
     0
370
    30
100
AcDbHatch
 10
0.0
 20
0.0
 30
0.0
210
0.0
220
0.0
230
1.0
  2
SOLID
 70
     1
 71
     0
 91
        1
 92
        0
 93
        3
 72
     2
 10
0.0000000000000104
 20
0.0
 40
3.000000000000004
 50
0.0
 51
90.0
 73
     1
 72
     1
 10
0.0000000000000104
 20
3.000000000000004
 11
0.0000000000000104
 21
0.0
 72
     1
 10
0.0000000000000104
 20
0.0
 11
3.000000000000015
 21
0.0
 97
        0
 75
     0
 76
     1
 98
        1
 10
0.0
 20
0.0
  0
HATCH
  5
112
330
10D
100
AcDbEntity
  8
0
  6
Continuous
 62
     0
370
    30
100
AcDbHatch
 10
0.0
 20
0.0
 30
0.0
210
0.0
220
0.0
230
1.0
  2
SOLID
 70
     1
 71
     0
 91
        1
 92
        0
 93
        3
 72
     2
 10
0.0000000000000104
 20
0.0
 40
3.000000000000004
 50
180.0
 51
270.0000000000008
 73
     1
 72
     1
 10
0.0000000000000104
 20
-3.000000000000004
 11
0.0000000000000104
 21
0.0
 72
     1
 10
0.0000000000000104
 20
0.0
 11
-2.999999999999994
 21
0.0
 97
        0
 75
     0
 76
     1
 98
        1
 10
0.0
 20
0.0
  0
ENDBLK
  5
10F
330
10D
100
AcDbEntity
  8
0
100
AcDbBlockEnd
  0
ENDSEC
  0
SECTION
  2
ENTITIES
  0
LINE
  5
95
330
1F
100
AcDbEntity
  8
0
  6
Continuous
 62
     1
370
    15
100
AcDbLine
 10
18.51690086202608
 20
1.673696803205084
 30
0.0
 11
18.42348378778012
 21
1.725008109939697
 31
0.0
  0
LINE
  5
96
330
1F
100
AcDbEntity
  8
0
  6
Continuous
 62
     1
370
    15
100
AcDbLine
 10
51.1875904456801
 20
1.66154986314779
 30
0.0
 11
51.07176091686823
 21
1.725069665562355
 31
0.0
  0
LINE
  5
97
330
1F
100
AcDbEntity
  8
0
  6
Continuous
 62
     1
370
    15
100
AcDbLine
 10
40.68842621963523
 20
6.000000000000011
 30
0.0
 11
37.77946187132061
 21
6.000000000000011
 31
0.0
  0
LINE
  5
98
330
1F
100
AcDbEntity
  8
0
  6
Continuous
 62
     1
370
    15
100
AcDbLine
 10
37.77946187132059
 20
-6.0
 30
0.0
 11
40.68842621963523
 21
-6.0
 31
0.0
  0
LINE
  5
99
330
1F
100
AcDbEntity
  8
0
  6
Continuous
 62
     1
370
    15
100
AcDbLine
 10
20.19776269365582
 20
2.341326594929766
 30
0.0
 11
20.14204189333942
 21
2.370053331568028
 31
0.0
  0
SPLINE
  5
9A
330
1F
100
AcDbEntity
  8
0
  6
Continuous
 62
     1
370
    15
100
AcDbSpline
210
0.0
220
0.0
230
1.0
 70
     8
 71
     3
 72
     9
 73
     5
 74
     0
 42
0.000000001
 43
0.00000001
 40
0.0
 40
0.0
 40
0.0
 40
0.0
 40
0.5163968025973302
 40
0.9999999999999999
 40
0.9999999999999999
 40
0.9999999999999999
 40
0.9999999999999999
 10
21.80767107497141
 20
1.537479410213551
 30
0.0
 10
21.53057281887629
 20
1.669374731965109
 30
0.0
 10
20.9939733382029
 20
1.924789407439786
 30
0.0
 10
20.45729975463217
 20
2.205549915518501
 30
0.0
 10
20.19776269365582
 20
2.341326594929766
 30
0.0
  0
SPLINE
  5
9B
330
1F
100
AcDbEntity
  8
0
  6
Continuous
 62
     1
370
    15
100
AcDbSpline
210
0.0
220
0.0
230
1.0
 70
     8
 71
     3
 72
     9
 73
     5
 74
     0
 42
0.000000001
 43
0.00000001
 40
0.0
 40
0.0
 40
0.0
 40
0.0
 40
0.5259477104079056
 40
1.0
 40
1.0
 40
1.0
 40
1.0
 10
54.45604185728014
 20
1.537487735135062
 30
0.0
 10
54.16403110818904
 20
1.676684102264297
 30
0.0
 10
53.60882239958069
 20
1.94134228857198
 30
0.0
 10
53.05359929370987
 20
2.232193666853901
 30
0.0
 10
52.79039450913739
 20
2.370072428659462
 30
0.0
  0
SPLINE
  5
9C
330
1F
100
AcDbEntity
  8
0
  6
Continuous
 62
     1
370
    15
100
AcDbSpline
210
0.0
220
0.0
230
1.0
 70
     8
 71
     3
 72
    23
 73
    19
 74
     0
 42
0.000000001
 43
0.00000001
 40
0.0
 40
0.0
 40
0.0
 40
0.0
 40
0.0682412492332922
 40
0.117485917090916
 40
0.1475300662355021
 40
0.1603408190319985
 40
0.1771342941516308
 40
0.2035002487818192
 40
0.239287228762808
 40
0.2774462354415314
 40
0.3883547220415228
 40
0.4948117583633149
 40
0.6097979853970523
 40
0.7063345156420228
 40
0.7451334125849288
 40
0.8020429909617046
 40
0.8871468814102801
 40
1.0
 40
1.0
 40
1.0
 40
1.0
 10
10.85182191545546
 20
-4.987602599870244
 30
0.0
 10
11.05462727471053
 20
-4.967970211282984
 30
0.0
 10
11.40378227832981
 20
-4.934170578307709
 30
0.0
 10
11.84026448380492
 20
-4.896499780254877
 30
0.0
 10
12.1134543672734
 20
-4.874319322088136
 30
0.0
 10
12.28696038653528
 20
-4.860631430310079
 30
0.0
 10
12.45500688522904
 20
-4.847887849404745
 30
0.0
 10
12.69234954613437
 20
-4.830698183984692
 30
0.0
 10
12.99506394656147
 20
-4.810164089808234
 30
0.0
 10
13.55223390627705
 20
-4.775240434212664
 30
0.0
 10
14.3185040380679
 20
-4.735851346406096
 30
0.0
 10
15.31290990733439
 20
-4.701571527681436
 30
0.0
 10
16.26446006043599
 20
-4.685242333635345
 30
0.0
 10
17.01387019224287
 20
-4.685072342681535
 30
0.0
 10
17.58937586239608
 20
-4.691083058638622
 30
0.0
 10
18.12987623663498
 20
-4.701009896370929
 30
0.0
 10
18.89254987886883
 20
-4.722649396346664
 30
0.0
 10
19.4858888251531
 20
-4.751432925837146
 30
0.0
 10
19.82414484747947
 20
-4.767842100146259
 30
0.0
  0
SPLINE
  5
9D
330
1F
100
AcDbEntity
  8
0
  6
Continuous
 62
     1
370
    15
100
AcDbSpline
210
0.0
220
0.0
230
1.0
 70
     8
 71
     3
 72
    10
 73
     6
 74
     0
 42
0.000000001
 43
0.00000001
 40
0.0
 40
0.0
 40
0.0
 40
0.0
 40
0.382856753009174
 40
0.917788198782721
 40
1.0
 40
1.0
 40
1.0
 40
1.0
 10
52.47238054611383
 20
4.767833919923302
 30
0.0
 10
51.84593617248466
 20
4.741127207710823
 30
0.0
 10
50.34421719066772
 20
4.677105598834275
 30
0.0
 10
48.70937580269958
 20
4.671475174753921
 30
0.0
 10
47.70001122068044
 20
4.715007676285245
 30
0.0
 10
47.56555024945968
 20
4.720806792422114
 30
0.0
  0
SPLINE
  5
9E
330
1F
100
AcDbEntity
  8
0
  6
Continuous
 62
     1
370
    15
100
AcDbSpline
210
0.0
220
0.0
230
1.0
 70
     8
 71
     3
 72
    12
 73
     8
 74
     0
 42
0.000000001
 43
0.00000001
 40
0.0
 40
0.0
 40
0.0
 40
0.0
 40
0.2086924561236696
 40
0.5009174388680864
 40
0.6985735814810695
 40
0.7918139085815153
 40
1.0
 40
1.0
 40
1.0
 40
1.0
 10
43.44872900462049
 20
-4.992817888383777
 30
0.0
 10
44.07666302361157
 20
-4.935191170624829
 30
0.0
 10
45.58387179585753
 20
-4.796871710466284
 30
0.0
 10
47.68427263528369
 20
-4.6981966191333
 30
0.0
 10
49.43858982619565
 20
-4.68074218728092
 30
0.0
 10
50.93863622117524
 20
-4.699487904624617
 30
0.0
 10
51.8458177557234
 20
-4.739913314538608
 30
0.0
 10
52.47238054611383
 20
-4.767833919923287
 30
0.0
  0
SPLINE
  5
9F
330
1F
100
AcDbEntity
  8
0
  6
Continuous
 62
     1
370
    15
100
AcDbSpline
210
0.0
220
0.0
230
1.0
 70
     8
 71
     3
 72
    15
 73
    11
 74
     0
 42
0.000000001
 43
0.00000001
 40
0.0
 40
0.0
 40
0.0
 40
0.0
 40
0.1999861770919102
 40
0.3518687130137417
 40
0.4547854351164866
 40
0.5318189203856002
 40
0.6077723216920634
 40
0.7561261390527788
 40
0.914363921096499
 40
1.0
 40
1.0
 40
1.0
 40
1.0
 10
19.82414484747947
 20
4.767842100146271
 30
0.0
 10
19.49637414039083
 20
4.751891348068683
 30
0.0
 10
18.91967299762196
 20
4.723826555357719
 30
0.0
 10
18.17507831552364
 20
4.702155471943058
 30
0.0
 10
17.63128791200992
 20
4.691663420925879
 30
0.0
 10
17.2112816966543
 20
4.686987598006761
 30
0.0
 10
16.71831958846598
 20
4.684722590603258
 30
0.0
 10
16.09534853481442
 20
4.688400522722706
 30
0.0
 10
15.4533803096493
 20
4.698716934899339
 30
0.0
 10
15.05419070165291
 20
4.712875000790915
 30
0.0
 10
14.91401564297685
 20
4.717846592428915
 30
0.0
  0
SPLINE
  5
A0
330
1F
100
AcDbEntity
  8
0
  6
Continuous
 62
     1
370
    15
100
AcDbSpline
210
0.0
220
0.0
230
1.0
 70
     8
 71
     3
 72
    16
 73
    12
 74
     0
 42
0.000000001
 43
0.00000001
 40
0.0
 40
0.0
 40
0.0
 40
0.0
 40
0.1894917365237541
 40
0.3472646561401436
 40
0.4711964754638083
 40
0.5667490723056066
 40
0.6524895540008446
 40
0.731156394730144
 40
0.8415368503711789
 40
0.9615234536173981
 40
1.0
 40
1.0
 40
1.0
 40
1.0
 10
57.28788241710878
 20
-4.512857107109845
 30
0.0
 10
57.56333003377611
 20
-4.470519931948279
 30
0.0
 10
58.06811838835752
 20
-4.392932355602526
 30
0.0
 10
58.7871486747148
 20
-4.298211080830853
 30
0.0
 10
59.36060193037952
 20
-4.229261680447114
 30
0.0
 10
59.81446397524277
 20
-4.179903601186234
 30
0.0
 10
60.20400229681154
 20
-4.141109631747436
 30
0.0
 10
60.61693803429209
 20
-4.103415043986931
 30
0.0
 10
61.08108121929541
 20
-4.065884650199161
 30
0.0
 10
61.48454671548335
 20
-4.03682656922381
 30
0.0
 10
61.72222723768871
 20
-4.023558789864855
 30
0.0
 10
61.77993860880748
 20
-4.020337231230594
 30
0.0
  0
SPLINE
  5
A1
330
1F
100
AcDbEntity
  8
0
  6
Continuous
 62
     1
370
    15
100
AcDbSpline
210
0.0
220
0.0
230
1.0
 70
     8
 71
     3
 72
    24
 73
    20
 74
     0
 42
0.000000001
 43
0.00000001
 40
0.0
 40
0.0
 40
0.0
 40
0.0
 40
0.0768475410690597
 40
0.1339583514094137
 40
0.1721144554083983
 40
0.2072261997594331
 40
0.2444922886689395
 40
0.2842657893465257
 40
0.3905846420943513
 40
0.5030413770651747
 40
0.5700099100589255
 40
0.6282555320578906
 40
0.682395630552788
 40
0.7425830566620253
 40
0.7886781576683539
 40
0.830719869414295
 40
0.8691238858471004
 40
0.9237181921313264
 40
1.0
 40
1.0
 40
1.0
 40
1.0
 10
35.12244803697546
 20
4.103731743452483
 30
0.0
 10
34.85411905934903
 20
4.082037835811985
 30
0.0
 10
34.38637595425855
 20
4.044221660268545
 30
0.0
 10
33.78598864215051
 20
4.008771593457991
 30
0.0
 10
33.3292055790911
 20
3.986702340273849
 30
0.0
 10
32.94210318742111
 20
3.971647377870769
 30
0.0
 10
32.54994483238075
 20
3.96003863477458
 30
0.0
 10
31.90917136623959
 20
3.947457778860934
 30
0.0
 10
31.00551881864176
 20
3.94659573007109
 30
0.0
 10
30.00762354748443
 20
3.973876714499653
 30
0.0
 10
29.17718736124197
 20
4.015271739772643
 30
0.0
 10
28.54993040119898
 20
4.05662922585506
 30
0.0
 10
27.95008668351496
 20
4.104406808311055
 30
0.0
 10
27.39163628455363
 20
4.156371428163554
 30
0.0
 10
26.87047670351606
 20
4.2115169719367
 30
0.0
 10
26.42540656610319
 20
4.263385109367369
 30
0.0
 10
25.94745603107444
 20
4.323408793129857
 30
0.0
 10
25.35767444690444
 20
4.402969457133684
 30
0.0
 10
24.90399217862636
 20
4.472386457670244
 30
0.0
 10
24.63956116425671
 20
4.512846509009814
 30
0.0
  0
SPLINE
  5
A2
330
1F
100
AcDbEntity
  8
0
  6
Continuous
 62
     1
370
    15
100
AcDbSpline
210
0.0
220
0.0
230
1.0
 70
     8
 71
     3
 72
    16
 73
    12
 74
     0
 42
0.000000001
 43
0.00000001
 40
0.0
 40
0.0
 40
0.0
 40
0.0
 40
0.1634785093913352
 40
0.2853194118195034
 40
0.3695047083852619
 40
0.4547889916633359
 40
0.5507066985820747
 40
0.643832299263898
 40
0.7217172415519467
 40
0.921121838794409
 40
1.0
 40
1.0
 40
1.0
 40
1.0
 10
24.63956116425673
 20
-4.512846509009799
 30
0.0
 10
24.88306441921773
 20
-4.475509438200538
 30
0.0
 10
25.30805120029545
 20
-4.410344964154223
 30
0.0
 10
25.86033540247761
 20
-4.334945978594147
 30
0.0
 10
26.30248097120795
 20
-4.278556091666386
 30
0.0
 10
26.70433129732702
 20
-4.230462005917827
 30
0.0
 10
27.1184277585172
 20
-4.184841135157249
 30
0.0
 10
27.52051937707922
 20
-4.144331594762956
 30
0.0
 10
28.07410731898183
 20
-4.09400221875665
 30
0.0
 10
28.60634966982982
 20
-4.049543040061311
 30
0.0
 10
29.02432120917167
 20
-4.028133994333129
 30
0.0
 10
29.14279360984579
 20
-4.02206568392244
 30
0.0
  0
SPLINE
  5
A3
330
1F
100
AcDbEntity
  8
0
  6
Continuous
 62
     1
370
    15
100
AcDbSpline
210
0.0
220
0.0
230
1.0
 70
     8
 71
     3
 72
    24
 73
    20
 74
     0
 42
0.000000001
 43
0.00000001
 40
0.0
 40
0.0
 40
0.0
 40
0.0
 40
0.0732029577406288
 40
0.1277060740331213
 40
0.1660538881100543
 40
0.2061690049047912
 40
0.2513470467018196
 40
0.2998124820880773
 40
0.4170515026967681
 40
0.5237223199495648
 40
0.5866402460204267
 40
0.6444180356003771
 40
0.6965773408207759
 40
0.7638667085994396
 40
0.806430578997819
 40
0.8396724067857406
 40
0.8721850649935241
 40
0.9253500992547077
 40
1.0
 40
1.0
 40
1.0
 40
1.0
 10
67.80381905581216
 20
4.10655791575685
 30
0.0
 10
67.54845306266209
 20
4.085621078439659
 30
0.0
 10
67.10295482825585
 20
4.049095760625013
 30
0.0
 10
66.5217453523334
 20
4.013549557329031
 30
0.0
 10
66.04984363448573
 20
3.989811766234519
 30
0.0
 10
65.61359463607495
 20
3.972210593414968
 30
0.0
 10
65.14428898380682
 20
3.958419835063626
 30
0.0
 10
64.40504812758486
 20
3.945684792178157
 30
0.0
 10
63.4542573428066
 20
3.949485726899581
 30
0.0
 10
62.43169890359459
 20
3.982914679317306
 30
0.0
 10
61.63696987699018
 20
4.026593005203059
 30
0.0
 10
61.04709090650613
 20
4.068088066810522
 30
0.0
 10
60.43336060650135
 20
4.118738482015803
 30
0.0
 10
59.86232889587313
 20
4.174231751172616
 30
0.0
 10
59.35761988764217
 20
4.229929008139118
 30
0.0
 10
58.97592584896223
 20
4.275561410396211
 30
0.0
 10
58.55838632511896
 20
4.328527804107972
 30
0.0
 10
57.99731452970093
 20
4.404328188769977
 30
0.0
 10
57.54945394677162
 20
4.472841896804405
 30
0.0
 10
57.28788241710878
 20
4.51285710710986
 30
0.0
  0
LINE
  5
A4
330
1F
100
AcDbEntity
  8
0
  6
Continuous
 62
   131
370
    15
100
AcDbLine
 10
8.038276009748694
 20
6.000000000000005
 30
0.0
 11
-39.0
 21
6.000000000000003
 31
0.0
  0
LINE
  5
A5
330
1F
100
AcDbEntity
  8
0
  6
Continuous
 62
   131
370
    15
100
AcDbLine
 10
-39.0
 20
-5.999999999999997
 30
0.0
 11
8.038276009748632
 21
-5.999999999999995
 31
0.0
  0
LINE
  5
A6
330
1F
100
AcDbEntity
  8
0
  6
Continuous
 62
   131
370
    15
100
AcDbLine
 10
-39.0
 20
6.0
 30
0.0
 11
-40.0
 21
4.999999999999998
 31
0.0
  0
LINE
  5
A7
330
1F
100
AcDbEntity
  8
0
  6
Continuous
 62
   131
370
    15
100
AcDbLine
 10
-40.0
 20
-4.999999999999995
 30
0.0
 11
-39.0
 21
-5.999999999999995
 31
0.0
  0
SPLINE
  5
A8
330
1F
100
AcDbEntity
  8
0
  6
Continuous
 62
     1
370
    15
100
AcDbSpline
210
0.0
220
0.0
230
1.0
 70
     8
 71
     3
 72
    20
 73
    16
 74
     0
 42
0.000000001
 43
0.00000001
 40
0.0
 40
0.0
 40
0.0
 40
0.0
 40
0.0808634706813587
 40
0.161727092734018
 40
0.2425907248936215
 40
0.3234542258936244
 40
0.4043174544958817
 40
0.4851802695212252
 40
0.5649320234031661
 40
0.6446835806502955
 40
0.7244349168777197
 40
0.8041860077153723
 40
0.8839368288096452
 40
0.9636873558250171
 40
1.0
 40
1.0
 40
1.0
 40
1.0
 10
9.999999999999995
 20
5.353234232225891
 30
0.0
 10
10.74878984308915
 20
5.133842224875073
 30
0.0
 10
12.24637093095467
 20
4.695057799485481
 30
0.0
 10
14.49274472379689
 20
3.751634745006409
 30
0.0
 10
16.73911837585812
 20
2.651507983711237
 30
0.0
 10
18.98548904094781
 20
1.423194427789545
 30
0.0
 10
21.23184556428432
 20
0.1299409366034608
 30
0.0
 10
23.46792390312564
 20
-1.163771585247594
 30
0.0
 10
25.6936358952492
 20
-2.397802839605099
 30
0.0
 10
27.90907375848847
 20
-3.517894377707625
 30
0.0
 10
30.12449918477106
 20
-4.477616390156616
 30
0.0
 10
32.33991781608938
 20
-5.238737548205038
 30
0.0
 10
34.55532698825569
 20
-5.747360334774951
 30
0.0
 10
36.36850762785861
 20
-5.997515016313248
 30
0.0
 10
37.44321770247284
 20
-5.97367978670091
 30
0.0
 10
37.77946187132059
 20
-5.966222466666785
 30
0.0
  0
SPLINE
  5
A9
330
1F
100
AcDbEntity
  8
0
  6
Continuous
 62
     1
370
    15
100
AcDbSpline
210
0.0
220
0.0
230
1.0
 70
     8
 71
     3
 72
    11
 73
     7
 74
     0
 42
0.000000001
 43
0.00000001
 40
0.0
 40
0.0
 40
0.0
 40
0.0
 40
0.1915143608525019
 40
0.4610117365512599
 40
0.7305069764913327
 40
1.0
 40
1.0
 40
1.0
 40
1.0
 10
61.7802663078303
 20
4.020471006916354
 30
0.0
 10
62.30500012450511
 20
4.243430481207033
 30
0.0
 10
63.56813489401065
 20
4.780136626718832
 30
0.0
 10
65.56966082470932
 20
5.389592709249888
 30
0.0
 10
67.78483875294488
 20
5.864462097173851
 30
0.0
 10
69.26161494191815
 20
5.951440079200362
 30
0.0
 10
69.99999999999972
 20
6.000000000000227
 30
0.0
  0
LINE
  5
AA
330
1F
100
AcDbEntity
  8
0
  6
Continuous
 62
     1
370
    15
100
AcDbLine
 10
69.99999999999999
 20
4.200000000000012
 30
0.0
 11
69.99999999999972
 21
6.000000000000227
 31
0.0
  0
LINE
  5
AB
330
1F
100
AcDbEntity
  8
0
  6
Continuous
 62
     1
370
    15
100
AcDbLine
 10
69.99999999999999
 20
4.200000000000012
 30
0.0
 11
67.79852335536857
 21
4.085560597288913
 31
0.0
  0
SPLINE
  5
AC
330
1F
100
AcDbEntity
  8
0
  6
Continuous
 62
     1
370
    15
100
AcDbSpline
210
0.0
220
0.0
230
1.0
 70
     8
 71
     3
 72
    13
 73
     9
 74
     0
 42
0.000000001
 43
0.00000001
 40
0.0
 40
0.0
 40
0.0
 40
0.0
 40
0.0661054916294691
 40
0.2528714840433423
 40
0.4396471285958289
 40
0.6264292306265115
 40
0.8132145891523433
 40
1.0
 40
1.0
 40
1.0
 40
1.0
 10
22.43980602751004
 20
-0.5645445806879268
 30
0.0
 10
22.16568875829205
 20
-0.4560166336458971
 30
0.0
 10
21.11711565248121
 20
-0.0408677201105317
 30
0.0
 10
19.29411070484079
 20
0.7046970361187794
 30
0.0
 10
16.97066884654449
 20
1.611946491345966
 30
0.0
 10
14.6471483067149
 20
2.437827754501626
 30
0.0
 10
12.32358017732759
 20
3.154852960552935
 30
0.0
 10
10.77452679809531
 20
3.49570184974259
 30
0.0
 10
9.999999999999996
 20
3.666126318206838
 30
0.0
  0
SPLINE
  5
AD
330
1F
100
AcDbEntity
  8
0
  6
Continuous
 62
   131
370
    15
100
AcDbSpline
210
0.0
220
0.0
230
1.0
 70
    24
 71
     3
 72
    10
 73
     6
 74
     0
 42
0.000000001
 43
0.00000001
 40
0.0
 40
0.0
 40
0.0
 40
0.0
 40
0.5
 40
0.5
 40
1.0
 40
1.0
 40
1.0
 40
1.0
 10
10.0
 20
5.353234232225884
 30
0.0
 10
10.0
 20
5.128456653315984
 30
0.0
 10
10.0
 20
4.855177163603368
 30
0.0
 10
10.0
 20
4.270125253620908
 30
0.0
 10
9.999999999999996
 20
3.9600772534769
 30
0.0
 10
9.999999999999996
 20
3.666126318206838
 30
0.0
  0
SPLINE
  5
AE
330
1F
100
AcDbEntity
  8
0
  6
Continuous
 62
     1
370
    15
100
AcDbSpline
210
0.0
220
0.0
230
1.0
 70
     8
 71
     3
 72
    26
 73
    22
 74
     0
 42
0.000000001
 43
0.00000001
 40
0.0
 40
0.0
 40
0.0
 40
0.0
 40
0.0241721722706463
 40
0.0783871351936923
 40
0.1326019147446092
 40
0.1868164943800573
 40
0.2410308575700976
 40
0.2952449877992944
 40
0.3494588685678179
 40
0.4036724833925425
 40
0.4578858158081431
 40
0.51209884936819
 40
0.5663115676462387
 40
0.6205239542369201
 40
0.6747359927570249
 40
0.7289476668465863
 40
0.7831589601699588
 40
0.837369856416892
 40
0.8915803393036064
 40
0.9457903925738567
 40
1.0
 40
1.0
 40
1.0
 40
1.0
 10
29.1367388890601
 20
4.019460195739651
 30
0.0
 10
29.46599310615346
 20
4.165001079125058
 30
0.0
 10
30.5337206789762
 20
4.636970779423587
 30
0.0
 10
32.3399176914786
 20
5.22962792751034
 30
0.0
 10
34.55532708203647
 20
5.758719879890145
 30
0.0
 10
36.77072659552177
 20
6.016678614238489
 30
0.0
 10
38.98611551656184
 20
6.005047939714923
 30
0.0
 10
41.20149301007253
 20
5.720813271895624
 30
0.0
 10
43.41685827403947
 20
5.177792891983064
 30
0.0
 10
45.6322104986526
 20
4.400316936544503
 30
0.0
 10
47.84754887732332
 20
3.423652072321125
 30
0.0
 10
50.06287260381669
 20
2.2919948231353
 30
0.0
 10
52.27818087303973
 20
1.05658410031774
 30
0.0
 10
54.49347288109003
 20
-0.2266626076908286
 30
0.0
 10
56.70874782460561
 20
-1.499618017566921
 30
0.0
 10
58.92400490364837
 20
-2.704783406530946
 30
0.0
 10
61.13924331115221
 20
-3.787126893942744
 30
0.0
 10
63.35446227257557
 20
-4.699426589337532
 30
0.0
 10
65.56966089817395
 20
-5.393765385959203
 30
0.0
 10
67.78483873457893
 20
-5.863418941450418
 30
0.0
 10
69.2616149357962
 20
-5.951092361579136
 30
0.0
 10
69.99999999999999
 20
-5.999999999999769
 30
0.0
  0
SPLINE
  5
AF
330
1F
100
AcDbEntity
  8
0
  6
Continuous
 62
     1
370
    15
100
AcDbSpline
210
0.0
220
0.0
230
1.0
 70
     8
 71
     3
 72
    16
 73
    12
 74
     0
 42
0.000000001
 43
0.00000001
 40
0.0
 40
0.0
 40
0.0
 40
0.0
 40
0.0607798604094341
 40
0.1954171399191786
 40
0.3188037114630257
 40
0.4421588567169783
 40
0.5654731604777242
 40
0.6888124700289266
 40
0.8121888600310772
 40
0.9355874110616229
 40
1.0
 40
1.0
 40
1.0
 40
1.0
 10
55.08663633931069
 20
-0.5632304310566912
 30
0.0
 10
54.68196976410887
 20
-0.4023681847689327
 30
0.0
 10
53.38090088678463
 20
0.1148301088561206
 30
0.0
 10
51.25815972860255
 20
0.9795831787652731
 30
0.0
 10
48.71920837327849
 20
1.94558765151632
 30
0.0
 10
46.25559065878767
 20
2.776352104317332
 30
0.0
 10
43.79244993622629
 20
3.450581653449227
 30
0.0
 10
41.32906963247365
 20
3.934866409215501
 30
0.0
 10
38.86504978314922
 20
4.187455491813645
 30
0.0
 10
36.79329403953197
 20
4.239052432977396
 30
0.0
 10
35.54292094914916
 20
4.116343577631806
 30
0.0
 10
35.11408713288159
 20
4.074258773398244
 30
0.0
  0
SPLINE
  5
B0
330
1F
100
AcDbEntity
  8
0
  6
Continuous
 62
     1
370
    15
100
AcDbSpline
210
0.0
220
0.0
230
1.0
 70
     8
 71
     3
 72
    21
 73
    17
 74
     0
 42
0.000000001
 43
0.00000001
 40
0.0
 40
0.0
 40
0.0
 40
0.0
 40
0.0755733958004305
 40
0.1511474131497606
 40
0.2267220294251301
 40
0.3022972219638066
 40
0.3778729680646692
 40
0.4534492449896976
 40
0.5290260299654651
 40
0.604603300184642
 40
0.6801810328074935
 40
0.7557592049633924
 40
0.8313377937523333
 40
0.9069167762464462
 40
0.9824961294915208
 40
1.0
 40
1.0
 40
1.0
 40
1.0
 10
69.99999999999999
 20
-5.693645215391389
 30
0.0
 10
69.2616149419435
 20
-5.534168469525195
 30
0.0
 10
67.7848387530265
 20
-5.21521366618579
 30
0.0
 10
65.56966093508427
 20
-4.431636504643752
 30
0.0
 10
63.35446232796896
 20
-3.465947818325053
 30
0.0
 10
61.13924338504252
 20
-2.338398624342279
 30
0.0
 10
58.92400499606897
 20
-1.106315166761713
 30
0.0
 10
56.70874793551155
 20
0.1762017646991215
 30
0.0
 10
54.49347301072348
 20
1.450681148272306
 30
0.0
 10
52.27818102056528
 20
2.659401772114508
 30
0.0
 10
50.06287277241582
 20
3.748158055397134
 30
0.0
 10
47.84754905518004
 20
4.665630143238737
 30
0.0
 10
45.63221072991772
 20
5.377890412875012
 30
0.0
 10
43.41685839398539
 20
5.824290808811626
 30
0.0
 10
41.76892885605032
 20
6.022404761380324
 30
0.0
 10
40.85944959589889
 20
5.983161341910039
 30
0.0
 10
40.68842621963523
 20
5.97578179804576
 30
0.0
  0
SPLINE
  5
B1
330
1F
100
AcDbEntity
  8
0
  6
Continuous
 62
     1
370
    15
100
AcDbSpline
210
0.0
220
0.0
230
1.0
 70
     8
 71
     3
 72
    10
 73
     6
 74
     0
 42
0.000000001
 43
0.00000001
 40
0.0
 40
0.0
 40
0.0
 40
0.0
 40
0.0856615406674766
 40
0.542831198229686
 40
1.0
 40
1.0
 40
1.0
 40
1.0
 10
14.91365612572568
 20
-4.717984602228004
 30
0.0
 10
14.77335231467963
 20
-4.772741125821939
 30
0.0
 10
13.8842568667941
 20
-5.119729390120956
 30
0.0
 10
12.2463709954335
 20
-5.559800042682286
 30
0.0
 10
10.74878986458049
 20
-5.782207995316329
 30
0.0
 10
9.999999999998284
 20
-5.893411867549943
 30
0.0
  0
LINE
  5
B2
330
1F
100
AcDbEntity
  8
0
  6
Continuous
 62
     1
370
    15
100
AcDbLine
 10
69.99999999999999
 20
-5.999999999999769
 30
0.0
 11
69.99999999999994
 21
-5.693645215391383
 31
0.0
  0
SPLINE
  5
B3
330
1F
100
AcDbEntity
  8
0
  6
Continuous
 62
     1
370
    15
100
AcDbSpline
210
0.0
220
0.0
230
1.0
 70
     8
 71
     3
 72
    24
 73
    20
 74
     0
 42
0.000000001
 43
0.00000001
 40
0.0
 40
0.0
 40
0.0
 40
0.0
 40
0.0511907163340952
 40
0.1101815297940362
 40
0.1691726326320568
 40
0.2281640069125958
 40
0.2871556346819161
 40
0.3461474979692999
 40
0.4051395787882479
 40
0.4641318591376787
 40
0.5231243210031328
 40
0.5821169463579758
 40
0.6411097171646056
 40
0.7009243476794572
 40
0.7607392841202771
 40
0.8205544220558367
 40
0.880369657011282
 40
0.9401848844907507
 40
1.0
 40
1.0
 40
1.0
 40
1.0
 10
47.55463821693138
 20
-4.724265368221499
 30
0.0
 10
46.91383033285256
 20
-4.940873130994705
 30
0.0
 10
45.53457256839623
 20
-5.407093890865569
 30
0.0
 10
43.4168584570244
 20
-5.834780676234132
 30
0.0
 10
41.20149326217664
 20
-6.03917710286256
 30
0.0
 10
38.98611577132517
 20
-5.964510558822194
 30
0.0
 10
36.77072688224249
 20
-5.621340701458195
 30
0.0
 10
34.5553273500152
 20
-5.023277838873789
 30
0.0
 10
32.33991811424144
 20
-4.197911806084962
 30
0.0
 10
30.12449952359273
 20
-3.182468663145639
 30
0.0
 10
27.90907411004327
 20
-2.022957921453933
 30
0.0
 10
25.69363626701052
 20
-0.7718541939535227
 30
0.0
 10
23.46792426531355
 20
0.5201402972615041
 30
0.0
 10
21.23184588942125
 20
1.794544001932603
 30
0.0
 10
18.98548930108289
 20
2.990920167757113
 30
0.0
 10
16.73911857098343
 20
4.049523026695732
 30
0.0
 10
14.49274485388407
 20
4.914397222613061
 30
0.0
 10
12.24637099599726
 20
5.570260600024667
 30
0.0
 10
10.74878986476841
 20
5.785694845588074
 30
0.0
 10
9.99999999999828
 20
5.893411867549954
 30
0.0
  0
LINE
  5
B4
330
1F
100
AcDbEntity
  8
0
  6
Continuous
 62
   131
370
    15
100
AcDbLine
 10
9.999999999999991
 20
5.353234232225889
 30
0.0
 11
9.999999999999996
 21
5.893411867541457
 31
0.0
  0
SPLINE
  5
B5
330
1F
100
AcDbEntity
  8
0
  6
Continuous
 62
     1
370
    15
100
AcDbSpline
210
0.0
220
0.0
230
1.0
 70
     8
 71
     3
 72
    18
 73
    14
 74
     0
 42
0.000000001
 43
0.00000001
 40
0.0
 40
0.0
 40
0.0
 40
0.0
 40
0.0014895627571421
 40
0.1037195485000393
 40
0.205950025686677
 40
0.3081809618135438
 40
0.4104123243460697
 40
0.5126440807208184
 40
0.6148761983476813
 40
0.7171086446120803
 40
0.8193413868771686
 40
0.9215743924860368
 40
1.0
 40
1.0
 40
1.0
 40
1.0
 10
43.44914116421482
 20
-4.991177229485002
 30
0.0
 10
43.43838136182113
 20
-4.992786589076037
 30
0.0
 10
42.68916697600665
 20
-5.10484769516639
 30
0.0
 10
41.2014928939977
 20
-5.12168358464389
 30
0.0
 10
38.98611559614041
 20
-5.014847692221307
 30
0.0
 10
36.77072667364328
 20
-4.654196930272604
 30
0.0
 10
34.55532717256398
 20
-4.090031605733096
 30
0.0
 10
32.33991793619627
 20
-3.338738528531673
 30
0.0
 10
30.12449940744897
 20
-2.436966428480388
 30
0.0
 10
27.90907383764366
 20
-1.424143933922634
 30
0.0
 10
25.69363664856656
 20
-0.3490687357892688
 30
0.0
 10
23.65018223159305
 20
0.664661551933303
 30
0.0
 10
22.34517073649416
 20
1.278532015783215
 30
0.0
 10
21.77865294059895
 20
1.545018972757554
 30
0.0
  0
SPLINE
  5
B6
330
1F
100
AcDbEntity
  8
0
  6
Continuous
 62
   131
370
    15
100
AcDbSpline
210
0.0
220
0.0
230
1.0
 70
    24
 71
     3
 72
     8
 73
     4
 74
     0
 42
0.000000001
 43
0.00000001
 40
0.0
 40
0.0
 40
0.0
 40
0.0
 40
1.0
 40
1.0
 40
1.0
 40
1.0
 10
9.999999999999996
 20
-5.057975160655199
 30
0.0
 10
9.999999999999996
 20
-5.347519273305156
 30
0.0
 10
9.999999999999996
 20
-5.627837067947046
 30
0.0
 10
9.999999999999996
 20
-5.893411867540093
 30
0.0
  0
SPLINE
  5
B7
330
1F
100
AcDbEntity
  8
0
  6
Continuous
 62
     1
370
    15
100
AcDbSpline
210
0.0
220
0.0
230
1.0
 70
     8
 71
     3
 72
    34
 73
    30
 74
     0
 42
0.000000001
 43
0.00000001
 40
0.0
 40
0.0
 40
0.0
 40
0.0
 40
0.125000000000001
 40
0.125000000000001
 40
0.1875000000000015
 40
0.1875000000000015
 40
0.250000000000002
 40
0.250000000000002
 40
0.3125000000000025
 40
0.3125000000000025
 40
0.375000000000003
 40
0.375000000000003
 40
0.4375000000000035
 40
0.4375000000000035
 40
0.500000000000004
 40
0.500000000000004
 40
0.6250000000000038
 40
0.6250000000000038
 40
0.6875000000000031
 40
0.6875000000000031
 40
0.7500000000000026
 40
0.7500000000000026
 40
0.8125000000000019
 40
0.8125000000000019
 40
0.8750000000000013
 40
0.8750000000000013
 40
0.9375000000000007
 40
0.9375000000000007
 40
1.0
 40
1.0
 40
1.0
 40
1.0
 10
69.99999999999999
 20
-4.733833586209282
 30
0.0
 10
69.35739377665516
 20
-4.616066120674553
 30
0.0
 10
68.70532548116933
 20
-4.470138998071939
 30
0.0
 10
67.73831803126896
 20
-4.21454379645871
 30
0.0
 10
67.41689152245482
 20
-4.123210327289272
 30
0.0
 10
66.76954575973399
 20
-3.92842218728175
 30
0.0
 10
66.44509363563328
 20
-3.825094329450721
 30
0.0
 10
65.79885915474257
 20
-3.607937075258603
 30
0.0
 10
65.47821341910472
 20
-3.494261424704695
 30
0.0
 10
64.83188813139351
 20
-3.256531581203743
 30
0.0
 10
64.50742697942495
 20
-3.132603054477733
 30
0.0
 10
63.86013630232874
 20
-2.876220318867048
 30
0.0
 10
63.53881229585296
 20
-2.743982422210693
 30
0.0
 10
62.89401437253376
 20
-2.471667126223291
 30
0.0
 10
62.5698010452342
 20
-2.331470998278705
 30
0.0
 10
61.5980448679253
 20
-1.901457158844307
 30
0.0
 10
60.95596375784466
 20
-1.602935202369931
 30
0.0
 10
59.98415370601106
 20
-1.142496755733499
 30
0.0
 10
59.65999576311535
 20
-0.9870970320547547
 30
0.0
 10
59.01545290190215
 20
-0.674496612919915
 30
0.0
 10
58.69391669503969
 20
-0.517113589212567
 30
0.0
 10
58.04651836329515
 20
-0.200600626210034
 30
0.0
 10
57.72207653546722
 20
-0.0417017569949654
 30
0.0
 10
57.07593536359819
 20
0.2753090631730267
 30
0.0
 10
56.75528242216751
 20
0.4332506098266106
 30
0.0
 10
56.10886883101257
 20
0.7482543518749755
 30
0.0
 10
55.78439991969888
 20
0.9051022305938544
 30
0.0
 10
55.13716684411375
 20
1.215442523408069
 30
0.0
 10
54.81593814294288
 20
1.368694418895477
 30
0.0
 10
54.4934772780729
 20
1.519941409114387
 30
0.0
  0
LINE
  5
B8
330
1F
100
AcDbEntity
  8
0
  6
Continuous
 62
     1
370
    15
100
AcDbLine
 10
10.85843938376213
 20
-4.95945176493806
 30
0.0
 11
9.999999999999996
 21
-5.057975160655199
 31
0.0
  0
LINE
  5
B9
330
1F
100
AcDbEntity
  8
0
  6
Continuous
 62
     1
370
    15
100
AcDbLine
 10
69.99999999999994
 20
-5.693645215391383
 30
0.0
 11
69.99999999999999
 21
-4.733833586209282
 31
0.0
  0
SPLINE
  5
BA
330
1F
100
AcDbEntity
  8
0
  6
Continuous
 62
     1
370
    15
100
AcDbSpline
210
0.0
220
0.0
230
1.0
 70
     8
 71
     3
 72
     8
 73
     4
 74
     0
 42
0.000000001
 43
0.00000001
 40
0.0
 40
0.0
 40
0.0
 40
0.0
 40
1.0
 40
1.0
 40
1.0
 40
1.0
 10
66.2876623838862
 20
1.678126369561333
 30
0.0
 10
66.0185435244939
 20
1.996908240081016
 30
0.0
 10
65.7852895087315
 20
2.30101742934924
 30
0.0
 10
65.60063730606582
 20
2.584818657778267
 30
0.0
  0
LINE
  5
BB
330
1F
100
AcDbEntity
  8
0
  6
Continuous
 62
     1
370
    15
100
AcDbLine
 10
65.60063730606629
 20
2.584818657777568
 30
0.0
 11
69.99999999999999
 21
0.0000000000000123
 31
0.0
  0
LINE
  5
BC
330
1F
100
AcDbEntity
  8
0
  6
Continuous
 62
     1
370
    15
100
AcDbLine
 10
69.99999999999999
 20
0.0000000000000123
 30
0.0
 11
69.99999999999999
 21
-1.603457676177857
 31
0.0
  0
SPLINE
  5
BD
330
1F
100
AcDbEntity
  8
0
  6
Continuous
 62
     1
370
    15
100
AcDbSpline
210
0.0
220
0.0
230
1.0
 70
     8
 71
     3
 72
    12
 73
     8
 74
     0
 42
0.000000001
 43
0.00000001
 40
0.0
 40
0.0
 40
0.0
 40
0.0
 40
0.5000000000000016
 40
0.5000000000000016
 40
0.7500000000000008
 40
0.7500000000000008
 40
1.0
 40
1.0
 40
1.0
 40
1.0
 10
69.99999999999999
 20
-1.603457676177851
 30
0.0
 10
69.35738324975078
 20
-1.098253421644945
 30
0.0
 10
68.72550027521568
 20
-0.572337163080709
 30
0.0
 10
67.79419516594453
 20
0.2484131373375514
 30
0.0
 10
67.48655768172763
 20
0.5273947563256836
 30
0.0
 10
66.87756600981747
 20
1.097482307907401
 30
0.0
 10
66.57786785258378
 20
1.387117232542723
 30
0.0
 10
66.28766238388616
 20
1.678126369561346
 30
0.0
  0
SPLINE
  5
BE
330
1F
100
AcDbEntity
  8
0
  6
Continuous
 62
   131
370
    15
100
AcDbSpline
210
0.0
220
0.0
230
1.0
 70
    24
 71
     3
 72
    14
 73
    10
 74
     0
 42
0.000000001
 43
0.00000001
 40
0.0
 40
0.0
 40
0.0
 40
0.0
 40
0.2500000000000001
 40
0.2500000000000001
 40
0.5000000000000001
 40
0.5000000000000001
 40
0.75
 40
0.75
 40
1.0
 40
1.0
 40
1.0
 40
1.0
 10
9.999999999999996
 20
-2.342025725354432
 30
0.0
 10
9.999999999999996
 20
-2.717136119464063
 30
0.0
 10
9.999999999999996
 20
-3.072340857593436
 30
0.0
 10
9.999999999999996
 20
-3.712288165108949
 30
0.0
 10
9.999999999999996
 20
-3.996782213988884
 30
0.0
 10
9.999999999999996
 20
-4.471461668901915
 30
0.0
 10
9.999999999999996
 20
-4.661510001917851
 30
0.0
 10
9.999999999999996
 20
-4.93697319320956
 30
0.0
 10
9.999999999999996
 20
-5.02242654100134
 30
0.0
 10
9.999999999999996
 20
-5.057975160655199
 30
0.0
  0
SPLINE
  5
BF
330
1F
100
AcDbEntity
  8
0
  6
Continuous
 62
     1
370
    15
100
AcDbSpline
210
0.0
220
0.0
230
1.0
 70
     8
 71
     3
 72
    13
 73
     9
 74
     0
 42
0.000000001
 43
0.00000001
 40
0.0
 40
0.0
 40
0.0
 40
0.0
 40
0.1707621431551904
 40
0.3415056261765366
 40
0.5122250788917386
 40
0.6829227684006148
 40
0.8536415089242476
 40
1.0
 40
1.0
 40
1.0
 40
1.0
 10
66.28766238388616
 20
1.678126369561353
 30
0.0
 10
65.50120450558218
 20
2.010093329618912
 30
0.0
 10
63.92837468962244
 20
2.673990973848803
 30
0.0
 10
61.56932581064285
 20
3.509195205899729
 30
0.0
 10
59.21061008825602
 20
4.17198462045415
 30
0.0
 10
56.85208494676394
 20
4.613489047111795
 30
0.0
 10
54.6056498996935
 20
4.828826613200124
 30
0.0
 10
53.14542016974296
 20
4.781124271806775
 30
0.0
 10
52.47139820095794
 20
4.759105526809241
 30
0.0
  0
SPLINE
  5
C0
330
1F
100
AcDbEntity
  8
0
  6
Continuous
 62
     1
370
    15
100
AcDbSpline
210
0.0
220
0.0
230
1.0
 70
     8
 71
     3
 72
    14
 73
    10
 74
     0
 42
0.000000001
 43
0.00000001
 40
0.0
 40
0.0
 40
0.0
 40
0.0
 40
0.0801331319115974
 40
0.2334431453576631
 40
0.3867539894657421
 40
0.5400653806812596
 40
0.6933770353296406
 40
0.8466886696785233
 40
0.9999999999999999
 40
0.9999999999999999
 40
0.9999999999999999
 40
0.9999999999999999
 10
24.65232102038581
 20
-4.485481072918203
 30
0.0
 10
24.26094838955065
 20
-4.551575503967218
 30
0.0
 10
23.12080503349345
 20
-4.744121227647764
 30
0.0
 10
21.23184570935032
 20
-4.830134953231966
 30
0.0
 10
18.98548881246584
 20
-4.74606075416158
 30
0.0
 10
16.73911836684256
 20
-4.431346656914894
 30
0.0
 10
14.49274476681962
 20
-3.91108149792559
 30
0.0
 10
12.24637110283598
 20
-3.215893122223258
 30
0.0
 10
10.74878987264392
 20
-2.63331466509506
 30
0.0
 10
9.999999999999996
 20
-2.342025725354432
 30
0.0
  0
LINE
  5
C1
330
1F
100
AcDbEntity
  8
0
  6
Continuous
 62
     1
370
    15
100
AcDbLine
 10
69.99999999999999
 20
-4.733833586209282
 30
0.0
 11
69.99999999999999
 21
-1.60345767617785
 31
0.0
  0
SPLINE
  5
C2
330
1F
100
AcDbEntity
  8
0
  6
Continuous
 62
     1
370
    15
100
AcDbSpline
210
0.0
220
0.0
230
1.0
 70
     8
 71
     3
 72
    25
 73
    21
 74
     0
 42
0.000000001
 43
0.00000001
 40
0.0
 40
0.0
 40
0.0
 40
0.0
 40
0.0118424125475579
 40
0.0747803610216994
 40
0.1338932532619735
 40
0.193006528624072
 40
0.252120168160806
 40
0.3112341529003167
 40
0.3703484638473488
 40
0.42946308198453
 40
0.4885779882736499
 40
0.5476931636569429
 40
0.6068085890583766
 40
0.6659242453849407
 40
0.7250401135279365
 40
0.7841561743642729
 40
0.8432724087577612
 40
0.9023887975604133
 40
0.9623291065198023
 40
1.0
 40
1.0
 40
1.0
 40
1.0
 10
57.29596828767568
 20
-4.494314096871111
 30
0.0
 10
57.1480340220923
 20
-4.523094125058449
 30
0.0
 10
56.21388502640583
 20
-4.704829129595814
 30
0.0
 10
54.54124078106707
 20
-4.810319884076519
 30
0.0
 10
52.27818544527365
 20
-4.795867400532607
 30
0.0
 10
50.06287096417221
 20
-4.546201066999489
 30
0.0
 10
47.84754893594507
 20
-4.095658999654482
 30
0.0
 10
45.63221013609669
 20
-3.458381527663051
 30
0.0
 10
43.41685805806998
 20
-2.664893398368231
 30
0.0
 10
41.20149278928248
 20
-1.750666913439422
 30
0.0
 10
38.98611532898688
 20
-0.757208694514716
 30
0.0
 10
36.77072644059125
 20
0.2705344819368777
 30
0.0
 10
34.55532692414845
 20
1.286042539790856
 30
0.0
 10
32.33991767375136
 20
2.243284835076501
 30
0.0
 10
30.12449917512113
 20
3.099145391080564
 30
0.0
 10
27.9090734575316
 20
3.814053051213954
 30
0.0
 10
25.6936367881528
 20
4.35871917348448
 30
0.0
 10
23.46791629441028
 20
4.698572166586239
 30
0.0
 10
21.51004407212533
 20
4.838373098019606
 30
0.0
 10
20.2906712737077
 20
4.768546741797631
 30
0.0
 10
19.82008120152545
 20
4.74159879769279
 30
0.0
  0
SPLINE
  5
C3
330
1F
100
AcDbEntity
  8
0
  6
Continuous
 62
   131
370
    15
100
AcDbSpline
210
0.0
220
0.0
230
1.0
 70
    24
 71
     3
 72
    14
 73
    10
 74
     0
 42
0.000000001
 43
0.00000001
 40
0.0
 40
0.0
 40
0.0
 40
0.0
 40
0.25
 40
0.25
 40
0.5
 40
0.5
 40
0.75
 40
0.75
 40
1.0
 40
1.0
 40
1.0
 40
1.0
 10
9.999999999999996
 20
3.666126318206838
 30
0.0
 10
9.999999999999996
 20
3.313965566828169
 30
0.0
 10
9.999999999999996
 20
2.901698972928003
 30
0.0
 10
9.999999999999996
 20
1.980436477392354
 30
0.0
 10
9.999999999999996
 20
1.471700341676171
 30
0.0
 10
9.999999999999996
 20
0.4038785018423537
 30
0.0
 10
9.999999999999996
 20
-0.1546382221552863
 30
0.0
 10
9.999999999999996
 20
-1.265580843473038
 30
0.0
 10
9.999999999999996
 20
-1.817480558902525
 30
0.0
 10
9.999999999999996
 20
-2.34202572535443
 30
0.0
  0
SPLINE
  5
C4
330
1F
100
AcDbEntity
  8
0
  6
Continuous
 62
     1
370
    15
100
AcDbSpline
210
0.0
220
0.0
230
1.0
 70
     8
 71
     3
 72
    10
 73
     6
 74
     0
 42
0.000000001
 43
0.00000001
 40
0.0
 40
0.0
 40
0.0
 40
0.0
 40
0.5
 40
0.5
 40
1.0
 40
1.0
 40
1.0
 40
1.0
 10
69.99999999999999
 20
4.200000000000012
 30
0.0
 10
69.25342417078964
 20
3.997517931024638
 30
0.0
 10
68.51177972161535
 20
3.764963796806373
 30
0.0
 10
67.04225163442666
 20
3.233042289695111
 30
0.0
 10
66.31423208593021
 20
2.933958217721531
 30
0.0
 10
65.6006373060663
 20
2.584818657777569
 30
0.0
  0
LINE
  5
C5
330
1F
100
AcDbEntity
  8
0
  6
Continuous
 62
     1
370
    15
100
AcDbLine
 10
69.99999999999999
 20
0.0000000000000123
 30
0.0
 11
69.99999999999999
 21
4.200000000000012
 31
0.0
  0
LINE
  5
C6
330
1F
100
AcDbEntity
  8
0
  6
Continuous
 62
   131
370
    15
100
AcDbLine
 10
9.999999999999996
 20
-5.893411867549756
 30
0.0
 11
8.114143968875284
 21
-5.992310543750271
 31
0.0
  0
LINE
  5
C7
330
1F
100
AcDbEntity
  8
0
  6
Continuous
 62
   131
370
    15
100
AcDbLine
 10
8.038276009748646
 20
-5.996289235972702
 30
0.0
 11
7.970001016817152
 21
-5.999869735388926
 31
0.0
  0
LINE
  5
C8
330
1F
100
AcDbEntity
  8
0
  6
Continuous
 62
   131
370
    15
100
AcDbLine
 10
9.999999999999996
 20
5.893411867549767
 30
0.0
 11
8.038276009748694
 21
5.996289235972709
 31
0.0
  0
SPLINE
  5
C9
330
1F
100
AcDbEntity
  8
0
  6
Continuous
 62
   131
370
    15
100
AcDbSpline
210
0.0
220
0.0
230
1.0
 70
     8
 71
     3
 72
     8
 73
     4
 74
     0
 42
0.000000001
 43
0.00000001
 40
0.0
 40
0.0
 40
0.0
 40
0.0
 40
1.0
 40
1.0
 40
1.0
 40
1.0
 10
9.999999999999995
 20
5.353234232225885
 30
0.0
 10
9.321441342889566
 20
5.529861064620044
 30
0.0
 10
8.648657348974103
 20
5.671891510132706
 30
0.0
 10
7.970000496454503
 20
5.777428426566274
 30
0.0
  0
LINE
  5
CA
330
1F
100
AcDbEntity
  8
0
  6
Continuous
 62
   131
370
    15
100
AcDbLine
 10
7.970000496454471
 20
-5.999868035442907
 30
0.0
 11
7.970000496454503
 21
5.777427749798385
 31
0.0
  0
LINE
  5
CB
330
1F
100
AcDbEntity
  8
0
  6
Continuous
 62
   131
370
    15
100
AcDbLine
 10
-39.0
 20
6.0
 30
0.0
 11
-39.0
 21
-5.999999999999997
 31
0.0
  0
LINE
  5
CC
330
1F
100
AcDbEntity
  8
0
  6
Continuous
 62
   131
370
    15
100
AcDbLine
 10
-40.0
 20
4.999999999999999
 30
0.0
 11
-40.0
 21
-4.999999999999995
 31
0.0
  0
SPLINE
  5
CD
330
1F
100
AcDbEntity
  8
0
  6
Continuous
 62
   131
370
    15
100
AcDbSpline
210
0.0
220
0.0
230
1.0
 70
    24
 71
     3
 72
    14
 73
    10
 74
     0
 42
0.000000001
 43
0.00000001
 40
0.0
 40
0.0
 40
0.0
 40
0.0
 40
0.25
 40
0.25
 40
0.5
 40
0.5
 40
0.75
 40
0.75
 40
1.0
 40
1.0
 40
1.0
 40
1.0
 10
9.999999999999996
 20
3.666126318206838
 30
0.0
 10
9.999999999999996
 20
3.313965566828169
 30
0.0
 10
9.999999999999996
 20
2.901698972928003
 30
0.0
 10
9.999999999999996
 20
1.980436477392354
 30
0.0
 10
9.999999999999996
 20
1.471700341676171
 30
0.0
 10
9.999999999999996
 20
0.4038785018423537
 30
0.0
 10
9.999999999999996
 20
-0.1546382221552863
 30
0.0
 10
9.999999999999996
 20
-1.265580843473038
 30
0.0
 10
9.999999999999996
 20
-1.817480558902525
 30
0.0
 10
9.999999999999996
 20
-2.34202572535443
 30
0.0
  0
SPLINE
  5
CE
330
1F
100
AcDbEntity
  8
0
  6
Continuous
 62
   131
370
    15
100
AcDbSpline
210
0.0
220
0.0
230
1.0
 70
     8
 71
     3
 72
     8
 73
     4
 74
     0
 42
0.000000001
 43
0.00000001
 40
0.0
 40
0.0
 40
0.0
 40
0.0
 40
1.0
 40
1.0
 40
1.0
 40
1.0
 10
9.999999999999996
 20
-2.342025725354432
 30
0.0
 10
9.321441406204631
 20
-2.068925096670202
 30
0.0
 10
8.648657475619096
 20
-1.781685553086211
 30
0.0
 10
7.970000686427179
 20
-1.484131719141342
 30
0.0
  0
SPLINE
  5
CF
330
1F
100
AcDbEntity
  8
0
  6
Continuous
 62
   131
370
    15
100
AcDbSpline
210
0.0
220
0.0
230
1.0
 70
     8
 71
     3
 72
     8
 73
     4
 74
     0
 42
0.000000001
 43
0.00000001
 40
0.0
 40
0.0
 40
0.0
 40
0.0
 40
1.0
 40
1.0
 40
1.0
 40
1.0
 10
9.999999999999996
 20
3.666126318206838
 30
0.0
 10
9.321441384661641
 20
3.799700664107823
 30
0.0
 10
8.648657432528061
 20
3.909546024530458
 30
0.0
 10
7.970000621788863
 20
3.99419559934642
 30
0.0
  0
SPLINE
  5
D0
330
1F
100
AcDbEntity
  8
0
  6
Continuous
 62
   131
370
    15
100
AcDbSpline
210
0.0
220
0.0
230
1.0
 70
    24
 71
     3
 72
    14
 73
    10
 74
     0
 42
0.000000001
 43
0.00000001
 40
0.0
 40
0.0
 40
0.0
 40
0.0
 40
0.2500000000000001
 40
0.2500000000000001
 40
0.5000000000000001
 40
0.5000000000000001
 40
0.75
 40
0.75
 40
1.0
 40
1.0
 40
1.0
 40
1.0
 10
9.999999999999996
 20
-2.342025725354432
 30
0.0
 10
9.999999999999996
 20
-2.717136119464063
 30
0.0
 10
9.999999999999996
 20
-3.072340857593436
 30
0.0
 10
9.999999999999996
 20
-3.712288165108949
 30
0.0
 10
9.999999999999996
 20
-3.996782213988884
 30
0.0
 10
9.999999999999996
 20
-4.471461668901915
 30
0.0
 10
9.999999999999996
 20
-4.661510001917851
 30
0.0
 10
9.999999999999996
 20
-4.93697319320956
 30
0.0
 10
9.999999999999996
 20
-5.02242654100134
 30
0.0
 10
9.999999999999996
 20
-5.057975160655199
 30
0.0
  0
SPLINE
  5
D1
330
1F
100
AcDbEntity
  8
0
  6
Continuous
 62
   131
370
    15
100
AcDbSpline
210
0.0
220
0.0
230
1.0
 70
     8
 71
     3
 72
     8
 73
     4
 74
     0
 42
0.000000001
 43
0.00000001
 40
0.0
 40
0.0
 40
0.0
 40
0.0
 40
1.0
 40
1.0
 40
1.0
 40
1.0
 10
9.999999999999996
 20
-5.057975160655199
 30
0.0
 10
9.321441516318687
 20
-5.10056243661899
 30
0.0
 10
8.64865769587306
 20
-5.11081517548887
 30
0.0
 10
7.970001016817152
 20
-5.088592130008217
 30
0.0
  0
SPLINE
  5
D2
330
1F
100
AcDbEntity
  8
0
  6
Continuous
 62
   131
370
    15
100
AcDbSpline
210
0.0
220
0.0
230
1.0
 70
    24
 71
     3
 72
    10
 73
     6
 74
     0
 42
0.000000001
 43
0.00000001
 40
0.0
 40
0.0
 40
0.0
 40
0.0
 40
0.5
 40
0.5
 40
1.0
 40
1.0
 40
1.0
 40
1.0
 10
10.0
 20
5.35323423222588
 30
0.0
 10
10.0
 20
5.128456653315979
 30
0.0
 10
10.0
 20
4.855177163603365
 30
0.0
 10
10.0
 20
4.270125253620906
 30
0.0
 10
9.999999999999996
 20
3.960077253476897
 30
0.0
 10
9.999999999999996
 20
3.666126318206838
 30
0.0
  0
SPLINE
  5
D3
330
1F
100
AcDbEntity
  8
0
  6
Continuous
 62
   131
370
    15
100
AcDbSpline
210
0.0
220
0.0
230
1.0
 70
    24
 71
     3
 72
     8
 73
     4
 74
     0
 42
0.000000001
 43
0.00000001
 40
0.0
 40
0.0
 40
0.0
 40
0.0
 40
1.0
 40
1.0
 40
1.0
 40
1.0
 10
9.999999999999996
 20
-5.057975160655199
 30
0.0
 10
9.999999999999996
 20
-5.347519273308177
 30
0.0
 10
9.999999999999996
 20
-5.627837067952891
 30
0.0
 10
9.999999999999996
 20
-5.893411867548405
 30
0.0
  0
LINE
  5
D4
330
1F
100
AcDbEntity
  8
중심선
 62
     1
100
AcDbLine
 10
-43.00000000000001
 20
-0.0000000000000004
 30
0.0
 11
72.99999999999999
 21
0.0000000000000127
 31
0.0
  0
CIRCLE
  5
D5
330
1F
100
AcDbEntity
  8
외형선
100
AcDbCircle
 10
0.0000000000000104
 20
0.0
 30
0.0
 40
3.000000000000005
  0
INSERT
  5
D6
330
1F
100
AcDbEntity
  8
0
  6
Continuous
 62
     7
100
AcDbBlockReference
 66
     1
  2
블럭10
 10
-22.93944368806589
 20
-52.04609937292004
 30
0.0
  0
ATTRIB
  5
D7
330
D6
100
AcDbEntity
  8
FORMAT
 62
     2
100
AcDbText
 10
-39.05870472750145
 20
-49.97073246008785
 30
0.0
 40
4.233333333333333
  1
SEME7012060E [ 2 FLUTE ]
 41
0.75
  7
SLDTEXTSTYLE0
 11
-39.05870472750145
 21
-52.08739912675452
 31
0.0
100
AcDbAttribute
  2
AUTOATTR0
 70
     0
 74
     1
  0
SEQEND
  5
D8
330
D6
100
AcDbEntity
  8
0
  6
Continuous
 62
     7
  0
HATCH
  5
D9
330
1F
100
AcDbEntity
  8
중심선
100
AcDbHatch
 10
0.0
 20
0.0
 30
0.0
210
0.0
220
0.0
230
1.0
  2
SOLID
 70
     1
 71
     0
 91
        1
 92
        0
 93
        4
 72
     1
 10
-17.22453438368504
 20
-35.7989250712761
 11
-20.67080962752232
 21
-35.7989250712761
 72
     1
 10
-20.67080962752232
 20
-35.7989250712761
 11
-22.79903948672635
 21
-38.3352506518487
 72
     1
 10
-22.79903948672635
 20
-38.3352506518487
 11
-19.35273115777591
 21
-38.33521122254621
 72
     1
 10
-19.35273115777591
 20
-38.33521122254621
 11
-17.22453438368504
 21
-35.7989250712761
 97
        0
 75
     0
 76
     1
 98
        1
 10
0.0
 20
0.0
  0
HATCH
  5
DA
330
1F
100
AcDbEntity
  8
중심선
100
AcDbHatch
 10
0.0
 20
0.0
 30
0.0
210
0.0
220
0.0
230
1.0
  2
SOLID
 70
     1
 71
     0
 91
        1
 92
        0
 93
        4
 72
     1
 10
-12.21177039264909
 20
-35.7989250712761
 11
-15.65804563648637
 21
-35.7989250712761
 72
     1
 10
-15.65804563648637
 20
-35.7989250712761
 11
-20.18918364484376
 21
-41.19892507127612
 72
     1
 10
-20.18918364484376
 20
-41.19892507127612
 11
-16.74290840100648
 21
-41.19892507127612
 72
     1
 10
-16.74290840100648
 20
-41.19892507127612
 11
-12.21177039264909
 21
-35.7989250712761
 97
        0
 75
     0
 76
     1
 98
        1
 10
0.0
 20
0.0
  0
HATCH
  5
DB
330
1F
100
AcDbEntity
  8
중심선
100
AcDbHatch
 10
0.0
 20
0.0
 30
0.0
210
0.0
220
0.0
230
1.0
  2
SOLID
 70
     1
 71
     0
 91
        1
 92
        0
 93
        4
 72
     1
 10
-7.199006401613195
 20
-35.79892507127613
 11
-10.64528164545031
 21
-35.7989250712761
 72
     1
 10
-10.64528164545031
 20
-35.7989250712761
 11
-17.69371854733956
 21
-44.19892507127612
 72
     1
 10
-17.69371854733956
 20
-44.19892507127612
 11
-14.24744330350228
 21
-44.19892507127612
 72
     1
 10
-14.24744330350228
 20
-44.19892507127612
 11
-7.199006401613195
 21
-35.79892507127613
 97
        0
 75
     0
 76
     1
 98
        1
 10
0.0
 20
0.0
  0
HATCH
  5
DC
330
1F
100
AcDbEntity
  8
중심선
100
AcDbHatch
 10
0.0
 20
0.0
 30
0.0
210
0.0
220
0.0
230
1.0
  2
SOLID
 70
     1
 71
     0
 91
        1
 92
        0
 93
        6
 72
     3
 10
-2.399115970600996
 20
-39.99892507132738
 11
3.960054785062284
 21
1.540850780301639E-10
 40
0.3939339440162633
 50
17.09539180608433
 51
320.0019657685079
 73
     0
 72
     1
 10
-0.7161163149004002
 20
-38.58681907591441
 11
1.589185558800638
 21
-36.65249236586649
 72
     3
 10
-2.399115970653842
 20
-39.99892507127625
 11
6.600054785286829
 21
-1.249000902703301E-13
 40
0.6363583540795982
 50
39.99873849337408
 51
368.4976242363725
 73
     1
 72
     1
 10
4.026216521246767
 20
-39.03892507120613
 11
-3.71904866381792
 21
-39.0389250712061
 72
     1
 10
-3.71904866381792
 20
-39.0389250712061
 11
-3.719073708263854
 21
-40.95892507120602
 72
     1
 10
-3.719073708263854
 20
-40.95892507120602
 11
0.7223060612081831
 21
-40.95892507120599
 97
        0
 75
     0
 76
     1
 98
        1
 10
0.0
 20
0.0
  0
DIMENSION
  5
DD
330
1F
100
AcDbEntity
  8
치수문자_일반주서
100
AcDbDimension
  2
_D
 10
83.36486935346478
 20
6.000000000000277
 30
0.0
 11
83.36486935346474
 21
16.54150000000028
 31
0.0
 70
   160
  1
%%c<>
 71
     2
 42
12.0
 52
-270.0
  3
SLDDIMSTYLE0
100
AcDbAlignedDimension
 13
69.99999999999999
 23
-5.999999999999769
 33
0.0
 14
69.99999999999972
 24
6.000000000000227
 34
0.0
 50
90.0000000000002
100
AcDbRotatedDimension
  0
DIMENSION
  5
EB
330
1F
100
AcDbEntity
  8
치수문자_일반주서
100
AcDbDimension
  2
_D_1
 10
69.99999999999972
 20
26.7884104402427
 30
0.0
 11
14.99999999999985
 21
26.7884104402427
 31
0.0
 70
   160
  1
<>
 71
     2
 42
109.9999999999997
  3
SLDDIMSTYLE1
100
AcDbAlignedDimension
 13
-40.0
 23
4.999999999999999
 33
0.0
 14
69.99999999999972
 24
6.000000000000227
 34
0.0
 50
-0.0000000000000037
100
AcDbRotatedDimension
  0
DIMENSION
  5
F6
330
1F
100
AcDbEntity
  8
치수문자_일반주서
100
AcDbDimension
  2
_D_2
 10
69.99999999999972
 20
19.24040967371729
 30
0.0
 11
40.0
 21
19.24040967371729
 31
0.0
 70
   160
  1
<>
 71
     2
 42
59.99999999999972
  3
SLDDIMSTYLE1
100
AcDbAlignedDimension
 13
9.999999999999996
 23
5.893411867549767
 33
0.0
 14
69.99999999999972
 24
6.000000000000227
 34
0.0
 50
-0.0000000000000034
100
AcDbRotatedDimension
  0
DIMENSION
  5
100
330
1F
100
AcDbEntity
  8
치수문자_일반주서
100
AcDbDimension
  2
_D_3
 10
-50.87499793642748
 20
-6.000000000000039
 30
0.0
 11
-50.87499793642755
 21
16.54149999999996
 31
0.0
 70
   160
  1
%%c<>
 71
     2
 42
11.99999999999999
 52
-270.0
  3
SLDDIMSTYLE0
100
AcDbAlignedDimension
 13
-39.0
 23
6.0
 33
0.0
 14
-39.0
 24
-5.999999999999995
 34
0.0
 50
90.0000000000002
100
AcDbRotatedDimension
  0
INSERT
  5
113
330
1F
100
AcDbEntity
  8
외형선
100
AcDbBlockReference
  2
SW_DOWELSYMBOL_0
 10
0.0000000000000104
 20
0.0
 30
0.0
  0
ENDSEC
  0
SECTION
  2
OBJECTS
  0
DICTIONARY
  5
C
330
0
100
AcDbDictionary
281
     1
  3
ACAD_GROUP
350
D
  3
ACAD_IMAGE_VARS
350
137
  3
ACAD_LAYOUT
350
1A
  3
ACAD_MLINESTYLE
350
17
  3
ACAD_PLOTSETTINGS
350
19
  3
ACAD_PLOTSTYLENAME
350
E
  3
ACAD_SCALELIST
350
47
  3
APPDATA
350
135
  3
DWGPROPS
350
145
  0
DICTIONARY
  5
D
102
{ACAD_REACTORS
330
C
102
}
330
C
100
AcDbDictionary
281
     1
  0
RASTERVARIABLES
  5
137
102
{ACAD_REACTORS
330
C
102
}
330
C
100
AcDbRasterVariables
 90
        0
 70
     1
 71
     1
 72
     1
  0
DICTIONARY
  5
1A
102
{ACAD_REACTORS
330
C
102
}
330
C
100
AcDbDictionary
281
     1
  3
Layout1
350
1E
  3
Layout2
350
26
  3
Model
350
22
  0
DICTIONARY
  5
17
102
{ACAD_REACTORS
330
C
102
}
330
C
100
AcDbDictionary
281
     1
  3
Standard
350
18
  0
DICTIONARY
  5
19
102
{ACAD_REACTORS
330
C
102
}
330
C
100
AcDbDictionary
281
     1
  0
ACDBDICTIONARYWDFLT
  5
E
102
{ACAD_REACTORS
330
C
102
}
330
C
100
AcDbDictionary
281
     1
  3
Normal
350
F
100
AcDbDictionaryWithDefault
340
F
  0
DICTIONARY
  5
47
102
{ACAD_REACTORS
330
C
102
}
330
C
100
AcDbDictionary
281
     1
  3
A0
350
48
  3
A1
350
49
  3
A2
350
4A
  3
A3
350
4B
  3
A4
350
4C
  3
A5
350
4D
  3
A6
350
4E
  3
A7
350
4F
  3
A8
350
50
  3
A9
350
51
  3
B0
350
52
  3
B1
350
53
  3
B2
350
54
  3
B3
350
55
  3
B4
350
56
  3
B5
350
57
  3
B6
350
58
  3
B7
350
59
  3
B8
350
5A
  3
B9
350
5B
  3
C0
350
5C
  3
C1
350
5D
  3
C2
350
5E
  3
C3
350
5F
  3
C4
350
60
  3
C5
350
61
  3
C6
350
62
  3
C7
350
63
  3
C8
350
64
  3
C9
350
65
  3
D0
350
66
  3
D1
350
67
  3
D2
350
68
  0
DICTIONARY
  5
135
102
{ACAD_REACTORS
330
C
102
}
330
C
100
AcDbDictionary
281
     1
  0
XRECORD
  5
145
102
{ACAD_REACTORS
330
C
102
}
330
C
100
AcDbXrecord
280
     1
  1
DWGPROPS COOKIE
  2

  3

  4

  6

  7

  8
12014102
  9

300
=
301
=
302
=
303
=
304
=
305
=
306
=
307
=
308
=
309
=
 40
0.0
 41
2458262.173863993
 42
2458266.166306898
  1

 90
        0
  0
LAYOUT
  5
1E
102
{ACAD_REACTORS
330
1A
102
}
330
1A
100
AcDbPlotSettings
  1

  2
none_device
  4

  6

 40
0.0
 41
0.0
 42
0.0
 43
0.0
 44
0.0
 45
0.0
 46
0.0
 47
0.0
 48
0.0
 49
0.0
140
0.0
141
0.0
142
1.0
143
1.0
 70
   688
 72
     1
 73
     0
 74
     5
  7

 75
    16
147
1.0
148
0.0
149
0.0
100
AcDbLayout
  1
Layout1
 70
     1
 71
     1
 10
0.0
 20
0.0
 11
420.0
 21
297.0
 12
0.0
 22
0.0
 32
0.0
 14
1.000000000000000E+20
 24
1.000000000000000E+20
 34
1.000000000000000E+20
 15
-1.000000000000000E+20
 25
-1.000000000000000E+20
 35
-1.000000000000000E+20
146
0.0
 13
0.0
 23
0.0
 33
0.0
 16
1.0
 26
0.0
 36
0.0
 17
0.0
 27
1.0
 37
0.0
 76
     0
330
1B
  0
LAYOUT
  5
26
102
{ACAD_REACTORS
330
1A
102
}
330
1A
100
AcDbPlotSettings
  1

  2
none_device
  4

  6

 40
0.0
 41
0.0
 42
0.0
 43
0.0
 44
0.0
 45
0.0
 46
0.0
 47
0.0
 48
0.0
 49
0.0
140
0.0
141
0.0
142
1.0
143
1.0
 70
   688
 72
     1
 73
     0
 74
     5
  7

 75
    16
147
1.0
148
0.0
149
0.0
100
AcDbLayout
  1
Layout2
 70
     1
 71
     2
 10
0.0
 20
0.0
 11
0.0
 21
0.0
 12
0.0
 22
0.0
 32
0.0
 14
0.0
 24
0.0
 34
0.0
 15
0.0
 25
0.0
 35
0.0
146
0.0
 13
0.0
 23
0.0
 33
0.0
 16
1.0
 26
0.0
 36
0.0
 17
0.0
 27
1.0
 37
0.0
 76
     0
330
23
  0
LAYOUT
  5
22
102
{ACAD_REACTORS
330
1A
102
}
330
1A
100
AcDbPlotSettings
  1

  2
none_device
  4
ANSI_A_(11.00_x_8.50_Inches)
  6

 40
6.35
 41
19.05
 42
6.35000508
 43
19.05000254
 44
279.4
 45
215.9
 46
107.0898543276009
 47
110.1986378576956
 48
0.0
 49
0.0
140
0.0
141
0.0
142
0.0863862919975999
143
1.0
 70
  1696
 72
     0
 73
     0
 74
     0
  7

 75
     0
147
0.0235690232323232
148
0.0
149
0.0
100
AcDbLayout
  1
Model
 70
     1
 71
     0
 10
0.0
 20
0.0
 11
420.0
 21
297.0
 12
0.0
 22
0.0
 32
0.0
 14
-55.24999793642756
 24
-49.97073246008785
 34
0.0
 15
83.91520268679817
 25
31.1634104402427
 35
0.0
146
0.0
 13
0.0
 23
0.0
 33
0.0
 16
1.0
 26
0.0
 36
0.0
 17
0.0
 27
1.0
 37
0.0
 76
     0
330
1F
331
29
  0
MLINESTYLE
  5
18
102
{ACAD_REACTORS
330
17
102
}
330
17
100
AcDbMlineStyle
  2
Standard
 70
     0
  3

 62
   256
 51
90.0
 52
90.0
 71
     2
 49
0.5
 62
   256
  6
BYLAYER
 49
-0.5
 62
   256
  6
BYLAYER
  0
ACDBPLACEHOLDER
  5
F
102
{ACAD_REACTORS
330
E
102
}
330
E
  0
SCALE
  5
48
102
{ACAD_REACTORS
330
47
102
}
330
47
100
AcDbScale
 70
     0
300
1:1
140
1.0
141
1.0
290
     1
  0
SCALE
  5
49
102
{ACAD_REACTORS
330
47
102
}
330
47
100
AcDbScale
 70
     0
300
1:2
140
1.0
141
2.0
290
     0
  0
SCALE
  5
4A
102
{ACAD_REACTORS
330
47
102
}
330
47
100
AcDbScale
 70
     0
300
1:4
140
1.0
141
4.0
290
     0
  0
SCALE
  5
4B
102
{ACAD_REACTORS
330
47
102
}
330
47
100
AcDbScale
 70
     0
300
1:5
140
1.0
141
5.0
290
     0
  0
SCALE
  5
4C
102
{ACAD_REACTORS
330
47
102
}
330
47
100
AcDbScale
 70
     0
300
1:8
140
1.0
141
8.0
290
     0
  0
SCALE
  5
4D
102
{ACAD_REACTORS
330
47
102
}
330
47
100
AcDbScale
 70
     0
300
1:10
140
1.0
141
10.0
290
     0
  0
SCALE
  5
4E
102
{ACAD_REACTORS
330
47
102
}
330
47
100
AcDbScale
 70
     0
300
1:16
140
1.0
141
16.0
290
     0
  0
SCALE
  5
4F
102
{ACAD_REACTORS
330
47
102
}
330
47
100
AcDbScale
 70
     0
300
1:20
140
1.0
141
20.0
290
     0
  0
SCALE
  5
50
102
{ACAD_REACTORS
330
47
102
}
330
47
100
AcDbScale
 70
     0
300
1:30
140
1.0
141
30.0
290
     0
  0
SCALE
  5
51
102
{ACAD_REACTORS
330
47
102
}
330
47
100
AcDbScale
 70
     0
300
1:40
140
1.0
141
40.0
290
     0
  0
SCALE
  5
52
102
{ACAD_REACTORS
330
47
102
}
330
47
100
AcDbScale
 70
     0
300
1:50
140
1.0
141
50.0
290
     0
  0
SCALE
  5
53
102
{ACAD_REACTORS
330
47
102
}
330
47
100
AcDbScale
 70
     0
300
1:100
140
1.0
141
100.0
290
     0
  0
SCALE
  5
54
102
{ACAD_REACTORS
330
47
102
}
330
47
100
AcDbScale
 70
     0
300
2:1
140
2.0
141
1.0
290
     0
  0
SCALE
  5
55
102
{ACAD_REACTORS
330
47
102
}
330
47
100
AcDbScale
 70
     0
300
4:1
140
4.0
141
1.0
290
     0
  0
SCALE
  5
56
102
{ACAD_REACTORS
330
47
102
}
330
47
100
AcDbScale
 70
     0
300
8:1
140
8.0
141
1.0
290
     0
  0
SCALE
  5
57
102
{ACAD_REACTORS
330
47
102
}
330
47
100
AcDbScale
 70
     0
300
10:1
140
10.0
141
1.0
290
     0
  0
SCALE
  5
58
102
{ACAD_REACTORS
330
47
102
}
330
47
100
AcDbScale
 70
     0
300
100:1
140
100.0
141
1.0
290
     0
  0
SCALE
  5
59
102
{ACAD_REACTORS
330
47
102
}
330
47
100
AcDbScale
 70
     0
300
1/128" = 1'-0"
140
0.0078125
141
12.0
290
     0
  0
SCALE
  5
5A
102
{ACAD_REACTORS
330
47
102
}
330
47
100
AcDbScale
 70
     0
300
1/64" = 1'-0"
140
0.015625
141
12.0
290
     0
  0
SCALE
  5
5B
102
{ACAD_REACTORS
330
47
102
}
330
47
100
AcDbScale
 70
     0
300
1/32" = 1'-0"
140
0.03125
141
12.0
290
     0
  0
SCALE
  5
5C
102
{ACAD_REACTORS
330
47
102
}
330
47
100
AcDbScale
 70
     0
300
1/16" = 1'-0"
140
0.0625
141
12.0
290
     0
  0
SCALE
  5
5D
102
{ACAD_REACTORS
330
47
102
}
330
47
100
AcDbScale
 70
     0
300
3/32" = 1'-0"
140
0.09375
141
12.0
290
     0
  0
SCALE
  5
5E
102
{ACAD_REACTORS
330
47
102
}
330
47
100
AcDbScale
 70
     0
300
1/8" = 1'-0"
140
0.125
141
12.0
290
     0
  0
SCALE
  5
5F
102
{ACAD_REACTORS
330
47
102
}
330
47
100
AcDbScale
 70
     0
300
3/16" = 1'-0"
140
0.1875
141
12.0
290
     0
  0
SCALE
  5
60
102
{ACAD_REACTORS
330
47
102
}
330
47
100
AcDbScale
 70
     0
300
1/4" = 1'-0"
140
0.25
141
12.0
290
     0
  0
SCALE
  5
61
102
{ACAD_REACTORS
330
47
102
}
330
47
100
AcDbScale
 70
     0
300
3/8" = 1'-0"
140
0.375
141
12.0
290
     0
  0
SCALE
  5
62
102
{ACAD_REACTORS
330
47
102
}
330
47
100
AcDbScale
 70
     0
300
1/2" = 1'-0"
140
0.5
141
12.0
290
     0
  0
SCALE
  5
63
102
{ACAD_REACTORS
330
47
102
}
330
47
100
AcDbScale
 70
     0
300
3/4" = 1'-0"
140
0.75
141
12.0
290
     0
  0
SCALE
  5
64
102
{ACAD_REACTORS
330
47
102
}
330
47
100
AcDbScale
 70
     0
300
1" = 1'-0"
140
1.0
141
12.0
290
     0
  0
SCALE
  5
65
102
{ACAD_REACTORS
330
47
102
}
330
47
100
AcDbScale
 70
     0
300
1-1/2" = 1'-0"
140
1.5
141
12.0
290
     0
  0
SCALE
  5
66
102
{ACAD_REACTORS
330
47
102
}
330
47
100
AcDbScale
 70
     0
300
3" = 1'-0"
140
3.0
141
12.0
290
     0
  0
SCALE
  5
67
102
{ACAD_REACTORS
330
47
102
}
330
47
100
AcDbScale
 70
     0
300
6" = 1'-0"
140
6.0
141
12.0
290
     0
  0
SCALE
  5
68
102
{ACAD_REACTORS
330
47
102
}
330
47
100
AcDbScale
 70
     0
300
1'-0" = 1'-0"
140
12.0
141
12.0
290
     0
  0
ENDSEC
  0
EOF
