  0
SECTION
  2
HEADER
  9
$ACADVER
  1
AC1015
  9
$ACADMAINTVER
 70
     6
  9
$DWGCODEPAGE
  3
ANSI_949
  9
$INSBASE
 10
0.0
 20
0.0
 30
0.0
  9
$EXTMIN
 10
-90.69109357207982
 20
-49.97073246008785
 30
0.0
  9
$EXTMAX
 10
90.59467327252442
 20
31.16341044024269
 30
0.0
  9
$LIMMIN
 10
0.0
 20
0.0
  9
$LIMMAX
 10
420.0
 20
297.0
  9
$ORTHOMODE
 70
     0
  9
$REGENMODE
 70
     1
  9
$FILLMODE
 70
     1
  9
$QTEXTMODE
 70
     0
  9
$MIRRTEXT
 70
     1
  9
$LTSCALE
 40
1.0
  9
$ATTMODE
 70
     1
  9
$TEXTSIZE
 40
3.5
  9
$TRACEWID
 40
1.0
  9
$TEXTSTYLE
  7
Standard
  9
$CLAYER
  8
0
  9
$CELTYPE
  6
ByLayer
  9
$CECOLOR
 62
   256
  9
$CELTSCALE
 40
1.0
  9
$DISPSILH
 70
     0
  9
$DIMSCALE
 40
1.0
  9
$DIMASZ
 40
3.302
  9
$DIMEXO
 40
1.0
  9
$DIMDLI
 40
3.75
  9
$DIMRND
 40
0.0
  9
$DIMDLE
 40
0.0
  9
$DIMEXE
 40
1.0
  9
$DIMTP
 40
0.0
  9
$DIMTM
 40
0.0
  9
$DIMTXT
 40
3.5
  9
$DIMCEN
 40
2.5
  9
$DIMTSZ
 40
0.0
  9
$DIMTOL
 70
     0
  9
$DIMLIM
 70
     0
  9
$DIMTIH
 70
     1
  9
$DIMTOH
 70
     1
  9
$DIMSE1
 70
     0
  9
$DIMSE2
 70
     0
  9
$DIMTAD
 70
     1
  9
$DIMZIN
 70
     0
  9
$DIMBLK
  1

  9
$DIMASO
 70
     1
  9
$DIMSHO
 70
     1
  9
$DIMPOST
  1

  9
$DIMAPOST
  1

  9
$DIMALT
 70
     0
  9
$DIMALTD
 70
     3
  9
$DIMALTF
 40
0.0393700787401575
  9
$DIMLFAC
 40
1.0
  9
$DIMTOFL
 70
     1
  9
$DIMTVP
 40
0.0
  9
$DIMTIX
 70
     0
  9
$DIMSOXD
 70
     0
  9
$DIMSAH
 70
     0
  9
$DIMBLK1
  1

  9
$DIMBLK2
  1

  9
$DIMSTYLE
  2
ISO-25
  9
$DIMCLRD
 70
     0
  9
$DIMCLRE
 70
     0
  9
$DIMCLRT
 70
     0
  9
$DIMTFAC
 40
1.0
  9
$DIMGAP
 40
1.524
  9
$DIMJUST
 70
     0
  9
$DIMSD1
 70
     0
  9
$DIMSD2
 70
     0
  9
$DIMTOLJ
 70
     0
  9
$DIMTZIN
 70
     0
  9
$DIMALTZ
 70
     0
  9
$DIMALTTZ
 70
     0
  9
$DIMUPT
 70
     0
  9
$DIMDEC
 70
     2
  9
$DIMTDEC
 70
     2
  9
$DIMALTU
 70
     2
  9
$DIMALTTD
 70
     3
  9
$DIMTXSTY
  7
Standard
  9
$DIMAUNIT
 70
     0
  9
$DIMADEC
 70
     2
  9
$DIMALTRND
 40
0.0
  9
$DIMAZIN
 70
     0
  9
$DIMDSEP
 70
    44
  9
$DIMATFIT
 70
     3
  9
$DIMFRAC
 70
     0
  9
$DIMLDRBLK
  1

  9
$DIMLUNIT
 70
     2
  9
$DIMLWD
 70
    -2
  9
$DIMLWE
 70
    -2
  9
$DIMTMOVE
 70
     0
  9
$LUNITS
 70
     2
  9
$LUPREC
 70
     2
  9
$SKETCHINC
 40
1.0
  9
$FILLETRAD
 40
10.0
  9
$AUNITS
 70
     0
  9
$AUPREC
 70
     2
  9
$MENU
  1
.
  9
$ELEVATION
 40
0.0
  9
$PELEVATION
 40
0.0
  9
$THICKNESS
 40
0.0
  9
$LIMCHECK
 70
     0
  9
$CHAMFERA
 40
0.0
  9
$CHAMFERB
 40
0.0
  9
$CHAMFERC
 40
0.0
  9
$CHAMFERD
 40
0.0
  9
$SKPOLY
 70
     0
  9
$TDCREATE
 40
2458262.549051192
  9
$TDUCREATE
 40
2458262.174051192
  9
$TDUPDATE
 40
2458266.544440474
  9
$TDUUPDATE
 40
2458266.169440474
  9
$TDINDWG
 40
0.0020039236
  9
$TDUSRTIMER
 40
2458266.167436597
  9
$USRTIMER
 70
     1
  9
$ANGBASE
 50
0.0
  9
$ANGDIR
 70
     0
  9
$PDMODE
 70
     0
  9
$PDSIZE
 40
-1.0
  9
$PLINEWID
 40
0.0
  9
$SPLFRAME
 70
     0
  9
$SPLINETYPE
 70
     6
  9
$SPLINESEGS
 70
     8
  9
$HANDSEED
  5
146
  9
$SURFTAB1
 70
     6
  9
$SURFTAB2
 70
     6
  9
$SURFTYPE
 70
     6
  9
$SURFU
 70
     6
  9
$SURFV
 70
     6
  9
$UCSBASE
  2

  9
$UCSNAME
  2

  9
$UCSORG
 10
0.0
 20
0.0
 30
0.0
  9
$UCSXDIR
 10
1.0
 20
0.0
 30
0.0
  9
$UCSYDIR
 10
0.0
 20
1.0
 30
0.0
  9
$UCSORTHOREF
  2

  9
$UCSORTHOVIEW
 70
     0
  9
$UCSORGTOP
 10
0.0
 20
0.0
 30
0.0
  9
$UCSORGBOTTOM
 10
0.0
 20
0.0
 30
0.0
  9
$UCSORGLEFT
 10
0.0
 20
0.0
 30
0.0
  9
$UCSORGRIGHT
 10
0.0
 20
0.0
 30
0.0
  9
$UCSORGFRONT
 10
0.0
 20
0.0
 30
0.0
  9
$UCSORGBACK
 10
0.0
 20
0.0
 30
0.0
  9
$PUCSBASE
  2

  9
$PUCSNAME
  2

  9
$PUCSORG
 10
0.0
 20
0.0
 30
0.0
  9
$PUCSXDIR
 10
1.0
 20
0.0
 30
0.0
  9
$PUCSYDIR
 10
0.0
 20
1.0
 30
0.0
  9
$PUCSORTHOREF
  2

  9
$PUCSORTHOVIEW
 70
     0
  9
$PUCSORGTOP
 10
0.0
 20
0.0
 30
0.0
  9
$PUCSORGBOTTOM
 10
0.0
 20
0.0
 30
0.0
  9
$PUCSORGLEFT
 10
0.0
 20
0.0
 30
0.0
  9
$PUCSORGRIGHT
 10
0.0
 20
0.0
 30
0.0
  9
$PUCSORGFRONT
 10
0.0
 20
0.0
 30
0.0
  9
$PUCSORGBACK
 10
0.0
 20
0.0
 30
0.0
  9
$USERI1
 70
     0
  9
$USERI2
 70
     0
  9
$USERI3
 70
     0
  9
$USERI4
 70
     0
  9
$USERI5
 70
     0
  9
$USERR1
 40
0.0
  9
$USERR2
 40
0.0
  9
$USERR3
 40
0.0
  9
$USERR4
 40
0.0
  9
$USERR5
 40
0.0
  9
$WORLDVIEW
 70
     1
  9
$SHADEDGE
 70
     3
  9
$SHADEDIF
 70
    70
  9
$TILEMODE
 70
     1
  9
$MAXACTVP
 70
    64
  9
$PINSBASE
 10
0.0
 20
0.0
 30
0.0
  9
$PLIMCHECK
 70
     0
  9
$PEXTMIN
 10
1.000000000000000E+20
 20
1.000000000000000E+20
 30
1.000000000000000E+20
  9
$PEXTMAX
 10
-1.000000000000000E+20
 20
-1.000000000000000E+20
 30
-1.000000000000000E+20
  9
$PLIMMIN
 10
0.0
 20
0.0
  9
$PLIMMAX
 10
0.0
 20
0.0
  9
$UNITMODE
 70
     0
  9
$VISRETAIN
 70
     1
  9
$PLINEGEN
 70
     0
  9
$PSLTSCALE
 70
     1
  9
$TREEDEPTH
 70
  3020
  9
$CMLSTYLE
  2
Standard
  9
$CMLJUST
 70
     0
  9
$CMLSCALE
 40
20.0
  9
$PROXYGRAPHICS
 70
     1
  9
$MEASUREMENT
 70
     1
  9
$CELWEIGHT
370
    -1
  9
$ENDCAPS
280
     0
  9
$JOINSTYLE
280
     0
  9
$LWDISPLAY
290
     1
  9
$INSUNITS
 70
     4
  9
$HYPERLINKBASE
  1

  9
$STYLESHEET
  1

  9
$XEDIT
290
     1
  9
$CEPSNTYPE
380
     0
  9
$PSTYLEMODE
290
     1
  9
$FINGERPRINTGUID
  2
{2535BB3D-6E71-4A6B-A50C-277674E623FC}
  9
$VERSIONGUID
  2
{FAEB1C32-E019-11D5-929B-00C0DF256EC4}
  9
$EXTNAMES
290
     1
  9
$PSVPSCALE
 40
0.0
  9
$OLESTARTUP
290
     0
  0
ENDSEC
  0
SECTION
  2
CLASSES
  0
CLASS
  1
ACDBDICTIONARYWDFLT
  2
AcDbDictionaryWithDefault
  3
ObjectDBX Classes
 90
        0
280
     0
281
     0
  0
CLASS
  1
VISUALSTYLE
  2
AcDbVisualStyle
  3
ObjectDBX Classes
 90
     4095
280
     0
281
     0
  0
CLASS
  1
MATERIAL
  2
AcDbMaterial
  3
ObjectDBX Classes
 90
     1153
280
     0
281
     0
  0
CLASS
  1
SCALE
  2
AcDbScale
  3
ObjectDBX Classes
 90
     1153
280
     0
281
     0
  0
CLASS
  1
SUN
  2
AcDbSun
  3
SCENEOE
 90
     1153
280
     0
281
     0
  0
CLASS
  1
ACDBPLACEHOLDER
  2
AcDbPlaceHolder
  3
ObjectDBX Classes
 90
        0
280
     0
281
     0
  0
CLASS
  1
LAYOUT
  2
AcDbLayout
  3
ObjectDBX Classes
 90
        0
280
     0
281
     0
  0
CLASS
  1
TABLESTYLE
  2
AcDbTableStyle
  3
ObjectDBX Classes
 90
     4095
280
     0
281
     0
  0
CLASS
  1
MLEADERSTYLE
  2
AcDbMLeaderStyle
  3
ACDB_MLEADERSTYLE_CLASS
 90
     4095
280
     0
281
     0
  0
CLASS
  1
RASTERVARIABLES
  2
AcDbRasterVariables
  3
ISM
 90
        0
280
     0
281
     0
  0
ENDSEC
  0
SECTION
  2
TABLES
  0
TABLE
  2
VPORT
  5
8
330
0
100
AcDbSymbolTable
 70
     1
  0
VPORT
  5
29
330
8
100
AcDbSymbolTableRecord
100
AcDbViewportTableRecord
  2
*Active
 70
     0
 10
0.0
 20
0.0
 11
1.0
 21
1.0
 12
-0.0482101497777023
 22
-9.403661009922587
 13
0.0
 23
0.0
 14
10.0
 24
10.0
 15
10.0
 25
10.0
 16
0.0
 26
0.0
 36
1.0
 17
0.0
 27
0.0
 37
0.0
 40
160.4500977673522
 41
1.152454780361757
 42
50.0
 43
0.0
 44
0.0
 50
0.0
 51
0.0
 71
    16
 72
  2000
 73
     1
 74
     3
 75
     0
 76
     0
 77
     0
 78
     0
281
     0
 65
     1
110
0.0
120
0.0
130
0.0
111
1.0
121
0.0
131
0.0
112
0.0
122
1.0
132
0.0
 79
     0
146
0.0
  0
ENDTAB
  0
TABLE
  2
LTYPE
  5
5
330
0
100
AcDbSymbolTable
 70
     6
  0
LTYPE
  5
14
330
5
100
AcDbSymbolTableRecord
100
AcDbLinetypeTableRecord
  2
ByBlock
 70
     0
  3

 72
    65
 73
     0
 40
0.0
  0
LTYPE
  5
15
330
5
100
AcDbSymbolTableRecord
100
AcDbLinetypeTableRecord
  2
ByLayer
 70
     0
  3

 72
    65
 73
     0
 40
0.0
  0
LTYPE
  5
16
330
5
100
AcDbSymbolTableRecord
100
AcDbLinetypeTableRecord
  2
Continuous
 70
     0
  3
Solid line
 72
    65
 73
     0
 40
0.0
  0
LTYPE
  5
6A
330
5
100
AcDbSymbolTableRecord
100
AcDbLinetypeTableRecord
  2
HIDDEN
 70
     0
  3
Hidden __ __ __ __ __ __ __ __ __ __ __ __ __ __
 72
    65
 73
     2
 40
1.905
 49
1.27
 74
     0
 49
-0.635
 74
     0
  0
LTYPE
  5
6B
330
5
100
AcDbSymbolTableRecord
100
AcDbLinetypeTableRecord
  2
PHANTOM
 70
     0
  3
Phantom ______  __  __  ______  __  __  ______
 72
    65
 73
     6
 40
12.7
 49
6.35
 74
     0
 49
-1.27
 74
     0
 49
1.27
 74
     0
 49
-1.27
 74
     0
 49
1.27
 74
     0
 49
-1.27
 74
     0
  0
LTYPE
  5
6C
330
5
100
AcDbSymbolTableRecord
100
AcDbLinetypeTableRecord
  2
CENTER
 70
     0
  3
Center ____ _ ____ _ ____ _ ____ _ ____ _ ____
 72
    65
 73
     4
 40
10.16
 49
6.35
 74
     0
 49
-1.27
 74
     0
 49
1.27
 74
     0
 49
-1.27
 74
     0
  0
LTYPE
  5
6D
330
5
100
AcDbSymbolTableRecord
100
AcDbLinetypeTableRecord
  2
CENTERX2
 70
     0
  3
Center (2x) ________  __  ________  __  _____
 72
    65
 73
     4
 40
20.32
 49
12.7
 74
     0
 49
-2.54
 74
     0
 49
2.54
 74
     0
 49
-2.54
 74
     0
  0
LTYPE
  5
6E
330
5
100
AcDbSymbolTableRecord
100
AcDbLinetypeTableRecord
  2
DOT2
 70
     0
  3
Dot (.5x) ........................................
 72
    65
 73
     2
 40
0.635
 49
0.0
 74
     0
 49
-0.635
 74
     0
  0
ENDTAB
  0
TABLE
  2
LAYER
  5
2
330
0
100
AcDbSymbolTable
 70
    17
  0
LAYER
  5
10
330
2
100
AcDbSymbolTableRecord
100
AcDbLayerTableRecord
  2
0
 70
     0
 62
     7
  6
Continuous
370
    -3
390
F
  0
LAYER
  5
6F
330
2
100
AcDbSymbolTableRecord
100
AcDbLayerTableRecord
  2
FORMAT
 70
     0
 62
     2
  6
Continuous
370
    -3
390
F
  0
LAYER
  5
70
330
2
100
AcDbSymbolTableRecord
100
AcDbLayerTableRecord
  2
외형선
 70
     0
 62
   100
  6
Continuous
370
    30
390
F
  0
LAYER
  5
71
330
2
100
AcDbSymbolTableRecord
100
AcDbLayerTableRecord
  2
숨은선
 70
     0
 62
     2
  6
HIDDEN
370
    15
390
F
  0
LAYER
  5
72
330
2
100
AcDbSymbolTableRecord
100
AcDbLayerTableRecord
  2
중심선
 70
     0
 62
     1
  6
CENTERX2
370
    -3
390
F
  0
LAYER
  5
73
330
2
100
AcDbSymbolTableRecord
100
AcDbLayerTableRecord
  2
파단선
 70
     0
 62
     4
  6
Continuous
370
    -3
390
F
  0
LAYER
  5
74
330
2
100
AcDbSymbolTableRecord
100
AcDbLayerTableRecord
  2
해칭선
 70
     0
 62
     4
  6
Continuous
370
    -3
390
F
  0
LAYER
  5
75
330
2
100
AcDbSymbolTableRecord
100
AcDbLayerTableRecord
  2
가는실선
 70
     0
 62
     4
  6
Continuous
370
    -3
390
F
  0
LAYER
  5
76
330
2
100
AcDbSymbolTableRecord
100
AcDbLayerTableRecord
  2
치수_보조선
 70
     0
 62
     4
  6
Continuous
370
    -3
390
F
  0
LAYER
  5
77
330
2
100
AcDbSymbolTableRecord
100
AcDbLayerTableRecord
  2
치수문자_일반주서
 70
     0
 62
     7
  6
Continuous
370
    15
390
F
  0
LAYER
  5
78
330
2
100
AcDbSymbolTableRecord
100
AcDbLayerTableRecord
  2
개별주서
 70
     0
 62
   100
  6
Continuous
370
    30
390
F
  0
LAYER
  5
79
330
2
100
AcDbSymbolTableRecord
100
AcDbLayerTableRecord
  2
중간선
 70
     0
 62
     2
  6
Continuous
370
    15
390
F
  0
LAYER
  5
7A
330
2
100
AcDbSymbolTableRecord
100
AcDbLayerTableRecord
  2
윤곽선
 70
     0
 62
     3
  6
Continuous
370
    40
390
F
  0
LAYER
  5
7B
330
2
100
AcDbSymbolTableRecord
100
AcDbLayerTableRecord
  2
중심마크
 70
     0
 62
   100
  6
Continuous
370
    30
390
F
  0
LAYER
  5
7C
330
2
100
AcDbSymbolTableRecord
100
AcDbLayerTableRecord
  2
가상선
 70
     0
 62
     4
  6
PHANTOM
370
    -3
390
F
  0
LAYER
  5
7D
330
2
100
AcDbSymbolTableRecord
100
AcDbLayerTableRecord
  2
특수지정선
 70
     0
 62
     5
  6
CENTERX2
370
    60
390
F
  0
LAYER
  5
138
330
2
100
AcDbSymbolTableRecord
100
AcDbLayerTableRecord
  2
Defpoints
 70
     0
 62
     7
  6
Continuous
290
     0
370
    -3
390
F
  0
ENDTAB
  0
TABLE
  2
STYLE
  5
3
330
0
100
AcDbSymbolTable
 70
     2
  0
STYLE
  5
11
330
3
100
AcDbSymbolTableRecord
100
AcDbTextStyleTableRecord
  2
Standard
 70
     0
 40
0.0
 41
1.0
 50
0.0
 71
     0
 42
3.5
  3
txt
  4

  0
STYLE
  5
93
330
3
100
AcDbSymbolTableRecord
100
AcDbTextStyleTableRecord
  2
SLDTEXTSTYLE0
 70
     0
 40
0.0
 41
0.75
 50
0.0
 71
     0
 42
3.5
  3
TXT
  4

  0
ENDTAB
  0
TABLE
  2
VIEW
  5
6
330
0
100
AcDbSymbolTable
 70
     0
  0
ENDTAB
  0
TABLE
  2
UCS
  5
7
330
0
100
AcDbSymbolTable
 70
     0
  0
ENDTAB
  0
TABLE
  2
APPID
  5
9
330
0
100
AcDbSymbolTable
 70
     1
  0
APPID
  5
12
330
9
100
AcDbSymbolTableRecord
100
AcDbRegAppTableRecord
  2
ACAD
 70
     0
  0
ENDTAB
  0
TABLE
  2
DIMSTYLE
  5
A
330
0
100
AcDbSymbolTable
 70
     3
100
AcDbDimStyleTable
  0
DIMSTYLE
105
27
330
A
100
AcDbSymbolTableRecord
100
AcDbDimStyleTableRecord
  2
ISO-25
 70
     0
 41
2.5
 42
0.625
 43
3.75
 44
1.25
 73
     0
 74
     0
 77
     1
 78
     8
140
2.5
141
2.5
143
0.03937007874016
147
0.625
171
     3
172
     1
178
     0
271
     2
272
     2
274
     3
278
    44
283
     0
284
     8
340
11
  0
DIMSTYLE
105
DE
102
{ACAD_REACTORS
330
DD
330
100
102
}
330
A
100
AcDbSymbolTableRecord
100
AcDbDimStyleTableRecord
  2
SLDDIMSTYLE0
 70
     0
 41
3.302
 44
0.0
 45
0.000000001
 73
     0
 74
     0
 77
     1
 78
    12
 79
     3
140
3.5
147
0.875
172
     1
173
     1
178
     0
271
     2
272
     2
276
     2
284
    12
289
     0
340
93
  0
DIMSTYLE
105
EC
102
{ACAD_REACTORS
330
EB
330
F6
102
}
330
A
100
AcDbSymbolTableRecord
100
AcDbDimStyleTableRecord
  2
SLDDIMSTYLE1
 70
     0
 41
3.302
 44
0.0
 45
0.000000001
 73
     0
 74
     0
 77
     1
 78
    12
 79
     3
140
3.5
147
0.875
173
     1
178
     0
271
     2
272
     2
276
     2
284
    12
340
93
  0
ENDTAB
  0
TABLE
  2
BLOCK_RECORD
  5
1
330
0
100
AcDbSymbolTable
 70
     7
  0
BLOCK_RECORD
  5
1F
330
1
100
AcDbSymbolTableRecord
100
AcDbBlockTableRecord
  2
*Model_Space
340
22
  0
BLOCK_RECORD
  5
1B
330
1
100
AcDbSymbolTableRecord
100
AcDbBlockTableRecord
  2
*Paper_Space
340
1E
  0
BLOCK_RECORD
  5
23
330
1
100
AcDbSymbolTableRecord
100
AcDbBlockTableRecord
  2
*Paper_Space0
340
26
  0
BLOCK_RECORD
  5
7E
330
1
100
AcDbSymbolTableRecord
100
AcDbBlockTableRecord
  2
블럭10
340
0
102
{BLKREFS
331
D6
102
}
  0
BLOCK_RECORD
  5
DF
330
1
100
AcDbSymbolTableRecord
100
AcDbBlockTableRecord
  2
_D
340
0
  0
BLOCK_RECORD
  5
ED
330
1
100
AcDbSymbolTableRecord
100
AcDbBlockTableRecord
  2
_D_1
340
0
  0
BLOCK_RECORD
  5
F7
330
1
100
AcDbSymbolTableRecord
100
AcDbBlockTableRecord
  2
_D_2
340
0
  0
BLOCK_RECORD
  5
101
330
1
100
AcDbSymbolTableRecord
100
AcDbBlockTableRecord
  2
_D_3
340
0
  0
BLOCK_RECORD
  5
10D
330
1
100
AcDbSymbolTableRecord
100
AcDbBlockTableRecord
  2
SW_DOWELSYMBOL_0
340
0
102
{BLKREFS
331
113
102
}
  0
ENDTAB
  0
ENDSEC
  0
SECTION
  2
BLOCKS
  0
BLOCK
  5
20
330
1F
100
AcDbEntity
  8
0
100
AcDbBlockBegin
  2
*Model_Space
 70
     0
 10
0.0
 20
0.0
 30
0.0
  3
*Model_Space
  1

  0
ENDBLK
  5
21
330
1F
100
AcDbEntity
  8
0
100
AcDbBlockEnd
  0
BLOCK
  5
1C
330
1B
100
AcDbEntity
 67
     1
  8
0
100
AcDbBlockBegin
  2
*Paper_Space
 70
     0
 10
0.0
 20
0.0
 30
0.0
  3
*Paper_Space
  1

  0
ENDBLK
  5
1D
330
1B
100
AcDbEntity
 67
     1
  8
0
100
AcDbBlockEnd
  0
BLOCK
  5
24
330
23
100
AcDbEntity
  8
0
100
AcDbBlockBegin
  2
*Paper_Space0
 70
     0
 10
0.0
 20
0.0
 30
0.0
  3
*Paper_Space0
  1

  0
ENDBLK
  5
25
330
23
100
AcDbEntity
  8
0
100
AcDbBlockEnd
  0
BLOCK
  5
7F
330
7E
100
AcDbEntity
  8
0
100
AcDbBlockBegin
  2
블럭10
 70
     2
 10
0.0
 20
0.0
 30
0.0
  3
블럭10
  1

  0
ELLIPSE
  5
81
330
7E
100
AcDbEntity
  8
중심선
100
AcDbEllipse
 10
20.54032771741204
 20
12.0471743016438
 30
0.0
 11
6.600054785286829
 21
-1.261213355974178E-13
 31
0.0
210
0.0
220
0.0
230
1.0
 40
0.636358354079598
 41
0.9219305317359503
 42
6.513795318482858
  0
ELLIPSE
  5
82
330
7E
100
AcDbEntity
  8
중심선
100
AcDbEllipse
 10
20.54032771746488
 20
12.04717430159265
 30
0.0
 11
3.960054785062283
 21
1.540847449632565E-10
 31
0.0
210
0.0
220
0.0
230
1.0
 40
0.3939339440162632
 41
1.131841032648279
 42
5.62031148352944
  0
LINE
  5
83
330
7E
100
AcDbEntity
  8
중심선
100
AcDbLine
 10
2.268634060543552
 20
16.24717430164393
 30
0.0
 11
5.714909304380834
 21
16.24717430164393
 31
0.0
  0
LINE
  5
84
330
7E
100
AcDbEntity
  8
중심선
100
AcDbLine
 10
5.245725140726316
 20
7.84717430164391
 30
0.0
 11
8.692000384563599
 21
7.84717430164391
 31
0.0
  0
LINE
  5
85
330
7E
100
AcDbEntity
  8
중심선
100
AcDbLine
 10
15.74043728645272
 20
16.24717430164393
 30
0.0
 11
8.692000384563599
 21
7.84717430164391
 31
0.0
  0
LINE
  5
86
330
7E
100
AcDbEntity
  8
중심선
100
AcDbLine
 10
0.1404042013395286
 20
13.71084872107135
 30
0.0
 11
3.58671253028996
 21
13.71088815037384
 31
0.0
  0
LINE
  5
87
330
7E
100
AcDbEntity
  8
중심선
100
AcDbLine
 10
2.750260043222114
 20
10.84717430164391
 30
0.0
 11
6.196535287059397
 21
10.84717430164391
 31
0.0
  0
LINE
  5
88
330
7E
100
AcDbEntity
  8
중심선
100
AcDbLine
 10
12.29416204261559
 20
16.24717430164393
 30
0.0
 11
5.245725140726316
 21
7.84717430164391
 31
0.0
  0
LINE
  5
89
330
7E
100
AcDbEntity
  8
중심선
100
AcDbLine
 10
10.72767329541681
 20
16.24717430164393
 30
0.0
 11
6.196535287059397
 21
10.84717430164391
 31
0.0
  0
LINE
  5
8A
330
7E
100
AcDbEntity
  8
중심선
100
AcDbLine
 10
7.28139805157953
 20
16.24717430164393
 30
0.0
 11
2.750260043222114
 21
10.84717430164391
 31
0.0
  0
LINE
  5
8B
330
7E
100
AcDbEntity
  8
중심선
100
AcDbLine
 10
5.714909304380834
 20
16.24717430164393
 30
0.0
 11
3.58671253028996
 21
13.71088815037384
 31
0.0
  0
LINE
  5
8C
330
7E
100
AcDbEntity
  8
중심선
100
AcDbLine
 10
2.268634060543552
 20
16.24717430164393
 30
0.0
 11
0.1404042013395286
 21
13.71084872107135
 31
0.0
  0
LINE
  5
8D
330
7E
100
AcDbEntity
  8
중심선
100
AcDbLine
 10
7.28139805157953
 20
16.24717430164393
 30
0.0
 11
10.72767329541681
 21
16.24717430164393
 31
0.0
  0
LINE
  5
8E
330
7E
100
AcDbEntity
  8
중심선
100
AcDbLine
 10
12.29416204261559
 20
16.24717430164393
 30
0.0
 11
15.74043728645272
 21
16.24717430164393
 31
0.0
  0
LINE
  5
8F
330
7E
100
AcDbEntity
  8
중심선
100
AcDbLine
 10
19.22036997980202
 20
11.08717430171403
 30
0.0
 11
23.66174974927406
 21
11.08717430171406
 31
0.0
  0
LINE
  5
90
330
7E
100
AcDbEntity
  8
중심선
100
AcDbLine
 10
19.22039502424796
 20
13.00717430171391
 30
0.0
 11
19.22036997980202
 21
11.08717430171403
 31
0.0
  0
LINE
  5
91
330
7E
100
AcDbEntity
  8
중심선
100
AcDbLine
 10
19.22039502424796
 20
13.00717430171391
 30
0.0
 11
26.96566020931264
 21
13.00717430171391
 31
0.0
  0
LINE
  5
92
330
7E
100
AcDbEntity
  8
중심선
100
AcDbLine
 10
22.22332737316547
 20
13.45928029700563
 30
0.0
 11
24.52862924686651
 21
15.39360700705356
 31
0.0
  0
ATTDEF
  5
94
330
7E
100
AcDbEntity
  8
FORMAT
 62
     2
100
AcDbText
 10
-16.11926103943555
 20
2.075366912832191
 30
0.0
 40
4.233333333333333
  1
SEME7012065E [ 2 FLUTE ]
 41
0.75
  7
SLDTEXTSTYLE0
 11
-16.11926103943555
 21
-0.0412997538344756
 31
0.0
100
AcDbAttributeDefinition
  3

  2
AUTOATTR0
 70
     0
 74
     1
  0
ENDBLK
  5
80
330
7E
100
AcDbEntity
  8
0
100
AcDbBlockEnd
  0
BLOCK
  5
E0
330
DF
100
AcDbEntity
  8
0
100
AcDbBlockBegin
  2
_D
 70
     0
 10
0.0
 20
0.0
 30
0.0
  3
_D
  1

  0
LINE
  5
E2
330
DF
100
AcDbEntity
  8
치수문자_일반주서
 62
     0
370
    -2
100
AcDbLine
 10
75.06249999999966
 20
-5.999999999999751
 30
0.0
 11
90.04433993919108
 21
-5.999999999999694
 31
0.0
  0
LINE
  5
E3
330
DF
100
AcDbEntity
  8
치수문자_일반주서
 62
     0
370
    -2
100
AcDbLine
 10
75.06250000000001
 20
6.000000000000245
 30
0.0
 11
90.04433993919103
 21
6.0000000000003
 31
0.0
  0
LINE
  5
E4
330
DF
100
AcDbEntity
  8
치수문자_일반주서
 62
     0
370
    -2
100
AcDbLine
 10
90.04433993919108
 20
-5.999999999999694
 30
0.0
 11
90.04433993919098
 21
20.4790000000003
 31
0.0
  0
LINE
  5
E5
330
DF
100
AcDbEntity
  8
치수문자_일반주서
 62
     0
370
    -2
100
AcDbLine
 10
90.04433993919108
 20
-5.999999999999694
 30
0.0
 11
90.04433993919103
 21
6.0000000000003
 31
0.0
  0
LINE
  5
E6
330
DF
100
AcDbEntity
  8
치수문자_일반주서
 62
     0
370
    -2
100
AcDbLine
 10
90.04433993919109
 20
-9.301999999999694
 30
0.0
 11
90.0443399391911
 21
-12.60399999999969
 31
0.0
  0
LINE
  5
E7
330
DF
100
AcDbEntity
  8
치수문자_일반주서
 62
     0
370
    -2
100
AcDbLine
 10
90.04433993919102
 20
9.3020000000003
 30
0.0
 11
90.044339939191
 21
12.6040000000003
 31
0.0
  0
SOLID
  5
E8
330
DF
100
AcDbEntity
  8
치수문자_일반주서
 62
     0
100
AcDbTrace
 10
90.59467327252442
 20
-9.301999999999692
 30
0.0
 11
89.49400660585776
 21
-9.301999999999696
 31
0.0
 12
90.04433993919108
 22
-5.999999999999694
 32
0.0
 13
90.04433993919108
 23
-5.999999999999694
 33
0.0
  0
SOLID
  5
E9
330
DF
100
AcDbEntity
  8
치수문자_일반주서
 62
     0
100
AcDbTrace
 10
89.49400660585769
 20
9.302000000000298
 30
0.0
 11
90.59467327252435
 21
9.302000000000302
 31
0.0
 12
90.04433993919103
 22
6.0000000000003
 32
0.0
 13
90.04433993919103
 23
6.0000000000003
 33
0.0
  0
MTEXT
  5
EA
330
DF
100
AcDbEntity
  8
치수문자_일반주서
 62
     0
100
AcDbMText
 10
85.66933993919099
 20
16.54150000000028
 30
0.0
 40
3.5
 41
0.0
 71
     2
 72
     1
  1
\A1;%%c12
  7
SLDTEXTSTYLE0
 11
-3.552713678800502E-15
 21
1.0
 31
0.0
 73
     1
 44
1.0
  0
POINT
  5
142
330
DF
100
AcDbEntity
  8
Defpoints
 62
     0
100
AcDbPoint
 10
74.99999999999966
 20
-5.999999999999751
 30
0.0
  0
POINT
  5
143
330
DF
100
AcDbEntity
  8
Defpoints
 62
     0
100
AcDbPoint
 10
75.00000000000001
 20
6.000000000000245
 30
0.0
  0
POINT
  5
144
330
DF
100
AcDbEntity
  8
Defpoints
 62
     0
100
AcDbPoint
 10
90.04433993919103
 20
6.000000000000301
 30
0.0
  0
ENDBLK
  5
E1
330
DF
100
AcDbEntity
  8
0
100
AcDbBlockEnd
  0
BLOCK
  5
EE
330
ED
100
AcDbEntity
  8
0
100
AcDbBlockBegin
  2
_D_1
 70
     0
 10
0.0
 20
0.0
 30
0.0
  3
_D_1
  1

  0
LINE
  5
F0
330
ED
100
AcDbEntity
  8
치수문자_일반주서
 62
     0
370
    -2
100
AcDbLine
 10
-74.99999999999999
 20
5.062499999999996
 30
0.0
 11
-74.99999999999999
 21
26.78841044024269
 31
0.0
  0
LINE
  5
F1
330
ED
100
AcDbEntity
  8
치수문자_일반주서
 62
     0
370
    -2
100
AcDbLine
 10
75.00000000000001
 20
6.062500000000245
 30
0.0
 11
75.00000000000001
 21
26.78841044024269
 31
0.0
  0
LINE
  5
F2
330
ED
100
AcDbEntity
  8
치수문자_일반주서
 62
     0
370
    -2
100
AcDbLine
 10
-71.69799999999998
 20
26.78841044024269
 30
0.0
 11
71.69800000000001
 21
26.78841044024269
 31
0.0
  0
SOLID
  5
F3
330
ED
100
AcDbEntity
  8
치수문자_일반주서
 62
     0
100
AcDbTrace
 10
-71.69799999999998
 20
27.33874377357603
 30
0.0
 11
-71.69799999999998
 21
26.23807710690936
 31
0.0
 12
-74.99999999999999
 22
26.78841044024269
 32
0.0
 13
-74.99999999999999
 23
26.78841044024269
 33
0.0
  0
SOLID
  5
F4
330
ED
100
AcDbEntity
  8
치수문자_일반주서
 62
     0
100
AcDbTrace
 10
71.69800000000001
 20
26.23807710690936
 30
0.0
 11
71.69800000000001
 21
27.33874377357603
 31
0.0
 12
75.00000000000001
 22
26.78841044024269
 32
0.0
 13
75.00000000000001
 23
26.78841044024269
 33
0.0
  0
MTEXT
  5
F5
330
ED
100
AcDbEntity
  8
치수문자_일반주서
 62
     0
100
AcDbMText
 10
0.0000000000000169
 20
31.16341044024269
 30
0.0
 40
3.5
 41
0.0
 71
     2
 72
     1
  1
\A1;150
  7
SLDTEXTSTYLE0
 73
     1
 44
1.0
  0
POINT
  5
139
330
ED
100
AcDbEntity
  8
Defpoints
 62
     0
100
AcDbPoint
 10
-74.99999999999999
 20
4.999999999999996
 30
0.0
  0
POINT
  5
13A
330
ED
100
AcDbEntity
  8
Defpoints
 62
     0
100
AcDbPoint
 10
75.00000000000001
 20
6.000000000000245
 30
0.0
  0
POINT
  5
13B
330
ED
100
AcDbEntity
  8
Defpoints
 62
     0
100
AcDbPoint
 10
75.00000000000001
 20
26.78841044024269
 30
0.0
  0
ENDBLK
  5
EF
330
ED
100
AcDbEntity
  8
0
100
AcDbBlockEnd
  0
BLOCK
  5
F8
330
F7
100
AcDbEntity
  8
0
100
AcDbBlockBegin
  2
_D_2
 70
     0
 10
0.0
 20
0.0
 30
0.0
  3
_D_2
  1

  0
LINE
  5
FA
330
F7
100
AcDbEntity
  8
치수문자_일반주서
 62
     0
370
    -2
100
AcDbLine
 10
10.00000000000001
 20
6.06203171316666
 30
0.0
 11
10.00000000000001
 21
19.34652951933418
 31
0.0
  0
LINE
  5
FB
330
F7
100
AcDbEntity
  8
치수문자_일반주서
 62
     0
370
    -2
100
AcDbLine
 10
75.00000000000001
 20
6.062500000000245
 30
0.0
 11
75.00000000000003
 21
19.34652951933418
 31
0.0
  0
LINE
  5
FC
330
F7
100
AcDbEntity
  8
치수문자_일반주서
 62
     0
370
    -2
100
AcDbLine
 10
13.30200000000001
 20
19.34652951933418
 30
0.0
 11
71.69800000000004
 21
19.34652951933418
 31
0.0
  0
SOLID
  5
FD
330
F7
100
AcDbEntity
  8
치수문자_일반주서
 62
     0
100
AcDbTrace
 10
13.30200000000001
 20
19.89686285266751
 30
0.0
 11
13.30200000000001
 21
18.79619618600085
 31
0.0
 12
10.00000000000001
 22
19.34652951933418
 32
0.0
 13
10.00000000000001
 23
19.34652951933418
 33
0.0
  0
SOLID
  5
FE
330
F7
100
AcDbEntity
  8
치수문자_일반주서
 62
     0
100
AcDbTrace
 10
71.69800000000004
 20
18.79619618600085
 30
0.0
 11
71.69800000000004
 21
19.89686285266751
 31
0.0
 12
75.00000000000003
 22
19.34652951933418
 32
0.0
 13
75.00000000000003
 23
19.34652951933418
 33
0.0
  0
MTEXT
  5
FF
330
F7
100
AcDbEntity
  8
치수문자_일반주서
 62
     0
100
AcDbMText
 10
42.50000000000001
 20
23.72152951933418
 30
0.0
 40
3.5
 41
0.0
 71
     2
 72
     1
  1
\A1;65
  7
SLDTEXTSTYLE0
 73
     1
 44
1.0
  0
POINT
  5
13C
330
F7
100
AcDbEntity
  8
Defpoints
 62
     0
100
AcDbPoint
 10
10.00000000000001
 20
5.99953171316666
 30
0.0
  0
POINT
  5
13D
330
F7
100
AcDbEntity
  8
Defpoints
 62
     0
100
AcDbPoint
 10
75.00000000000001
 20
6.000000000000245
 30
0.0
  0
POINT
  5
13E
330
F7
100
AcDbEntity
  8
Defpoints
 62
     0
100
AcDbPoint
 10
75.00000000000001
 20
19.34652951933418
 30
0.0
  0
ENDBLK
  5
F9
330
F7
100
AcDbEntity
  8
0
100
AcDbBlockEnd
  0
BLOCK
  5
102
330
101
100
AcDbEntity
  8
0
100
AcDbBlockBegin
  2
_D_3
 70
     0
 10
0.0
 20
0.0
 30
0.0
  3
_D_3
  1

  0
LINE
  5
104
330
101
100
AcDbEntity
  8
치수문자_일반주서
 62
     0
370
    -2
100
AcDbLine
 10
-74.06249999999999
 20
5.999999999999995
 30
0.0
 11
-86.31609357207977
 21
5.999999999999948
 31
0.0
  0
LINE
  5
105
330
101
100
AcDbEntity
  8
치수문자_일반주서
 62
     0
370
    -2
100
AcDbLine
 10
-74.06249999999999
 20
-5.999999999999995
 30
0.0
 11
-86.31609357207972
 21
-6.000000000000039
 31
0.0
  0
LINE
  5
106
330
101
100
AcDbEntity
  8
치수문자_일반주서
 62
     0
370
    -2
100
AcDbLine
 10
-86.31609357207977
 20
5.999999999999948
 30
0.0
 11
-86.31609357207982
 21
20.47899999999995
 31
0.0
  0
LINE
  5
107
330
101
100
AcDbEntity
  8
치수문자_일반주서
 62
     0
370
    -2
100
AcDbLine
 10
-86.31609357207977
 20
5.999999999999948
 30
0.0
 11
-86.31609357207972
 21
-6.000000000000039
 31
0.0
  0
LINE
  5
108
330
101
100
AcDbEntity
  8
치수문자_일반주서
 62
     0
370
    -2
100
AcDbLine
 10
-86.31609357207978
 20
9.301999999999948
 30
0.0
 11
-86.3160935720798
 21
12.60399999999995
 31
0.0
  0
LINE
  5
109
330
101
100
AcDbEntity
  8
치수문자_일반주서
 62
     0
370
    -2
100
AcDbLine
 10
-86.31609357207971
 20
-9.302000000000039
 30
0.0
 11
-86.3160935720797
 21
-12.60400000000004
 31
0.0
  0
SOLID
  5
10A
330
101
100
AcDbEntity
  8
치수문자_일반주서
 62
     0
100
AcDbTrace
 10
-86.8664269054131
 20
9.301999999999946
 30
0.0
 11
-85.76576023874645
 21
9.30199999999995
 31
0.0
 12
-86.31609357207977
 22
5.999999999999948
 32
0.0
 13
-86.31609357207977
 23
5.999999999999948
 33
0.0
  0
SOLID
  5
10B
330
101
100
AcDbEntity
  8
치수문자_일반주서
 62
     0
100
AcDbTrace
 10
-85.76576023874638
 20
-9.302000000000037
 30
0.0
 11
-86.86642690541304
 21
-9.30200000000004
 31
0.0
 12
-86.31609357207972
 22
-6.000000000000039
 32
0.0
 13
-86.31609357207972
 23
-6.000000000000039
 33
0.0
  0
MTEXT
  5
10C
330
101
100
AcDbEntity
  8
치수문자_일반주서
 62
     0
100
AcDbMText
 10
-90.69109357207981
 20
16.54149999999993
 30
0.0
 40
3.5
 41
0.0
 71
     2
 72
     1
  1
\A1;%%c12
  7
SLDTEXTSTYLE0
 11
-3.552713678800504E-15
 21
1.0
 31
0.0
 73
     1
 44
1.0
  0
POINT
  5
13F
330
101
100
AcDbEntity
  8
Defpoints
 62
     0
100
AcDbPoint
 10
-73.99999999999999
 20
5.999999999999995
 30
0.0
  0
POINT
  5
140
330
101
100
AcDbEntity
  8
Defpoints
 62
     0
100
AcDbPoint
 10
-73.99999999999999
 20
-5.999999999999995
 30
0.0
  0
POINT
  5
141
330
101
100
AcDbEntity
  8
Defpoints
 62
     0
100
AcDbPoint
 10
-86.31609357207971
 20
-6.000000000000041
 30
0.0
  0
ENDBLK
  5
103
330
101
100
AcDbEntity
  8
0
100
AcDbBlockEnd
  0
BLOCK
  5
10E
330
10D
100
AcDbEntity
  8
0
100
AcDbBlockBegin
  2
SW_DOWELSYMBOL_0
 70
     0
 10
0.0
 20
0.0
 30
0.0
  3
SW_DOWELSYMBOL_0
  1

  0
CIRCLE
  5
110
330
10D
100
AcDbEntity
  8
외형선
 62
     0
100
AcDbCircle
 10
0.0
 20
0.0
 30
0.0
 40
3.000000000000004
  0
HATCH
  5
111
330
10D
100
AcDbEntity
  8
0
  6
Continuous
 62
     0
370
    30
100
AcDbHatch
 10
0.0
 20
0.0
 30
0.0
210
0.0
220
0.0
230
1.0
  2
SOLID
 70
     1
 71
     0
 91
        1
 92
        0
 93
        3
 72
     2
 10
0.0000000000000104
 20
0.0
 40
3.000000000000004
 50
0.0
 51
90.0
 73
     1
 72
     1
 10
0.0000000000000104
 20
3.000000000000004
 11
0.0000000000000104
 21
0.0
 72
     1
 10
0.0000000000000104
 20
0.0
 11
3.000000000000015
 21
0.0
 97
        0
 75
     0
 76
     1
 98
        1
 10
0.0
 20
0.0
  0
HATCH
  5
112
330
10D
100
AcDbEntity
  8
0
  6
Continuous
 62
     0
370
    30
100
AcDbHatch
 10
0.0
 20
0.0
 30
0.0
210
0.0
220
0.0
230
1.0
  2
SOLID
 70
     1
 71
     0
 91
        1
 92
        0
 93
        3
 72
     2
 10
0.0000000000000104
 20
0.0
 40
3.000000000000004
 50
180.0
 51
270.0000000000008
 73
     1
 72
     1
 10
0.0000000000000104
 20
-3.000000000000004
 11
0.0000000000000104
 21
0.0
 72
     1
 10
0.0000000000000104
 20
0.0
 11
-2.999999999999994
 21
0.0
 97
        0
 75
     0
 76
     1
 98
        1
 10
0.0
 20
0.0
  0
ENDBLK
  5
10F
330
10D
100
AcDbEntity
  8
0
100
AcDbBlockEnd
  0
ENDSEC
  0
SECTION
  2
ENTITIES
  0
SPLINE
  5
95
330
1F
100
AcDbEntity
  8
0
  6
Continuous
 62
     1
370
    15
100
AcDbSpline
210
0.0
220
0.0
230
1.0
 70
     8
 71
     3
 72
     9
 73
     5
 74
     0
 42
0.000000001
 43
0.00000001
 40
0.0
 40
0.0
 40
0.0
 40
0.0
 40
0.4371892852431161
 40
1.0
 40
1.0
 40
1.0
 40
1.0
 10
26.80815882269796
 20
1.537250957337433
 30
0.0
 10
26.56534061103486
 20
1.652656101827054
 30
0.0
 10
26.00993310252725
 20
1.916626762556868
 30
0.0
 10
25.4546840375121
 20
2.206713783999987
 30
0.0
 10
25.14218391436282
 20
2.369977867880085
 30
0.0
  0
SPLINE
  5
96
330
1F
100
AcDbEntity
  8
0
  6
Continuous
 62
     1
370
    15
100
AcDbSpline
210
0.0
220
0.0
230
1.0
 70
     8
 71
     3
 72
     9
 73
     5
 74
     0
 42
0.000000001
 43
0.00000001
 40
0.0
 40
0.0
 40
0.0
 40
0.0
 40
0.4370855576313872
 40
1.0
 40
1.0
 40
1.0
 40
1.0
 10
59.45647272940613
 20
1.537285922190357
 30
0.0
 10
59.21372238002436
 20
1.652658819296104
 30
0.0
 10
58.65833832501865
 20
1.91661834642156
 30
0.0
 10
58.10304496550944
 20
2.20672895113185
 30
0.0
 10
57.79046231369031
 20
2.370036400407563
 30
0.0
  0
LINE
  5
97
330
1F
100
AcDbEntity
  8
0
  6
Continuous
 62
     1
370
    15
100
AcDbLine
 10
10.12960173538007
 20
-6.000000000000001
 30
0.0
 11
13.03673719550439
 21
-6.000000000000001
 31
0.0
  0
LINE
  5
98
330
1F
100
AcDbEntity
  8
0
  6
Continuous
 62
     1
370
    15
100
AcDbLine
 10
45.68860796344607
 20
6.000000000000012
 30
0.0
 11
42.77907954300105
 21
6.000000000000012
 31
0.0
  0
LINE
  5
99
330
1F
100
AcDbEntity
  8
0
  6
Continuous
 62
     1
370
    15
100
AcDbLine
 10
42.77907954300104
 20
-6.000000000000001
 30
0.0
 11
45.68860796344607
 21
-6.000000000000001
 31
0.0
  0
LINE
  5
9A
330
1F
100
AcDbEntity
  8
0
  6
Continuous
 62
     1
370
    15
100
AcDbLine
 10
13.03673719550436
 20
6.000000000000012
 30
0.0
 11
10.12960173538004
 21
6.000000000000012
 31
0.0
  0
SPLINE
  5
9B
330
1F
100
AcDbEntity
  8
0
  6
Continuous
 62
     1
370
    15
100
AcDbSpline
210
0.0
220
0.0
230
1.0
 70
     8
 71
     3
 72
    21
 73
    17
 74
     0
 42
0.000000001
 43
0.00000001
 40
0.0
 40
0.0
 40
0.0
 40
0.0
 40
0.1008643108812348
 40
0.178400431627428
 40
0.2320787548944116
 40
0.3095732340254208
 40
0.3801103369648218
 40
0.4504365298608945
 40
0.5237392967833536
 40
0.5834283594208072
 40
0.6459076760965465
 40
0.7085091016464254
 40
0.7691227565842661
 40
0.8268263741032822
 40
0.9009424794222425
 40
0.9999999999999999
 40
0.9999999999999999
 40
0.9999999999999999
 40
0.9999999999999999
 10
15.80032838945023
 20
-4.992819095455091
 30
0.0
 10
16.10402015879912
 20
-4.963525002799214
 30
0.0
 10
16.64116498495407
 20
-4.911712040133998
 30
0.0
 10
17.33911495792687
 20
-4.856034949318834
 30
0.0
 10
17.96658449520333
 20
-4.811428713604391
 30
0.0
 10
18.57313063253655
 20
-4.774134385867293
 30
0.0
 10
19.22978934112881
 20
-4.741319873030765
 30
0.0
 10
19.87402584032711
 20
-4.716208830024121
 30
0.0
 10
20.48549224811478
 20
-4.699192489695828
 30
0.0
 10
21.07324006300497
 20
-4.689051642627843
 30
0.0
 10
21.62910479413166
 20
-4.684919644275894
 30
0.0
 10
22.18775015171713
 20
-4.686331727983681
 30
0.0
 10
22.73184067471114
 20
-4.693044533771293
 30
0.0
 10
23.31038409838632
 20
-4.70580250900177
 30
0.0
 10
24.00464039467151
 20
-4.727603575131522
 30
0.0
 10
24.52600481336624
 20
-4.753203357082056
 30
0.0
 10
24.82423190404437
 20
-4.767846758548186
 30
0.0
  0
SPLINE
  5
9C
330
1F
100
AcDbEntity
  8
0
  6
Continuous
 62
     1
370
    15
100
AcDbSpline
210
0.0
220
0.0
230
1.0
 70
     8
 71
     3
 72
    15
 73
    11
 74
     0
 42
0.000000001
 43
0.00000001
 40
0.0
 40
0.0
 40
0.0
 40
0.0
 40
0.201067152823658
 40
0.344778284566837
 40
0.4504775416764249
 40
0.5612351832319424
 40
0.6753442512038641
 40
0.7892267165664588
 40
0.902624659916865
 40
1.0
 40
1.0
 40
1.0
 40
1.0
 10
57.47262822118217
 20
4.767847173819446
 30
0.0
 10
57.13915877792552
 20
4.751630448212412
 30
0.0
 10
56.56734472979841
 20
4.723822948292281
 30
0.0
 10
55.82314778678024
 20
4.70217068956538
 30
0.0
 10
55.23180441118846
 20
4.690694476411091
 30
0.0
 10
54.68601936534861
 20
4.685432174841896
 30
0.0
 10
54.12626052257203
 20
4.685425251663971
 30
0.0
 10
53.5622472516024
 20
4.691437962906771
 30
0.0
 10
53.02617678079867
 20
4.701159196368736
 30
0.0
 10
52.67796012831396
 20
4.713776484629494
 30
0.0
 10
52.51708720169848
 20
4.719605557058903
 30
0.0
  0
SPLINE
  5
9D
330
1F
100
AcDbEntity
  8
0
  6
Continuous
 62
     1
370
    15
100
AcDbSpline
210
0.0
220
0.0
230
1.0
 70
     8
 71
     3
 72
    21
 73
    17
 74
     0
 42
0.000000001
 43
0.00000001
 40
0.0
 40
0.0
 40
0.0
 40
0.0
 40
0.1197315492851499
 40
0.2047265418578398
 40
0.26489867769311
 40
0.3192862975837378
 40
0.3771368967870392
 40
0.4390478819094238
 40
0.504309653827145
 40
0.5665838950381372
 40
0.6291242190348248
 40
0.6917889853726682
 40
0.7526132638595867
 40
0.8106596519913825
 40
0.8895808512518049
 40
1.0
 40
1.0
 40
1.0
 40
1.0
 10
48.44858569363199
 20
-4.992832233016364
 30
0.0
 10
48.8090922793328
 20
-4.958318107996257
 30
0.0
 10
49.42551516075505
 20
-4.899303107331835
 30
0.0
 10
50.22195691372032
 20
-4.838468765487947
 30
0.0
 10
50.82203483161177
 20
-4.798352857249092
 30
0.0
 10
51.34040349367419
 20
-4.768154530595082
 30
0.0
 10
51.8642239447252
 20
-4.742267438495158
 30
0.0
 10
52.4208232281054
 20
-4.719944776827302
 30
0.0
 10
52.99072641040514
 20
-4.702726993196936
 30
0.0
 10
53.56225020215579
 20
-4.691193840214726
 30
0.0
 10
54.12625972796485
 20
-4.685490995818603
 30
0.0
 10
54.68601957164401
 20
-4.685415106385241
 30
0.0
 10
55.23180435998229
 20
-4.690698713104002
 30
0.0
 10
55.8231478054804
 20
-4.702169142353526
 30
0.0
 10
56.5673447220716
 20
-4.723823587592783
 30
0.0
 10
57.13915877507927
 20
-4.751630683704579
 30
0.0
 10
57.47262822118217
 20
-4.767847173819428
 30
0.0
  0
SPLINE
  5
9E
330
1F
100
AcDbEntity
  8
0
  6
Continuous
 62
     1
370
    15
100
AcDbSpline
210
0.0
220
0.0
230
1.0
 70
     8
 71
     3
 72
    15
 73
    11
 74
     0
 42
0.000000001
 43
0.00000001
 40
0.0
 40
0.0
 40
0.0
 40
0.0
 40
0.1832718415964037
 40
0.3203981802583524
 40
0.4271588601926272
 40
0.5393035625994125
 40
0.6551259502401389
 40
0.7707224174448576
 40
0.8811564800877043
 40
1.0
 40
1.0
 40
1.0
 40
1.0
 10
24.82423190404437
 20
4.767846758548199
 30
0.0
 10
24.52600481612107
 20
4.75320321769092
 30
0.0
 10
24.00464040224241
 20
4.727603192054998
 30
0.0
 10
23.31038407870314
 20
4.705803504942083
 30
0.0
 10
22.73184073215173
 20
4.693041627359514
 30
0.0
 10
22.18774991989402
 20
4.686343457900614
 30
0.0
 10
21.62910568932174
 20
4.68487434894223
 30
0.0
 10
21.07323679602442
 20
4.689216947156677
 30
0.0
 10
20.51277141563275
 20
4.698116916584578
 30
0.0
 10
20.14004479532596
 20
4.710234743752199
 30
0.0
 10
19.94684604022473
 20
4.716515886540954
 30
0.0
  0
SPLINE
  5
9F
330
1F
100
AcDbEntity
  8
0
  6
Continuous
 62
     1
370
    15
100
AcDbSpline
210
0.0
220
0.0
230
1.0
 70
     8
 71
     3
 72
    14
 73
    10
 74
     0
 42
0.000000001
 43
0.00000001
 40
0.0
 40
0.0
 40
0.0
 40
0.0
 40
0.1960438662830101
 40
0.3366919505139259
 40
0.4484824641521638
 40
0.5696881476801743
 40
0.7018769335015566
 40
0.846903204324785
 40
1.0
 40
1.0
 40
1.0
 40
1.0
 10
62.28780838259273
 20
-4.512868764935084
 30
0.0
 10
62.57752276069678
 20
-4.468649573037394
 30
0.0
 10
63.07508741755252
 20
-4.392706131130926
 30
0.0
 10
63.74315400415351
 20
-4.304051875092697
 30
0.0
 10
64.30555885170175
 20
-4.235467076173
 30
0.0
 10
64.85291976924215
 20
-4.175286685837222
 30
0.0
 10
65.44969873080208
 20
-4.117525198249347
 30
0.0
 10
66.092607256518
 20
-4.0635868152808
 30
0.0
 10
66.53722386398857
 20
-4.035173085585104
 30
0.0
 10
66.76555030215125
 20
-4.020581625015864
 30
0.0
  0
SPLINE
  5
A0
330
1F
100
AcDbEntity
  8
0
  6
Continuous
 62
     1
370
    15
100
AcDbSpline
210
0.0
220
0.0
230
1.0
 70
     8
 71
     3
 72
    11
 73
     7
 74
     0
 42
0.000000001
 43
0.00000001
 40
0.0
 40
0.0
 40
0.0
 40
0.0
 40
0.2512891758849499
 40
0.500382473242753
 40
0.7486805303281896
 40
0.9999999999999999
 40
0.9999999999999999
 40
0.9999999999999999
 40
0.9999999999999999
 10
40.12237551117208
 20
4.103725484075277
 30
0.0
 10
39.24407480547239
 20
4.043532504630468
 30
0.0
 10
37.49514838307015
 20
3.923672539232538
 30
0.0
 10
34.87985246128419
 20
3.958406709373957
 30
0.0
 10
32.2642464156431
 20
4.138118667470024
 30
0.0
 10
30.51795432847818
 20
4.387438130049471
 30
0.0
 10
29.63952797685099
 20
4.512851734974449
 30
0.0
  0
SPLINE
  5
A1
330
1F
100
AcDbEntity
  8
0
  6
Continuous
 62
     1
370
    15
100
AcDbSpline
210
0.0
220
0.0
230
1.0
 70
     8
 71
     3
 72
     9
 73
     5
 74
     0
 42
0.000000001
 43
0.00000001
 40
0.0
 40
0.0
 40
0.0
 40
0.0
 40
0.5849446264671114
 40
1.0
 40
1.0
 40
1.0
 40
1.0
 10
29.63952797685097
 20
-4.512851734974437
 30
0.0
 10
30.51796986926709
 20
-4.383292365198372
 30
0.0
 10
32.01972209104856
 20
-4.161802391765222
 30
0.0
 10
33.52068105874241
 20
-4.072352869306698
 30
0.0
 10
34.14366214373612
 20
-4.035226364350336
 30
0.0
  0
SPLINE
  5
A2
330
1F
100
AcDbEntity
  8
0
  6
Continuous
 62
     1
370
    15
100
AcDbSpline
210
0.0
220
0.0
230
1.0
 70
     8
 71
     3
 72
    22
 73
    18
 74
     0
 42
0.000000001
 43
0.00000001
 40
0.0
 40
0.0
 40
0.0
 40
0.0
 40
0.0965920540073409
 40
0.1652643851013128
 40
0.2119518592915531
 40
0.2572873345451436
 40
0.3032971493117249
 40
0.3988153090289122
 40
0.5073532236734726
 40
0.5736691028181276
 40
0.6393357818336893
 40
0.7010970153641926
 40
0.7573912469188283
 40
0.809008188339893
 40
0.8566155630597604
 40
0.9165122916075936
 40
1.0
 40
1.0
 40
1.0
 40
1.0
 10
72.80687984700819
 20
4.106818121513059
 30
0.0
 10
72.46627703919927
 20
4.079497350802272
 30
0.0
 10
71.88352192362792
 20
4.032752818672651
 30
0.0
 10
71.13880048894444
 20
3.993280469551766
 30
0.0
 10
70.57746880444893
 20
3.970814595433436
 30
0.0
 10
70.09569806589555
 20
3.957391753438015
 30
0.0
 10
69.44367826035369
 20
3.946799098256565
 30
0.0
 10
68.56378091128174
 20
3.948534655068566
 30
0.0
 10
67.61549804693604
 20
3.975588269228185
 30
0.0
 10
66.77265560327176
 20
4.018158174252871
 30
0.0
 10
66.0942731766899
 20
4.063944315136955
 30
0.0
 10
65.44969348061313
 20
4.117408239543224
 30
0.0
 10
64.85292099842033
 20
4.175314068296912
 30
0.0
 10
64.30555856454498
 20
4.235460679167817
 30
0.0
 10
63.74315409889705
 20
4.304053985699767
 30
0.0
 10
63.07508737958831
 20
4.392705285399774
 30
0.0
 10
62.57752274672615
 20
4.468649261812967
 30
0.0
 10
62.28780838259273
 20
4.512868764935103
 30
0.0
  0
LINE
  5
A3
330
1F
100
AcDbEntity
  8
0
  6
Continuous
 62
   131
370
    15
100
AcDbLine
 10
7.969892490072569
 20
6.000000000000005
 30
0.0
 11
-73.99999999999999
 21
6.0
 31
0.0
  0
LINE
  5
A4
330
1F
100
AcDbEntity
  8
0
  6
Continuous
 62
   131
370
    15
100
AcDbLine
 10
-73.99999999999999
 20
-6.0
 30
0.0
 11
7.969892490072569
 21
-5.999999999999995
 31
0.0
  0
LINE
  5
A5
330
1F
100
AcDbEntity
  8
0
  6
Continuous
 62
   131
370
    15
100
AcDbLine
 10
-73.99999999999999
 20
5.999999999999995
 30
0.0
 11
-74.99999999999999
 21
4.999999999999995
 31
0.0
  0
LINE
  5
A6
330
1F
100
AcDbEntity
  8
0
  6
Continuous
 62
   131
370
    15
100
AcDbLine
 10
-74.99999999999999
 20
-4.999999999999996
 30
0.0
 11
-73.99999999999999
 21
-5.999999999999995
 31
0.0
  0
SPLINE
  5
A7
330
1F
100
AcDbEntity
  8
0
  6
Continuous
 62
     1
370
    15
100
AcDbSpline
210
0.0
220
0.0
230
1.0
 70
     8
 71
     3
 72
    26
 73
    22
 74
     0
 42
0.000000001
 43
0.00000001
 40
0.0
 40
0.0
 40
0.0
 40
0.0
 40
0.0574293077090532
 40
0.1153333173333747
 40
0.1680101644770141
 40
0.2210534303911822
 40
0.2736919694137392
 40
0.3266950582417041
 40
0.3793337284433989
 40
0.4323379746345254
 40
0.4849765361214978
 40
0.5379800696658158
 40
0.5906185931800849
 40
0.6436216969573848
 40
0.6962603041064154
 40
0.7492643953530085
 40
0.8018939811113808
 40
0.8548878404751018
 40
0.9075176466136567
 40
0.960513200988984
 40
1.0
 40
1.0
 40
1.0
 40
1.0
 10
10.00000000000001
 20
5.999531713166666
 30
0.0
 10
10.62756873571262
 20
5.985068328941429
 30
0.0
 10
11.88789359477474
 20
5.956022008358663
 30
0.0
 10
13.72397857892597
 20
5.671505959038587
 30
0.0
 10
15.51171345083899
 20
5.238437900751824
 30
0.0
 10
17.24178201685616
 20
4.670622768213142
 30
0.0
 10
18.97540981504283
 20
3.972932360336362
 30
0.0
 10
20.70490808083711
 20
3.167144798318613
 30
0.0
 10
22.43872200116022
 20
2.272423261066559
 30
0.0
 10
24.16803868111215
 20
1.315996431015837
 30
0.0
 10
25.90122318119226
 20
0.3207508959031162
 30
0.0
 10
27.63046805008641
 20
-0.6810902792697379
 30
0.0
 10
29.36400856213167
 20
-1.665693285038585
 30
0.0
 10
31.09378728058586
 20
-2.601753067860207
 30
0.0
 10
32.82703524926307
 20
-3.468570835449437
 30
0.0
 10
34.55616363403595
 20
-4.23758735032194
 30
0.0
 10
36.28918156478439
 20
-4.890283278388027
 30
0.0
 10
38.01852818841412
 20
-5.407328299398069
 30
0.0
 10
39.75193477899713
 20
-5.770296814360377
 30
0.0
 10
41.33732540527841
 20
-5.975172199858502
 30
0.0
 10
42.34768891249872
 20
-5.981720232454919
 30
0.0
 10
42.77907954300105
 20
-5.984516018219282
 30
0.0
  0
SPLINE
  5
A8
330
1F
100
AcDbEntity
  8
0
  6
Continuous
 62
     1
370
    15
100
AcDbSpline
210
0.0
220
0.0
230
1.0
 70
     8
 71
     3
 72
    13
 73
     9
 74
     0
 42
0.000000001
 43
0.00000001
 40
0.0
 40
0.0
 40
0.0
 40
0.0
 40
0.0825803420277413
 40
0.2935204835689693
 40
0.4680122002138864
 40
0.6433399799758649
 40
0.8212266504629243
 40
1.0
 40
1.0
 40
1.0
 40
1.0
 10
66.76555030215125
 20
4.020581625015882
 30
0.0
 10
66.99221521051825
 20
4.120778149163795
 30
0.0
 10
67.79786449554604
 20
4.476912932547787
 30
0.0
 10
69.0823570371924
 20
4.932015044092429
 30
0.0
 10
70.62174246231822
 20
5.388264319085847
 30
0.0
 10
72.07042581468423
 20
5.706471462564572
 30
0.0
 10
73.53004812225372
 20
5.925504556268478
 30
0.0
 10
74.50920462604248
 20
5.971749124048348
 30
0.0
 10
75.00000000000001
 20
6.000000000000245
 30
0.0
  0
SPLINE
  5
A9
330
1F
100
AcDbEntity
  8
0
  6
Continuous
 62
     1
370
    15
100
AcDbSpline
210
0.0
220
0.0
230
1.0
 70
    24
 71
     3
 72
    10
 73
     6
 74
     0
 42
0.000000001
 43
0.00000001
 40
0.0
 40
0.0
 40
0.0
 40
0.0
 40
0.5
 40
0.5
 40
1.0
 40
1.0
 40
1.0
 40
1.0
 10
75.00000000000001
 20
4.200000000000011
 30
0.0
 10
75.00000000000001
 20
4.454593540843894
 30
0.0
 10
75.00000000000003
 20
4.750454813202714
 30
0.0
 10
75.0
 20
5.371170965765145
 30
0.0
 10
75.00000000000001
 20
5.69444061480885
 30
0.0
 10
75.00000000000001
 20
6.000000000000245
 30
0.0
  0
LINE
  5
AA
330
1F
100
AcDbEntity
  8
0
  6
Continuous
 62
     1
370
    15
100
AcDbLine
 10
75.00000000000001
 20
4.200000000000012
 30
0.0
 11
72.7998598720499
 21
4.081221695593844
 31
0.0
  0
SPLINE
  5
AB
330
1F
100
AcDbEntity
  8
0
  6
Continuous
 62
     1
370
    15
100
AcDbSpline
210
0.0
220
0.0
230
1.0
 70
     8
 71
     3
 72
    13
 73
     9
 74
     0
 42
0.000000001
 43
0.00000001
 40
0.0
 40
0.0
 40
0.0
 40
0.0
 40
0.1558020191160938
 40
0.3158945206998272
 40
0.4760587812774007
 40
0.6361254518382627
 40
0.817993567752851
 40
1.0
 40
1.0
 40
1.0
 40
1.0
 10
27.44709424647685
 20
-0.5720628378490286
 30
0.0
 10
26.54110970047252
 20
-0.2053899662955057
 30
0.0
 10
24.70419156844089
 20
0.5380532295639799
 30
0.0
 10
21.93568454289435
 20
1.631258514199789
 30
0.0
 10
19.14213457347383
 20
2.615374267957805
 30
0.0
 10
16.22239535703698
 20
3.442888017259182
 30
0.0
 10
13.17511228722596
 20
4.047776278880721
 30
0.0
 10
11.05863893435016
 20
4.14809913205108
 30
0.0
 10
10.00000000000001
 20
4.198279626044508
 30
0.0
  0
SPLINE
  5
AC
330
1F
100
AcDbEntity
  8
0
  6
Continuous
 62
   131
370
    15
100
AcDbSpline
210
0.0
220
0.0
230
1.0
 70
    24
 71
     3
 72
    10
 73
     6
 74
     0
 42
0.000000001
 43
0.00000001
 40
0.0
 40
0.0
 40
0.0
 40
0.0
 40
0.5
 40
0.5
 40
1.0
 40
1.0
 40
1.0
 40
1.0
 10
10.00000000000001
 20
5.999531713161768
 30
0.0
 10
10.00000000000001
 20
5.701366960203686
 30
0.0
 10
10.00000000000001
 20
5.37875166765951
 30
0.0
 10
10.00000000000001
 20
4.755753708194101
 30
0.0
 10
10.00000000000001
 20
4.456975606482026
 30
0.0
 10
10.00000000000001
 20
4.198279626044507
 30
0.0
  0
LINE
  5
AD
330
1F
100
AcDbEntity
  8
0
  6
Continuous
 62
     1
370
    15
100
AcDbLine
 10
10.00000000000001
 20
-5.999531713166655
 30
0.0
 11
10.12960173538007
 21
-5.99370706621143
 31
0.0
  0
SPLINE
  5
AE
330
1F
100
AcDbEntity
  8
0
  6
Continuous
 62
     1
370
    15
100
AcDbSpline
210
0.0
220
0.0
230
1.0
 70
     8
 71
     3
 72
    32
 73
    28
 74
     0
 42
0.000000001
 43
0.00000001
 40
0.0
 40
0.0
 40
0.0
 40
0.0
 40
0.0101975540324019
 40
0.0524214366772402
 40
0.0949375702630884
 40
0.137161629715455
 40
0.1796791231822543
 40
0.2219030246830312
 40
0.2644194950049759
 40
0.3066433788980838
 40
0.3491597596041629
 40
0.3913836870635395
 40
0.433900576143452
 40
0.476124453850209
 40
0.5186405291891355
 40
0.5608645644247001
 40
0.6033820148762264
 40
0.6456059120513649
 40
0.688122288735785
 40
0.7303461949143989
 40
0.7728627862907352
 40
0.8150867036638044
 40
0.8576034754611873
 40
0.8928578856553554
 40
0.9281123019844038
 40
0.9640562709042988
 40
1.0
 40
1.0
 40
1.0
 40
1.0
 10
34.14366214373612
 20
4.035226364350351
 30
0.0
 10
34.28252694884695
 20
4.097468950924864
 30
0.0
 10
34.99637387377469
 20
4.417432522618246
 30
0.0
 10
36.28918099426495
 20
4.884950947869221
 30
0.0
 10
38.01852847749691
 20
5.407891211470008
 30
0.0
 10
39.75193419327371
 20
5.773329496600769
 30
0.0
 10
41.48091631975901
 20
5.980957319922366
 30
0.0
 10
43.2138056283915
 20
6.022519064985151
 30
0.0
 10
44.94277383361453
 20
5.897484360036208
 30
0.0
 10
46.67617969204158
 20
5.608900176025011
 30
0.0
 10
48.40551438092702
 20
5.166003066676398
 30
0.0
 10
50.13843300200513
 20
4.578585878875565
 30
0.0
 10
51.86736147133827
 20
3.865730948027178
 30
0.0
 10
53.60031158875475
 20
3.044155953153326
 30
0.0
 10
55.32980495720677
 20
2.141039768386458
 30
0.0
 10
57.06304616966583
 20
1.176266718494456
 30
0.0
 10
58.79200785895745
 20
0.180548737517703
 30
0.0
 10
60.52489670433025
 20
-0.8224566831155775
 30
0.0
 10
62.2539123698978
 20
-1.800273486605877
 30
0.0
 10
63.98743173469919
 20
-2.72952290331596
 30
0.0
 10
65.71662123323782
 20
-3.581880968127895
 30
0.0
 10
67.44953796819681
 20
-4.337180183991428
 30
0.0
 10
69.08350606246184
 20
-4.936060772181422
 30
0.0
 10
70.62288774075898
 20
-5.387443827530181
 30
0.0
 10
72.07252842486064
 20
-5.707340074784284
 30
0.0
 10
73.53234999414778
 20
-5.925053953649571
 30
0.0
 10
74.51078441943244
 20
-5.971637297270579
 30
0.0
 10
74.99999999999966
 20
-5.999999999999751
 30
0.0
  0
SPLINE
  5
AF
330
1F
100
AcDbEntity
  8
0
  6
Continuous
 62
     1
370
    15
100
AcDbSpline
210
0.0
220
0.0
230
1.0
 70
     8
 71
     3
 72
    15
 73
    11
 74
     0
 42
0.000000001
 43
0.00000001
 40
0.0
 40
0.0
 40
0.0
 40
0.0
 40
0.0920127505886591
 40
0.2318612202012063
 40
0.3716871465894295
 40
0.5116345533812522
 40
0.6515566262167443
 40
0.7913485773443861
 40
0.9312491908301139
 40
1.0
 40
1.0
 40
1.0
 40
1.0
 10
60.07892859423025
 20
-0.5617127284321051
 30
0.0
 10
59.46652794592114
 20
-0.316295815639448
 30
0.0
 10
57.92335093338148
 20
0.3021257019663082
 30
0.0
 10
55.44981355646686
 20
1.299211928589318
 30
0.0
 10
52.65735756444878
 20
2.326833675852073
 30
0.0
 10
49.86400255369844
 20
3.186999385099078
 30
0.0
 10
47.07092955052119
 20
3.822420899336705
 30
0.0
 10
44.27866609136226
 20
4.16830182773349
 30
0.0
 10
41.95963439830407
 20
4.254959536409376
 30
0.0
 10
40.57094782069102
 20
4.112830927696666
 30
0.0
 10
40.11337449250989
 20
4.065999438455793
 30
0.0
  0
SPLINE
  5
B0
330
1F
100
AcDbEntity
  8
0
  6
Continuous
 62
     1
370
    15
100
AcDbSpline
210
0.0
220
0.0
230
1.0
 70
     8
 71
     3
 72
    24
 73
    20
 74
     0
 42
0.000000001
 43
0.00000001
 40
0.0
 40
0.0
 40
0.0
 40
0.0
 40
0.0370065883910708
 40
0.0976162316342078
 40
0.158237959638009
 40
0.2188687928489998
 40
0.2795057292287667
 40
0.3401457538174907
 40
0.4007858451089394
 40
0.4614229814554216
 40
0.5220541474733945
 40
0.5826763404203895
 40
0.6432865765141682
 40
0.7038960295201873
 40
0.7660514228671198
 40
0.8282204136278318
 40
0.8903967097296619
 40
0.9525739937362141
 40
1.0
 40
1.0
 40
1.0
 40
1.0
 10
52.52214737872239
 20
-4.717882372210242
 30
0.0
 10
52.03510668126052
 20
-4.892655695979102
 30
0.0
 10
50.75038740272805
 20
-5.353673963218728
 30
0.0
 10
48.66786509003243
 20
-5.799247067792821
 30
0.0
 10
46.27429081358648
 20
-6.045480043026781
 30
0.0
 10
43.88029751671397
 20
-5.96150672131018
 30
0.0
 10
41.48601200341793
 20
-5.565485264320031
 30
0.0
 10
39.09158109120376
 20
-4.874628565125836
 30
0.0
 10
36.69714689769214
 20
-3.926431390080263
 30
0.0
 10
34.30285228354469
 20
-2.770751463054864
 30
0.0
 10
31.90884187888663
 20
-1.468755377764447
 30
0.0
 10
29.51525065949717
 20
-0.0892482598980107
 30
0.0
 10
27.12206074427793
 20
1.294968447988709
 30
0.0
 10
24.70873149940137
 20
2.62207706729394
 30
0.0
 10
22.27464850738313
 20
3.81751743530871
 30
0.0
 10
19.81985849294063
 20
4.813815489467946
 30
0.0
 10
17.36471880202267
 20
5.53209656603033
 30
0.0
 10
15.10362243245254
 20
5.947655333593769
 30
0.0
 10
13.66097811333036
 20
5.963099108812754
 30
0.0
 10
13.03673719550437
 20
5.96978172370931
 30
0.0
  0
SPLINE
  5
B1
330
1F
100
AcDbEntity
  8
0
  6
Continuous
 62
     1
370
    15
100
AcDbSpline
210
0.0
220
0.0
230
1.0
 70
     8
 71
     3
 72
    16
 73
    12
 74
     0
 42
0.000000001
 43
0.00000001
 40
0.0
 40
0.0
 40
0.0
 40
0.0
 40
0.0641381345657255
 40
0.192892884770741
 40
0.3217437770058456
 40
0.4506418732439985
 40
0.5794562708575148
 40
0.7082326345960979
 40
0.8371219382851243
 40
0.9659970878756351
 40
0.9999999999999999
 40
0.9999999999999999
 40
0.9999999999999999
 40
0.9999999999999999
 10
48.46052696092977
 20
-4.94651059056843
 30
0.0
 10
47.99704170915433
 20
-5.001890517475735
 30
0.0
 10
46.60312827732476
 20
-5.168443441596033
 30
0.0
 10
44.27869277533764
 20
-5.051233487960126
 30
0.0
 10
41.48573378253362
 20
-4.617753526340815
 30
0.0
 10
38.69218676108596
 20
-3.8341336252738
 30
0.0
 10
35.89956159845402
 20
-2.780682723996581
 30
0.0
 10
33.10723834500138
 20
-1.5231791285206
 30
0.0
 10
30.31387331422135
 20
-0.1672923092981092
 30
0.0
 10
28.2053905928752
 20
0.8925202756041186
 30
0.0
 10
27.02857798383965
 20
1.425093953848981
 30
0.0
 10
26.78290305800508
 20
1.536275630438493
 30
0.0
  0
SPLINE
  5
B2
330
1F
100
AcDbEntity
  8
0
  6
Continuous
 62
     1
370
    15
100
AcDbSpline
210
0.0
220
0.0
230
1.0
 70
     8
 71
     3
 72
    20
 73
    16
 74
     0
 42
0.000000001
 43
0.00000001
 40
0.0
 40
0.0
 40
0.0
 40
0.0
 40
0.0816462318507818
 40
0.1633086883169975
 40
0.2449833508880638
 40
0.3266661752635851
 40
0.4083530998628747
 40
0.4900400544134447
 40
0.5717229685792898
 40
0.6533977805894597
 40
0.7350604458274196
 40
0.816706945342016
 40
0.8983529130412505
 40
0.9800151598658197
 40
1.0
 40
1.0
 40
1.0
 40
1.0
 10
75.00000000000003
 20
-5.693645215391391
 30
0.0
 10
74.20232807404749
 20
-5.519132552346037
 30
0.0
 10
72.60682570998638
 20
-5.170072547363453
 30
0.0
 10
70.21324691450255
 20
-4.292841694845955
 30
0.0
 10
67.81924758106564
 20
-3.210377432619212
 30
0.0
 10
65.42495908510915
 20
-1.952469980568637
 30
0.0
 10
63.03052702395296
 20
-0.5929404837760045
 30
0.0
 10
60.63609390817589
 20
0.7983680391383233
 30
0.0
 10
58.24180226117609
 20
2.147224880698023
 30
0.0
 10
55.84779765563641
 20
3.383113982880251
 30
0.0
 10
53.4542115940608
 20
4.438371398291231
 30
0.0
 10
51.06103339469895
 20
5.266063201659096
 30
0.0
 10
48.66786020987834
 20
5.790043219731298
 30
0.0
 10
46.87702967534748
 20
6.024541045256332
 30
0.0
 10
45.88387263195858
 20
5.979493168802593
 30
0.0
 10
45.68860796344608
 20
5.970636302991205
 30
0.0
  0
SPLINE
  5
B3
330
1F
100
AcDbEntity
  8
0
  6
Continuous
 62
     1
370
    15
100
AcDbSpline
210
0.0
220
0.0
230
1.0
 70
     8
 71
     3
 72
    12
 73
     8
 74
     0
 42
0.000000001
 43
0.00000001
 40
0.0
 40
0.0
 40
0.0
 40
0.0
 40
0.0130437724491313
 40
0.2598020154823318
 40
0.5065641791999207
 40
0.7533051780512897
 40
1.0
 40
1.0
 40
1.0
 40
1.0
 10
19.94972532827635
 20
-4.715360748323858
 30
0.0
 10
19.90646504387956
 20
-4.732817999475286
 30
0.0
 10
19.04481944860004
 20
-5.080526383043739
 30
0.0
 10
17.36471180913391
 20
-5.522497541087323
 30
0.0
 10
14.90953359474793
 20
-5.958896776978167
 30
0.0
 10
12.45458921522129
 20
-6.059744029250493
 30
0.0
 10
10.81814535763557
 20
-5.850228973403595
 30
0.0
 10
10.00000000000509
 20
-5.745481248939813
 30
0.0
  0
SPLINE
  5
B4
330
1F
100
AcDbEntity
  8
0
  6
Continuous
 62
   131
370
    15
100
AcDbSpline
210
0.0
220
0.0
230
1.0
 70
    24
 71
     3
 72
     8
 73
     4
 74
     0
 42
0.000000001
 43
0.00000001
 40
0.0
 40
0.0
 40
0.0
 40
0.0
 40
1.0
 40
1.0
 40
1.0
 40
1.0
 10
10.00000000000006
 20
-4.786201818857903
 30
0.0
 10
10.00000000000006
 20
-5.105092262940447
 30
0.0
 10
10.00000000000006
 20
-5.426903321438211
 30
0.0
 10
10.00000000000006
 20
-5.745481248937337
 30
0.0
  0
SPLINE
  5
B5
330
1F
100
AcDbEntity
  8
0
  6
Continuous
 62
     1
370
    15
100
AcDbSpline
210
0.0
220
0.0
230
1.0
 70
     8
 71
     3
 72
    13
 73
     9
 74
     0
 42
0.000000001
 43
0.00000001
 40
0.0
 40
0.0
 40
0.0
 40
0.0
 40
0.1794050125775867
 40
0.3589495453040555
 40
0.5384513376003539
 40
0.7177990329762031
 40
0.8972920157869141
 40
1.0
 40
1.0
 40
1.0
 40
1.0
 10
75.00000000000003
 20
-4.733833586209283
 30
0.0
 10
74.06941962098391
 20
-4.530720638530148
 30
0.0
 10
72.20753516682322
 20
-4.124336785775411
 30
0.0
 10
69.41405840227146
 20
-3.128446857689734
 30
0.0
 10
66.62098608595737
 20
-1.931189800962142
 30
0.0
 10
63.82885432022029
 20
-0.5924990559207673
 30
0.0
 10
61.4344464407465
 20
0.6049117382649957
 30
0.0
 10
59.97044170610094
 20
1.285041510204222
 30
0.0
 10
59.43761229463695
 20
1.53257701164456
 30
0.0
  0
SPLINE
  5
B6
330
1F
100
AcDbEntity
  8
0
  6
Continuous
 62
     1
370
    15
100
AcDbSpline
210
0.0
220
0.0
230
1.0
 70
     8
 71
     3
 72
    10
 73
     6
 74
     0
 42
0.000000001
 43
0.00000001
 40
0.0
 40
0.0
 40
0.0
 40
0.0
 40
0.2709038386847676
 40
0.6354551471937729
 40
1.0
 40
1.0
 40
1.0
 40
1.0
 10
15.80532605989664
 20
-4.972335316164902
 30
0.0
 10
15.28109585231267
 20
-5.021358181165434
 30
0.0
 10
14.0514167700929
 20
-5.136350394070262
 30
0.0
 10
12.11630804254087
 20
-5.083376221104847
 30
0.0
 10
10.70543185003033
 20
-4.885259368205499
 30
0.0
 10
10.00000000000007
 20
-4.786201818857903
 30
0.0
  0
LINE
  5
B7
330
1F
100
AcDbEntity
  8
0
  6
Continuous
 62
     1
370
    15
100
AcDbLine
 10
75.00000000000001
 20
-5.693645215391396
 30
0.0
 11
75.00000000000001
 21
-4.733833586209282
 31
0.0
  0
LINE
  5
B8
330
1F
100
AcDbEntity
  8
0
  6
Continuous
 62
   131
370
    15
100
AcDbLine
 10
10.00000000000001
 20
-5.999531713169582
 30
0.0
 11
10.00000000000001
 21
-5.745481248939067
 31
0.0
  0
LINE
  5
B9
330
1F
100
AcDbEntity
  8
0
  6
Continuous
 62
     1
370
    15
100
AcDbLine
 10
74.99999999999966
 20
-5.999999999999751
 30
0.0
 11
75.00000000000001
 21
-5.693645215391404
 31
0.0
  0
SPLINE
  5
BA
330
1F
100
AcDbEntity
  8
0
  6
Continuous
 62
     1
370
    15
100
AcDbSpline
210
0.0
220
0.0
230
1.0
 70
     8
 71
     3
 72
     8
 73
     4
 74
     0
 42
0.000000001
 43
0.00000001
 40
0.0
 40
0.0
 40
0.0
 40
0.0
 40
1.0
 40
1.0
 40
1.0
 40
1.0
 10
71.28766238388617
 20
1.678126369561352
 30
0.0
 10
71.0185435244941
 20
1.996908240080767
 30
0.0
 10
70.78528950873196
 20
2.301017429348726
 30
0.0
 10
70.60063730606633
 20
2.584818657777574
 30
0.0
  0
LINE
  5
BB
330
1F
100
AcDbEntity
  8
0
  6
Continuous
 62
     1
370
    15
100
AcDbLine
 10
70.60063730606632
 20
2.584818657777565
 30
0.0
 11
75.00000000000001
 21
0.0000000000000129
 31
0.0
  0
LINE
  5
BC
330
1F
100
AcDbEntity
  8
0
  6
Continuous
 62
     1
370
    15
100
AcDbLine
 10
75.00000000000001
 20
0.0000000000000129
 30
0.0
 11
75.00000000000001
 21
-1.603457676177856
 31
0.0
  0
SPLINE
  5
BD
330
1F
100
AcDbEntity
  8
0
  6
Continuous
 62
     1
370
    15
100
AcDbSpline
210
0.0
220
0.0
230
1.0
 70
     8
 71
     3
 72
    12
 73
     8
 74
     0
 42
0.000000001
 43
0.00000001
 40
0.0
 40
0.0
 40
0.0
 40
0.0
 40
0.4999999999999969
 40
0.4999999999999969
 40
0.7499999999999984
 40
0.7499999999999984
 40
1.0
 40
1.0
 40
1.0
 40
1.0
 10
75.00000000000003
 20
-1.603457676177865
 30
0.0
 10
74.35738324975098
 20
-1.098253421645074
 30
0.0
 10
73.72550027521604
 20
-0.5723371630809585
 30
0.0
 10
72.79419516594507
 20
0.2484131373371024
 30
0.0
 10
72.4865576817282
 20
0.5273947563251549
 30
0.0
 10
71.87756600981818
 20
1.097482307906728
 30
0.0
 10
71.57786785258453
 20
1.387117232542008
 30
0.0
 10
71.287662383887
 20
1.678126369560563
 30
0.0
  0
SPLINE
  5
BE
330
1F
100
AcDbEntity
  8
0
  6
Continuous
 62
     1
370
    15
100
AcDbSpline
210
0.0
220
0.0
230
1.0
 70
     8
 71
     3
 72
    13
 73
     9
 74
     0
 42
0.000000001
 43
0.00000001
 40
0.0
 40
0.0
 40
0.0
 40
0.0
 40
0.168877634884189
 40
0.337742030355874
 40
0.5396772329027054
 40
0.7417783042121933
 40
0.943941315223078
 40
1.0
 40
1.0
 40
1.0
 40
1.0
 10
71.28766238388617
 20
1.67812636956135
 30
0.0
 10
70.50973058642573
 20
2.006636080978864
 30
0.0
 10
68.95392797862118
 20
2.663629749808139
 30
0.0
 10
66.46800725355273
 20
3.545602192452415
 30
0.0
 10
63.82879732116525
 20
4.278091316912714
 30
0.0
 10
61.03587452494733
 20
4.7169758307126
 30
0.0
 10
58.91483470134185
 20
4.867242865017969
 30
0.0
 10
57.7252210620042
 20
4.757210234111893
 30
0.0
 10
57.46696167829712
 20
4.73332268061907
 30
0.0
  0
SPLINE
  5
BF
330
1F
100
AcDbEntity
  8
0
  6
Continuous
 62
     1
370
    15
100
AcDbSpline
210
0.0
220
0.0
230
1.0
 70
     8
 71
     3
 72
    15
 73
    11
 74
     0
 42
0.000000001
 43
0.00000001
 40
0.0
 40
0.0
 40
0.0
 40
0.0
 40
0.1085253581158767
 40
0.2505354902492266
 40
0.3926419485975604
 40
0.5348104435177236
 40
0.6768945641595476
 40
0.7845983989027867
 40
0.8923001657019498
 40
1.0
 40
1.0
 40
1.0
 40
1.0
 10
29.65307846693746
 20
-4.480944715359887
 30
0.0
 10
28.94202487577459
 20
-4.586789382164617
 30
0.0
 10
27.3005268595667
 20
-4.831136380401429
 30
0.0
 10
24.72854799826262
 20
-4.813591222987076
 30
0.0
 10
21.9356676530498
 20
-4.488027679310463
 30
0.0
 10
19.14216057207253
 20
-3.83014956525889
 30
0.0
 10
16.57417272785168
 20
-2.974473516630709
 30
0.0
 10
14.23271494791674
 20
-2.040648688838684
 30
0.0
 10
12.11632287734031
 20
-1.112771868737827
 30
0.0
 10
10.70543673980245
 20
-0.4625034125566634
 30
0.0
 10
10.00000000000001
 20
-0.1373721014465241
 30
0.0
  0
SPLINE
  5
C0
330
1F
100
AcDbEntity
  8
0
  6
Continuous
 62
     1
370
    15
100
AcDbSpline
210
0.0
220
0.0
230
1.0
 70
    24
 71
     3
 72
    10
 73
     6
 74
     0
 42
0.000000001
 43
0.00000001
 40
0.0
 40
0.0
 40
0.0
 40
0.0
 40
0.5
 40
0.5
 40
1.0
 40
1.0
 40
1.0
 40
1.0
 10
75.00000000000001
 20
-4.733833586209282
 30
0.0
 10
75.00000000000001
 20
-4.370948334022817
 30
0.0
 10
75.00000000000003
 20
-3.912428903438802
 30
0.0
 10
75.00000000000001
 20
-2.846415354904073
 30
0.0
 10
75.00000000000003
 20
-2.239844658307855
 30
0.0
 10
75.00000000000003
 20
-1.603457676178058
 30
0.0
  0
SPLINE
  5
C1
330
1F
100
AcDbEntity
  8
0
  6
Continuous
 62
   131
370
    15
100
AcDbSpline
210
0.0
220
0.0
230
1.0
 70
    24
 71
     3
 72
    14
 73
    10
 74
     0
 42
0.000000001
 43
0.00000001
 40
0.0
 40
0.0
 40
0.0
 40
0.0
 40
0.25
 40
0.25
 40
0.5
 40
0.5
 40
0.75
 40
0.75
 40
1.0
 40
1.0
 40
1.0
 40
1.0
 10
10.00000000000001
 20
-0.1373721014465208
 30
0.0
 10
10.00000000000001
 20
-0.5952828076490253
 30
0.0
 10
10.00000000000001
 20
-1.056982290936761
 30
0.0
 10
10.00000000000001
 20
-1.954692061002956
 30
0.0
 10
10.00000000000001
 20
-2.390432617320786
 30
0.0
 10
10.00000000000001
 20
-3.202930791094762
 30
0.0
 10
10.00000000000001
 20
-3.579453783742597
 30
0.0
 10
10.00000000000001
 20
-4.248631627699348
 30
0.0
 10
10.00000000000001
 20
-4.541196704134906
 30
0.0
 10
10.00000000000001
 20
-4.786201818857893
 30
0.0
  0
SPLINE
  5
C2
330
1F
100
AcDbEntity
  8
0
  6
Continuous
 62
     1
370
    15
100
AcDbSpline
210
0.0
220
0.0
230
1.0
 70
     8
 71
     3
 72
    21
 73
    17
 74
     0
 42
0.000000001
 43
0.00000001
 40
0.0
 40
0.0
 40
0.0
 40
0.0
 40
0.0339105594773526
 40
0.1084544269041509
 40
0.1829443872592369
 40
0.2574226537030518
 40
0.331963941606176
 40
0.4064920861146168
 40
0.4809527260281687
 40
0.5554697390221566
 40
0.6300144367911782
 40
0.7045100587462136
 40
0.7789833668926159
 40
0.8535229057930923
 40
0.9280541506941193
 40
1.0
 40
1.0
 40
1.0
 40
1.0
 10
62.30723962067287
 20
-4.469783545521363
 30
0.0
 10
61.88353564334328
 20
-4.545634634444189
 30
0.0
 10
60.5284246470478
 20
-4.788225334980253
 30
0.0
 10
58.24234331204237
 20
-4.842465604870426
 30
0.0
 10
55.44980317936639
 20
-4.629054963398636
 30
0.0
 10
52.65739094692579
 20
-4.064847764128698
 30
0.0
 10
49.86399041418049
 20
-3.214165672600892
 30
0.0
 10
47.07088102389076
 20
-2.131591323011773
 30
0.0
 10
44.27869402368733
 20
-0.8952054929884301
 30
0.0
 10
41.48576529113289
 20
0.4045261978615248
 30
0.0
 10
38.69223940454394
 20
1.675187092665034
 30
0.0
 10
35.8996100207
 20
2.825596299676352
 30
0.0
 10
33.10726582562947
 20
3.775287280502326
 30
0.0
 10
30.31390838314062
 20
4.44612592112886
 30
0.0
 10
27.55221050253177
 20
4.820526650517214
 30
0.0
 10
25.72224075417731
 20
4.7813792467019
 30
0.0
 10
24.82340583079022
 20
4.762151030639431
 30
0.0
  0
SPLINE
  5
C3
330
1F
100
AcDbEntity
  8
0
  6
Continuous
 62
     1
370
    15
100
AcDbSpline
210
0.0
220
0.0
230
1.0
 70
     8
 71
     3
 72
    10
 73
     6
 74
     0
 42
0.000000001
 43
0.00000001
 40
0.0
 40
0.0
 40
0.0
 40
0.0
 40
0.5000000000000001
 40
0.5000000000000001
 40
1.0
 40
1.0
 40
1.0
 40
1.0
 10
75.00000000000001
 20
4.200000000000012
 30
0.0
 10
74.25332347653935
 20
3.99749062130025
 30
0.0
 10
73.51228338110269
 20
3.765127278277489
 30
0.0
 10
72.04287433025135
 20
3.233286497890211
 30
0.0
 10
71.31450293166839
 20
2.934090734052226
 30
0.0
 10
70.60063730606632
 20
2.58481865777757
 30
0.0
  0
SPLINE
  5
C4
330
1F
100
AcDbEntity
  8
0
  6
Continuous
 62
   131
370
    15
100
AcDbSpline
210
0.0
220
0.0
230
1.0
 70
    24
 71
     3
 72
    14
 73
    10
 74
     0
 42
0.000000001
 43
0.00000001
 40
0.0
 40
0.0
 40
0.0
 40
0.0
 40
0.2499999999999998
 40
0.2499999999999998
 40
0.4999999999999999
 40
0.4999999999999999
 40
0.75
 40
0.75
 40
1.0
 40
1.0
 40
1.0
 40
1.0
 10
10.0
 20
4.198279626044507
 30
0.0
 10
10.0
 20
4.070308034199539
 30
0.0
 10
10.0
 20
3.874993721202781
 30
0.0
 10
10.0
 20
3.348999946916151
 30
0.0
 10
10.0
 20
3.018312966606846
 30
0.0
 10
10.0
 20
2.247742652979443
 30
0.0
 10
10.0
 20
1.808269911740616
 30
0.0
 10
10.0
 20
0.8677672389301875
 30
0.0
 10
10.0
 20
0.3673119884529932
 30
0.0
 10
10.0
 20
-0.1373721014465167
 30
0.0
  0
LINE
  5
C5
330
1F
100
AcDbEntity
  8
0
  6
Continuous
 62
     1
370
    15
100
AcDbLine
 10
75.00000000000001
 20
0.0000000000000129
 30
0.0
 11
75.00000000000001
 21
4.200000000000012
 31
0.0
  0
SPLINE
  5
C6
330
1F
100
AcDbEntity
  8
0
  6
Continuous
 62
   131
370
    15
100
AcDbSpline
210
0.0
220
0.0
230
1.0
 70
     8
 71
     3
 72
    10
 73
     6
 74
     0
 42
0.000000001
 43
0.00000001
 40
0.0
 40
0.0
 40
0.0
 40
0.0
 40
0.5
 40
0.5
 40
1.0
 40
1.0
 40
1.0
 40
1.0
 10
10.00000000000508
 20
-5.745481248939808
 30
0.0
 10
9.662192738305976
 20
-5.689219011260456
 30
0.0
 10
9.325830370849324
 20
-5.623928015176335
 30
0.0
 10
8.647922668144515
 20
-5.475330686653868
 30
0.0
 10
8.308081124565847
 20
-5.392112020407096
 30
0.0
 10
7.969779925914276
 20
-5.300584627373778
 30
0.0
  0
SPLINE
  5
C7
330
1F
100
AcDbEntity
  8
0
  6
Continuous
 62
   131
370
    15
100
AcDbSpline
210
0.0
220
0.0
230
1.0
 70
     8
 71
     3
 72
    10
 73
     6
 74
     0
 42
0.000000001
 43
0.00000001
 40
0.0
 40
0.0
 40
0.0
 40
0.0
 40
0.5
 40
0.5
 40
1.0
 40
1.0
 40
1.0
 40
1.0
 10
7.969892490072569
 20
-5.870881956731617
 30
0.0
 10
8.30817526917162
 20
-5.911185578278716
 30
0.0
 10
8.647997954135727
 20
-5.942195085085507
 30
0.0
 10
9.325867866097534
 20
-5.985146540133709
 30
0.0
 10
9.66221147159381
 20
-5.997092578722377
 30
0.0
 10
10.00000000000001
 20
-5.999531713166647
 30
0.0
  0
LINE
  5
C8
330
1F
100
AcDbEntity
  8
0
  6
Continuous
 62
   131
370
    15
100
AcDbLine
 10
7.969892490072569
 20
-5.999999999999995
 30
0.0
 11
7.969892490072569
 21
-5.870882474235802
 31
0.0
  0
SPLINE
  5
C9
330
1F
100
AcDbEntity
  8
0
  6
Continuous
 62
   131
370
    15
100
AcDbSpline
210
0.0
220
0.0
230
1.0
 70
     8
 71
     3
 72
    10
 73
     6
 74
     0
 42
0.000000001
 43
0.00000001
 40
0.0
 40
0.0
 40
0.0
 40
0.0
 40
0.5
 40
0.5
 40
1.0
 40
1.0
 40
1.0
 40
1.0
 10
7.969892490072569
 20
5.870881956731628
 30
0.0
 10
8.308175269171617
 20
5.911185578278726
 30
0.0
 10
8.647997954135727
 20
5.942195085085517
 30
0.0
 10
9.325867866097534
 20
5.985146540133719
 30
0.0
 10
9.66221147159381
 20
5.997092578722388
 30
0.0
 10
10.00000000000001
 20
5.999531713166657
 30
0.0
  0
LINE
  5
CA
330
1F
100
AcDbEntity
  8
0
  6
Continuous
 62
   131
370
    15
100
AcDbLine
 10
7.969892490072565
 20
-5.300464135086404
 30
0.0
 11
7.969892490072569
 21
6.000000000000005
 31
0.0
  0
LINE
  5
CB
330
1F
100
AcDbEntity
  8
0
  6
Continuous
 62
   131
370
    15
100
AcDbLine
 10
-73.99999999999999
 20
5.999999999999995
 30
0.0
 11
-73.99999999999999
 21
-6.0
 31
0.0
  0
LINE
  5
CC
330
1F
100
AcDbEntity
  8
0
  6
Continuous
 62
   131
370
    15
100
AcDbLine
 10
-74.99999999999999
 20
4.999999999999996
 30
0.0
 11
-74.99999999999999
 21
-4.999999999999996
 31
0.0
  0
SPLINE
  5
CD
330
1F
100
AcDbEntity
  8
0
  6
Continuous
 62
   131
370
    15
100
AcDbSpline
210
0.0
220
0.0
230
1.0
 70
     8
 71
     3
 72
    10
 73
     6
 74
     0
 42
0.000000001
 43
0.00000001
 40
0.0
 40
0.0
 40
0.0
 40
0.0
 40
0.5
 40
0.5
 40
1.0
 40
1.0
 40
1.0
 40
1.0
 10
10.00000000000581
 20
-4.786201818858876
 30
0.0
 10
9.662192738306587
 20
-4.728887696254333
 30
0.0
 10
9.325830370849824
 20
-4.664067113575974
 30
0.0
 10
8.64792266814477
 20
-4.519464788591784
 30
0.0
 10
8.308081124565971
 20
-4.439773815279481
 30
0.0
 10
7.969779925914276
 20
-4.353276181924885
 30
0.0
  0
SPLINE
  5
CE
330
1F
100
AcDbEntity
  8
0
  6
Continuous
 62
   131
370
    15
100
AcDbSpline
210
0.0
220
0.0
230
1.0
 70
     8
 71
     3
 72
    10
 73
     6
 74
     0
 42
0.000000001
 43
0.00000001
 40
0.0
 40
0.0
 40
0.0
 40
0.0
 40
0.5000000000000001
 40
0.5000000000000001
 40
1.0
 40
1.0
 40
1.0
 40
1.0
 10
10.00000000000001
 20
-0.1373721014465242
 30
0.0
 10
9.662204629952928
 20
0.0187519170893262
 30
0.0
 10
9.325854172348373
 20
0.1748719633041647
 30
0.0
 10
8.647970458717449
 20
0.4868569227411892
 30
0.0
 10
8.308140886340015
 20
0.6424568858948949
 30
0.0
 10
7.969851380170867
 20
0.7965542418092239
 30
0.0
  0
SPLINE
  5
CF
330
1F
100
AcDbEntity
  8
0
  6
Continuous
 62
   131
370
    15
100
AcDbSpline
210
0.0
220
0.0
230
1.0
 70
    24
 71
     3
 72
    14
 73
    10
 74
     0
 42
0.000000001
 43
0.00000001
 40
0.0
 40
0.0
 40
0.0
 40
0.0
 40
0.2500000000000001
 40
0.2500000000000001
 40
0.5000000000000001
 40
0.5000000000000001
 40
0.7500000000000002
 40
0.7500000000000002
 40
1.0
 40
1.0
 40
1.0
 40
1.0
 10
10.00000000000001
 20
-0.1373721014465242
 30
0.0
 10
10.00000000000001
 20
-0.5952828076490285
 30
0.0
 10
10.00000000000001
 20
-1.056982290936763
 30
0.0
 10
10.00000000000001
 20
-1.954692061002959
 30
0.0
 10
10.00000000000001
 20
-2.390432617320789
 30
0.0
 10
10.00000000000001
 20
-3.202930791094764
 30
0.0
 10
10.00000000000001
 20
-3.579453783742598
 30
0.0
 10
10.00000000000002
 20
-4.248631627699347
 30
0.0
 10
10.00000000000002
 20
-4.541196704134909
 30
0.0
 10
10.00000000000002
 20
-4.786201818857895
 30
0.0
  0
SPLINE
  5
D0
330
1F
100
AcDbEntity
  8
0
  6
Continuous
 62
   131
370
    15
100
AcDbSpline
210
0.0
220
0.0
230
1.0
 70
     8
 71
     3
 72
    10
 73
     6
 74
     0
 42
0.000000001
 43
0.00000001
 40
0.0
 40
0.0
 40
0.0
 40
0.0
 40
0.5
 40
0.5
 40
1.0
 40
1.0
 40
1.0
 40
1.0
 10
10.00000000000001
 20
4.198279626044507
 30
0.0
 10
9.662206957637913
 20
4.202190825962676
 30
0.0
 10
9.325858831279909
 20
4.199441242178393
 30
0.0
 10
8.647979813296972
 20
4.180579685069368
 30
0.0
 10
8.308152584176947
 20
4.164455308626842
 30
0.0
 10
7.9698653667117
 20
4.141765292037184
 30
0.0
  0
SPLINE
  5
D1
330
1F
100
AcDbEntity
  8
0
  6
Continuous
 62
   131
370
    15
100
AcDbSpline
210
0.0
220
0.0
230
1.0
 70
    24
 71
     3
 72
    14
 73
    10
 74
     0
 42
0.000000001
 43
0.00000001
 40
0.0
 40
0.0
 40
0.0
 40
0.0
 40
0.2499999999999998
 40
0.2499999999999998
 40
0.4999999999999999
 40
0.4999999999999999
 40
0.75
 40
0.75
 40
1.0
 40
1.0
 40
1.0
 40
1.0
 10
10.0
 20
4.198279626044507
 30
0.0
 10
10.0
 20
4.070308034199539
 30
0.0
 10
10.0
 20
3.874993721202781
 30
0.0
 10
10.0
 20
3.348999946916151
 30
0.0
 10
10.0
 20
3.018312966606846
 30
0.0
 10
10.0
 20
2.247742652979443
 30
0.0
 10
10.0
 20
1.808269911740616
 30
0.0
 10
10.0
 20
0.8677672389301875
 30
0.0
 10
10.0
 20
0.3673119884529932
 30
0.0
 10
10.0
 20
-0.1373721014465167
 30
0.0
  0
SPLINE
  5
D2
330
1F
100
AcDbEntity
  8
0
  6
Continuous
 62
   131
370
    15
100
AcDbSpline
210
0.0
220
0.0
230
1.0
 70
    24
 71
     3
 72
     8
 73
     4
 74
     0
 42
0.000000001
 43
0.00000001
 40
0.0
 40
0.0
 40
0.0
 40
0.0
 40
1.0
 40
1.0
 40
1.0
 40
1.0
 10
10.00000000000006
 20
-4.786201818857903
 30
0.0
 10
10.00000000000006
 20
-5.105092262940447
 30
0.0
 10
10.00000000000006
 20
-5.426903321438211
 30
0.0
 10
10.00000000000006
 20
-5.745481248937336
 30
0.0
  0
SPLINE
  5
D3
330
1F
100
AcDbEntity
  8
0
  6
Continuous
 62
   131
370
    15
100
AcDbSpline
210
0.0
220
0.0
230
1.0
 70
    24
 71
     3
 72
    10
 73
     6
 74
     0
 42
0.000000001
 43
0.00000001
 40
0.0
 40
0.0
 40
0.0
 40
0.0
 40
0.5
 40
0.5
 40
1.0
 40
1.0
 40
1.0
 40
1.0
 10
10.00000000000001
 20
5.999531713161769
 30
0.0
 10
10.00000000000001
 20
5.701366960203687
 30
0.0
 10
10.00000000000001
 20
5.37875166765951
 30
0.0
 10
10.00000000000001
 20
4.755753708194103
 30
0.0
 10
10.00000000000001
 20
4.456975606482025
 30
0.0
 10
10.00000000000001
 20
4.198279626044507
 30
0.0
  0
LINE
  5
D4
330
1F
100
AcDbEntity
  8
중심선
 62
     1
100
AcDbLine
 10
-77.99999999999999
 20
-0.0000000000000004
 30
0.0
 11
78.00000000000001
 21
0.0000000000000132
 31
0.0
  0
CIRCLE
  5
D5
330
1F
100
AcDbEntity
  8
외형선
100
AcDbCircle
 10
0.0000000000000104
 20
0.0
 30
0.0
 40
3.000000000000005
  0
INSERT
  5
D6
330
1F
100
AcDbEntity
  8
0
  6
Continuous
 62
     7
100
AcDbBlockReference
 66
     1
  2
블럭10
 10
-22.93944368806589
 20
-52.04609937292004
 30
0.0
  0
ATTRIB
  5
D7
330
D6
100
AcDbEntity
  8
FORMAT
 62
     2
100
AcDbText
 10
-39.05870472750145
 20
-49.97073246008785
 30
0.0
 40
4.233333333333333
  1
SEME7012065E [ 2 FLUTE ]
 41
0.75
  7
SLDTEXTSTYLE0
 11
-39.05870472750145
 21
-52.08739912675452
 31
0.0
100
AcDbAttribute
  2
AUTOATTR0
 70
     0
 74
     1
  0
SEQEND
  5
D8
330
D6
100
AcDbEntity
  8
0
  6
Continuous
 62
     7
  0
HATCH
  5
D9
330
1F
100
AcDbEntity
  8
중심선
100
AcDbHatch
 10
0.0
 20
0.0
 30
0.0
210
0.0
220
0.0
230
1.0
  2
SOLID
 70
     1
 71
     0
 91
        1
 92
        0
 93
        4
 72
     1
 10
-17.22453438368504
 20
-35.7989250712761
 11
-20.67080962752232
 21
-35.7989250712761
 72
     1
 10
-20.67080962752232
 20
-35.7989250712761
 11
-22.79903948672635
 21
-38.3352506518487
 72
     1
 10
-22.79903948672635
 20
-38.3352506518487
 11
-19.35273115777591
 21
-38.33521122254621
 72
     1
 10
-19.35273115777591
 20
-38.33521122254621
 11
-17.22453438368504
 21
-35.7989250712761
 97
        0
 75
     0
 76
     1
 98
        1
 10
0.0
 20
0.0
  0
HATCH
  5
DA
330
1F
100
AcDbEntity
  8
중심선
100
AcDbHatch
 10
0.0
 20
0.0
 30
0.0
210
0.0
220
0.0
230
1.0
  2
SOLID
 70
     1
 71
     0
 91
        1
 92
        0
 93
        4
 72
     1
 10
-12.21177039264909
 20
-35.7989250712761
 11
-15.65804563648637
 21
-35.7989250712761
 72
     1
 10
-15.65804563648637
 20
-35.7989250712761
 11
-20.18918364484376
 21
-41.19892507127612
 72
     1
 10
-20.18918364484376
 20
-41.19892507127612
 11
-16.74290840100648
 21
-41.19892507127612
 72
     1
 10
-16.74290840100648
 20
-41.19892507127612
 11
-12.21177039264909
 21
-35.7989250712761
 97
        0
 75
     0
 76
     1
 98
        1
 10
0.0
 20
0.0
  0
HATCH
  5
DB
330
1F
100
AcDbEntity
  8
중심선
100
AcDbHatch
 10
0.0
 20
0.0
 30
0.0
210
0.0
220
0.0
230
1.0
  2
SOLID
 70
     1
 71
     0
 91
        1
 92
        0
 93
        4
 72
     1
 10
-7.199006401613195
 20
-35.79892507127613
 11
-10.64528164545031
 21
-35.7989250712761
 72
     1
 10
-10.64528164545031
 20
-35.7989250712761
 11
-17.69371854733956
 21
-44.19892507127612
 72
     1
 10
-17.69371854733956
 20
-44.19892507127612
 11
-14.24744330350228
 21
-44.19892507127612
 72
     1
 10
-14.24744330350228
 20
-44.19892507127612
 11
-7.199006401613195
 21
-35.79892507127613
 97
        0
 75
     0
 76
     1
 98
        1
 10
0.0
 20
0.0
  0
HATCH
  5
DC
330
1F
100
AcDbEntity
  8
중심선
100
AcDbHatch
 10
0.0
 20
0.0
 30
0.0
210
0.0
220
0.0
230
1.0
  2
SOLID
 70
     1
 71
     0
 91
        1
 92
        0
 93
        6
 72
     3
 10
-2.399115970600996
 20
-39.99892507132738
 11
3.960054785062284
 21
1.540850780301639E-10
 40
0.3939339440162633
 50
17.09539180608433
 51
320.0019657685079
 73
     0
 72
     1
 10
-0.7161163149004002
 20
-38.58681907591441
 11
1.589185558800638
 21
-36.65249236586649
 72
     3
 10
-2.399115970653842
 20
-39.99892507127625
 11
6.600054785286829
 21
-1.249000902703301E-13
 40
0.6363583540795982
 50
39.99873849337408
 51
368.4976242363725
 73
     1
 72
     1
 10
4.026216521246767
 20
-39.03892507120613
 11
-3.71904866381792
 21
-39.0389250712061
 72
     1
 10
-3.71904866381792
 20
-39.0389250712061
 11
-3.719073708263854
 21
-40.95892507120602
 72
     1
 10
-3.719073708263854
 20
-40.95892507120602
 11
0.7223060612081831
 21
-40.95892507120599
 97
        0
 75
     0
 76
     1
 98
        1
 10
0.0
 20
0.0
  0
DIMENSION
  5
DD
330
1F
100
AcDbEntity
  8
치수문자_일반주서
100
AcDbDimension
  2
_D
 10
90.04433993919103
 20
6.0000000000003
 30
0.0
 11
90.04433993919099
 21
16.5415000000003
 31
0.0
 70
   160
  1
%%c<>
 71
     2
 42
12.0
 52
-270.0
  3
SLDDIMSTYLE0
100
AcDbAlignedDimension
 13
74.99999999999966
 23
-5.999999999999751
 33
0.0
 14
75.00000000000001
 24
6.000000000000245
 34
0.0
 50
90.0000000000002
100
AcDbRotatedDimension
  0
DIMENSION
  5
EB
330
1F
100
AcDbEntity
  8
치수문자_일반주서
100
AcDbDimension
  2
_D_1
 10
75.00000000000001
 20
26.78841044024269
 30
0.0
 11
0.0000000000000169
 21
26.78841044024269
 31
0.0
 70
   160
  1
<>
 71
     2
 42
150.0
  3
SLDDIMSTYLE1
100
AcDbAlignedDimension
 13
-74.99999999999999
 23
4.999999999999996
 33
0.0
 14
75.00000000000001
 24
6.000000000000245
 34
0.0
 50
-0.0000000000000014
100
AcDbRotatedDimension
  0
DIMENSION
  5
F6
330
1F
100
AcDbEntity
  8
치수문자_일반주서
100
AcDbDimension
  2
_D_2
 10
75.00000000000003
 20
19.34652951933418
 30
0.0
 11
42.50000000000001
 21
19.34652951933418
 31
0.0
 70
   160
  1
<>
 71
     2
 42
65.0
  3
SLDDIMSTYLE1
100
AcDbAlignedDimension
 13
10.00000000000001
 23
5.99953171316666
 33
0.0
 14
75.00000000000001
 24
6.000000000000245
 34
0.0
 50
-0.0000000000000063
100
AcDbRotatedDimension
  0
DIMENSION
  5
100
330
1F
100
AcDbEntity
  8
치수문자_일반주서
100
AcDbDimension
  2
_D_3
 10
-86.31609357207972
 20
-6.000000000000039
 30
0.0
 11
-86.31609357207981
 21
16.54149999999995
 31
0.0
 70
   160
  1
%%c<>
 71
     2
 42
11.99999999999999
 52
-270.0
  3
SLDDIMSTYLE0
100
AcDbAlignedDimension
 13
-73.99999999999999
 23
5.999999999999995
 33
0.0
 14
-73.99999999999999
 24
-5.999999999999995
 34
0.0
 50
90.0000000000002
100
AcDbRotatedDimension
  0
INSERT
  5
113
330
1F
100
AcDbEntity
  8
외형선
100
AcDbBlockReference
  2
SW_DOWELSYMBOL_0
 10
0.0000000000000104
 20
0.0
 30
0.0
  0
ENDSEC
  0
SECTION
  2
OBJECTS
  0
DICTIONARY
  5
C
330
0
100
AcDbDictionary
281
     1
  3
ACAD_GROUP
350
D
  3
ACAD_IMAGE_VARS
350
137
  3
ACAD_LAYOUT
350
1A
  3
ACAD_MLINESTYLE
350
17
  3
ACAD_PLOTSETTINGS
350
19
  3
ACAD_PLOTSTYLENAME
350
E
  3
ACAD_SCALELIST
350
47
  3
APPDATA
350
135
  3
DWGPROPS
350
145
  0
DICTIONARY
  5
D
102
{ACAD_REACTORS
330
C
102
}
330
C
100
AcDbDictionary
281
     1
  0
RASTERVARIABLES
  5
137
102
{ACAD_REACTORS
330
C
102
}
330
C
100
AcDbRasterVariables
 90
        0
 70
     1
 71
     1
 72
     1
  0
DICTIONARY
  5
1A
102
{ACAD_REACTORS
330
C
102
}
330
C
100
AcDbDictionary
281
     1
  3
Layout1
350
1E
  3
Layout2
350
26
  3
Model
350
22
  0
DICTIONARY
  5
17
102
{ACAD_REACTORS
330
C
102
}
330
C
100
AcDbDictionary
281
     1
  3
Standard
350
18
  0
DICTIONARY
  5
19
102
{ACAD_REACTORS
330
C
102
}
330
C
100
AcDbDictionary
281
     1
  0
ACDBDICTIONARYWDFLT
  5
E
102
{ACAD_REACTORS
330
C
102
}
330
C
100
AcDbDictionary
281
     1
  3
Normal
350
F
100
AcDbDictionaryWithDefault
340
F
  0
DICTIONARY
  5
47
102
{ACAD_REACTORS
330
C
102
}
330
C
100
AcDbDictionary
281
     1
  3
A0
350
48
  3
A1
350
49
  3
A2
350
4A
  3
A3
350
4B
  3
A4
350
4C
  3
A5
350
4D
  3
A6
350
4E
  3
A7
350
4F
  3
A8
350
50
  3
A9
350
51
  3
B0
350
52
  3
B1
350
53
  3
B2
350
54
  3
B3
350
55
  3
B4
350
56
  3
B5
350
57
  3
B6
350
58
  3
B7
350
59
  3
B8
350
5A
  3
B9
350
5B
  3
C0
350
5C
  3
C1
350
5D
  3
C2
350
5E
  3
C3
350
5F
  3
C4
350
60
  3
C5
350
61
  3
C6
350
62
  3
C7
350
63
  3
C8
350
64
  3
C9
350
65
  3
D0
350
66
  3
D1
350
67
  3
D2
350
68
  0
DICTIONARY
  5
135
102
{ACAD_REACTORS
330
C
102
}
330
C
100
AcDbDictionary
281
     1
  0
XRECORD
  5
145
102
{ACAD_REACTORS
330
C
102
}
330
C
100
AcDbXrecord
280
     1
  1
DWGPROPS COOKIE
  2

  3

  4

  6

  7

  8
12014102
  9

300
=
301
=
302
=
303
=
304
=
305
=
306
=
307
=
308
=
309
=
 40
0.0
 41
2458262.174051192
 42
2458266.169440474
  1

 90
        0
  0
LAYOUT
  5
1E
102
{ACAD_REACTORS
330
1A
102
}
330
1A
100
AcDbPlotSettings
  1

  2
none_device
  4

  6

 40
0.0
 41
0.0
 42
0.0
 43
0.0
 44
0.0
 45
0.0
 46
0.0
 47
0.0
 48
0.0
 49
0.0
140
0.0
141
0.0
142
1.0
143
1.0
 70
   688
 72
     1
 73
     0
 74
     5
  7

 75
    16
147
1.0
148
0.0
149
0.0
100
AcDbLayout
  1
Layout1
 70
     1
 71
     1
 10
0.0
 20
0.0
 11
420.0
 21
297.0
 12
0.0
 22
0.0
 32
0.0
 14
1.000000000000000E+20
 24
1.000000000000000E+20
 34
1.000000000000000E+20
 15
-1.000000000000000E+20
 25
-1.000000000000000E+20
 35
-1.000000000000000E+20
146
0.0
 13
0.0
 23
0.0
 33
0.0
 16
1.0
 26
0.0
 36
0.0
 17
0.0
 27
1.0
 37
0.0
 76
     0
330
1B
  0
LAYOUT
  5
26
102
{ACAD_REACTORS
330
1A
102
}
330
1A
100
AcDbPlotSettings
  1

  2
none_device
  4

  6

 40
0.0
 41
0.0
 42
0.0
 43
0.0
 44
0.0
 45
0.0
 46
0.0
 47
0.0
 48
0.0
 49
0.0
140
0.0
141
0.0
142
1.0
143
1.0
 70
   688
 72
     1
 73
     0
 74
     5
  7

 75
    16
147
1.0
148
0.0
149
0.0
100
AcDbLayout
  1
Layout2
 70
     1
 71
     2
 10
0.0
 20
0.0
 11
0.0
 21
0.0
 12
0.0
 22
0.0
 32
0.0
 14
0.0
 24
0.0
 34
0.0
 15
0.0
 25
0.0
 35
0.0
146
0.0
 13
0.0
 23
0.0
 33
0.0
 16
1.0
 26
0.0
 36
0.0
 17
0.0
 27
1.0
 37
0.0
 76
     0
330
23
  0
LAYOUT
  5
22
102
{ACAD_REACTORS
330
1A
102
}
330
1A
100
AcDbPlotSettings
  1

  2
none_device
  4
ANSI_A_(11.00_x_8.50_Inches)
  6

 40
6.35
 41
19.05
 42
6.35000508
 43
19.05000254
 44
279.4
 45
215.9
 46
138.4004861562876
 47
105.0683415104176
 48
0.0
 49
0.0
140
0.0
141
0.0
142
0.065578048070227
143
1.0
 70
  1696
 72
     0
 73
     0
 74
     0
  7

 75
     0
147
0.0235690232323232
148
0.0
149
0.0
100
AcDbLayout
  1
Model
 70
     1
 71
     0
 10
0.0
 20
0.0
 11
420.0
 21
297.0
 12
0.0
 22
0.0
 32
0.0
 14
-90.69109357207982
 24
-49.97073246008785
 34
0.0
 15
90.59467327252442
 25
31.16341044024269
 35
0.0
146
0.0
 13
0.0
 23
0.0
 33
0.0
 16
1.0
 26
0.0
 36
0.0
 17
0.0
 27
1.0
 37
0.0
 76
     0
330
1F
331
29
  0
MLINESTYLE
  5
18
102
{ACAD_REACTORS
330
17
102
}
330
17
100
AcDbMlineStyle
  2
Standard
 70
     0
  3

 62
   256
 51
90.0
 52
90.0
 71
     2
 49
0.5
 62
   256
  6
BYLAYER
 49
-0.5
 62
   256
  6
BYLAYER
  0
ACDBPLACEHOLDER
  5
F
102
{ACAD_REACTORS
330
E
102
}
330
E
  0
SCALE
  5
48
102
{ACAD_REACTORS
330
47
102
}
330
47
100
AcDbScale
 70
     0
300
1:1
140
1.0
141
1.0
290
     1
  0
SCALE
  5
49
102
{ACAD_REACTORS
330
47
102
}
330
47
100
AcDbScale
 70
     0
300
1:2
140
1.0
141
2.0
290
     0
  0
SCALE
  5
4A
102
{ACAD_REACTORS
330
47
102
}
330
47
100
AcDbScale
 70
     0
300
1:4
140
1.0
141
4.0
290
     0
  0
SCALE
  5
4B
102
{ACAD_REACTORS
330
47
102
}
330
47
100
AcDbScale
 70
     0
300
1:5
140
1.0
141
5.0
290
     0
  0
SCALE
  5
4C
102
{ACAD_REACTORS
330
47
102
}
330
47
100
AcDbScale
 70
     0
300
1:8
140
1.0
141
8.0
290
     0
  0
SCALE
  5
4D
102
{ACAD_REACTORS
330
47
102
}
330
47
100
AcDbScale
 70
     0
300
1:10
140
1.0
141
10.0
290
     0
  0
SCALE
  5
4E
102
{ACAD_REACTORS
330
47
102
}
330
47
100
AcDbScale
 70
     0
300
1:16
140
1.0
141
16.0
290
     0
  0
SCALE
  5
4F
102
{ACAD_REACTORS
330
47
102
}
330
47
100
AcDbScale
 70
     0
300
1:20
140
1.0
141
20.0
290
     0
  0
SCALE
  5
50
102
{ACAD_REACTORS
330
47
102
}
330
47
100
AcDbScale
 70
     0
300
1:30
140
1.0
141
30.0
290
     0
  0
SCALE
  5
51
102
{ACAD_REACTORS
330
47
102
}
330
47
100
AcDbScale
 70
     0
300
1:40
140
1.0
141
40.0
290
     0
  0
SCALE
  5
52
102
{ACAD_REACTORS
330
47
102
}
330
47
100
AcDbScale
 70
     0
300
1:50
140
1.0
141
50.0
290
     0
  0
SCALE
  5
53
102
{ACAD_REACTORS
330
47
102
}
330
47
100
AcDbScale
 70
     0
300
1:100
140
1.0
141
100.0
290
     0
  0
SCALE
  5
54
102
{ACAD_REACTORS
330
47
102
}
330
47
100
AcDbScale
 70
     0
300
2:1
140
2.0
141
1.0
290
     0
  0
SCALE
  5
55
102
{ACAD_REACTORS
330
47
102
}
330
47
100
AcDbScale
 70
     0
300
4:1
140
4.0
141
1.0
290
     0
  0
SCALE
  5
56
102
{ACAD_REACTORS
330
47
102
}
330
47
100
AcDbScale
 70
     0
300
8:1
140
8.0
141
1.0
290
     0
  0
SCALE
  5
57
102
{ACAD_REACTORS
330
47
102
}
330
47
100
AcDbScale
 70
     0
300
10:1
140
10.0
141
1.0
290
     0
  0
SCALE
  5
58
102
{ACAD_REACTORS
330
47
102
}
330
47
100
AcDbScale
 70
     0
300
100:1
140
100.0
141
1.0
290
     0
  0
SCALE
  5
59
102
{ACAD_REACTORS
330
47
102
}
330
47
100
AcDbScale
 70
     0
300
1/128" = 1'-0"
140
0.0078125
141
12.0
290
     0
  0
SCALE
  5
5A
102
{ACAD_REACTORS
330
47
102
}
330
47
100
AcDbScale
 70
     0
300
1/64" = 1'-0"
140
0.015625
141
12.0
290
     0
  0
SCALE
  5
5B
102
{ACAD_REACTORS
330
47
102
}
330
47
100
AcDbScale
 70
     0
300
1/32" = 1'-0"
140
0.03125
141
12.0
290
     0
  0
SCALE
  5
5C
102
{ACAD_REACTORS
330
47
102
}
330
47
100
AcDbScale
 70
     0
300
1/16" = 1'-0"
140
0.0625
141
12.0
290
     0
  0
SCALE
  5
5D
102
{ACAD_REACTORS
330
47
102
}
330
47
100
AcDbScale
 70
     0
300
3/32" = 1'-0"
140
0.09375
141
12.0
290
     0
  0
SCALE
  5
5E
102
{ACAD_REACTORS
330
47
102
}
330
47
100
AcDbScale
 70
     0
300
1/8" = 1'-0"
140
0.125
141
12.0
290
     0
  0
SCALE
  5
5F
102
{ACAD_REACTORS
330
47
102
}
330
47
100
AcDbScale
 70
     0
300
3/16" = 1'-0"
140
0.1875
141
12.0
290
     0
  0
SCALE
  5
60
102
{ACAD_REACTORS
330
47
102
}
330
47
100
AcDbScale
 70
     0
300
1/4" = 1'-0"
140
0.25
141
12.0
290
     0
  0
SCALE
  5
61
102
{ACAD_REACTORS
330
47
102
}
330
47
100
AcDbScale
 70
     0
300
3/8" = 1'-0"
140
0.375
141
12.0
290
     0
  0
SCALE
  5
62
102
{ACAD_REACTORS
330
47
102
}
330
47
100
AcDbScale
 70
     0
300
1/2" = 1'-0"
140
0.5
141
12.0
290
     0
  0
SCALE
  5
63
102
{ACAD_REACTORS
330
47
102
}
330
47
100
AcDbScale
 70
     0
300
3/4" = 1'-0"
140
0.75
141
12.0
290
     0
  0
SCALE
  5
64
102
{ACAD_REACTORS
330
47
102
}
330
47
100
AcDbScale
 70
     0
300
1" = 1'-0"
140
1.0
141
12.0
290
     0
  0
SCALE
  5
65
102
{ACAD_REACTORS
330
47
102
}
330
47
100
AcDbScale
 70
     0
300
1-1/2" = 1'-0"
140
1.5
141
12.0
290
     0
  0
SCALE
  5
66
102
{ACAD_REACTORS
330
47
102
}
330
47
100
AcDbScale
 70
     0
300
3" = 1'-0"
140
3.0
141
12.0
290
     0
  0
SCALE
  5
67
102
{ACAD_REACTORS
330
47
102
}
330
47
100
AcDbScale
 70
     0
300
6" = 1'-0"
140
6.0
141
12.0
290
     0
  0
SCALE
  5
68
102
{ACAD_REACTORS
330
47
102
}
330
47
100
AcDbScale
 70
     0
300
1'-0" = 1'-0"
140
12.0
141
12.0
290
     0
  0
ENDSEC
  0
EOF
