  0
SECTION
  2
HEADER
  9
$ACADVER
  1
AC1015
  9
$ACADMAINTVER
 70
     6
  9
$DWGCODEPAGE
  3
ANSI_949
  9
$INSBASE
 10
0.0
 20
0.0
 30
0.0
  9
$EXTMIN
 10
-55.63433046657451
 20
-49.97073246008785
 30
0.0
  9
$EXTMAX
 10
92.80276426642962
 20
31.1634104402427
 30
0.0
  9
$LIMMIN
 10
0.0
 20
0.0
  9
$LIMMAX
 10
420.0
 20
297.0
  9
$ORTHOMODE
 70
     0
  9
$REGENMODE
 70
     1
  9
$FILLMODE
 70
     1
  9
$QTEXTMODE
 70
     0
  9
$MIRRTEXT
 70
     1
  9
$LTSCALE
 40
1.0
  9
$ATTMODE
 70
     1
  9
$TEXTSIZE
 40
3.5
  9
$TRACEWID
 40
1.0
  9
$TEXTSTYLE
  7
Standard
  9
$CLAYER
  8
0
  9
$CELTYPE
  6
ByLayer
  9
$CECOLOR
 62
   256
  9
$CELTSCALE
 40
1.0
  9
$DISPSILH
 70
     0
  9
$DIMSCALE
 40
1.0
  9
$DIMASZ
 40
3.302
  9
$DIMEXO
 40
1.0
  9
$DIMDLI
 40
3.75
  9
$DIMRND
 40
0.0
  9
$DIMDLE
 40
0.0
  9
$DIMEXE
 40
1.0
  9
$DIMTP
 40
0.0
  9
$DIMTM
 40
0.0
  9
$DIMTXT
 40
3.5
  9
$DIMCEN
 40
2.5
  9
$DIMTSZ
 40
0.0
  9
$DIMTOL
 70
     0
  9
$DIMLIM
 70
     0
  9
$DIMTIH
 70
     1
  9
$DIMTOH
 70
     1
  9
$DIMSE1
 70
     0
  9
$DIMSE2
 70
     0
  9
$DIMTAD
 70
     1
  9
$DIMZIN
 70
     0
  9
$DIMBLK
  1

  9
$DIMASO
 70
     1
  9
$DIMSHO
 70
     1
  9
$DIMPOST
  1

  9
$DIMAPOST
  1

  9
$DIMALT
 70
     0
  9
$DIMALTD
 70
     3
  9
$DIMALTF
 40
0.0393700787401575
  9
$DIMLFAC
 40
1.0
  9
$DIMTOFL
 70
     1
  9
$DIMTVP
 40
0.0
  9
$DIMTIX
 70
     0
  9
$DIMSOXD
 70
     0
  9
$DIMSAH
 70
     0
  9
$DIMBLK1
  1

  9
$DIMBLK2
  1

  9
$DIMSTYLE
  2
ISO-25
  9
$DIMCLRD
 70
     0
  9
$DIMCLRE
 70
     0
  9
$DIMCLRT
 70
     0
  9
$DIMTFAC
 40
1.0
  9
$DIMGAP
 40
1.524
  9
$DIMJUST
 70
     0
  9
$DIMSD1
 70
     0
  9
$DIMSD2
 70
     0
  9
$DIMTOLJ
 70
     0
  9
$DIMTZIN
 70
     0
  9
$DIMALTZ
 70
     0
  9
$DIMALTTZ
 70
     0
  9
$DIMUPT
 70
     0
  9
$DIMDEC
 70
     2
  9
$DIMTDEC
 70
     2
  9
$DIMALTU
 70
     2
  9
$DIMALTTD
 70
     3
  9
$DIMTXSTY
  7
Standard
  9
$DIMAUNIT
 70
     0
  9
$DIMADEC
 70
     2
  9
$DIMALTRND
 40
0.0
  9
$DIMAZIN
 70
     0
  9
$DIMDSEP
 70
    44
  9
$DIMATFIT
 70
     3
  9
$DIMFRAC
 70
     0
  9
$DIMLDRBLK
  1

  9
$DIMLUNIT
 70
     2
  9
$DIMLWD
 70
    -2
  9
$DIMLWE
 70
    -2
  9
$DIMTMOVE
 70
     0
  9
$LUNITS
 70
     2
  9
$LUPREC
 70
     2
  9
$SKETCHINC
 40
1.0
  9
$FILLETRAD
 40
10.0
  9
$AUNITS
 70
     0
  9
$AUPREC
 70
     2
  9
$MENU
  1
.
  9
$ELEVATION
 40
0.0
  9
$PELEVATION
 40
0.0
  9
$THICKNESS
 40
0.0
  9
$LIMCHECK
 70
     0
  9
$CHAMFERA
 40
0.0
  9
$CHAMFERB
 40
0.0
  9
$CHAMFERC
 40
0.0
  9
$CHAMFERD
 40
0.0
  9
$SKPOLY
 70
     0
  9
$TDCREATE
 40
2458262.549426829
  9
$TDUCREATE
 40
2458262.174426829
  9
$TDUPDATE
 40
2458266.546131285
  9
$TDUUPDATE
 40
2458266.171131285
  9
$TDINDWG
 40
0.0015381713
  9
$TDUSRTIMER
 40
2458266.169593148
  9
$USRTIMER
 70
     1
  9
$ANGBASE
 50
0.0
  9
$ANGDIR
 70
     0
  9
$PDMODE
 70
     0
  9
$PDSIZE
 40
-1.0
  9
$PLINEWID
 40
0.0
  9
$SPLFRAME
 70
     0
  9
$SPLINETYPE
 70
     6
  9
$SPLINESEGS
 70
     8
  9
$HANDSEED
  5
149
  9
$SURFTAB1
 70
     6
  9
$SURFTAB2
 70
     6
  9
$SURFTYPE
 70
     6
  9
$SURFU
 70
     6
  9
$SURFV
 70
     6
  9
$UCSBASE
  2

  9
$UCSNAME
  2

  9
$UCSORG
 10
0.0
 20
0.0
 30
0.0
  9
$UCSXDIR
 10
1.0
 20
0.0
 30
0.0
  9
$UCSYDIR
 10
0.0
 20
1.0
 30
0.0
  9
$UCSORTHOREF
  2

  9
$UCSORTHOVIEW
 70
     0
  9
$UCSORGTOP
 10
0.0
 20
0.0
 30
0.0
  9
$UCSORGBOTTOM
 10
0.0
 20
0.0
 30
0.0
  9
$UCSORGLEFT
 10
0.0
 20
0.0
 30
0.0
  9
$UCSORGRIGHT
 10
0.0
 20
0.0
 30
0.0
  9
$UCSORGFRONT
 10
0.0
 20
0.0
 30
0.0
  9
$UCSORGBACK
 10
0.0
 20
0.0
 30
0.0
  9
$PUCSBASE
  2

  9
$PUCSNAME
  2

  9
$PUCSORG
 10
0.0
 20
0.0
 30
0.0
  9
$PUCSXDIR
 10
1.0
 20
0.0
 30
0.0
  9
$PUCSYDIR
 10
0.0
 20
1.0
 30
0.0
  9
$PUCSORTHOREF
  2

  9
$PUCSORTHOVIEW
 70
     0
  9
$PUCSORGTOP
 10
0.0
 20
0.0
 30
0.0
  9
$PUCSORGBOTTOM
 10
0.0
 20
0.0
 30
0.0
  9
$PUCSORGLEFT
 10
0.0
 20
0.0
 30
0.0
  9
$PUCSORGRIGHT
 10
0.0
 20
0.0
 30
0.0
  9
$PUCSORGFRONT
 10
0.0
 20
0.0
 30
0.0
  9
$PUCSORGBACK
 10
0.0
 20
0.0
 30
0.0
  9
$USERI1
 70
     0
  9
$USERI2
 70
     0
  9
$USERI3
 70
     0
  9
$USERI4
 70
     0
  9
$USERI5
 70
     0
  9
$USERR1
 40
0.0
  9
$USERR2
 40
0.0
  9
$USERR3
 40
0.0
  9
$USERR4
 40
0.0
  9
$USERR5
 40
0.0
  9
$WORLDVIEW
 70
     1
  9
$SHADEDGE
 70
     3
  9
$SHADEDIF
 70
    70
  9
$TILEMODE
 70
     1
  9
$MAXACTVP
 70
    64
  9
$PINSBASE
 10
0.0
 20
0.0
 30
0.0
  9
$PLIMCHECK
 70
     0
  9
$PEXTMIN
 10
1.000000000000000E+20
 20
1.000000000000000E+20
 30
1.000000000000000E+20
  9
$PEXTMAX
 10
-1.000000000000000E+20
 20
-1.000000000000000E+20
 30
-1.000000000000000E+20
  9
$PLIMMIN
 10
0.0
 20
0.0
  9
$PLIMMAX
 10
0.0
 20
0.0
  9
$UNITMODE
 70
     0
  9
$VISRETAIN
 70
     1
  9
$PLINEGEN
 70
     0
  9
$PSLTSCALE
 70
     1
  9
$TREEDEPTH
 70
  3020
  9
$CMLSTYLE
  2
Standard
  9
$CMLJUST
 70
     0
  9
$CMLSCALE
 40
20.0
  9
$PROXYGRAPHICS
 70
     1
  9
$MEASUREMENT
 70
     1
  9
$CELWEIGHT
370
    -1
  9
$ENDCAPS
280
     0
  9
$JOINSTYLE
280
     0
  9
$LWDISPLAY
290
     1
  9
$INSUNITS
 70
     4
  9
$HYPERLINKBASE
  1

  9
$STYLESHEET
  1

  9
$XEDIT
290
     1
  9
$CEPSNTYPE
380
     0
  9
$PSTYLEMODE
290
     1
  9
$FINGERPRINTGUID
  2
{F7B1F873-E48E-4588-BF7A-57960A907AEC}
  9
$VERSIONGUID
  2
{FAEB1C32-E019-11D5-929B-00C0DF256EC4}
  9
$EXTNAMES
290
     1
  9
$PSVPSCALE
 40
0.0
  9
$OLESTARTUP
290
     0
  0
ENDSEC
  0
SECTION
  2
CLASSES
  0
CLASS
  1
ACDBDICTIONARYWDFLT
  2
AcDbDictionaryWithDefault
  3
ObjectDBX Classes
 90
        0
280
     0
281
     0
  0
CLASS
  1
VISUALSTYLE
  2
AcDbVisualStyle
  3
ObjectDBX Classes
 90
     4095
280
     0
281
     0
  0
CLASS
  1
MATERIAL
  2
AcDbMaterial
  3
ObjectDBX Classes
 90
     1153
280
     0
281
     0
  0
CLASS
  1
SCALE
  2
AcDbScale
  3
ObjectDBX Classes
 90
     1153
280
     0
281
     0
  0
CLASS
  1
SUN
  2
AcDbSun
  3
SCENEOE
 90
     1153
280
     0
281
     0
  0
CLASS
  1
ACDBPLACEHOLDER
  2
AcDbPlaceHolder
  3
ObjectDBX Classes
 90
        0
280
     0
281
     0
  0
CLASS
  1
LAYOUT
  2
AcDbLayout
  3
ObjectDBX Classes
 90
        0
280
     0
281
     0
  0
CLASS
  1
TABLESTYLE
  2
AcDbTableStyle
  3
ObjectDBX Classes
 90
     4095
280
     0
281
     0
  0
CLASS
  1
MLEADERSTYLE
  2
AcDbMLeaderStyle
  3
ACDB_MLEADERSTYLE_CLASS
 90
     4095
280
     0
281
     0
  0
CLASS
  1
RASTERVARIABLES
  2
AcDbRasterVariables
  3
ISM
 90
        0
280
     0
281
     0
  0
ENDSEC
  0
SECTION
  2
TABLES
  0
TABLE
  2
VPORT
  5
8
330
0
100
AcDbSymbolTable
 70
     1
  0
VPORT
  5
29
330
8
100
AcDbSymbolTableRecord
100
AcDbViewportTableRecord
  2
*Active
 70
     0
 10
0.0
 20
0.0
 11
1.0
 21
1.0
 12
18.58421689992755
 22
-9.403661009922573
 13
0.0
 23
0.0
 14
10.0
 24
10.0
 15
10.0
 25
10.0
 16
0.0
 26
0.0
 36
1.0
 17
0.0
 27
0.0
 37
0.0
 40
131.3768133966504
 41
1.152454780361757
 42
50.0
 43
0.0
 44
0.0
 50
0.0
 51
0.0
 71
    16
 72
  2000
 73
     1
 74
     3
 75
     0
 76
     0
 77
     0
 78
     0
281
     0
 65
     1
110
0.0
120
0.0
130
0.0
111
1.0
121
0.0
131
0.0
112
0.0
122
1.0
132
0.0
 79
     0
146
0.0
  0
ENDTAB
  0
TABLE
  2
LTYPE
  5
5
330
0
100
AcDbSymbolTable
 70
     6
  0
LTYPE
  5
14
330
5
100
AcDbSymbolTableRecord
100
AcDbLinetypeTableRecord
  2
ByBlock
 70
     0
  3

 72
    65
 73
     0
 40
0.0
  0
LTYPE
  5
15
330
5
100
AcDbSymbolTableRecord
100
AcDbLinetypeTableRecord
  2
ByLayer
 70
     0
  3

 72
    65
 73
     0
 40
0.0
  0
LTYPE
  5
16
330
5
100
AcDbSymbolTableRecord
100
AcDbLinetypeTableRecord
  2
Continuous
 70
     0
  3
Solid line
 72
    65
 73
     0
 40
0.0
  0
LTYPE
  5
6A
330
5
100
AcDbSymbolTableRecord
100
AcDbLinetypeTableRecord
  2
HIDDEN
 70
     0
  3
Hidden __ __ __ __ __ __ __ __ __ __ __ __ __ __
 72
    65
 73
     2
 40
1.905
 49
1.27
 74
     0
 49
-0.635
 74
     0
  0
LTYPE
  5
6B
330
5
100
AcDbSymbolTableRecord
100
AcDbLinetypeTableRecord
  2
PHANTOM
 70
     0
  3
Phantom ______  __  __  ______  __  __  ______
 72
    65
 73
     6
 40
12.7
 49
6.35
 74
     0
 49
-1.27
 74
     0
 49
1.27
 74
     0
 49
-1.27
 74
     0
 49
1.27
 74
     0
 49
-1.27
 74
     0
  0
LTYPE
  5
6C
330
5
100
AcDbSymbolTableRecord
100
AcDbLinetypeTableRecord
  2
CENTER
 70
     0
  3
Center ____ _ ____ _ ____ _ ____ _ ____ _ ____
 72
    65
 73
     4
 40
10.16
 49
6.35
 74
     0
 49
-1.27
 74
     0
 49
1.27
 74
     0
 49
-1.27
 74
     0
  0
LTYPE
  5
6D
330
5
100
AcDbSymbolTableRecord
100
AcDbLinetypeTableRecord
  2
CENTERX2
 70
     0
  3
Center (2x) ________  __  ________  __  _____
 72
    65
 73
     4
 40
20.32
 49
12.7
 74
     0
 49
-2.54
 74
     0
 49
2.54
 74
     0
 49
-2.54
 74
     0
  0
LTYPE
  5
6E
330
5
100
AcDbSymbolTableRecord
100
AcDbLinetypeTableRecord
  2
DOT2
 70
     0
  3
Dot (.5x) ........................................
 72
    65
 73
     2
 40
0.635
 49
0.0
 74
     0
 49
-0.635
 74
     0
  0
ENDTAB
  0
TABLE
  2
LAYER
  5
2
330
0
100
AcDbSymbolTable
 70
    17
  0
LAYER
  5
10
330
2
100
AcDbSymbolTableRecord
100
AcDbLayerTableRecord
  2
0
 70
     0
 62
     7
  6
Continuous
370
    -3
390
F
  0
LAYER
  5
6F
330
2
100
AcDbSymbolTableRecord
100
AcDbLayerTableRecord
  2
FORMAT
 70
     0
 62
     2
  6
Continuous
370
    -3
390
F
  0
LAYER
  5
70
330
2
100
AcDbSymbolTableRecord
100
AcDbLayerTableRecord
  2
외형선
 70
     0
 62
   100
  6
Continuous
370
    30
390
F
  0
LAYER
  5
71
330
2
100
AcDbSymbolTableRecord
100
AcDbLayerTableRecord
  2
숨은선
 70
     0
 62
     2
  6
HIDDEN
370
    15
390
F
  0
LAYER
  5
72
330
2
100
AcDbSymbolTableRecord
100
AcDbLayerTableRecord
  2
중심선
 70
     0
 62
     1
  6
CENTERX2
370
    -3
390
F
  0
LAYER
  5
73
330
2
100
AcDbSymbolTableRecord
100
AcDbLayerTableRecord
  2
파단선
 70
     0
 62
     4
  6
Continuous
370
    -3
390
F
  0
LAYER
  5
74
330
2
100
AcDbSymbolTableRecord
100
AcDbLayerTableRecord
  2
해칭선
 70
     0
 62
     4
  6
Continuous
370
    -3
390
F
  0
LAYER
  5
75
330
2
100
AcDbSymbolTableRecord
100
AcDbLayerTableRecord
  2
가는실선
 70
     0
 62
     4
  6
Continuous
370
    -3
390
F
  0
LAYER
  5
76
330
2
100
AcDbSymbolTableRecord
100
AcDbLayerTableRecord
  2
치수_보조선
 70
     0
 62
     4
  6
Continuous
370
    -3
390
F
  0
LAYER
  5
77
330
2
100
AcDbSymbolTableRecord
100
AcDbLayerTableRecord
  2
치수문자_일반주서
 70
     0
 62
     7
  6
Continuous
370
    15
390
F
  0
LAYER
  5
78
330
2
100
AcDbSymbolTableRecord
100
AcDbLayerTableRecord
  2
개별주서
 70
     0
 62
   100
  6
Continuous
370
    30
390
F
  0
LAYER
  5
79
330
2
100
AcDbSymbolTableRecord
100
AcDbLayerTableRecord
  2
중간선
 70
     0
 62
     2
  6
Continuous
370
    15
390
F
  0
LAYER
  5
7A
330
2
100
AcDbSymbolTableRecord
100
AcDbLayerTableRecord
  2
윤곽선
 70
     0
 62
     3
  6
Continuous
370
    40
390
F
  0
LAYER
  5
7B
330
2
100
AcDbSymbolTableRecord
100
AcDbLayerTableRecord
  2
중심마크
 70
     0
 62
   100
  6
Continuous
370
    30
390
F
  0
LAYER
  5
7C
330
2
100
AcDbSymbolTableRecord
100
AcDbLayerTableRecord
  2
가상선
 70
     0
 62
     4
  6
PHANTOM
370
    -3
390
F
  0
LAYER
  5
7D
330
2
100
AcDbSymbolTableRecord
100
AcDbLayerTableRecord
  2
특수지정선
 70
     0
 62
     5
  6
CENTERX2
370
    60
390
F
  0
LAYER
  5
13B
330
2
100
AcDbSymbolTableRecord
100
AcDbLayerTableRecord
  2
Defpoints
 70
     0
 62
     7
  6
Continuous
290
     0
370
    -3
390
F
  0
ENDTAB
  0
TABLE
  2
STYLE
  5
3
330
0
100
AcDbSymbolTable
 70
     2
  0
STYLE
  5
11
330
3
100
AcDbSymbolTableRecord
100
AcDbTextStyleTableRecord
  2
Standard
 70
     0
 40
0.0
 41
1.0
 50
0.0
 71
     0
 42
3.5
  3
txt
  4

  0
STYLE
  5
93
330
3
100
AcDbSymbolTableRecord
100
AcDbTextStyleTableRecord
  2
SLDTEXTSTYLE0
 70
     0
 40
0.0
 41
0.75
 50
0.0
 71
     0
 42
3.5
  3
TXT
  4

  0
ENDTAB
  0
TABLE
  2
VIEW
  5
6
330
0
100
AcDbSymbolTable
 70
     0
  0
ENDTAB
  0
TABLE
  2
UCS
  5
7
330
0
100
AcDbSymbolTable
 70
     0
  0
ENDTAB
  0
TABLE
  2
APPID
  5
9
330
0
100
AcDbSymbolTable
 70
     1
  0
APPID
  5
12
330
9
100
AcDbSymbolTableRecord
100
AcDbRegAppTableRecord
  2
ACAD
 70
     0
  0
ENDTAB
  0
TABLE
  2
DIMSTYLE
  5
A
330
0
100
AcDbSymbolTable
 70
     3
100
AcDbDimStyleTable
  0
DIMSTYLE
105
27
330
A
100
AcDbSymbolTableRecord
100
AcDbDimStyleTableRecord
  2
ISO-25
 70
     0
 41
2.5
 42
0.625
 43
3.75
 44
1.25
 73
     0
 74
     0
 77
     1
 78
     8
140
2.5
141
2.5
143
0.03937007874016
147
0.625
171
     3
172
     1
178
     0
271
     2
272
     2
274
     3
278
    44
283
     0
284
     8
340
11
  0
DIMSTYLE
105
E1
102
{ACAD_REACTORS
330
E0
330
103
102
}
330
A
100
AcDbSymbolTableRecord
100
AcDbDimStyleTableRecord
  2
SLDDIMSTYLE0
 70
     0
 41
3.302
 44
0.0
 45
0.000000001
 73
     0
 74
     0
 77
     1
 78
    12
 79
     3
140
3.5
147
0.875
172
     1
173
     1
178
     0
271
     2
272
     2
276
     2
284
    12
289
     0
340
93
  0
DIMSTYLE
105
EF
102
{ACAD_REACTORS
330
EE
330
F9
102
}
330
A
100
AcDbSymbolTableRecord
100
AcDbDimStyleTableRecord
  2
SLDDIMSTYLE1
 70
     0
 41
3.302
 44
0.0
 45
0.000000001
 73
     0
 74
     0
 77
     1
 78
    12
 79
     3
140
3.5
147
0.875
173
     1
178
     0
271
     2
272
     2
276
     2
284
    12
340
93
  0
ENDTAB
  0
TABLE
  2
BLOCK_RECORD
  5
1
330
0
100
AcDbSymbolTable
 70
     7
  0
BLOCK_RECORD
  5
1F
330
1
100
AcDbSymbolTableRecord
100
AcDbBlockTableRecord
  2
*Model_Space
340
22
  0
BLOCK_RECORD
  5
1B
330
1
100
AcDbSymbolTableRecord
100
AcDbBlockTableRecord
  2
*Paper_Space
340
1E
  0
BLOCK_RECORD
  5
23
330
1
100
AcDbSymbolTableRecord
100
AcDbBlockTableRecord
  2
*Paper_Space0
340
26
  0
BLOCK_RECORD
  5
7E
330
1
100
AcDbSymbolTableRecord
100
AcDbBlockTableRecord
  2
블럭10
340
0
102
{BLKREFS
331
D9
102
}
  0
BLOCK_RECORD
  5
E2
330
1
100
AcDbSymbolTableRecord
100
AcDbBlockTableRecord
  2
_D
340
0
  0
BLOCK_RECORD
  5
F0
330
1
100
AcDbSymbolTableRecord
100
AcDbBlockTableRecord
  2
_D_1
340
0
  0
BLOCK_RECORD
  5
FA
330
1
100
AcDbSymbolTableRecord
100
AcDbBlockTableRecord
  2
_D_2
340
0
  0
BLOCK_RECORD
  5
104
330
1
100
AcDbSymbolTableRecord
100
AcDbBlockTableRecord
  2
_D_3
340
0
  0
BLOCK_RECORD
  5
110
330
1
100
AcDbSymbolTableRecord
100
AcDbBlockTableRecord
  2
SW_DOWELSYMBOL_0
340
0
102
{BLKREFS
331
116
102
}
  0
ENDTAB
  0
ENDSEC
  0
SECTION
  2
BLOCKS
  0
BLOCK
  5
20
330
1F
100
AcDbEntity
  8
0
100
AcDbBlockBegin
  2
*Model_Space
 70
     0
 10
0.0
 20
0.0
 30
0.0
  3
*Model_Space
  1

  0
ENDBLK
  5
21
330
1F
100
AcDbEntity
  8
0
100
AcDbBlockEnd
  0
BLOCK
  5
1C
330
1B
100
AcDbEntity
 67
     1
  8
0
100
AcDbBlockBegin
  2
*Paper_Space
 70
     0
 10
0.0
 20
0.0
 30
0.0
  3
*Paper_Space
  1

  0
ENDBLK
  5
1D
330
1B
100
AcDbEntity
 67
     1
  8
0
100
AcDbBlockEnd
  0
BLOCK
  5
24
330
23
100
AcDbEntity
  8
0
100
AcDbBlockBegin
  2
*Paper_Space0
 70
     0
 10
0.0
 20
0.0
 30
0.0
  3
*Paper_Space0
  1

  0
ENDBLK
  5
25
330
23
100
AcDbEntity
  8
0
100
AcDbBlockEnd
  0
BLOCK
  5
7F
330
7E
100
AcDbEntity
  8
0
100
AcDbBlockBegin
  2
블럭10
 70
     2
 10
0.0
 20
0.0
 30
0.0
  3
블럭10
  1

  0
ELLIPSE
  5
81
330
7E
100
AcDbEntity
  8
중심선
100
AcDbEllipse
 10
20.54032771741204
 20
12.0471743016438
 30
0.0
 11
6.600054785286829
 21
-1.261213355974178E-13
 31
0.0
210
0.0
220
0.0
230
1.0
 40
0.636358354079598
 41
0.9219305317359503
 42
6.513795318482858
  0
ELLIPSE
  5
82
330
7E
100
AcDbEntity
  8
중심선
100
AcDbEllipse
 10
20.54032771746488
 20
12.04717430159265
 30
0.0
 11
3.960054785062283
 21
1.540847449632565E-10
 31
0.0
210
0.0
220
0.0
230
1.0
 40
0.3939339440162632
 41
1.131841032648279
 42
5.62031148352944
  0
LINE
  5
83
330
7E
100
AcDbEntity
  8
중심선
100
AcDbLine
 10
2.268634060543552
 20
16.24717430164393
 30
0.0
 11
5.714909304380834
 21
16.24717430164393
 31
0.0
  0
LINE
  5
84
330
7E
100
AcDbEntity
  8
중심선
100
AcDbLine
 10
5.245725140726316
 20
7.84717430164391
 30
0.0
 11
8.692000384563599
 21
7.84717430164391
 31
0.0
  0
LINE
  5
85
330
7E
100
AcDbEntity
  8
중심선
100
AcDbLine
 10
15.74043728645272
 20
16.24717430164393
 30
0.0
 11
8.692000384563599
 21
7.84717430164391
 31
0.0
  0
LINE
  5
86
330
7E
100
AcDbEntity
  8
중심선
100
AcDbLine
 10
0.1404042013395286
 20
13.71084872107135
 30
0.0
 11
3.58671253028996
 21
13.71088815037384
 31
0.0
  0
LINE
  5
87
330
7E
100
AcDbEntity
  8
중심선
100
AcDbLine
 10
2.750260043222114
 20
10.84717430164391
 30
0.0
 11
6.196535287059397
 21
10.84717430164391
 31
0.0
  0
LINE
  5
88
330
7E
100
AcDbEntity
  8
중심선
100
AcDbLine
 10
12.29416204261559
 20
16.24717430164393
 30
0.0
 11
5.245725140726316
 21
7.84717430164391
 31
0.0
  0
LINE
  5
89
330
7E
100
AcDbEntity
  8
중심선
100
AcDbLine
 10
10.72767329541681
 20
16.24717430164393
 30
0.0
 11
6.196535287059397
 21
10.84717430164391
 31
0.0
  0
LINE
  5
8A
330
7E
100
AcDbEntity
  8
중심선
100
AcDbLine
 10
7.28139805157953
 20
16.24717430164393
 30
0.0
 11
2.750260043222114
 21
10.84717430164391
 31
0.0
  0
LINE
  5
8B
330
7E
100
AcDbEntity
  8
중심선
100
AcDbLine
 10
5.714909304380834
 20
16.24717430164393
 30
0.0
 11
3.58671253028996
 21
13.71088815037384
 31
0.0
  0
LINE
  5
8C
330
7E
100
AcDbEntity
  8
중심선
100
AcDbLine
 10
2.268634060543552
 20
16.24717430164393
 30
0.0
 11
0.1404042013395286
 21
13.71084872107135
 31
0.0
  0
LINE
  5
8D
330
7E
100
AcDbEntity
  8
중심선
100
AcDbLine
 10
7.28139805157953
 20
16.24717430164393
 30
0.0
 11
10.72767329541681
 21
16.24717430164393
 31
0.0
  0
LINE
  5
8E
330
7E
100
AcDbEntity
  8
중심선
100
AcDbLine
 10
12.29416204261559
 20
16.24717430164393
 30
0.0
 11
15.74043728645272
 21
16.24717430164393
 31
0.0
  0
LINE
  5
8F
330
7E
100
AcDbEntity
  8
중심선
100
AcDbLine
 10
19.22036997980202
 20
11.08717430171403
 30
0.0
 11
23.66174974927406
 21
11.08717430171406
 31
0.0
  0
LINE
  5
90
330
7E
100
AcDbEntity
  8
중심선
100
AcDbLine
 10
19.22039502424796
 20
13.00717430171391
 30
0.0
 11
19.22036997980202
 21
11.08717430171403
 31
0.0
  0
LINE
  5
91
330
7E
100
AcDbEntity
  8
중심선
100
AcDbLine
 10
19.22039502424796
 20
13.00717430171391
 30
0.0
 11
26.96566020931264
 21
13.00717430171391
 31
0.0
  0
LINE
  5
92
330
7E
100
AcDbEntity
  8
중심선
100
AcDbLine
 10
22.22332737316547
 20
13.45928029700563
 30
0.0
 11
24.52862924686651
 21
15.39360700705356
 31
0.0
  0
ATTDEF
  5
94
330
7E
100
AcDbEntity
  8
FORMAT
 62
     2
100
AcDbText
 10
-16.11926103943555
 20
2.075366912832191
 30
0.0
 40
4.233333333333333
  1
SEME7012070E [ 2 FLUTE ]
 41
0.75
  7
SLDTEXTSTYLE0
 11
-16.11926103943555
 21
-0.0412997538344756
 31
0.0
100
AcDbAttributeDefinition
  3

  2
AUTOATTR0
 70
     0
 74
     1
  0
ENDBLK
  5
80
330
7E
100
AcDbEntity
  8
0
100
AcDbBlockEnd
  0
BLOCK
  5
E3
330
E2
100
AcDbEntity
  8
0
100
AcDbBlockBegin
  2
_D
 70
     0
 10
0.0
 20
0.0
 30
0.0
  3
_D
  1

  0
LINE
  5
E5
330
E2
100
AcDbEntity
  8
치수문자_일반주서
 62
     0
370
    -2
100
AcDbLine
 10
80.06250000000001
 20
-5.99999999999973
 30
0.0
 11
92.25243093309629
 21
-5.999999999999684
 31
0.0
  0
LINE
  5
E6
330
E2
100
AcDbEntity
  8
치수문자_일반주서
 62
     0
370
    -2
100
AcDbLine
 10
80.06250000000001
 20
6.000000000000265
 30
0.0
 11
92.25243093309625
 21
6.000000000000311
 31
0.0
  0
LINE
  5
E7
330
E2
100
AcDbEntity
  8
치수문자_일반주서
 62
     0
370
    -2
100
AcDbLine
 10
92.25243093309629
 20
-5.999999999999684
 30
0.0
 11
92.25243093309619
 21
20.47900000000031
 31
0.0
  0
LINE
  5
E8
330
E2
100
AcDbEntity
  8
치수문자_일반주서
 62
     0
370
    -2
100
AcDbLine
 10
92.25243093309629
 20
-5.999999999999684
 30
0.0
 11
92.25243093309625
 21
6.000000000000311
 31
0.0
  0
LINE
  5
E9
330
E2
100
AcDbEntity
  8
치수문자_일반주서
 62
     0
370
    -2
100
AcDbLine
 10
92.2524309330963
 20
-9.301999999999683
 30
0.0
 11
92.25243093309632
 21
-12.60399999999968
 31
0.0
  0
LINE
  5
EA
330
E2
100
AcDbEntity
  8
치수문자_일반주서
 62
     0
370
    -2
100
AcDbLine
 10
92.25243093309624
 20
9.30200000000031
 30
0.0
 11
92.25243093309622
 21
12.60400000000031
 31
0.0
  0
SOLID
  5
EB
330
E2
100
AcDbEntity
  8
치수문자_일반주서
 62
     0
100
AcDbTrace
 10
92.80276426642963
 20
-9.301999999999682
 30
0.0
 11
91.70209759976298
 21
-9.301999999999685
 31
0.0
 12
92.25243093309629
 22
-5.999999999999684
 32
0.0
 13
92.25243093309629
 23
-5.999999999999684
 33
0.0
  0
SOLID
  5
EC
330
E2
100
AcDbEntity
  8
치수문자_일반주서
 62
     0
100
AcDbTrace
 10
91.70209759976291
 20
9.302000000000309
 30
0.0
 11
92.80276426642956
 21
9.302000000000312
 31
0.0
 12
92.25243093309625
 22
6.000000000000311
 32
0.0
 13
92.25243093309625
 23
6.000000000000311
 33
0.0
  0
MTEXT
  5
ED
330
E2
100
AcDbEntity
  8
치수문자_일반주서
 62
     0
100
AcDbMText
 10
87.8774309330962
 20
16.54150000000029
 30
0.0
 40
3.5
 41
0.0
 71
     2
 72
     1
  1
\A1;%%c12
  7
SLDTEXTSTYLE0
 11
-3.552713678800503E-15
 21
1.0
 31
0.0
 73
     1
 44
1.0
  0
POINT
  5
145
330
E2
100
AcDbEntity
  8
Defpoints
 62
     0
100
AcDbPoint
 10
80.00000000000001
 20
-5.99999999999973
 30
0.0
  0
POINT
  5
146
330
E2
100
AcDbEntity
  8
Defpoints
 62
     0
100
AcDbPoint
 10
80.00000000000001
 20
6.000000000000265
 30
0.0
  0
POINT
  5
147
330
E2
100
AcDbEntity
  8
Defpoints
 62
     0
100
AcDbPoint
 10
92.25243093309625
 20
6.000000000000311
 30
0.0
  0
ENDBLK
  5
E4
330
E2
100
AcDbEntity
  8
0
100
AcDbBlockEnd
  0
BLOCK
  5
F1
330
F0
100
AcDbEntity
  8
0
100
AcDbBlockBegin
  2
_D_1
 70
     0
 10
0.0
 20
0.0
 30
0.0
  3
_D_1
  1

  0
LINE
  5
F3
330
F0
100
AcDbEntity
  8
치수문자_일반주서
 62
     0
370
    -2
100
AcDbLine
 10
-39.99999999999997
 20
5.062499999999999
 30
0.0
 11
-39.99999999999997
 21
26.7884104402427
 31
0.0
  0
LINE
  5
F4
330
F0
100
AcDbEntity
  8
치수문자_일반주서
 62
     0
370
    -2
100
AcDbLine
 10
80.00000000000001
 20
6.062500000000265
 30
0.0
 11
80.00000000000001
 21
26.7884104402427
 31
0.0
  0
LINE
  5
F5
330
F0
100
AcDbEntity
  8
치수문자_일반주서
 62
     0
370
    -2
100
AcDbLine
 10
-36.69799999999997
 20
26.7884104402427
 30
0.0
 11
76.69800000000001
 21
26.7884104402427
 31
0.0
  0
SOLID
  5
F6
330
F0
100
AcDbEntity
  8
치수문자_일반주서
 62
     0
100
AcDbTrace
 10
-36.69799999999997
 20
27.33874377357603
 30
0.0
 11
-36.69799999999997
 21
26.23807710690936
 31
0.0
 12
-39.99999999999997
 22
26.7884104402427
 32
0.0
 13
-39.99999999999997
 23
26.7884104402427
 33
0.0
  0
SOLID
  5
F7
330
F0
100
AcDbEntity
  8
치수문자_일반주서
 62
     0
100
AcDbTrace
 10
76.69800000000001
 20
26.23807710690936
 30
0.0
 11
76.69800000000001
 21
27.33874377357603
 31
0.0
 12
80.00000000000001
 22
26.7884104402427
 32
0.0
 13
80.00000000000001
 23
26.7884104402427
 33
0.0
  0
MTEXT
  5
F8
330
F0
100
AcDbEntity
  8
치수문자_일반주서
 62
     0
100
AcDbMText
 10
20.00000000000002
 20
31.1634104402427
 30
0.0
 40
3.5
 41
0.0
 71
     2
 72
     1
  1
\A1;120
  7
SLDTEXTSTYLE0
 73
     1
 44
1.0
  0
POINT
  5
13C
330
F0
100
AcDbEntity
  8
Defpoints
 62
     0
100
AcDbPoint
 10
-39.99999999999997
 20
4.999999999999999
 30
0.0
  0
POINT
  5
13D
330
F0
100
AcDbEntity
  8
Defpoints
 62
     0
100
AcDbPoint
 10
80.00000000000001
 20
6.000000000000265
 30
0.0
  0
POINT
  5
13E
330
F0
100
AcDbEntity
  8
Defpoints
 62
     0
100
AcDbPoint
 10
80.00000000000001
 20
26.7884104402427
 30
0.0
  0
ENDBLK
  5
F2
330
F0
100
AcDbEntity
  8
0
100
AcDbBlockEnd
  0
BLOCK
  5
FB
330
FA
100
AcDbEntity
  8
0
100
AcDbBlockBegin
  2
_D_2
 70
     0
 10
0.0
 20
0.0
 30
0.0
  3
_D_2
  1

  0
LINE
  5
FD
330
FA
100
AcDbEntity
  8
치수문자_일반주서
 62
     0
370
    -2
100
AcDbLine
 10
10.0
 20
5.345856515890736
 30
0.0
 11
10.0
 21
18.63035432205828
 31
0.0
  0
LINE
  5
FE
330
FA
100
AcDbEntity
  8
치수문자_일반주서
 62
     0
370
    -2
100
AcDbLine
 10
80.00000000000001
 20
6.062500000000265
 30
0.0
 11
80.00000000000001
 21
18.63035432205828
 31
0.0
  0
LINE
  5
FF
330
FA
100
AcDbEntity
  8
치수문자_일반주서
 62
     0
370
    -2
100
AcDbLine
 10
13.302
 20
18.63035432205828
 30
0.0
 11
76.69800000000001
 21
18.63035432205828
 31
0.0
  0
SOLID
  5
100
330
FA
100
AcDbEntity
  8
치수문자_일반주서
 62
     0
100
AcDbTrace
 10
13.302
 20
19.18068765539162
 30
0.0
 11
13.302
 21
18.08002098872495
 31
0.0
 12
10.0
 22
18.63035432205828
 32
0.0
 13
10.0
 23
18.63035432205828
 33
0.0
  0
SOLID
  5
101
330
FA
100
AcDbEntity
  8
치수문자_일반주서
 62
     0
100
AcDbTrace
 10
76.69800000000001
 20
18.08002098872495
 30
0.0
 11
76.69800000000001
 21
19.18068765539162
 31
0.0
 12
80.00000000000001
 22
18.63035432205828
 32
0.0
 13
80.00000000000001
 23
18.63035432205828
 33
0.0
  0
MTEXT
  5
102
330
FA
100
AcDbEntity
  8
치수문자_일반주서
 62
     0
100
AcDbMText
 10
44.99999999999999
 20
23.00535432205828
 30
0.0
 40
3.5
 41
0.0
 71
     2
 72
     1
  1
\A1;70
  7
SLDTEXTSTYLE0
 73
     1
 44
1.0
  0
POINT
  5
13F
330
FA
100
AcDbEntity
  8
Defpoints
 62
     0
100
AcDbPoint
 10
10.0
 20
5.283356515890736
 30
0.0
  0
POINT
  5
140
330
FA
100
AcDbEntity
  8
Defpoints
 62
     0
100
AcDbPoint
 10
80.00000000000001
 20
6.000000000000265
 30
0.0
  0
POINT
  5
141
330
FA
100
AcDbEntity
  8
Defpoints
 62
     0
100
AcDbPoint
 10
80.00000000000001
 20
18.63035432205828
 30
0.0
  0
ENDBLK
  5
FC
330
FA
100
AcDbEntity
  8
0
100
AcDbBlockEnd
  0
BLOCK
  5
105
330
104
100
AcDbEntity
  8
0
100
AcDbBlockBegin
  2
_D_3
 70
     0
 10
0.0
 20
0.0
 30
0.0
  3
_D_3
  1

  0
LINE
  5
107
330
104
100
AcDbEntity
  8
치수문자_일반주서
 62
     0
370
    -2
100
AcDbLine
 10
-39.06249999999998
 20
6.0
 30
0.0
 11
-51.25933046657445
 21
5.999999999999954
 31
0.0
  0
LINE
  5
108
330
104
100
AcDbEntity
  8
치수문자_일반주서
 62
     0
370
    -2
100
AcDbLine
 10
-39.06249999999998
 20
-5.999999999999995
 30
0.0
 11
-51.25933046657441
 21
-6.000000000000039
 31
0.0
  0
LINE
  5
109
330
104
100
AcDbEntity
  8
치수문자_일반주서
 62
     0
370
    -2
100
AcDbLine
 10
-51.25933046657445
 20
5.999999999999954
 30
0.0
 11
-51.2593304665745
 21
20.47899999999996
 31
0.0
  0
LINE
  5
10A
330
104
100
AcDbEntity
  8
치수문자_일반주서
 62
     0
370
    -2
100
AcDbLine
 10
-51.25933046657445
 20
5.999999999999954
 30
0.0
 11
-51.25933046657441
 21
-6.000000000000039
 31
0.0
  0
LINE
  5
10B
330
104
100
AcDbEntity
  8
치수문자_일반주서
 62
     0
370
    -2
100
AcDbLine
 10
-51.25933046657447
 20
9.301999999999953
 30
0.0
 11
-51.25933046657448
 21
12.60399999999995
 31
0.0
  0
LINE
  5
10C
330
104
100
AcDbEntity
  8
치수문자_일반주서
 62
     0
370
    -2
100
AcDbLine
 10
-51.2593304665744
 20
-9.302000000000039
 30
0.0
 11
-51.25933046657438
 21
-12.60400000000004
 31
0.0
  0
SOLID
  5
10D
330
104
100
AcDbEntity
  8
치수문자_일반주서
 62
     0
100
AcDbTrace
 10
-51.8096637999078
 20
9.301999999999952
 30
0.0
 11
-50.70899713324113
 21
9.301999999999955
 31
0.0
 12
-51.25933046657445
 22
5.999999999999954
 32
0.0
 13
-51.25933046657445
 23
5.999999999999954
 33
0.0
  0
SOLID
  5
10E
330
104
100
AcDbEntity
  8
치수문자_일반주서
 62
     0
100
AcDbTrace
 10
-50.70899713324106
 20
-9.302000000000037
 30
0.0
 11
-51.80966379990773
 21
-9.30200000000004
 31
0.0
 12
-51.25933046657441
 22
-6.000000000000039
 32
0.0
 13
-51.25933046657441
 23
-6.000000000000039
 33
0.0
  0
MTEXT
  5
10F
330
104
100
AcDbEntity
  8
치수문자_일반주서
 62
     0
100
AcDbMText
 10
-55.63433046657449
 20
16.54149999999994
 30
0.0
 40
3.5
 41
0.0
 71
     2
 72
     1
  1
\A1;%%c12
  7
SLDTEXTSTYLE0
 11
-3.552713678800503E-15
 21
1.0
 31
0.0
 73
     1
 44
1.0
  0
POINT
  5
142
330
104
100
AcDbEntity
  8
Defpoints
 62
     0
100
AcDbPoint
 10
-38.99999999999998
 20
6.0
 30
0.0
  0
POINT
  5
143
330
104
100
AcDbEntity
  8
Defpoints
 62
     0
100
AcDbPoint
 10
-38.99999999999998
 20
-5.999999999999995
 30
0.0
  0
POINT
  5
144
330
104
100
AcDbEntity
  8
Defpoints
 62
     0
100
AcDbPoint
 10
-51.2593304665744
 20
-6.000000000000041
 30
0.0
  0
ENDBLK
  5
106
330
104
100
AcDbEntity
  8
0
100
AcDbBlockEnd
  0
BLOCK
  5
111
330
110
100
AcDbEntity
  8
0
100
AcDbBlockBegin
  2
SW_DOWELSYMBOL_0
 70
     0
 10
0.0
 20
0.0
 30
0.0
  3
SW_DOWELSYMBOL_0
  1

  0
CIRCLE
  5
113
330
110
100
AcDbEntity
  8
외형선
 62
     0
100
AcDbCircle
 10
0.0
 20
0.0
 30
0.0
 40
3.000000000000004
  0
HATCH
  5
114
330
110
100
AcDbEntity
  8
0
  6
Continuous
 62
     0
370
    30
100
AcDbHatch
 10
0.0
 20
0.0
 30
0.0
210
0.0
220
0.0
230
1.0
  2
SOLID
 70
     1
 71
     0
 91
        1
 92
        0
 93
        3
 72
     2
 10
0.0000000000000104
 20
0.0
 40
3.000000000000004
 50
0.0
 51
90.0
 73
     1
 72
     1
 10
0.0000000000000104
 20
3.000000000000004
 11
0.0000000000000104
 21
0.0
 72
     1
 10
0.0000000000000104
 20
0.0
 11
3.000000000000015
 21
0.0
 97
        0
 75
     0
 76
     1
 98
        1
 10
0.0
 20
0.0
  0
HATCH
  5
115
330
110
100
AcDbEntity
  8
0
  6
Continuous
 62
     0
370
    30
100
AcDbHatch
 10
0.0
 20
0.0
 30
0.0
210
0.0
220
0.0
230
1.0
  2
SOLID
 70
     1
 71
     0
 91
        1
 92
        0
 93
        3
 72
     2
 10
0.0000000000000104
 20
0.0
 40
3.000000000000004
 50
180.0
 51
270.0000000000008
 73
     1
 72
     1
 10
0.0000000000000104
 20
-3.000000000000004
 11
0.0000000000000104
 21
0.0
 72
     1
 10
0.0000000000000104
 20
0.0
 11
-2.999999999999994
 21
0.0
 97
        0
 75
     0
 76
     1
 98
        1
 10
0.0
 20
0.0
  0
ENDBLK
  5
112
330
110
100
AcDbEntity
  8
0
100
AcDbBlockEnd
  0
ENDSEC
  0
SECTION
  2
ENTITIES
  0
LINE
  5
95
330
1F
100
AcDbEntity
  8
0
  6
Continuous
 62
     1
370
    15
100
AcDbLine
 10
28.50601388640133
 20
1.679761222185266
 30
0.0
 11
28.42331656572026
 21
1.725100488259654
 31
0.0
  0
LINE
  5
96
330
1F
100
AcDbEntity
  8
0
  6
Continuous
 62
     1
370
    15
100
AcDbLine
 10
61.14715565911007
 20
1.68355094314107
 30
0.0
 11
61.07184471598376
 21
1.725023372482213
 31
0.0
  0
LINE
  5
97
330
1F
100
AcDbEntity
  8
0
  6
Continuous
 62
     1
370
    15
100
AcDbLine
 10
15.13000090417209
 20
-6.000000000000001
 30
0.0
 11
18.03850904152371
 21
-6.000000000000001
 31
0.0
  0
LINE
  5
98
330
1F
100
AcDbEntity
  8
0
  6
Continuous
 62
     1
370
    15
100
AcDbLine
 10
50.68586031944861
 20
6.000000000000012
 30
0.0
 11
47.77878504588686
 21
6.000000000000012
 31
0.0
  0
LINE
  5
99
330
1F
100
AcDbEntity
  8
0
  6
Continuous
 62
     1
370
    15
100
AcDbLine
 10
47.77878504588688
 20
-6.000000000000001
 30
0.0
 11
50.68586031944863
 21
-6.000000000000001
 31
0.0
  0
LINE
  5
9A
330
1F
100
AcDbEntity
  8
0
  6
Continuous
 62
     1
370
    15
100
AcDbLine
 10
18.03850904152373
 20
6.000000000000012
 30
0.0
 11
15.13000090417213
 21
6.000000000000012
 31
0.0
  0
SPLINE
  5
9B
330
1F
100
AcDbEntity
  8
0
  6
Continuous
 62
     1
370
    15
100
AcDbSpline
210
0.0
220
0.0
230
1.0
 70
     8
 71
     3
 72
     9
 73
     5
 74
     0
 42
0.000000001
 43
0.00000001
 40
0.0
 40
0.0
 40
0.0
 40
0.0
 40
0.4722992037766969
 40
1.0
 40
1.0
 40
1.0
 40
1.0
 10
64.45620228574256
 20
1.537412593640778
 30
0.0
 10
64.19309750855318
 20
1.662624358289636
 30
0.0
 10
63.63602526476051
 20
1.927735465078751
 30
0.0
 10
63.08244820555917
 20
2.217303827243319
 30
0.0
 10
62.79032515064769
 20
2.370109282518641
 30
0.0
  0
SPLINE
  5
9C
330
1F
100
AcDbEntity
  8
0
  6
Continuous
 62
     1
370
    15
100
AcDbSpline
210
0.0
220
0.0
230
1.0
 70
     8
 71
     3
 72
     9
 73
     5
 74
     0
 42
0.000000001
 43
0.00000001
 40
0.0
 40
0.0
 40
0.0
 40
0.0
 40
0.4992544130968211
 40
1.0
 40
1.0
 40
1.0
 40
1.0
 10
31.80762810647529
 20
1.537499535737076
 30
0.0
 10
31.53047709938269
 20
1.669496156309109
 30
0.0
 10
30.97534729016689
 20
1.933883645151267
 30
0.0
 10
30.42015427460533
 20
2.224482884476718
 30
0.0
 10
30.14214382218341
 20
2.369999171126359
 30
0.0
  0
SPLINE
  5
9D
330
1F
100
AcDbEntity
  8
0
  6
Continuous
 62
     1
370
    15
100
AcDbSpline
210
0.0
220
0.0
230
1.0
 70
     8
 71
     3
 72
    25
 73
    21
 74
     0
 42
0.000000001
 43
0.00000001
 40
0.0
 40
0.0
 40
0.0
 40
0.0
 40
0.0736723006792559
 40
0.1266023127436682
 40
0.1615225582592194
 40
0.1976718354007765
 40
0.2385554924682889
 40
0.2777545073166276
 40
0.3100386879881001
 40
0.3949160214017116
 40
0.5019104823175263
 40
0.5712355159706757
 40
0.631870130168104
 40
0.6835107222067696
 40
0.741025622041341
 40
0.7864334766882388
 40
0.8279063550703629
 40
0.8650704652950784
 40
0.9199733490162195
 40
1.0
 40
1.0
 40
1.0
 40
1.0
 10
20.8002000102574
 20
-4.992831945470383
 30
0.0
 10
21.02104001752462
 20
-4.9712865209188
 30
0.0
 10
21.40054297058266
 20
-4.934261742920484
 30
0.0
 10
21.88571825694208
 20
-4.892585198560781
 30
0.0
 10
22.2616404727326
 20
-4.862574031958951
 30
0.0
 10
22.60220907466496
 20
-4.837154291857409
 30
0.0
 10
22.95622699864123
 20
-4.812539206897597
 30
0.0
 10
23.2991173952613
 20
-4.79059578221767
 30
0.0
 10
23.76382977589106
 20
-4.764141441048434
 30
0.0
 10
24.42424475879636
 20
-4.732079044592876
 30
0.0
 10
25.21797723290398
 20
-4.705079091116152
 30
0.0
 10
25.92959775349814
 20
-4.69084574089323
 30
0.0
 10
26.47962171681998
 20
-4.685740552454639
 30
0.0
 10
26.97433797928241
 20
-4.685212461182735
 30
0.0
 10
27.43715426165756
 20
-4.688502482731852
 30
0.0
 10
27.87913408920481
 20
-4.696155096572843
 30
0.0
 10
28.2567364534891
 20
-4.704939473069475
 30
0.0
 10
28.66274331100207
 20
-4.716906553604961
 30
0.0
 10
29.17995139274984
 20
-4.735619334288244
 30
0.0
 10
29.58421118333997
 20
-4.755840173156262
 30
0.0
 10
29.82397749720953
 20
-4.76783314428915
 30
0.0
  0
SPLINE
  5
9E
330
1F
100
AcDbEntity
  8
0
  6
Continuous
 62
     1
370
    15
100
AcDbSpline
210
0.0
220
0.0
230
1.0
 70
     8
 71
     3
 72
    18
 73
    14
 74
     0
 42
0.000000001
 43
0.00000001
 40
0.0
 40
0.0
 40
0.0
 40
0.0
 40
0.1427592820574547
 40
0.2498446520436819
 40
0.3360221518310159
 40
0.4189079369823209
 40
0.4948731658733088
 40
0.5597863155699282
 40
0.6495178449286889
 40
0.7633612042772545
 40
0.8621597700275331
 40
0.9443330413802289
 40
1.0
 40
1.0
 40
1.0
 40
1.0
 10
62.47237550309146
 20
4.767833650026854
 30
0.0
 10
62.24360751389818
 20
4.756271023963922
 30
0.0
 10
61.84323803994884
 20
4.736035139867492
 30
0.0
 10
61.29172934648703
 20
4.715987434461672
 30
0.0
 10
60.8340300790469
 20
4.702996174786351
 30
0.0
 10
60.43221392401776
 20
4.694369769399764
 30
0.0
 10
60.0671391815502
 20
4.689076968672516
 30
0.0
 10
59.691581522055
 20
4.685923378782649
 30
0.0
 10
59.25295012980882
 20
4.685187578202367
 30
0.0
 10
58.75751381110322
 20
4.688676836235917
 30
0.0
 10
58.27536778036971
 20
4.696741916323789
 30
0.0
 10
57.88887261100606
 20
4.705716819652779
 30
0.0
 10
57.66397121410193
 20
4.713228174885831
 30
0.0
 10
57.57314448842474
 20
4.716261645600587
 30
0.0
  0
SPLINE
  5
9F
330
1F
100
AcDbEntity
  8
0
  6
Continuous
 62
     1
370
    15
100
AcDbSpline
210
0.0
220
0.0
230
1.0
 70
     8
 71
     3
 72
    23
 73
    19
 74
     0
 42
0.000000001
 43
0.00000001
 40
0.0
 40
0.0
 40
0.0
 40
0.0
 40
0.0957624366387602
 40
0.1793139394454885
 40
0.2332083607219403
 40
0.2821621553594474
 40
0.3511902956023398
 40
0.4328981589734838
 40
0.4875633452198167
 40
0.533028670475471
 40
0.5879361774168088
 40
0.6506424090476653
 40
0.6991246676465074
 40
0.7426299265248552
 40
0.7933610434893069
 40
0.8475150762436352
 40
0.9107348628351558
 40
1.0
 40
1.0
 40
1.0
 40
1.0
 10
53.44868618988465
 20
-4.992822174001418
 30
0.0
 10
53.7277144407933
 20
-4.965410739971436
 30
0.0
 10
54.25019127662985
 20
-4.914083179872816
 30
0.0
 10
54.9701127402504
 20
-4.85735646676979
 30
0.0
 10
55.5329754176032
 20
-4.817242348276207
 30
0.0
 10
56.05017069598264
 20
-4.784460629292251
 30
0.0
 10
56.65210882411856
 20
-4.751614685210711
 30
0.0
 10
57.2715029389991
 20
-4.725223883879766
 30
0.0
 10
57.81785999254238
 20
-4.707723278064988
 30
0.0
 10
58.28452225570763
 20
-4.696416726710669
 30
0.0
 10
58.77599063179036
 20
-4.688472251618722
 30
0.0
 10
59.27755715611346
 20
-4.6851030868268
 30
0.0
 10
59.74299376652594
 20
-4.68611702477386
 30
0.0
 10
60.17146465781684
 20
-4.690191153072982
 30
0.0
 10
60.61777939513971
 20
-4.697805017052335
 30
0.0
 10
61.12915239785806
 20
-4.710832143009258
 30
0.0
 10
61.75861363366094
 20
-4.732036719038828
 30
0.0
 10
62.20882210031274
 20
-4.754615792117936
 30
0.0
 10
62.47237550309146
 20
-4.767833650026839
 30
0.0
  0
SPLINE
  5
A0
330
1F
100
AcDbEntity
  8
0
  6
Continuous
 62
     1
370
    15
100
AcDbSpline
210
0.0
220
0.0
230
1.0
 70
     8
 71
     3
 72
    17
 73
    13
 74
     0
 42
0.000000001
 43
0.00000001
 40
0.0
 40
0.0
 40
0.0
 40
0.0
 40
0.1346061865462762
 40
0.2314024800398718
 40
0.2951336436039685
 40
0.3609297683414782
 40
0.4352214385532431
 40
0.5064642674268636
 40
0.564864109686884
 40
0.7170853159252086
 40
0.9087606385200757
 40
1.0
 40
1.0
 40
1.0
 40
1.0
 10
29.82397749720953
 20
4.767833144289163
 30
0.0
 10
29.60292021301005
 20
4.756719061903851
 30
0.0
 10
29.22289901853804
 20
4.73761276156717
 30
0.0
 10
28.73704871345517
 20
4.719469505375112
 30
0.0
 10
28.36074225963289
 20
4.707832277982112
 30
0.0
 10
28.02054909180293
 20
4.699234166231541
 30
0.0
 10
27.667305729288
 20
4.692268916111923
 30
0.0
 10
27.3259900109597
 20
4.687646569502848
 30
0.0
 10
26.86654206860479
 20
4.684819116261812
 30
0.0
 10
26.21939178404735
 20
4.686515861755936
 30
0.0
 10
25.495623494878
 20
4.697703259395693
 30
0.0
 10
25.02846337389595
 20
4.713062222166656
 30
0.0
 10
24.87780526547476
 20
4.718015453777095
 30
0.0
  0
SPLINE
  5
A1
330
1F
100
AcDbEntity
  8
0
  6
Continuous
 62
     1
370
    15
100
AcDbSpline
210
0.0
220
0.0
230
1.0
 70
     8
 71
     3
 72
    16
 73
    12
 74
     0
 42
0.000000001
 43
0.00000001
 40
0.0
 40
0.0
 40
0.0
 40
0.0
 40
0.1968336984623581
 40
0.3367244587339351
 40
0.4414683609972747
 40
0.5290489502280669
 40
0.608676286756314
 40
0.6870919483853499
 40
0.8080440655978285
 40
0.9527038096188312
 40
1.0
 40
1.0
 40
1.0
 40
1.0
 10
67.28814064362284
 20
-4.512816443792273
 30
0.0
 10
67.57631555141491
 20
-4.468761964595402
 30
0.0
 10
68.0692979045639
 20
-4.393397731853473
 30
0.0
 10
68.72982256221304
 20
-4.305857881243712
 30
0.0
 10
69.23155020831788
 20
-4.244485929717672
 30
0.0
 10
69.63638670140998
 20
-4.198934728583704
 30
0.0
 10
70.00150271532168
 20
-4.160967540369374
 30
0.0
 10
70.41698755810768
 20
-4.121010169165928
 30
0.0
 10
70.9326366267412
 20
-4.077054759723591
 30
0.0
 10
71.40477985377966
 20
-4.041472354503463
 30
0.0
 10
71.6889126365161
 20
-4.025574933599334
 30
0.0
 10
71.75892036108937
 20
-4.021657954173858
 30
0.0
  0
SPLINE
  5
A2
330
1F
100
AcDbEntity
  8
0
  6
Continuous
 62
     1
370
    15
100
AcDbSpline
210
0.0
220
0.0
230
1.0
 70
     8
 71
     3
 72
    25
 73
    21
 74
     0
 42
0.000000001
 43
0.00000001
 40
0.0
 40
0.0
 40
0.0
 40
0.0
 40
0.0736746501103282
 40
0.1277077772839919
 40
0.1761358003429691
 40
0.2179831556339896
 40
0.2735759361301094
 40
0.3180295072574059
 40
0.3566146099415277
 40
0.411193068980047
 40
0.464844335594031
 40
0.5108790809706641
 40
0.564689353646619
 40
0.6473954336670956
 40
0.7223775991547937
 40
0.7776052074472002
 40
0.8152526821647246
 40
0.8623853430610127
 40
0.9236864984764068
 40
1.0
 40
1.0
 40
1.0
 40
1.0
 10
45.12222125419095
 20
4.103712170191991
 30
0.0
 10
44.86270270443875
 20
4.082672618362706
 30
0.0
 10
44.4128527614368
 20
4.0462026195891
 30
0.0
 10
43.79291831209401
 20
4.008991707437545
 30
0.0
 10
43.29624023191284
 20
3.985018852546465
 30
0.0
 10
42.79006519562353
 20
3.966191611474625
 30
0.0
 10
42.28851867457492
 20
3.953983867412343
 30
0.0
 10
41.80141488404779
 20
3.948419771164301
 30
0.0
 10
41.31952061898353
 20
3.948047387718796
 30
0.0
 10
40.80524344458077
 20
3.953840685074585
 30
0.0
 10
40.26512036711416
 20
3.967485199186249
 30
0.0
 10
39.7274033887701
 20
3.987869037895177
 30
0.0
 10
39.08800755943477
 20
4.020134110391443
 30
0.0
 10
38.34755172079819
 20
4.070638663187898
 30
0.0
 10
37.60099631339002
 20
4.135274599582191
 30
0.0
 10
37.01388232488158
 20
4.196391533175647
 30
0.0
 10
36.57334228312882
 20
4.243571062838353
 30
0.0
 10
36.03464951435993
 20
4.312083262158719
 30
0.0
 10
35.37252879817564
 20
4.400274470851643
 30
0.0
 10
34.90119524818508
 20
4.472663075456652
 30
0.0
 10
34.63981964775561
 20
4.512805804513953
 30
0.0
  0
SPLINE
  5
A3
330
1F
100
AcDbEntity
  8
0
  6
Continuous
 62
     1
370
    15
100
AcDbSpline
210
0.0
220
0.0
230
1.0
 70
     8
 71
     3
 72
    17
 73
    13
 74
     0
 42
0.000000001
 43
0.00000001
 40
0.0
 40
0.0
 40
0.0
 40
0.0
 40
0.1697081726456287
 40
0.3075541160081647
 40
0.4157057518040513
 40
0.4828094898999047
 40
0.5496052933822476
 40
0.6260141908503372
 40
0.7242981197049306
 40
0.8443917730948777
 40
0.970567750934406
 40
1.0
 40
1.0
 40
1.0
 40
1.0
 10
34.63981964775562
 20
-4.512805804513938
 30
0.0
 10
34.88904104570398
 20
-4.474431437327972
 30
0.0
 10
35.34069322922247
 20
-4.404887381828085
 30
0.0
 10
35.98207006606746
 20
-4.319229165003705
 30
0.0
 10
36.47326706467562
 20
-4.255707024141326
 30
0.0
 10
36.82176477660516
 20
-4.217001367528334
 30
0.0
 10
37.10961372831349
 20
-4.186188053205014
 30
0.0
 10
37.47283102351545
 20
-4.148986244046167
 30
0.0
 10
37.91664025950971
 20
-4.107692325619483
 30
0.0
 10
38.43528928554208
 20
-4.06555557610239
 30
0.0
 10
38.84999709204438
 20
-4.035909138961307
 30
0.0
 10
39.08412786764766
 20
-4.022828378441132
 30
0.0
 10
39.12841212843858
 20
-4.020354240606301
 30
0.0
  0
SPLINE
  5
A4
330
1F
100
AcDbEntity
  8
0
  6
Continuous
 62
     1
370
    15
100
AcDbSpline
210
0.0
220
0.0
230
1.0
 70
     8
 71
     3
 72
    28
 73
    24
 74
     0
 42
0.000000001
 43
0.00000001
 40
0.0
 40
0.0
 40
0.0
 40
0.0
 40
0.0795147510700649
 40
0.1428532175122812
 40
0.1910729879963069
 40
0.2294389091542601
 40
0.280804326198391
 40
0.3253686614858617
 40
0.3687683961124296
 40
0.4048125233048333
 40
0.4387774623026869
 40
0.4892291955901735
 40
0.5656840312733511
 40
0.6213833341428031
 40
0.663695983117141
 40
0.7027481111398994
 40
0.7408468315231171
 40
0.783939969648488
 40
0.8170483114173593
 40
0.8361903175847443
 40
0.8698829965558403
 40
0.9245443492546858
 40
1.0
 40
1.0
 40
1.0
 40
1.0
 10
77.77680523137515
 20
4.104246195484492
 30
0.0
 10
77.5089100796406
 20
4.08221168589841
 30
0.0
 10
77.02761970438054
 20
4.042625312951038
 30
0.0
 10
76.34300375291653
 20
4.003475390120526
 30
0.0
 10
75.80558269102919
 20
3.979291171231635
 30
0.0
 10
75.3291554527801
 20
3.963241236006908
 30
0.0
 10
74.85858400955992
 20
3.952740611576989
 30
0.0
 10
74.371202347716
 20
3.947916862898594
 30
0.0
 10
73.93749215282038
 20
3.948505241750616
 30
0.0
 10
73.54096530138156
 20
3.953108925418717
 30
0.0
 10
73.119591437054
 20
3.961829582489593
 30
0.0
 10
72.55685802187661
 20
3.979526596703371
 30
0.0
 10
71.91801230847581
 20
4.009841527548372
 30
0.0
 10
71.3076722224088
 20
4.049103742929545
 30
0.0
 10
70.82867451012929
 20
4.085760134520714
 30
0.0
 10
70.4118125788686
 20
4.121666915641308
 30
0.0
 10
69.99083899875437
 20
4.161804440210801
 30
0.0
 10
69.59063917193173
 20
4.203828868934902
 30
0.0
 10
69.25782454721066
 20
4.241827983816203
 30
0.0
 10
68.96182530487991
 20
4.277402933073388
 30
0.0
 10
68.58576710154298
 20
4.324824764518275
 30
0.0
 10
68.01147573129157
 20
4.402191361890405
 30
0.0
 10
67.55364151951588
 20
4.472211395535402
 30
0.0
 10
67.28814064362284
 20
4.512816443792291
 30
0.0
  0
SPLINE
  5
A5
330
1F
100
AcDbEntity
  8
0
  6
Continuous
 62
     1
370
    15
100
AcDbSpline
210
0.0
220
0.0
230
1.0
 70
     8
 71
     3
 72
    11
 73
     7
 74
     0
 42
0.000000001
 43
0.00000001
 40
0.0
 40
0.0
 40
0.0
 40
0.0
 40
0.1557469139670358
 40
0.3734863661722994
 40
0.6551570777414906
 40
1.0
 40
1.0
 40
1.0
 40
1.0
 10
12.47393703297123
 20
4.103721175418065
 30
0.0
 10
12.35385828026516
 20
4.093507059331443
 30
0.0
 10
12.06590537089205
 20
4.069013263572113
 30
0.0
 10
11.52229898385775
 20
4.030213704937945
 30
0.0
 10
10.81882006440991
 20
3.990094642481447
 30
0.0
 10
10.29069068618087
 20
3.972778161580877
 30
0.0
 10
9.999999999999956
 20
3.96324689912374
 30
0.0
  0
LINE
  5
A6
330
1F
100
AcDbEntity
  8
0
  6
Continuous
 62
   131
370
    15
100
AcDbLine
 10
7.970077293424835
 20
6.000000000000005
 30
0.0
 11
-38.99999999999998
 21
6.000000000000003
 31
0.0
  0
LINE
  5
A7
330
1F
100
AcDbEntity
  8
0
  6
Continuous
 62
   131
370
    15
100
AcDbLine
 10
-38.99999999999998
 20
-5.999999999999997
 30
0.0
 11
7.970077293424835
 21
-5.999999999999995
 31
0.0
  0
LINE
  5
A8
330
1F
100
AcDbEntity
  8
0
  6
Continuous
 62
   131
370
    15
100
AcDbLine
 10
-38.99999999999998
 20
6.0
 30
0.0
 11
-39.99999999999997
 21
4.999999999999998
 31
0.0
  0
LINE
  5
A9
330
1F
100
AcDbEntity
  8
0
  6
Continuous
 62
   131
370
    15
100
AcDbLine
 10
-39.99999999999997
 20
-4.999999999999994
 30
0.0
 11
-38.99999999999998
 21
-5.999999999999995
 31
0.0
  0
SPLINE
  5
AA
330
1F
100
AcDbEntity
  8
0
  6
Continuous
 62
   131
370
    15
100
AcDbSpline
210
0.0
220
0.0
230
1.0
 70
     8
 71
     3
 72
     9
 73
     5
 74
     0
 42
0.000000001
 43
0.00000001
 40
0.0
 40
0.0
 40
0.0
 40
0.0
 40
0.4391781085875574
 40
1.0
 40
1.0
 40
1.0
 40
1.0
 10
10.00000000000001
 20
3.963246899123742
 30
0.0
 10
9.702574854012806
 20
3.956853890316257
 30
0.0
 10
9.02534358913087
 20
3.94229713376925
 30
0.0
 10
8.349259524735016
 20
3.953002364753574
 30
0.0
 10
7.970096780986722
 20
3.959006092642207
 30
0.0
  0
SPLINE
  5
AB
330
1F
100
AcDbEntity
  8
0
  6
Continuous
 62
     1
370
    15
100
AcDbSpline
210
0.0
220
0.0
230
1.0
 70
     8
 71
     3
 72
    25
 73
    21
 74
     0
 42
0.000000001
 43
0.00000001
 40
0.0
 40
0.0
 40
0.0
 40
0.0
 40
0.0604112203080668
 40
0.1208195398234463
 40
0.1812245983947657
 40
0.2416278002744562
 40
0.3020341227237947
 40
0.3624435713593719
 40
0.4228557854658784
 40
0.476248890583126
 40
0.5296486859138201
 40
0.5830538192756233
 40
0.6364528595320265
 40
0.6898453381853307
 40
0.7422790831164349
 40
0.7947071213193283
 40
0.8471317518800726
 40
0.8995552796375003
 40
0.9529343878165243
 40
1.0
 40
1.0
 40
1.0
 40
1.0
 10
9.999999999998305
 20
5.283356515890282
 30
0.0
 10
10.76080356511751
 20
5.466916250511822
 30
0.0
 10
12.28237416350958
 20
5.834026905684714
 30
0.0
 10
14.56464381292945
 20
6.036391290918935
 30
0.0
 10
16.84678879929439
 20
5.966968989407591
 30
0.0
 10
19.12888266591717
 20
5.60598508077898
 30
0.0
 10
21.41107534841525
 20
4.976979886655316
 30
0.0
 10
23.69337461748676
 20
4.108525406721688
 30
0.0
 10
25.88747353233448
 20
3.083936024909057
 30
0.0
 10
27.99296943329067
 20
1.973893134733091
 30
0.0
 10
30.01036716569577
 20
0.8362882880386405
 30
0.0
 10
32.02788368622458
 20
-0.3326383973337006
 30
0.0
 10
34.04523629449236
 20
-1.489157549204733
 30
0.0
 10
36.0503238399512
 20
-2.58312817252785
 30
0.0
 10
38.04309084412773
 20
-3.57537420065641
 30
0.0
 10
40.0236344413939
 20
-4.431735345712343
 30
0.0
 10
42.00402660015901
 20
-5.129053024282552
 30
0.0
 10
43.99636698721698
 20
-5.638134630236926
 30
0.0
 10
45.92130895149563
 20
-5.950109464211227
 30
0.0
 10
47.18612656569907
 20
-5.976073789735803
 30
0.0
 10
47.77878504588688
 20
-5.988239953087493
 30
0.0
  0
SPLINE
  5
AC
330
1F
100
AcDbEntity
  8
0
  6
Continuous
 62
     1
370
    15
100
AcDbSpline
210
0.0
220
0.0
230
1.0
 70
     8
 71
     3
 72
    12
 73
     8
 74
     0
 42
0.000000001
 43
0.00000001
 40
0.0
 40
0.0
 40
0.0
 40
0.0
 40
0.0385035590529266
 40
0.2788266556044989
 40
0.5191767784043789
 40
0.7595644175464632
 40
0.9999999999999999
 40
0.9999999999999999
 40
0.9999999999999999
 40
0.9999999999999999
 10
71.75852952342818
 20
4.021481367379462
 30
0.0
 10
71.86430151634842
 20
4.069749414703254
 30
0.0
 10
72.63025800889068
 20
4.41928640657855
 30
0.0
 10
74.05644134684346
 20
4.929929834019733
 30
0.0
 10
76.03727610380865
 20
5.505588789215889
 30
0.0
 10
78.01846744640102
 20
5.884298199146575
 30
0.0
 10
79.33944524350966
 20
5.958049542696739
 30
0.0
 10
80.00000000000001
 20
6.000000000000265
 30
0.0
  0
SPLINE
  5
AD
330
1F
100
AcDbEntity
  8
0
  6
Continuous
 62
     1
370
    15
100
AcDbSpline
210
0.0
220
0.0
230
1.0
 70
    24
 71
     3
 72
    10
 73
     6
 74
     0
 42
0.000000001
 43
0.00000001
 40
0.0
 40
0.0
 40
0.0
 40
0.0
 40
0.5
 40
0.5
 40
1.0
 40
1.0
 40
1.0
 40
1.0
 10
80.00000000000001
 20
4.200000000000012
 30
0.0
 10
80.00000000000003
 20
4.454593540843896
 30
0.0
 10
80.0
 20
4.750454813202714
 30
0.0
 10
79.99999999999999
 20
5.371170965765145
 30
0.0
 10
80.0
 20
5.694440614808851
 30
0.0
 10
80.00000000000001
 20
6.000000000000265
 30
0.0
  0
LINE
  5
AE
330
1F
100
AcDbEntity
  8
0
  6
Continuous
 62
     1
370
    15
100
AcDbLine
 10
80.00000000000001
 20
4.200000000000013
 30
0.0
 11
77.77658181029989
 21
4.103058504641456
 31
0.0
  0
SPLINE
  5
AF
330
1F
100
AcDbEntity
  8
0
  6
Continuous
 62
     1
370
    15
100
AcDbSpline
210
0.0
220
0.0
230
1.0
 70
     8
 71
     3
 72
    16
 73
    12
 74
     0
 42
0.000000001
 43
0.00000001
 40
0.0
 40
0.0
 40
0.0
 40
0.0
 40
0.0991236070592353
 40
0.2117512887081503
 40
0.3243767947061488
 40
0.4369998670176354
 40
0.5496202482175737
 40
0.6622376815554392
 40
0.7748519110188092
 40
0.8911347152482924
 40
1.0
 40
1.0
 40
1.0
 40
1.0
 10
32.45884806700942
 20
-0.5761017622356006
 30
0.0
 10
31.79848237956799
 20
-0.3100728711320129
 30
0.0
 10
30.38778628523797
 20
0.2582272764919677
 30
0.0
 10
28.22677897253085
 20
1.127072842485031
 30
0.0
 10
25.97584199793776
 20
1.977129686791087
 30
0.0
 10
23.72495874792225
 20
2.73547770929813
 30
0.0
 10
21.47413486411119
 20
3.365512989445839
 30
0.0
 10
19.22337573258141
 20
3.839489672255241
 30
0.0
 10
16.94822523336303
 20
4.132817008184343
 30
0.0
 10
14.6980751944753
 20
4.243441485392148
 30
0.0
 10
13.19813644426266
 20
4.144997810501945
 30
0.0
 10
12.47287486247033
 20
4.097397589920807
 30
0.0
  0
SPLINE
  5
B0
330
1F
100
AcDbEntity
  8
0
  6
Continuous
 62
   131
370
    15
100
AcDbSpline
210
0.0
220
0.0
230
1.0
 70
    24
 71
     3
 72
    11
 73
     7
 74
     0
 42
0.000000001
 43
0.00000001
 40
0.0
 40
0.0
 40
0.0
 40
0.0
 40
0.0988638576984408
 40
0.6154648898167281
 40
0.8965853609864858
 40
1.0
 40
1.0
 40
1.0
 40
1.0
 10
9.999999999999998
 20
5.283356515890741
 30
0.0
 10
9.999999999999995
 20
5.233188119992151
 30
0.0
 10
9.999999999999988
 20
4.920870889278876
 30
0.0
 10
9.999999999999995
 20
4.494082902551152
 30
0.0
 10
9.999999999999995
 20
4.120587001537219
 30
0.0
 10
9.999999999999995
 20
3.996593099055648
 30
0.0
 10
9.999999999999995
 20
3.963246899123742
 30
0.0
  0
SPLINE
  5
B1
330
1F
100
AcDbEntity
  8
0
  6
Continuous
 62
     1
370
    15
100
AcDbSpline
210
0.0
220
0.0
230
1.0
 70
     8
 71
     3
 72
    10
 73
     6
 74
     0
 42
0.000000001
 43
0.00000001
 40
0.0
 40
0.0
 40
0.0
 40
0.0
 40
0.4449105153550037
 40
0.8897996672420481
 40
1.0
 40
1.0
 40
1.0
 40
1.0
 10
9.999999999998305
 20
-5.283356515890272
 30
0.0
 10
10.76080318404273
 20
-5.462583032701655
 30
0.0
 10
12.28237302030352
 20
-5.821027460324295
 30
0.0
 10
13.99237193503198
 20
-6.021345569396209
 30
0.0
 10
14.94156108790718
 20
-5.98107565386212
 30
0.0
 10
15.13000090417209
 20
-5.973080982345636
 30
0.0
  0
SPLINE
  5
B2
330
1F
100
AcDbEntity
  8
0
  6
Continuous
 62
     1
370
    15
100
AcDbSpline
210
0.0
220
0.0
230
1.0
 70
     8
 71
     3
 72
    28
 73
    24
 74
     0
 42
0.000000001
 43
0.00000001
 40
0.0
 40
0.0
 40
0.0
 40
0.0
 40
0.0218993520283562
 40
0.0703550311834519
 40
0.118809691026001
 40
0.1681475864358873
 40
0.2174873803514041
 40
0.2668302282106566
 40
0.3161772820147483
 40
0.3655296890375934
 40
0.414011978121065
 40
0.4624934034837028
 40
0.5109652478875207
 40
0.55942961443988
 40
0.6087706334369398
 40
0.6581092361016271
 40
0.7074465792137621
 40
0.756783820972448
 40
0.8061221196910232
 40
0.8545813032765746
 40
0.903045936483686
 40
0.9515181345538523
 40
1.0
 40
1.0
 40
1.0
 40
1.0
 10
39.12864498815121
 20
4.0204543539165
 30
0.0
 10
39.42698836201425
 20
4.151856123448941
 30
0.0
 10
40.38546226317498
 20
4.574004485694782
 30
0.0
 10
42.00402566457258
 20
5.12295279875301
 30
0.0
 10
43.996366908416
 20
5.643049241144715
 30
0.0
 10
46.00083668713989
 20
5.949283588959069
 30
0.0
 10
48.01740114975239
 20
6.03628383289885
 30
0.0
 10
50.0341204982392
 20
5.896045959909275
 30
0.0
 10
52.05104662845303
 20
5.53459804914433
 30
0.0
 10
54.05628461540969
 20
4.968606952609254
 30
0.0
 10
56.04980950995844
 20
4.22350787503687
 30
0.0
 10
58.03133097484825
 20
3.32987900260171
 30
0.0
 10
60.01251060589819
 20
2.315596195709283
 30
0.0
 10
62.0053284397152
 20
1.210843276081091
 30
0.0
 10
64.0099763273049
 20
0.0544368267713856
 30
0.0
 10
66.02648358703163
 20
-1.110908845287288
 30
0.0
 10
68.04293407385384
 20
-2.234516215042227
 30
0.0
 10
70.05937368824087
 20
-3.274318719053833
 30
0.0
 10
72.06387688440351
 20
-4.185437745191429
 30
0.0
 10
74.0564425818008
 20
-4.938186676500982
 30
0.0
 10
76.03727577441583
 20
-5.503386490851411
 30
0.0
 10
78.01846752877375
 20
-5.884848937660702
 30
0.0
 10
79.33944527096905
 20
-5.95823313440428
 30
0.0
 10
80.00000000000001
 20
-5.99999999999973
 30
0.0
  0
SPLINE
  5
B3
330
1F
100
AcDbEntity
  8
0
  6
Continuous
 62
     1
370
    15
100
AcDbSpline
210
0.0
220
0.0
230
1.0
 70
     8
 71
     3
 72
    17
 73
    13
 74
     0
 42
0.000000001
 43
0.00000001
 40
0.0
 40
0.0
 40
0.0
 40
0.0
 40
0.0422725531988363
 40
0.1549702078545153
 40
0.2676695875212189
 40
0.3803704326605771
 40
0.4930724833655832
 40
0.6057754794258298
 40
0.7184791603928978
 40
0.83118326564588
 40
0.9438875344569941
 40
1.0
 40
1.0
 40
1.0
 40
1.0
 10
65.08876109465592
 20
-0.565440153053229
 30
0.0
 10
64.80731155863134
 20
-0.4537137171353937
 30
0.0
 10
63.77552403226338
 20
-0.0441271725141008
 30
0.0
 10
61.99338267148364
 20
0.6837748482936461
 30
0.0
 10
59.74232796295101
 20
1.564130139341846
 30
0.0
 10
57.49124068413749
 20
2.373248474487823
 30
0.0
 10
55.24012691763708
 20
3.071141222998086
 30
0.0
 10
52.9889923032457
 20
3.624923957703366
 30
0.0
 10
50.73784259669567
 20
4.011957094000619
 30
0.0
 10
48.48668356483937
 20
4.201447761947205
 30
0.0
 10
46.61230998934438
 20
4.226979641432087
 30
0.0
 10
45.48832368305528
 20
4.115956522556725
 30
0.0
 10
45.1147253953988
 20
4.079053895834289
 30
0.0
  0
LINE
  5
B4
330
1F
100
AcDbEntity
  8
0
  6
Continuous
 62
   131
370
    15
100
AcDbLine
 10
9.999999999999998
 20
-5.283356515890731
 30
0.0
 11
9.999999999999998
 21
-4.292512417078392
 31
0.0
  0
SPLINE
  5
B5
330
1F
100
AcDbEntity
  8
0
  6
Continuous
 62
     1
370
    15
100
AcDbSpline
210
0.0
220
0.0
230
1.0
 70
     8
 71
     3
 72
    22
 73
    18
 74
     0
 42
0.000000001
 43
0.00000001
 40
0.0
 40
0.0
 40
0.0
 40
0.0
 40
0.0688213440755257
 40
0.137633355398184
 40
0.2064376236252147
 40
0.2752357470984542
 40
0.3440293310642961
 40
0.4115895996989314
 40
0.4791484396119576
 40
0.5467088235832352
 40
0.6142737217843118
 40
0.683073364150377
 40
0.7518795884926842
 40
0.8206939909574272
 40
0.8895173447723642
 40
0.958335983126251
 40
1.0
 40
1.0
 40
1.0
 40
1.0
 10
80.00000000000001
 20
-5.69364521539139
 30
0.0
 10
79.32747903670877
 20
-5.55048985052755
 30
0.0
 10
77.982528309623
 20
-5.264198533870914
 30
0.0
 10
75.96529558149672
 20
-4.579776348697203
 30
0.0
 10
73.94832903414756
 20
-3.738770667028332
 30
0.0
 10
71.93158540613244
 20
-2.753306532852641
 30
0.0
 10
69.9270024836252
 20
-1.672092286022461
 30
0.0
 10
67.93462238548977
 20
-0.535837394430052
 30
0.0
 10
65.95428309604083
 20
0.6128826222344321
 30
0.0
 10
63.9738906599738
 20
1.739451848788741
 30
0.0
 10
61.98136025149381
 20
2.809435104108385
 30
0.0
 10
59.97656076663401
 20
3.78239167380512
 30
0.0
 10
57.95953049466102
 20
4.61851424611805
 30
0.0
 10
55.94222035957056
 20
5.283789699303276
 30
0.0
 10
53.92471567774462
 20
5.741128125002188
 30
0.0
 10
52.1725495975418
 20
5.981892327999612
 30
0.0
 10
51.09297699385881
 20
5.976343329273171
 30
0.0
 10
50.68586031944861
 20
5.974250751247287
 30
0.0
  0
SPLINE
  5
B6
330
1F
100
AcDbEntity
  8
0
  6
Continuous
 62
     1
370
    15
100
AcDbSpline
210
0.0
220
0.0
230
1.0
 70
     8
 71
     3
 72
    14
 73
    10
 74
     0
 42
0.000000001
 43
0.00000001
 40
0.0
 40
0.0
 40
0.0
 40
0.0
 40
0.0793558523701799
 40
0.2328021012378002
 40
0.386240408372792
 40
0.5396707863599518
 40
0.6931058779770997
 40
0.8465492542046545
 40
1.0
 40
1.0
 40
1.0
 40
1.0
 10
24.87374962947317
 20
-4.719437201526025
 30
0.0
 10
24.48030347476048
 20
-4.863472712184669
 30
0.0
 10
23.32607113013425
 20
-5.28602213396862
 30
0.0
 10
21.41111462915855
 20
-5.725394019462064
 30
0.0
 10
19.12891834331596
 20
-6.01691669254359
 30
0.0
 10
16.84681444806897
 20
-6.008846855063782
 30
0.0
 10
14.56466119382488
 20
-5.711223926664523
 30
0.0
 10
12.28238280492685
 20
-5.153185849252742
 30
0.0
 10
10.76080644770661
 20
-4.579408153931589
 30
0.0
 10
9.999999999994367
 20
-4.292512417097648
 30
0.0
  0
LINE
  5
B7
330
1F
100
AcDbEntity
  8
0
  6
Continuous
 62
     1
370
    15
100
AcDbLine
 10
80.00000000000001
 20
-5.99999999999973
 30
0.0
 11
80.0
 21
-5.693645215391402
 31
0.0
  0
SPLINE
  5
B8
330
1F
100
AcDbEntity
  8
0
  6
Continuous
 62
     1
370
    15
100
AcDbSpline
210
0.0
220
0.0
230
1.0
 70
     8
 71
     3
 72
    27
 73
    23
 74
     0
 42
0.000000001
 43
0.00000001
 40
0.0
 40
0.0
 40
0.0
 40
0.0
 40
0.0412504721038775
 40
0.0922825955950262
 40
0.1433112225987576
 40
0.1934235041028842
 40
0.2435280492282963
 40
0.2936270453164792
 40
0.3437226890646097
 40
0.3947295433916576
 40
0.4457368296639375
 40
0.4967457450624968
 40
0.547757484932867
 40
0.5987732414408012
 40
0.6488858465531949
 40
0.6990084414396331
 40
0.749131087254212
 40
0.799243733387656
 40
0.8569722836530747
 40
0.914698191043709
 40
0.9724211107841035
 40
1.0
 40
1.0
 40
1.0
 40
1.0
 10
57.57314448842474
 20
-4.71626164560057
 30
0.0
 10
57.02953180308033
 20
-4.903784031424424
 30
0.0
 10
55.81340051916109
 20
-5.323295654283415
 30
0.0
 10
53.92471271259383
 20
-5.743742676028201
 30
0.0
 10
51.91928019815692
 20
-5.995554041304751
 30
0.0
 10
49.9261561443158
 20
-6.020078274766741
 30
0.0
 10
47.94534411206712
 20
-5.827786016792149
 30
0.0
 10
45.96478993950537
 20
-5.424051938047766
 30
0.0
 10
43.97239342703749
 20
-4.820341106098875
 30
0.0
 10
41.96795738942055
 20
-4.034542261460649
 30
0.0
 10
39.95150431645808
 20
-3.092568731903709
 30
0.0
 10
37.9349676983103
 20
-2.034480128469325
 30
0.0
 10
35.91830115568836
 20
-0.8999881442726706
 30
0.0
 10
33.91340454551359
 20
0.2614044952482732
 30
0.0
 10
31.92021944205926
 20
1.406043877964522
 30
0.0
 10
29.93869277937834
 20
2.492749786403058
 30
0.0
 10
27.95714188275776
 20
3.489404819468714
 30
0.0
 10
25.87556650503124
 20
4.402848078090371
 30
0.0
 10
23.69342437569791
 20
5.177302711049142
 30
0.0
 10
21.41111956953078
 20
5.722786876208237
 30
0.0
 10
19.52614690982597
 20
5.994508392876452
 30
0.0
 10
18.40196710501565
 20
5.971402011748104
 30
0.0
 10
18.03850904152372
 20
5.963931498131615
 30
0.0
  0
SPLINE
  5
B9
330
1F
100
AcDbEntity
  8
0
  6
Continuous
 62
   131
370
    15
100
AcDbSpline
210
0.0
220
0.0
230
1.0
 70
    24
 71
     3
 72
     8
 73
     4
 74
     0
 42
0.000000001
 43
0.00000001
 40
0.0
 40
0.0
 40
0.0
 40
0.0
 40
1.0
 40
1.0
 40
1.0
 40
1.0
 10
10.00000000000031
 20
-3.427232330018274
 30
0.0
 10
10.00000000000031
 20
-3.703048506437566
 30
0.0
 10
10.00000000000031
 20
-3.993272972451333
 30
0.0
 10
10.00000000000031
 20
-4.292512417088409
 30
0.0
  0
SPLINE
  5
BA
330
1F
100
AcDbEntity
  8
0
  6
Continuous
 62
     1
370
    15
100
AcDbSpline
210
0.0
220
0.0
230
1.0
 70
     8
 71
     3
 72
    14
 73
    10
 74
     0
 42
0.000000001
 43
0.00000001
 40
0.0
 40
0.0
 40
0.0
 40
0.0
 40
0.1441533903754488
 40
0.2883111136143744
 40
0.4324728561506344
 40
0.5766383034218009
 40
0.7208071399460655
 40
0.864979049399642
 40
1.0
 40
1.0
 40
1.0
 40
1.0
 10
80.00000000000001
 20
-4.733833586209281
 30
0.0
 10
79.24980356417589
 20
-4.575387050384478
 30
0.0
 10
77.74938814363904
 20
-4.25848921625786
 30
0.0
 10
75.49871990591248
 20
-3.524858307167981
 30
0.0
 10
73.24798037404513
 20
-2.642503434109507
 30
0.0
 10
70.99717424995794
 20
-1.63197579619643
 30
0.0
 10
68.74630728736399
 20
-0.5479054161254298
 30
0.0
 10
66.54302398387439
 20
0.5443964676562723
 30
0.0
 10
65.09002732461116
 20
1.234250963146656
 30
0.0
 10
64.38734105206476
 20
1.567872710275318
 30
0.0
  0
SPLINE
  5
BB
330
1F
100
AcDbEntity
  8
0
  6
Continuous
 62
     1
370
    15
100
AcDbSpline
210
0.0
220
0.0
230
1.0
 70
     8
 71
     3
 72
    12
 73
     8
 74
     0
 42
0.000000001
 43
0.00000001
 40
0.0
 40
0.0
 40
0.0
 40
0.0
 40
0.1464646472257956
 40
0.3547455359992813
 40
0.5698132928256799
 40
0.784895783770377
 40
1.0
 40
1.0
 40
1.0
 40
1.0
 10
20.80611414275694
 20
-4.967551638411976
 30
0.0
 10
20.2785447863556
 20
-5.019075534167268
 30
0.0
 10
19.00074241111844
 20
-5.14386928038989
 30
0.0
 10
16.94827290866253
 20
-5.066432803143149
 30
0.0
 10
14.64864223832664
 20
-4.762745137263126
 30
0.0
 10
12.32440991060047
 20
-4.221934239541521
 30
0.0
 10
10.77482938916697
 20
-3.69214188504873
 30
0.0
 10
9.999999999999973
 20
-3.427232330018153
 30
0.0
  0
LINE
  5
BC
330
1F
100
AcDbEntity
  8
0
  6
Continuous
 62
     1
370
    15
100
AcDbLine
 10
80.00000000000001
 20
-5.693645215391395
 30
0.0
 11
80.00000000000001
 21
-4.733833586209281
 31
0.0
  0
SPLINE
  5
BD
330
1F
100
AcDbEntity
  8
0
  6
Continuous
 62
     1
370
    15
100
AcDbSpline
210
0.0
220
0.0
230
1.0
 70
     8
 71
     3
 72
    18
 73
    14
 74
     0
 42
0.000000001
 43
0.00000001
 40
0.0
 40
0.0
 40
0.0
 40
0.0
 40
0.0214067069961094
 40
0.1252900489140784
 40
0.2291737665270372
 40
0.3330576290203089
 40
0.43694140554303
 40
0.5408248652658111
 40
0.6447077774383774
 40
0.7485899114471757
 40
0.8524710368729024
 40
0.9563509235479294
 40
1.0
 40
1.0
 40
1.0
 40
1.0
 10
53.45290215893009
 20
-4.97340775611815
 30
0.0
 10
53.29827470256613
 20
-4.994789186086336
 30
0.0
 10
52.39326481128192
 20
-5.119931292579131
 30
0.0
 10
50.73786770737157
 20
-5.119651983062991
 30
0.0
 10
48.48671063655637
 20
-4.95437656215384
 30
0.0
 10
46.23554976560771
 20
-4.537627787353978
 30
0.0
 10
43.98439108780723
 20
-3.914177625775811
 30
0.0
 10
41.73324027452998
 20
-3.106284843722739
 30
0.0
 10
39.48210311396586
 20
-2.153927449770409
 30
0.0
 10
37.23098523681247
 20
-1.099612988752765
 30
0.0
 10
34.97989276593557
 20
0.0015975597378344
 30
0.0
 10
33.16388413944921
 20
0.9033550170547535
 30
0.0
 10
32.09824229427115
 20
1.39404090582867
 30
0.0
 10
31.78295313758786
 20
1.539219082500277
 30
0.0
  0
SPLINE
  5
BE
330
1F
100
AcDbEntity
  8
0
  6
Continuous
 62
     1
370
    15
100
AcDbSpline
210
0.0
220
0.0
230
1.0
 70
     8
 71
     3
 72
     8
 73
     4
 74
     0
 42
0.000000001
 43
0.00000001
 40
0.0
 40
0.0
 40
0.0
 40
0.0
 40
1.0
 40
1.0
 40
1.0
 40
1.0
 10
76.28766238388738
 20
1.678126369560578
 30
0.0
 10
76.01854352449507
 20
1.99690824008025
 30
0.0
 10
75.7852895087321
 20
2.301017429348469
 30
0.0
 10
75.6006373060663
 20
2.584818657777569
 30
0.0
  0
LINE
  5
BF
330
1F
100
AcDbEntity
  8
0
  6
Continuous
 62
     1
370
    15
100
AcDbLine
 10
75.6006373060663
 20
2.584818657777574
 30
0.0
 11
80.00000000000001
 21
0.0000000000000135
 31
0.0
  0
LINE
  5
C0
330
1F
100
AcDbEntity
  8
0
  6
Continuous
 62
     1
370
    15
100
AcDbLine
 10
80.00000000000001
 20
0.0000000000000135
 30
0.0
 11
80.00000000000001
 21
-1.603457676177856
 31
0.0
  0
SPLINE
  5
C1
330
1F
100
AcDbEntity
  8
0
  6
Continuous
 62
     1
370
    15
100
AcDbSpline
210
0.0
220
0.0
230
1.0
 70
     8
 71
     3
 72
    12
 73
     8
 74
     0
 42
0.000000001
 43
0.00000001
 40
0.0
 40
0.0
 40
0.0
 40
0.0
 40
0.4999999999999969
 40
0.4999999999999969
 40
0.7499999999999984
 40
0.7499999999999984
 40
1.0
 40
1.0
 40
1.0
 40
1.0
 10
80.00000000000001
 20
-1.603457676177856
 30
0.0
 10
79.35738324975112
 20
-1.098253421645174
 30
0.0
 10
78.7255002752163
 20
-0.5723371630811751
 30
0.0
 10
77.79419516594552
 20
0.2484131373366936
 30
0.0
 10
77.48655768172873
 20
0.5273947563246798
 30
0.0
 10
76.87756600981882
 20
1.097482307906113
 30
0.0
 10
76.57786785258521
 20
1.387117232541318
 30
0.0
 10
76.28766238388774
 20
1.678126369559808
 30
0.0
  0
SPLINE
  5
C2
330
1F
100
AcDbEntity
  8
0
  6
Continuous
 62
   131
370
    15
100
AcDbSpline
210
0.0
220
0.0
230
1.0
 70
    24
 71
     3
 72
    14
 73
    10
 74
     0
 42
0.000000001
 43
0.00000001
 40
0.0
 40
0.0
 40
0.0
 40
0.0
 40
0.2499999999999999
 40
0.2499999999999999
 40
0.4999999999999999
 40
0.4999999999999999
 40
0.7499999999999999
 40
0.7499999999999999
 40
1.0
 40
1.0
 40
1.0
 40
1.0
 10
10.0
 20
2.099229313849647
 30
0.0
 10
10.0
 20
1.662496889105542
 30
0.0
 10
10.0
 20
1.199133792110788
 30
0.0
 10
10.0
 20
0.2474738079245374
 30
0.0
 10
10.0
 20
-0.2405933963518884
 30
0.0
 10
10.0
 20
-1.206479493718957
 30
0.0
 10
10.0
 20
-1.684019468225214
 30
0.0
 10
10.0
 20
-2.595052855387307
 30
0.0
 10
10.0
 20
-3.028348576208054
 30
0.0
 10
10.0
 20
-3.427232330018164
 30
0.0
  0
SPLINE
  5
C3
330
1F
100
AcDbEntity
  8
0
  6
Continuous
 62
     1
370
    15
100
AcDbSpline
210
0.0
220
0.0
230
1.0
 70
     8
 71
     3
 72
    13
 73
     9
 74
     0
 42
0.000000001
 43
0.00000001
 40
0.0
 40
0.0
 40
0.0
 40
0.0
 40
0.1914763886076934
 40
0.3828590119446307
 40
0.5457637144629489
 40
0.7086719379144696
 40
0.8715833189781265
 40
1.0
 40
1.0
 40
1.0
 40
1.0
 10
76.2876623838882
 20
1.678126369560476
 30
0.0
 10
75.40566000849162
 20
2.049297248361879
 30
0.0
 10
73.64208717096012
 20
2.791457244974725
 30
0.0
 10
71.12831777859722
 20
3.650675084232481
 30
0.0
 10
68.74630607829481
 20
4.274741553441212
 30
0.0
 10
66.4953734634903
 20
4.656447935741205
 30
0.0
 10
64.40328909204374
 20
4.833114815739109
 30
0.0
 10
63.06150861441051
 20
4.774712093455965
 30
0.0
 10
62.47005513627965
 20
4.748968319565613
 30
0.0
  0
SPLINE
  5
C4
330
1F
100
AcDbEntity
  8
0
  6
Continuous
 62
     1
370
    15
100
AcDbSpline
210
0.0
220
0.0
230
1.0
 70
     8
 71
     3
 72
    18
 73
    14
 74
     0
 42
0.000000001
 43
0.00000001
 40
0.0
 40
0.0
 40
0.0
 40
0.0
 40
0.0777785621183874
 40
0.1691134348002438
 40
0.2604467933893363
 40
0.351778433650779
 40
0.4431081517787427
 40
0.5344357444469393
 40
0.6257610088588513
 40
0.7170837427976827
 40
0.8113815746361066
 40
0.9056859589820696
 40
1.0
 40
1.0
 40
1.0
 40
1.0
 10
34.64571194906443
 20
-4.498298796285677
 30
0.0
 10
34.00673675878144
 20
-4.589678777052426
 30
0.0
 10
32.61741705116822
 20
-4.788365690239673
 30
0.0
 10
30.47777028425392
 20
-4.827343476276967
 30
0.0
 10
28.22678557345185
 20
-4.664128353289683
 30
0.0
 10
25.97584893817453
 20
-4.277223508717519
 30
0.0
 10
23.72496588888415
 20
-3.691986128052923
 30
0.0
 10
21.47414231329253
 20
-2.933783130377126
 30
0.0
 10
19.22338319323995
 20
-2.038726240793139
 30
0.0
 10
16.94823336435414
 20
-1.037158280827736
 30
0.0
 10
14.64861128617984
 20
0.0242775427022438
 30
0.0
 10
12.32439312708989
 20
1.103258793605503
 30
0.0
 10
10.77482415338757
 20
1.767227809391015
 30
0.0
 10
10.00000000000001
 20
2.099229313849641
 30
0.0
  0
SPLINE
  5
C5
330
1F
100
AcDbEntity
  8
0
  6
Continuous
 62
     1
370
    15
100
AcDbSpline
210
0.0
220
0.0
230
1.0
 70
    24
 71
     3
 72
    10
 73
     6
 74
     0
 42
0.000000001
 43
0.00000001
 40
0.0
 40
0.0
 40
0.0
 40
0.0
 40
0.5
 40
0.5
 40
1.0
 40
1.0
 40
1.0
 40
1.0
 10
80.00000000000001
 20
-4.733833586209281
 30
0.0
 10
80.00000000000003
 20
-4.370948334022816
 30
0.0
 10
80.00000000000001
 20
-3.912428903438798
 30
0.0
 10
80.00000000000003
 20
-2.846415354904066
 30
0.0
 10
80.00000000000001
 20
-2.239844658307847
 30
0.0
 10
80.00000000000001
 20
-1.603457676178048
 30
0.0
  0
SPLINE
  5
C6
330
1F
100
AcDbEntity
  8
0
  6
Continuous
 62
     1
370
    15
100
AcDbSpline
210
0.0
220
0.0
230
1.0
 70
     8
 71
     3
 72
    25
 73
    21
 74
     0
 42
0.000000001
 43
0.00000001
 40
0.0
 40
0.0
 40
0.0
 40
0.0
 40
0.0214684929854043
 40
0.0815266351523112
 40
0.1415858071587982
 40
0.2016458745167424
 40
0.261706702514178
 40
0.3217681562488667
 40
0.3818301006619666
 40
0.4418924005717841
 40
0.5019549207075943
 40
0.5620175257435066
 40
0.6220800803323622
 40
0.6821424491396394
 40
0.7422044968773555
 40
0.8022660883379423
 40
0.8623270884280805
 40
0.9223873622024678
 40
0.9824467748975141
 40
1.0
 40
1.0
 40
1.0
 40
1.0
 10
67.30002441726438
 20
-4.487083765547521
 30
0.0
 10
67.03181270239749
 20
-4.535829493922537
 30
0.0
 10
66.01327830240972
 20
-4.720941472446859
 30
0.0
 10
64.24440223740298
 20
-4.821706332721845
 30
0.0
 10
61.9933858843826
 20
-4.776714893337554
 30
0.0
 10
59.74233111679095
 20
-4.494529806656426
 30
0.0
 10
57.49124416936164
 20
-4.006039923422749
 30
0.0
 10
55.24013062993976
 20
-3.329327925543849
 30
0.0
 10
52.98899626873263
 20
-2.497289018753621
 30
0.0
 10
50.73784681426738
 20
-1.548467437090113
 30
0.0
 10
48.48668801148622
 20
-0.527295281684065
 30
0.0
 10
46.23552560458623
 20
0.5185194077693074
 30
0.0
 10
43.98436533872579
 20
1.54012241834755
 30
0.0
 10
41.73321296151384
 20
2.489662540807563
 30
0.0
 10
39.48207420649781
 20
3.32316590938369
 30
0.0
 10
37.23095484887502
 20
4.000175033591398
 30
0.0
 10
34.97986049032162
 20
4.494667339227861
 30
0.0
 10
32.7287973551244
 20
4.762577788082055
 30
0.0
 10
31.00880153635019
 20
4.84435471139317
 30
0.0
 10
30.03916261123443
 20
4.763043910105111
 30
0.0
 10
29.81986468754975
 20
4.744654291625757
 30
0.0
  0
SPLINE
  5
C7
330
1F
100
AcDbEntity
  8
0
  6
Continuous
 62
     1
370
    15
100
AcDbSpline
210
0.0
220
0.0
230
1.0
 70
     8
 71
     3
 72
    10
 73
     6
 74
     0
 42
0.000000001
 43
0.00000001
 40
0.0
 40
0.0
 40
0.0
 40
0.0
 40
0.5
 40
0.5
 40
1.0
 40
1.0
 40
1.0
 40
1.0
 10
80.00000000000001
 20
4.200000000000013
 30
0.0
 10
79.25332347653939
 20
3.997490621300253
 30
0.0
 10
78.51228338110272
 20
3.76512727827749
 30
0.0
 10
77.04287433025135
 20
3.233286497890211
 30
0.0
 10
76.31450293166837
 20
2.934090734052228
 30
0.0
 10
75.60063730606628
 20
2.584818657777578
 30
0.0
  0
SPLINE
  5
C8
330
1F
100
AcDbEntity
  8
0
  6
Continuous
 62
   131
370
    15
100
AcDbSpline
210
0.0
220
0.0
230
1.0
 70
    24
 71
     3
 72
    12
 73
     8
 74
     0
 42
0.000000001
 43
0.00000001
 40
0.0
 40
0.0
 40
0.0
 40
0.0
 40
0.1300411336094263
 40
0.3455443791857109
 40
0.5672972334829369
 40
0.7806208485817462
 40
1.0
 40
1.0
 40
1.0
 40
1.0
 10
9.999999999999995
 20
3.939827648419925
 30
0.0
 10
9.999999999999995
 20
3.942824012312455
 30
0.0
 10
9.999999999999995
 20
3.950785929225367
 30
0.0
 10
9.999999999999995
 20
3.754486681449079
 30
0.0
 10
9.999999999999995
 20
3.377956844743885
 30
0.0
 10
9.999999999999995
 20
2.830969312482889
 30
0.0
 10
9.999999999999995
 20
2.345407739510084
 30
0.0
 10
9.999999999999995
 20
2.099229313849647
 30
0.0
  0
LINE
  5
C9
330
1F
100
AcDbEntity
  8
0
  6
Continuous
 62
     1
370
    15
100
AcDbLine
 10
80.00000000000001
 20
0.0000000000000135
 30
0.0
 11
80.00000000000001
 21
4.200000000000013
 31
0.0
  0
SPLINE
  5
CA
330
1F
100
AcDbEntity
  8
0
  6
Continuous
 62
   131
370
    15
100
AcDbSpline
210
0.0
220
0.0
230
1.0
 70
     8
 71
     3
 72
    10
 73
     6
 74
     0
 42
0.000000001
 43
0.00000001
 40
0.0
 40
0.0
 40
0.0
 40
0.0
 40
0.5000000000000001
 40
0.5000000000000001
 40
1.0
 40
1.0
 40
1.0
 40
1.0
 10
9.999999999998307
 20
-4.292512417099237
 30
0.0
 10
9.662088350367348
 20
-4.15610717561206
 30
0.0
 10
9.322415864079888
 20
-4.012632312386445
 30
0.0
 10
8.644397700000978
 20
-3.713550330061012
 30
0.0
 10
8.307510345256711
 20
-3.558179545789769
 30
0.0
 10
7.970158140336313
 20
-3.397351247209048
 30
0.0
  0
SPLINE
  5
CB
330
1F
100
AcDbEntity
  8
0
  6
Continuous
 62
   131
370
    15
100
AcDbSpline
210
0.0
220
0.0
230
1.0
 70
     8
 71
     3
 72
    10
 73
     6
 74
     0
 42
0.000000001
 43
0.00000001
 40
0.0
 40
0.0
 40
0.0
 40
0.0
 40
0.5
 40
0.5
 40
1.0
 40
1.0
 40
1.0
 40
1.0
 10
9.999999999998305
 20
-5.283356515890262
 30
0.0
 10
9.662074853543547
 20
-5.19082713386556
 30
0.0
 10
9.322388729669898
 20
-5.089726199857219
 30
0.0
 10
8.644343590473522
 20
-4.871772337854508
 30
0.0
 10
8.307443309026002
 20
-4.755103019128454
 30
0.0
 10
7.970077293424835
 20
-4.63103691966877
 30
0.0
  0
LINE
  5
CC
330
1F
100
AcDbEntity
  8
0
  6
Continuous
 62
   131
370
    15
100
AcDbLine
 10
7.970077293424835
 20
-5.999999999999995
 30
0.0
 11
7.970077293424835
 21
-4.631038514309688
 31
0.0
  0
SPLINE
  5
CD
330
1F
100
AcDbEntity
  8
0
  6
Continuous
 62
   131
370
    15
100
AcDbSpline
210
0.0
220
0.0
230
1.0
 70
     8
 71
     3
 72
    10
 73
     6
 74
     0
 42
0.000000001
 43
0.00000001
 40
0.0
 40
0.0
 40
0.0
 40
0.0
 40
0.5
 40
0.5
 40
1.0
 40
1.0
 40
1.0
 40
1.0
 10
9.999999999998305
 20
5.283356515890271
 30
0.0
 10
9.662074853543547
 20
5.19082713386557
 30
0.0
 10
9.322388729669898
 20
5.089726199857229
 30
0.0
 10
8.644343590473522
 20
4.871772337854519
 30
0.0
 10
8.307443309026002
 20
4.755103019128464
 30
0.0
 10
7.970077293424835
 20
4.63103691966878
 30
0.0
  0
LINE
  5
CE
330
1F
100
AcDbEntity
  8
0
  6
Continuous
 62
   131
370
    15
100
AcDbLine
 10
7.970077293424835
 20
-3.397139293723153
 30
0.0
 11
7.970077293424835
 21
6.000000000000005
 31
0.0
  0
LINE
  5
CF
330
1F
100
AcDbEntity
  8
0
  6
Continuous
 62
   131
370
    15
100
AcDbLine
 10
-38.99999999999998
 20
6.0
 30
0.0
 11
-38.99999999999998
 21
-5.999999999999997
 31
0.0
  0
LINE
  5
D0
330
1F
100
AcDbEntity
  8
0
  6
Continuous
 62
   131
370
    15
100
AcDbLine
 10
-39.99999999999997
 20
4.999999999999999
 30
0.0
 11
-39.99999999999997
 21
-4.999999999999997
 31
0.0
  0
SPLINE
  5
D1
330
1F
100
AcDbEntity
  8
0
  6
Continuous
 62
   131
370
    15
100
AcDbSpline
210
0.0
220
0.0
230
1.0
 70
    24
 71
     3
 72
    14
 73
    10
 74
     0
 42
0.000000001
 43
0.00000001
 40
0.0
 40
0.0
 40
0.0
 40
0.0
 40
0.2499999999999999
 40
0.2499999999999999
 40
0.4999999999999999
 40
0.4999999999999999
 40
0.7499999999999999
 40
0.7499999999999999
 40
1.0
 40
1.0
 40
1.0
 40
1.0
 10
10.0
 20
2.099229313849647
 30
0.0
 10
10.0
 20
1.662496889105542
 30
0.0
 10
10.0
 20
1.199133792110788
 30
0.0
 10
10.0
 20
0.2474738079245374
 30
0.0
 10
10.0
 20
-0.2405933963518884
 30
0.0
 10
10.0
 20
-1.206479493718957
 30
0.0
 10
10.0
 20
-1.684019468225214
 30
0.0
 10
10.0
 20
-2.595052855387307
 30
0.0
 10
10.0
 20
-3.028348576208054
 30
0.0
 10
10.0
 20
-3.427232330018164
 30
0.0
  0
SPLINE
  5
D2
330
1F
100
AcDbEntity
  8
0
  6
Continuous
 62
   131
370
    15
100
AcDbSpline
210
0.0
220
0.0
230
1.0
 70
     8
 71
     3
 72
    10
 73
     6
 74
     0
 42
0.000000001
 43
0.00000001
 40
0.0
 40
0.0
 40
0.0
 40
0.0
 40
0.5
 40
0.5
 40
1.0
 40
1.0
 40
1.0
 40
1.0
 10
9.999999999997192
 20
-3.427232330017142
 30
0.0
 10
9.662088350366414
 20
-3.304343207582864
 30
0.0
 10
9.322415864079149
 20
-3.175785316240117
 30
0.0
 10
8.64439770000061
 20
-2.90913463080763
 30
0.0
 10
8.307510345256528
 20
-2.771250441710581
 30
0.0
 10
7.970158140336313
 20
-2.629134785310307
 30
0.0
  0
SPLINE
  5
D3
330
1F
100
AcDbEntity
  8
0
  6
Continuous
 62
   131
370
    15
100
AcDbSpline
210
0.0
220
0.0
230
1.0
 70
     8
 71
     3
 72
    10
 73
     6
 74
     0
 42
0.000000001
 43
0.00000001
 40
0.0
 40
0.0
 40
0.0
 40
0.0
 40
0.5
 40
0.5
 40
1.0
 40
1.0
 40
1.0
 40
1.0
 10
9.999999999996756
 20
2.099229313850996
 30
0.0
 10
9.662079784139152
 20
2.239687396919466
 30
0.0
 10
9.32239864228597
 20
2.37704706720188
 30
0.0
 10
8.6443633575118
 20
2.643584133301399
 30
0.0
 10
8.307467798399554
 20
2.77258204237366
 30
0.0
 10
7.970106828051895
 20
2.897044779929016
 30
0.0
  0
SPLINE
  5
D4
330
1F
100
AcDbEntity
  8
0
  6
Continuous
 62
   131
370
    15
100
AcDbSpline
210
0.0
220
0.0
230
1.0
 70
    24
 71
     3
 72
     8
 73
     4
 74
     0
 42
0.000000001
 43
0.00000001
 40
0.0
 40
0.0
 40
0.0
 40
0.0
 40
1.0
 40
1.0
 40
1.0
 40
1.0
 10
10.00000000000031
 20
-3.427232330018274
 30
0.0
 10
10.00000000000031
 20
-3.703048506437561
 30
0.0
 10
10.00000000000031
 20
-3.993272972451323
 30
0.0
 10
10.00000000000031
 20
-4.292512417088393
 30
0.0
  0
SPLINE
  5
D5
330
1F
100
AcDbEntity
  8
0
  6
Continuous
 62
   131
370
    15
100
AcDbSpline
210
0.0
220
0.0
230
1.0
 70
    24
 71
     3
 72
    12
 73
     8
 74
     0
 42
0.000000001
 43
0.00000001
 40
0.0
 40
0.0
 40
0.0
 40
0.0
 40
0.128872799842598
 40
0.3446654610779384
 40
0.5667161241079395
 40
0.7803262276746643
 40
0.9999999999999999
 40
0.9999999999999999
 40
0.9999999999999999
 40
0.9999999999999999
 10
9.999999999999995
 20
3.939734076538874
 30
0.0
 10
9.999999999999995
 20
3.942663137582795
 30
0.0
 10
9.999999999999995
 20
3.950496801291983
 30
0.0
 10
9.999999999999995
 20
3.754428339292668
 30
0.0
 10
9.999999999999991
 20
3.377971909326116
 30
0.0
 10
9.999999999999995
 20
2.830965484214418
 30
0.0
 10
9.999999999999995
 20
2.345406451570234
 30
0.0
 10
9.999999999999995
 20
2.099229313849648
 30
0.0
  0
SPLINE
  5
D6
330
1F
100
AcDbEntity
  8
0
  6
Continuous
 62
   131
370
    15
100
AcDbSpline
210
0.0
220
0.0
230
1.0
 70
    24
 71
     3
 72
    11
 73
     7
 74
     0
 42
0.000000001
 43
0.00000001
 40
0.0
 40
0.0
 40
0.0
 40
0.0
 40
0.0988638576984413
 40
0.6154648898167289
 40
0.8965853609864862
 40
1.0
 40
1.0
 40
1.0
 40
1.0
 10
9.999999999999998
 20
5.283356515890741
 30
0.0
 10
9.999999999999995
 20
5.23318811999215
 30
0.0
 10
9.999999999999988
 20
4.920870889278874
 30
0.0
 10
9.999999999999995
 20
4.494082902551151
 30
0.0
 10
9.999999999999995
 20
4.120587001537218
 30
0.0
 10
9.999999999999995
 20
3.996593099055647
 30
0.0
 10
9.999999999999995
 20
3.963246899123742
 30
0.0
  0
LINE
  5
D7
330
1F
100
AcDbEntity
  8
중심선
 62
     1
100
AcDbLine
 10
-42.99999999999999
 20
-0.0000000000000004
 30
0.0
 11
83.00000000000001
 21
0.0000000000000139
 31
0.0
  0
CIRCLE
  5
D8
330
1F
100
AcDbEntity
  8
외형선
100
AcDbCircle
 10
0.0000000000000104
 20
0.0
 30
0.0
 40
3.000000000000005
  0
INSERT
  5
D9
330
1F
100
AcDbEntity
  8
0
  6
Continuous
 62
     7
100
AcDbBlockReference
 66
     1
  2
블럭10
 10
-22.93944368806589
 20
-52.04609937292004
 30
0.0
  0
ATTRIB
  5
DA
330
D9
100
AcDbEntity
  8
FORMAT
 62
     2
100
AcDbText
 10
-39.05870472750145
 20
-49.97073246008785
 30
0.0
 40
4.233333333333333
  1
SEME7012070E [ 2 FLUTE ]
 41
0.75
  7
SLDTEXTSTYLE0
 11
-39.05870472750145
 21
-52.08739912675452
 31
0.0
100
AcDbAttribute
  2
AUTOATTR0
 70
     0
 74
     1
  0
SEQEND
  5
DB
330
D9
100
AcDbEntity
  8
0
  6
Continuous
 62
     7
  0
HATCH
  5
DC
330
1F
100
AcDbEntity
  8
중심선
100
AcDbHatch
 10
0.0
 20
0.0
 30
0.0
210
0.0
220
0.0
230
1.0
  2
SOLID
 70
     1
 71
     0
 91
        1
 92
        0
 93
        4
 72
     1
 10
-17.22453438368504
 20
-35.7989250712761
 11
-20.67080962752232
 21
-35.7989250712761
 72
     1
 10
-20.67080962752232
 20
-35.7989250712761
 11
-22.79903948672635
 21
-38.3352506518487
 72
     1
 10
-22.79903948672635
 20
-38.3352506518487
 11
-19.35273115777591
 21
-38.33521122254621
 72
     1
 10
-19.35273115777591
 20
-38.33521122254621
 11
-17.22453438368504
 21
-35.7989250712761
 97
        0
 75
     0
 76
     1
 98
        1
 10
0.0
 20
0.0
  0
HATCH
  5
DD
330
1F
100
AcDbEntity
  8
중심선
100
AcDbHatch
 10
0.0
 20
0.0
 30
0.0
210
0.0
220
0.0
230
1.0
  2
SOLID
 70
     1
 71
     0
 91
        1
 92
        0
 93
        4
 72
     1
 10
-12.21177039264909
 20
-35.7989250712761
 11
-15.65804563648637
 21
-35.7989250712761
 72
     1
 10
-15.65804563648637
 20
-35.7989250712761
 11
-20.18918364484376
 21
-41.19892507127612
 72
     1
 10
-20.18918364484376
 20
-41.19892507127612
 11
-16.74290840100648
 21
-41.19892507127612
 72
     1
 10
-16.74290840100648
 20
-41.19892507127612
 11
-12.21177039264909
 21
-35.7989250712761
 97
        0
 75
     0
 76
     1
 98
        1
 10
0.0
 20
0.0
  0
HATCH
  5
DE
330
1F
100
AcDbEntity
  8
중심선
100
AcDbHatch
 10
0.0
 20
0.0
 30
0.0
210
0.0
220
0.0
230
1.0
  2
SOLID
 70
     1
 71
     0
 91
        1
 92
        0
 93
        4
 72
     1
 10
-7.199006401613195
 20
-35.79892507127613
 11
-10.64528164545031
 21
-35.7989250712761
 72
     1
 10
-10.64528164545031
 20
-35.7989250712761
 11
-17.69371854733956
 21
-44.19892507127612
 72
     1
 10
-17.69371854733956
 20
-44.19892507127612
 11
-14.24744330350228
 21
-44.19892507127612
 72
     1
 10
-14.24744330350228
 20
-44.19892507127612
 11
-7.199006401613195
 21
-35.79892507127613
 97
        0
 75
     0
 76
     1
 98
        1
 10
0.0
 20
0.0
  0
HATCH
  5
DF
330
1F
100
AcDbEntity
  8
중심선
100
AcDbHatch
 10
0.0
 20
0.0
 30
0.0
210
0.0
220
0.0
230
1.0
  2
SOLID
 70
     1
 71
     0
 91
        1
 92
        0
 93
        6
 72
     3
 10
-2.399115970600996
 20
-39.99892507132738
 11
3.960054785062284
 21
1.540850780301639E-10
 40
0.3939339440162633
 50
17.09539180608433
 51
320.0019657685079
 73
     0
 72
     1
 10
-0.7161163149004002
 20
-38.58681907591441
 11
1.589185558800638
 21
-36.65249236586649
 72
     3
 10
-2.399115970653842
 20
-39.99892507127625
 11
6.600054785286829
 21
-1.249000902703301E-13
 40
0.6363583540795982
 50
39.99873849337408
 51
368.4976242363725
 73
     1
 72
     1
 10
4.026216521246767
 20
-39.03892507120613
 11
-3.71904866381792
 21
-39.0389250712061
 72
     1
 10
-3.71904866381792
 20
-39.0389250712061
 11
-3.719073708263854
 21
-40.95892507120602
 72
     1
 10
-3.719073708263854
 20
-40.95892507120602
 11
0.7223060612081831
 21
-40.95892507120599
 97
        0
 75
     0
 76
     1
 98
        1
 10
0.0
 20
0.0
  0
DIMENSION
  5
E0
330
1F
100
AcDbEntity
  8
치수문자_일반주서
100
AcDbDimension
  2
_D
 10
92.25243093309625
 20
6.000000000000311
 30
0.0
 11
92.2524309330962
 21
16.54150000000031
 31
0.0
 70
   160
  1
%%c<>
 71
     2
 42
11.99999999999999
 52
-270.0
  3
SLDDIMSTYLE0
100
AcDbAlignedDimension
 13
80.00000000000001
 23
-5.99999999999973
 33
0.0
 14
80.00000000000001
 24
6.000000000000265
 34
0.0
 50
90.0000000000002
100
AcDbRotatedDimension
  0
DIMENSION
  5
EE
330
1F
100
AcDbEntity
  8
치수문자_일반주서
100
AcDbDimension
  2
_D_1
 10
80.00000000000001
 20
26.7884104402427
 30
0.0
 11
20.00000000000002
 21
26.7884104402427
 31
0.0
 70
   160
  1
<>
 71
     2
 42
120.0
  3
SLDDIMSTYLE1
100
AcDbAlignedDimension
 13
-39.99999999999997
 23
4.999999999999999
 33
0.0
 14
80.00000000000001
 24
6.000000000000265
 34
0.0
 50
-0.0000000000000034
100
AcDbRotatedDimension
  0
DIMENSION
  5
F9
330
1F
100
AcDbEntity
  8
치수문자_일반주서
100
AcDbDimension
  2
_D_2
 10
80.00000000000001
 20
18.63035432205828
 30
0.0
 11
44.99999999999999
 21
18.63035432205828
 31
0.0
 70
   160
  1
<>
 71
     2
 42
70.00000000000001
  3
SLDDIMSTYLE1
100
AcDbAlignedDimension
 13
10.0
 23
5.283356515890736
 33
0.0
 14
80.00000000000001
 24
6.000000000000265
 34
0.0
 50
0.0000000000000494
100
AcDbRotatedDimension
  0
DIMENSION
  5
103
330
1F
100
AcDbEntity
  8
치수문자_일반주서
100
AcDbDimension
  2
_D_3
 10
-51.25933046657441
 20
-6.000000000000039
 30
0.0
 11
-51.25933046657449
 21
16.54149999999996
 31
0.0
 70
   160
  1
%%c<>
 71
     2
 42
11.99999999999999
 52
-270.0
  3
SLDDIMSTYLE0
100
AcDbAlignedDimension
 13
-38.99999999999998
 23
6.0
 33
0.0
 14
-38.99999999999998
 24
-5.999999999999995
 34
0.0
 50
90.0000000000002
100
AcDbRotatedDimension
  0
INSERT
  5
116
330
1F
100
AcDbEntity
  8
외형선
100
AcDbBlockReference
  2
SW_DOWELSYMBOL_0
 10
0.0000000000000104
 20
0.0
 30
0.0
  0
ENDSEC
  0
SECTION
  2
OBJECTS
  0
DICTIONARY
  5
C
330
0
100
AcDbDictionary
281
     1
  3
ACAD_GROUP
350
D
  3
ACAD_IMAGE_VARS
350
13A
  3
ACAD_LAYOUT
350
1A
  3
ACAD_MLINESTYLE
350
17
  3
ACAD_PLOTSETTINGS
350
19
  3
ACAD_PLOTSTYLENAME
350
E
  3
ACAD_SCALELIST
350
47
  3
APPDATA
350
138
  3
DWGPROPS
350
148
  0
DICTIONARY
  5
D
102
{ACAD_REACTORS
330
C
102
}
330
C
100
AcDbDictionary
281
     1
  0
RASTERVARIABLES
  5
13A
102
{ACAD_REACTORS
330
C
102
}
330
C
100
AcDbRasterVariables
 90
        0
 70
     1
 71
     1
 72
     1
  0
DICTIONARY
  5
1A
102
{ACAD_REACTORS
330
C
102
}
330
C
100
AcDbDictionary
281
     1
  3
Layout1
350
1E
  3
Layout2
350
26
  3
Model
350
22
  0
DICTIONARY
  5
17
102
{ACAD_REACTORS
330
C
102
}
330
C
100
AcDbDictionary
281
     1
  3
Standard
350
18
  0
DICTIONARY
  5
19
102
{ACAD_REACTORS
330
C
102
}
330
C
100
AcDbDictionary
281
     1
  0
ACDBDICTIONARYWDFLT
  5
E
102
{ACAD_REACTORS
330
C
102
}
330
C
100
AcDbDictionary
281
     1
  3
Normal
350
F
100
AcDbDictionaryWithDefault
340
F
  0
DICTIONARY
  5
47
102
{ACAD_REACTORS
330
C
102
}
330
C
100
AcDbDictionary
281
     1
  3
A0
350
48
  3
A1
350
49
  3
A2
350
4A
  3
A3
350
4B
  3
A4
350
4C
  3
A5
350
4D
  3
A6
350
4E
  3
A7
350
4F
  3
A8
350
50
  3
A9
350
51
  3
B0
350
52
  3
B1
350
53
  3
B2
350
54
  3
B3
350
55
  3
B4
350
56
  3
B5
350
57
  3
B6
350
58
  3
B7
350
59
  3
B8
350
5A
  3
B9
350
5B
  3
C0
350
5C
  3
C1
350
5D
  3
C2
350
5E
  3
C3
350
5F
  3
C4
350
60
  3
C5
350
61
  3
C6
350
62
  3
C7
350
63
  3
C8
350
64
  3
C9
350
65
  3
D0
350
66
  3
D1
350
67
  3
D2
350
68
  0
DICTIONARY
  5
138
102
{ACAD_REACTORS
330
C
102
}
330
C
100
AcDbDictionary
281
     1
  0
XRECORD
  5
148
102
{ACAD_REACTORS
330
C
102
}
330
C
100
AcDbXrecord
280
     1
  1
DWGPROPS COOKIE
  2

  3

  4

  6

  7

  8
12014102
  9

300
=
301
=
302
=
303
=
304
=
305
=
306
=
307
=
308
=
309
=
 40
0.0
 41
2458262.174426829
 42
2458266.171131285
  1

 90
        0
  0
LAYOUT
  5
1E
102
{ACAD_REACTORS
330
1A
102
}
330
1A
100
AcDbPlotSettings
  1

  2
none_device
  4

  6

 40
0.0
 41
0.0
 42
0.0
 43
0.0
 44
0.0
 45
0.0
 46
0.0
 47
0.0
 48
0.0
 49
0.0
140
0.0
141
0.0
142
1.0
143
1.0
 70
   688
 72
     1
 73
     0
 74
     5
  7

 75
    16
147
1.0
148
0.0
149
0.0
100
AcDbLayout
  1
Layout1
 70
     1
 71
     1
 10
0.0
 20
0.0
 11
420.0
 21
297.0
 12
0.0
 22
0.0
 32
0.0
 14
1.000000000000000E+20
 24
1.000000000000000E+20
 34
1.000000000000000E+20
 15
-1.000000000000000E+20
 25
-1.000000000000000E+20
 35
-1.000000000000000E+20
146
0.0
 13
0.0
 23
0.0
 33
0.0
 16
1.0
 26
0.0
 36
0.0
 17
0.0
 27
1.0
 37
0.0
 76
     0
330
1B
  0
LAYOUT
  5
26
102
{ACAD_REACTORS
330
1A
102
}
330
1A
100
AcDbPlotSettings
  1

  2
none_device
  4

  6

 40
0.0
 41
0.0
 42
0.0
 43
0.0
 44
0.0
 45
0.0
 46
0.0
 47
0.0
 48
0.0
 49
0.0
140
0.0
141
0.0
142
1.0
143
1.0
 70
   688
 72
     1
 73
     0
 74
     5
  7

 75
    16
147
1.0
148
0.0
149
0.0
100
AcDbLayout
  1
Layout2
 70
     1
 71
     2
 10
0.0
 20
0.0
 11
0.0
 21
0.0
 12
0.0
 22
0.0
 32
0.0
 14
0.0
 24
0.0
 34
0.0
 15
0.0
 25
0.0
 35
0.0
146
0.0
 13
0.0
 23
0.0
 33
0.0
 16
1.0
 26
0.0
 36
0.0
 17
0.0
 27
1.0
 37
0.0
 76
     0
330
23
  0
LAYOUT
  5
22
102
{ACAD_REACTORS
330
1A
102
}
330
1A
100
AcDbPlotSettings
  1

  2
none_device
  4
ANSI_A_(11.00_x_8.50_Inches)
  6

 40
6.35
 41
19.05
 42
6.35000508
 43
19.05000254
 44
279.4
 45
215.9
 46
98.85514288379102
 47
108.6332712447248
 48
0.0
 49
0.0
140
0.0
141
0.0
142
0.0800372376518905
143
1.0
 70
  1696
 72
     0
 73
     0
 74
     0
  7

 75
     0
147
0.0235690232323232
148
0.0
149
0.0
100
AcDbLayout
  1
Model
 70
     1
 71
     0
 10
0.0
 20
0.0
 11
420.0
 21
297.0
 12
0.0
 22
0.0
 32
0.0
 14
-55.63433046657451
 24
-49.97073246008785
 34
0.0
 15
92.80276426642962
 25
31.1634104402427
 35
0.0
146
0.0
 13
0.0
 23
0.0
 33
0.0
 16
1.0
 26
0.0
 36
0.0
 17
0.0
 27
1.0
 37
0.0
 76
     0
330
1F
331
29
  0
MLINESTYLE
  5
18
102
{ACAD_REACTORS
330
17
102
}
330
17
100
AcDbMlineStyle
  2
Standard
 70
     0
  3

 62
   256
 51
90.0
 52
90.0
 71
     2
 49
0.5
 62
   256
  6
BYLAYER
 49
-0.5
 62
   256
  6
BYLAYER
  0
ACDBPLACEHOLDER
  5
F
102
{ACAD_REACTORS
330
E
102
}
330
E
  0
SCALE
  5
48
102
{ACAD_REACTORS
330
47
102
}
330
47
100
AcDbScale
 70
     0
300
1:1
140
1.0
141
1.0
290
     1
  0
SCALE
  5
49
102
{ACAD_REACTORS
330
47
102
}
330
47
100
AcDbScale
 70
     0
300
1:2
140
1.0
141
2.0
290
     0
  0
SCALE
  5
4A
102
{ACAD_REACTORS
330
47
102
}
330
47
100
AcDbScale
 70
     0
300
1:4
140
1.0
141
4.0
290
     0
  0
SCALE
  5
4B
102
{ACAD_REACTORS
330
47
102
}
330
47
100
AcDbScale
 70
     0
300
1:5
140
1.0
141
5.0
290
     0
  0
SCALE
  5
4C
102
{ACAD_REACTORS
330
47
102
}
330
47
100
AcDbScale
 70
     0
300
1:8
140
1.0
141
8.0
290
     0
  0
SCALE
  5
4D
102
{ACAD_REACTORS
330
47
102
}
330
47
100
AcDbScale
 70
     0
300
1:10
140
1.0
141
10.0
290
     0
  0
SCALE
  5
4E
102
{ACAD_REACTORS
330
47
102
}
330
47
100
AcDbScale
 70
     0
300
1:16
140
1.0
141
16.0
290
     0
  0
SCALE
  5
4F
102
{ACAD_REACTORS
330
47
102
}
330
47
100
AcDbScale
 70
     0
300
1:20
140
1.0
141
20.0
290
     0
  0
SCALE
  5
50
102
{ACAD_REACTORS
330
47
102
}
330
47
100
AcDbScale
 70
     0
300
1:30
140
1.0
141
30.0
290
     0
  0
SCALE
  5
51
102
{ACAD_REACTORS
330
47
102
}
330
47
100
AcDbScale
 70
     0
300
1:40
140
1.0
141
40.0
290
     0
  0
SCALE
  5
52
102
{ACAD_REACTORS
330
47
102
}
330
47
100
AcDbScale
 70
     0
300
1:50
140
1.0
141
50.0
290
     0
  0
SCALE
  5
53
102
{ACAD_REACTORS
330
47
102
}
330
47
100
AcDbScale
 70
     0
300
1:100
140
1.0
141
100.0
290
     0
  0
SCALE
  5
54
102
{ACAD_REACTORS
330
47
102
}
330
47
100
AcDbScale
 70
     0
300
2:1
140
2.0
141
1.0
290
     0
  0
SCALE
  5
55
102
{ACAD_REACTORS
330
47
102
}
330
47
100
AcDbScale
 70
     0
300
4:1
140
4.0
141
1.0
290
     0
  0
SCALE
  5
56
102
{ACAD_REACTORS
330
47
102
}
330
47
100
AcDbScale
 70
     0
300
8:1
140
8.0
141
1.0
290
     0
  0
SCALE
  5
57
102
{ACAD_REACTORS
330
47
102
}
330
47
100
AcDbScale
 70
     0
300
10:1
140
10.0
141
1.0
290
     0
  0
SCALE
  5
58
102
{ACAD_REACTORS
330
47
102
}
330
47
100
AcDbScale
 70
     0
300
100:1
140
100.0
141
1.0
290
     0
  0
SCALE
  5
59
102
{ACAD_REACTORS
330
47
102
}
330
47
100
AcDbScale
 70
     0
300
1/128" = 1'-0"
140
0.0078125
141
12.0
290
     0
  0
SCALE
  5
5A
102
{ACAD_REACTORS
330
47
102
}
330
47
100
AcDbScale
 70
     0
300
1/64" = 1'-0"
140
0.015625
141
12.0
290
     0
  0
SCALE
  5
5B
102
{ACAD_REACTORS
330
47
102
}
330
47
100
AcDbScale
 70
     0
300
1/32" = 1'-0"
140
0.03125
141
12.0
290
     0
  0
SCALE
  5
5C
102
{ACAD_REACTORS
330
47
102
}
330
47
100
AcDbScale
 70
     0
300
1/16" = 1'-0"
140
0.0625
141
12.0
290
     0
  0
SCALE
  5
5D
102
{ACAD_REACTORS
330
47
102
}
330
47
100
AcDbScale
 70
     0
300
3/32" = 1'-0"
140
0.09375
141
12.0
290
     0
  0
SCALE
  5
5E
102
{ACAD_REACTORS
330
47
102
}
330
47
100
AcDbScale
 70
     0
300
1/8" = 1'-0"
140
0.125
141
12.0
290
     0
  0
SCALE
  5
5F
102
{ACAD_REACTORS
330
47
102
}
330
47
100
AcDbScale
 70
     0
300
3/16" = 1'-0"
140
0.1875
141
12.0
290
     0
  0
SCALE
  5
60
102
{ACAD_REACTORS
330
47
102
}
330
47
100
AcDbScale
 70
     0
300
1/4" = 1'-0"
140
0.25
141
12.0
290
     0
  0
SCALE
  5
61
102
{ACAD_REACTORS
330
47
102
}
330
47
100
AcDbScale
 70
     0
300
3/8" = 1'-0"
140
0.375
141
12.0
290
     0
  0
SCALE
  5
62
102
{ACAD_REACTORS
330
47
102
}
330
47
100
AcDbScale
 70
     0
300
1/2" = 1'-0"
140
0.5
141
12.0
290
     0
  0
SCALE
  5
63
102
{ACAD_REACTORS
330
47
102
}
330
47
100
AcDbScale
 70
     0
300
3/4" = 1'-0"
140
0.75
141
12.0
290
     0
  0
SCALE
  5
64
102
{ACAD_REACTORS
330
47
102
}
330
47
100
AcDbScale
 70
     0
300
1" = 1'-0"
140
1.0
141
12.0
290
     0
  0
SCALE
  5
65
102
{ACAD_REACTORS
330
47
102
}
330
47
100
AcDbScale
 70
     0
300
1-1/2" = 1'-0"
140
1.5
141
12.0
290
     0
  0
SCALE
  5
66
102
{ACAD_REACTORS
330
47
102
}
330
47
100
AcDbScale
 70
     0
300
3" = 1'-0"
140
3.0
141
12.0
290
     0
  0
SCALE
  5
67
102
{ACAD_REACTORS
330
47
102
}
330
47
100
AcDbScale
 70
     0
300
6" = 1'-0"
140
6.0
141
12.0
290
     0
  0
SCALE
  5
68
102
{ACAD_REACTORS
330
47
102
}
330
47
100
AcDbScale
 70
     0
300
1'-0" = 1'-0"
140
12.0
141
12.0
290
     0
  0
ENDSEC
  0
EOF
