  0
SECTION
  2
HEADER
  9
$ACADVER
  1
AC1015
  9
$ACADMAINTVER
 70
     6
  9
$DWGCODEPAGE
  3
ANSI_949
  9
$INSBASE
 10
0.0
 20
0.0
 30
0.0
  9
$EXTMIN
 10
-69.44662331347156
 20
-49.97073246008785
 30
0.0
  9
$EXTMAX
 10
68.67548849397632
 20
33.16341044024269
 30
0.0
  9
$LIMMIN
 10
0.0
 20
0.0
  9
$LIMMAX
 10
420.0
 20
297.0
  9
$ORTHOMODE
 70
     0
  9
$REGENMODE
 70
     1
  9
$FILLMODE
 70
     1
  9
$QTEXTMODE
 70
     0
  9
$MIRRTEXT
 70
     1
  9
$LTSCALE
 40
1.0
  9
$ATTMODE
 70
     1
  9
$TEXTSIZE
 40
3.5
  9
$TRACEWID
 40
1.0
  9
$TEXTSTYLE
  7
Standard
  9
$CLAYER
  8
0
  9
$CELTYPE
  6
ByLayer
  9
$CECOLOR
 62
   256
  9
$CELTSCALE
 40
1.0
  9
$DISPSILH
 70
     0
  9
$DIMSCALE
 40
1.0
  9
$DIMASZ
 40
3.302
  9
$DIMEXO
 40
1.0
  9
$DIMDLI
 40
3.75
  9
$DIMRND
 40
0.0
  9
$DIMDLE
 40
0.0
  9
$DIMEXE
 40
1.0
  9
$DIMTP
 40
0.0
  9
$DIMTM
 40
0.0
  9
$DIMTXT
 40
3.5
  9
$DIMCEN
 40
2.5
  9
$DIMTSZ
 40
0.0
  9
$DIMTOL
 70
     0
  9
$DIMLIM
 70
     0
  9
$DIMTIH
 70
     1
  9
$DIMTOH
 70
     1
  9
$DIMSE1
 70
     0
  9
$DIMSE2
 70
     0
  9
$DIMTAD
 70
     1
  9
$DIMZIN
 70
     0
  9
$DIMBLK
  1

  9
$DIMASO
 70
     1
  9
$DIMSHO
 70
     1
  9
$DIMPOST
  1

  9
$DIMAPOST
  1

  9
$DIMALT
 70
     0
  9
$DIMALTD
 70
     3
  9
$DIMALTF
 40
0.0393700787401575
  9
$DIMLFAC
 40
1.0
  9
$DIMTOFL
 70
     1
  9
$DIMTVP
 40
0.0
  9
$DIMTIX
 70
     0
  9
$DIMSOXD
 70
     0
  9
$DIMSAH
 70
     0
  9
$DIMBLK1
  1

  9
$DIMBLK2
  1

  9
$DIMSTYLE
  2
ISO-25
  9
$DIMCLRD
 70
     0
  9
$DIMCLRE
 70
     0
  9
$DIMCLRT
 70
     0
  9
$DIMTFAC
 40
1.0
  9
$DIMGAP
 40
1.524
  9
$DIMJUST
 70
     0
  9
$DIMSD1
 70
     0
  9
$DIMSD2
 70
     0
  9
$DIMTOLJ
 70
     0
  9
$DIMTZIN
 70
     0
  9
$DIMALTZ
 70
     0
  9
$DIMALTTZ
 70
     0
  9
$DIMUPT
 70
     0
  9
$DIMDEC
 70
     2
  9
$DIMTDEC
 70
     2
  9
$DIMALTU
 70
     2
  9
$DIMALTTD
 70
     3
  9
$DIMTXSTY
  7
Standard
  9
$DIMAUNIT
 70
     0
  9
$DIMADEC
 70
     2
  9
$DIMALTRND
 40
0.0
  9
$DIMAZIN
 70
     0
  9
$DIMDSEP
 70
    44
  9
$DIMATFIT
 70
     3
  9
$DIMFRAC
 70
     0
  9
$DIMLDRBLK
  1

  9
$DIMLUNIT
 70
     2
  9
$DIMLWD
 70
    -2
  9
$DIMLWE
 70
    -2
  9
$DIMTMOVE
 70
     0
  9
$LUNITS
 70
     2
  9
$LUPREC
 70
     2
  9
$SKETCHINC
 40
1.0
  9
$FILLETRAD
 40
10.0
  9
$AUNITS
 70
     0
  9
$AUPREC
 70
     2
  9
$MENU
  1
.
  9
$ELEVATION
 40
0.0
  9
$PELEVATION
 40
0.0
  9
$THICKNESS
 40
0.0
  9
$LIMCHECK
 70
     0
  9
$CHAMFERA
 40
0.0
  9
$CHAMFERB
 40
0.0
  9
$CHAMFERC
 40
0.0
  9
$CHAMFERD
 40
0.0
  9
$SKPOLY
 70
     0
  9
$TDCREATE
 40
2458262.54961419
  9
$TDUCREATE
 40
2458262.17461419
  9
$TDUPDATE
 40
2459702.668067107
  9
$TDUUPDATE
 40
2459702.293067107
  9
$TDINDWG
 40
0.0023866667
  9
$TDUSRTIMER
 40
0.0117390741
  9
$USRTIMER
 70
     1
  9
$ANGBASE
 50
0.0
  9
$ANGDIR
 70
     0
  9
$PDMODE
 70
     0
  9
$PDSIZE
 40
-1.0
  9
$PLINEWID
 40
0.0
  9
$SPLFRAME
 70
     0
  9
$SPLINETYPE
 70
     6
  9
$SPLINESEGS
 70
     8
  9
$HANDSEED
  5
177
  9
$SURFTAB1
 70
     6
  9
$SURFTAB2
 70
     6
  9
$SURFTYPE
 70
     6
  9
$SURFU
 70
     6
  9
$SURFV
 70
     6
  9
$UCSBASE
  2

  9
$UCSNAME
  2

  9
$UCSORG
 10
0.0
 20
0.0
 30
0.0
  9
$UCSXDIR
 10
1.0
 20
0.0
 30
0.0
  9
$UCSYDIR
 10
0.0
 20
1.0
 30
0.0
  9
$UCSORTHOREF
  2

  9
$UCSORTHOVIEW
 70
     0
  9
$UCSORGTOP
 10
0.0
 20
0.0
 30
0.0
  9
$UCSORGBOTTOM
 10
0.0
 20
0.0
 30
0.0
  9
$UCSORGLEFT
 10
0.0
 20
0.0
 30
0.0
  9
$UCSORGRIGHT
 10
0.0
 20
0.0
 30
0.0
  9
$UCSORGFRONT
 10
0.0
 20
0.0
 30
0.0
  9
$UCSORGBACK
 10
0.0
 20
0.0
 30
0.0
  9
$PUCSBASE
  2

  9
$PUCSNAME
  2

  9
$PUCSORG
 10
0.0
 20
0.0
 30
0.0
  9
$PUCSXDIR
 10
1.0
 20
0.0
 30
0.0
  9
$PUCSYDIR
 10
0.0
 20
1.0
 30
0.0
  9
$PUCSORTHOREF
  2

  9
$PUCSORTHOVIEW
 70
     0
  9
$PUCSORGTOP
 10
0.0
 20
0.0
 30
0.0
  9
$PUCSORGBOTTOM
 10
0.0
 20
0.0
 30
0.0
  9
$PUCSORGLEFT
 10
0.0
 20
0.0
 30
0.0
  9
$PUCSORGRIGHT
 10
0.0
 20
0.0
 30
0.0
  9
$PUCSORGFRONT
 10
0.0
 20
0.0
 30
0.0
  9
$PUCSORGBACK
 10
0.0
 20
0.0
 30
0.0
  9
$USERI1
 70
     0
  9
$USERI2
 70
     0
  9
$USERI3
 70
     0
  9
$USERI4
 70
     0
  9
$USERI5
 70
     0
  9
$USERR1
 40
0.0
  9
$USERR2
 40
0.0
  9
$USERR3
 40
0.0
  9
$USERR4
 40
0.0
  9
$USERR5
 40
0.0
  9
$WORLDVIEW
 70
     1
  9
$SHADEDGE
 70
     3
  9
$SHADEDIF
 70
    70
  9
$TILEMODE
 70
     1
  9
$MAXACTVP
 70
    64
  9
$PINSBASE
 10
0.0
 20
0.0
 30
0.0
  9
$PLIMCHECK
 70
     0
  9
$PEXTMIN
 10
1.000000000000000E+20
 20
1.000000000000000E+20
 30
1.000000000000000E+20
  9
$PEXTMAX
 10
-1.000000000000000E+20
 20
-1.000000000000000E+20
 30
-1.000000000000000E+20
  9
$PLIMMIN
 10
0.0
 20
0.0
  9
$PLIMMAX
 10
0.0
 20
0.0
  9
$UNITMODE
 70
     0
  9
$VISRETAIN
 70
     1
  9
$PLINEGEN
 70
     0
  9
$PSLTSCALE
 70
     1
  9
$TREEDEPTH
 70
  3020
  9
$CMLSTYLE
  2
Standard
  9
$CMLJUST
 70
     0
  9
$CMLSCALE
 40
20.0
  9
$PROXYGRAPHICS
 70
     1
  9
$MEASUREMENT
 70
     1
  9
$CELWEIGHT
370
    -1
  9
$ENDCAPS
280
     0
  9
$JOINSTYLE
280
     0
  9
$LWDISPLAY
290
     1
  9
$INSUNITS
 70
     4
  9
$HYPERLINKBASE
  1

  9
$STYLESHEET
  1

  9
$XEDIT
290
     1
  9
$CEPSNTYPE
380
     0
  9
$PSTYLEMODE
290
     1
  9
$FINGERPRINTGUID
  2
{D0BA0A7D-262B-49E5-B532-B191962CCB2A}
  9
$VERSIONGUID
  2
{FAEB1C32-E019-11D5-929B-00C0DF256EC4}
  9
$EXTNAMES
290
     1
  9
$PSVPSCALE
 40
0.0
  9
$OLESTARTUP
290
     0
  0
ENDSEC
  0
SECTION
  2
CLASSES
  0
CLASS
  1
ACDBDICTIONARYWDFLT
  2
AcDbDictionaryWithDefault
  3
ObjectDBX Classes
 90
        0
280
     0
281
     0
  0
CLASS
  1
VISUALSTYLE
  2
AcDbVisualStyle
  3
ObjectDBX Classes
 90
     4095
280
     0
281
     0
  0
CLASS
  1
MATERIAL
  2
AcDbMaterial
  3
ObjectDBX Classes
 90
     1153
280
     0
281
     0
  0
CLASS
  1
SCALE
  2
AcDbScale
  3
ObjectDBX Classes
 90
     1153
280
     0
281
     0
  0
CLASS
  1
SUN
  2
AcDbSun
  3
SCENEOE
 90
     1153
280
     0
281
     0
  0
CLASS
  1
ACDBPLACEHOLDER
  2
AcDbPlaceHolder
  3
ObjectDBX Classes
 90
        0
280
     0
281
     0
  0
CLASS
  1
LAYOUT
  2
AcDbLayout
  3
ObjectDBX Classes
 90
        0
280
     0
281
     0
  0
CLASS
  1
TABLESTYLE
  2
AcDbTableStyle
  3
ObjectDBX Classes
 90
     4095
280
     0
281
     0
  0
CLASS
  1
MLEADERSTYLE
  2
AcDbMLeaderStyle
  3
ACDB_MLEADERSTYLE_CLASS
 90
     4095
280
     0
281
     0
  0
CLASS
  1
RASTERVARIABLES
  2
AcDbRasterVariables
  3
ISM
 90
        0
280
     0
281
     0
  0
CLASS
  1
SORTENTSTABLE
  2
AcDbSortentsTable
  3
ObjectDBX Classes
 90
        0
280
     0
281
     0
  0
CLASS
  1
DICTIONARYVAR
  2
AcDbDictionaryVar
  3
ObjectDBX Classes
 90
        0
280
     0
281
     0
  0
ENDSEC
  0
SECTION
  2
TABLES
  0
TABLE
  2
VPORT
  5
8
330
0
100
AcDbSymbolTable
 70
     1
  0
VPORT
  5
29
330
8
100
AcDbSymbolTableRecord
100
AcDbViewportTableRecord
  2
*Active
 70
     0
 10
0.0
 20
0.0
 11
1.0
 21
1.0
 12
-0.3855674097476225
 22
-8.40366100992258
 13
0.0
 23
0.0
 14
10.0
 24
10.0
 15
10.0
 25
10.0
 16
0.0
 26
0.0
 36
1.0
 17
0.0
 27
0.0
 37
0.0
 40
84.79682575833716
 41
2.085714285714286
 42
50.0
 43
0.0
 44
0.0
 50
0.0
 51
0.0
 71
    16
 72
  2000
 73
     1
 74
     3
 75
     0
 76
     0
 77
     0
 78
     0
281
     0
 65
     1
110
0.0
120
0.0
130
0.0
111
1.0
121
0.0
131
0.0
112
0.0
122
1.0
132
0.0
 79
     0
146
0.0
  0
ENDTAB
  0
TABLE
  2
LTYPE
  5
5
330
0
100
AcDbSymbolTable
 70
     6
  0
LTYPE
  5
14
330
5
100
AcDbSymbolTableRecord
100
AcDbLinetypeTableRecord
  2
ByBlock
 70
     0
  3

 72
    65
 73
     0
 40
0.0
  0
LTYPE
  5
15
330
5
100
AcDbSymbolTableRecord
100
AcDbLinetypeTableRecord
  2
ByLayer
 70
     0
  3

 72
    65
 73
     0
 40
0.0
  0
LTYPE
  5
16
330
5
100
AcDbSymbolTableRecord
100
AcDbLinetypeTableRecord
  2
Continuous
 70
     0
  3
Solid line
 72
    65
 73
     0
 40
0.0
  0
LTYPE
  5
6A
330
5
100
AcDbSymbolTableRecord
100
AcDbLinetypeTableRecord
  2
HIDDEN
 70
     0
  3
Hidden __ __ __ __ __ __ __ __ __ __ __ __ __ __
 72
    65
 73
     2
 40
1.905
 49
1.27
 74
     0
 49
-0.635
 74
     0
  0
LTYPE
  5
6B
330
5
100
AcDbSymbolTableRecord
100
AcDbLinetypeTableRecord
  2
PHANTOM
 70
     0
  3
Phantom ______  __  __  ______  __  __  ______
 72
    65
 73
     6
 40
12.7
 49
6.35
 74
     0
 49
-1.27
 74
     0
 49
1.27
 74
     0
 49
-1.27
 74
     0
 49
1.27
 74
     0
 49
-1.27
 74
     0
  0
LTYPE
  5
6C
330
5
100
AcDbSymbolTableRecord
100
AcDbLinetypeTableRecord
  2
CENTER
 70
     0
  3
Center ____ _ ____ _ ____ _ ____ _ ____ _ ____
 72
    65
 73
     4
 40
10.16
 49
6.35
 74
     0
 49
-1.27
 74
     0
 49
1.27
 74
     0
 49
-1.27
 74
     0
  0
LTYPE
  5
6D
330
5
100
AcDbSymbolTableRecord
100
AcDbLinetypeTableRecord
  2
CENTERX2
 70
     0
  3
Center (2x) ________  __  ________  __  _____
 72
    65
 73
     4
 40
20.32
 49
12.7
 74
     0
 49
-2.54
 74
     0
 49
2.54
 74
     0
 49
-2.54
 74
     0
  0
LTYPE
  5
6E
330
5
100
AcDbSymbolTableRecord
100
AcDbLinetypeTableRecord
  2
DOT2
 70
     0
  3
Dot (.5x) ........................................
 72
    65
 73
     2
 40
0.635
 49
0.0
 74
     0
 49
-0.635
 74
     0
  0
ENDTAB
  0
TABLE
  2
LAYER
  5
2
330
0
100
AcDbSymbolTable
 70
    17
  0
LAYER
  5
10
330
2
100
AcDbSymbolTableRecord
100
AcDbLayerTableRecord
  2
0
 70
     0
 62
     7
  6
Continuous
370
    -3
390
F
  0
LAYER
  5
6F
330
2
100
AcDbSymbolTableRecord
100
AcDbLayerTableRecord
  2
FORMAT
 70
     0
 62
     2
  6
Continuous
370
    -3
390
F
  0
LAYER
  5
70
330
2
100
AcDbSymbolTableRecord
100
AcDbLayerTableRecord
  2
외형선
 70
     0
 62
   100
  6
Continuous
370
    30
390
F
  0
LAYER
  5
71
330
2
100
AcDbSymbolTableRecord
100
AcDbLayerTableRecord
  2
숨은선
 70
     0
 62
     2
  6
HIDDEN
370
    15
390
F
  0
LAYER
  5
72
330
2
100
AcDbSymbolTableRecord
100
AcDbLayerTableRecord
  2
중심선
 70
     0
 62
     1
  6
CENTERX2
370
    -3
390
F
  0
LAYER
  5
73
330
2
100
AcDbSymbolTableRecord
100
AcDbLayerTableRecord
  2
파단선
 70
     0
 62
     4
  6
Continuous
370
    -3
390
F
  0
LAYER
  5
74
330
2
100
AcDbSymbolTableRecord
100
AcDbLayerTableRecord
  2
해칭선
 70
     0
 62
     4
  6
Continuous
370
    -3
390
F
  0
LAYER
  5
75
330
2
100
AcDbSymbolTableRecord
100
AcDbLayerTableRecord
  2
가는실선
 70
     0
 62
     4
  6
Continuous
370
    -3
390
F
  0
LAYER
  5
76
330
2
100
AcDbSymbolTableRecord
100
AcDbLayerTableRecord
  2
치수_보조선
 70
     0
 62
     4
  6
Continuous
370
    -3
390
F
  0
LAYER
  5
77
330
2
100
AcDbSymbolTableRecord
100
AcDbLayerTableRecord
  2
치수문자_일반주서
 70
     0
 62
     7
  6
Continuous
370
    15
390
F
  0
LAYER
  5
78
330
2
100
AcDbSymbolTableRecord
100
AcDbLayerTableRecord
  2
개별주서
 70
     0
 62
   100
  6
Continuous
370
    30
390
F
  0
LAYER
  5
79
330
2
100
AcDbSymbolTableRecord
100
AcDbLayerTableRecord
  2
중간선
 70
     0
 62
     2
  6
Continuous
370
    15
390
F
  0
LAYER
  5
7A
330
2
100
AcDbSymbolTableRecord
100
AcDbLayerTableRecord
  2
윤곽선
 70
     0
 62
     3
  6
Continuous
370
    40
390
F
  0
LAYER
  5
7B
330
2
100
AcDbSymbolTableRecord
100
AcDbLayerTableRecord
  2
중심마크
 70
     0
 62
   100
  6
Continuous
370
    30
390
F
  0
LAYER
  5
7C
330
2
100
AcDbSymbolTableRecord
100
AcDbLayerTableRecord
  2
가상선
 70
     0
 62
     4
  6
PHANTOM
370
    -3
390
F
  0
LAYER
  5
7D
330
2
100
AcDbSymbolTableRecord
100
AcDbLayerTableRecord
  2
특수지정선
 70
     0
 62
     5
  6
CENTERX2
370
    60
390
F
  0
LAYER
  5
135
330
2
100
AcDbSymbolTableRecord
100
AcDbLayerTableRecord
  2
Defpoints
 70
     0
 62
     7
  6
Continuous
290
     0
370
    -3
390
F
  0
ENDTAB
  0
TABLE
  2
STYLE
  5
3
330
0
100
AcDbSymbolTable
 70
     2
  0
STYLE
  5
11
330
3
100
AcDbSymbolTableRecord
100
AcDbTextStyleTableRecord
  2
Standard
 70
     0
 40
0.0
 41
1.0
 50
0.0
 71
     0
 42
3.5
  3
txt
  4

  0
STYLE
  5
93
330
3
100
AcDbSymbolTableRecord
100
AcDbTextStyleTableRecord
  2
SLDTEXTSTYLE0
 70
     0
 40
0.0
 41
0.75
 50
0.0
 71
     0
 42
3.5
  3
TXT
  4

  0
ENDTAB
  0
TABLE
  2
VIEW
  5
6
330
0
100
AcDbSymbolTable
 70
     0
  0
ENDTAB
  0
TABLE
  2
UCS
  5
7
330
0
100
AcDbSymbolTable
 70
     0
  0
ENDTAB
  0
TABLE
  2
APPID
  5
9
330
0
100
AcDbSymbolTable
 70
     2
  0
APPID
  5
12
330
9
100
AcDbSymbolTableRecord
100
AcDbRegAppTableRecord
  2
ACAD
 70
     0
  0
APPID
  5
16A
330
9
100
AcDbSymbolTableRecord
100
AcDbRegAppTableRecord
  2
PE_URL
 70
     0
  0
ENDTAB
  0
TABLE
  2
DIMSTYLE
  5
A
330
0
100
AcDbSymbolTable
 70
     3
100
AcDbDimStyleTable
  0
DIMSTYLE
105
27
330
A
100
AcDbSymbolTableRecord
100
AcDbDimStyleTableRecord
  2
ISO-25
 70
     0
 41
2.5
 42
0.625
 43
3.75
 44
1.25
 73
     0
 74
     0
 77
     1
 78
     8
140
2.5
141
2.5
143
0.03937007874016
147
0.625
171
     3
172
     1
178
     0
271
     2
272
     2
274
     3
278
    44
283
     0
284
     8
340
11
  0
DIMSTYLE
105
DB
102
{ACAD_REACTORS
330
DA
330
FD
102
}
330
A
100
AcDbSymbolTableRecord
100
AcDbDimStyleTableRecord
  2
SLDDIMSTYLE0
 70
     0
 41
3.302
 44
0.0
 45
0.000000001
 73
     0
 74
     0
 77
     1
 78
    12
 79
     3
140
3.5
147
0.875
172
     1
173
     1
178
     0
271
     2
272
     2
276
     2
284
    12
289
     0
340
93
  0
DIMSTYLE
105
E9
102
{ACAD_REACTORS
330
E8
330
F3
102
}
330
A
100
AcDbSymbolTableRecord
100
AcDbDimStyleTableRecord
  2
SLDDIMSTYLE1
 70
     0
 41
3.302
 44
0.0
 45
0.000000001
 73
     0
 74
     0
 77
     1
 78
    12
 79
     3
140
3.5
147
0.875
173
     1
178
     0
271
     2
272
     2
276
     2
284
    12
340
93
  0
ENDTAB
  0
TABLE
  2
BLOCK_RECORD
  5
1
330
0
100
AcDbSymbolTable
 70
     7
  0
BLOCK_RECORD
  5
1F
102
{ACAD_XDICTIONARY
360
174
102
}
330
1
100
AcDbSymbolTableRecord
100
AcDbBlockTableRecord
  2
*Model_Space
340
22
  0
BLOCK_RECORD
  5
1B
330
1
100
AcDbSymbolTableRecord
100
AcDbBlockTableRecord
  2
*Paper_Space
340
1E
  0
BLOCK_RECORD
  5
23
330
1
100
AcDbSymbolTableRecord
100
AcDbBlockTableRecord
  2
*Paper_Space0
340
26
  0
BLOCK_RECORD
  5
7E
330
1
100
AcDbSymbolTableRecord
100
AcDbBlockTableRecord
  2
블럭10
340
0
102
{BLKREFS
331
D3
102
}
  0
BLOCK_RECORD
  5
DC
330
1
100
AcDbSymbolTableRecord
100
AcDbBlockTableRecord
  2
_D
340
0
  0
BLOCK_RECORD
  5
EA
330
1
100
AcDbSymbolTableRecord
100
AcDbBlockTableRecord
  2
_D_1
340
0
  0
BLOCK_RECORD
  5
F4
330
1
100
AcDbSymbolTableRecord
100
AcDbBlockTableRecord
  2
_D_2
340
0
  0
BLOCK_RECORD
  5
FE
330
1
100
AcDbSymbolTableRecord
100
AcDbBlockTableRecord
  2
_D_3
340
0
  0
BLOCK_RECORD
  5
10A
330
1
100
AcDbSymbolTableRecord
100
AcDbBlockTableRecord
  2
SW_DOWELSYMBOL_0
340
0
102
{BLKREFS
331
110
102
}
  0
ENDTAB
  0
ENDSEC
  0
SECTION
  2
BLOCKS
  0
BLOCK
  5
20
330
1F
100
AcDbEntity
  8
0
100
AcDbBlockBegin
  2
*Model_Space
 70
     0
 10
0.0
 20
0.0
 30
0.0
  3
*Model_Space
  1

  0
ENDBLK
  5
21
330
1F
100
AcDbEntity
  8
0
100
AcDbBlockEnd
  0
BLOCK
  5
1C
330
1B
100
AcDbEntity
 67
     1
  8
0
100
AcDbBlockBegin
  2
*Paper_Space
 70
     0
 10
0.0
 20
0.0
 30
0.0
  3
*Paper_Space
  1

  0
ENDBLK
  5
1D
330
1B
100
AcDbEntity
 67
     1
  8
0
100
AcDbBlockEnd
  0
BLOCK
  5
24
330
23
100
AcDbEntity
  8
0
100
AcDbBlockBegin
  2
*Paper_Space0
 70
     0
 10
0.0
 20
0.0
 30
0.0
  3
*Paper_Space0
  1

  0
ENDBLK
  5
25
330
23
100
AcDbEntity
  8
0
100
AcDbBlockEnd
  0
BLOCK
  5
7F
330
7E
100
AcDbEntity
  8
0
100
AcDbBlockBegin
  2
블럭10
 70
     2
 10
0.0
 20
0.0
 30
0.0
  3
블럭10
  1

  0
ELLIPSE
  5
81
330
7E
100
AcDbEntity
  8
중심선
100
AcDbEllipse
 10
20.54032771741204
 20
12.0471743016438
 30
0.0
 11
6.600054785286829
 21
-1.261213355974178E-13
 31
0.0
210
0.0
220
0.0
230
1.0
 40
0.636358354079598
 41
0.9219305317359503
 42
6.513795318482858
  0
ELLIPSE
  5
82
330
7E
100
AcDbEntity
  8
중심선
100
AcDbEllipse
 10
20.54032771746488
 20
12.04717430159265
 30
0.0
 11
3.960054785062283
 21
1.540847449632565E-10
 31
0.0
210
0.0
220
0.0
230
1.0
 40
0.3939339440162632
 41
1.131841032648279
 42
5.62031148352944
  0
LINE
  5
83
330
7E
100
AcDbEntity
  8
중심선
100
AcDbLine
 10
2.268634060543552
 20
16.24717430164393
 30
0.0
 11
5.714909304380834
 21
16.24717430164393
 31
0.0
  0
LINE
  5
84
330
7E
100
AcDbEntity
  8
중심선
100
AcDbLine
 10
5.245725140726316
 20
7.84717430164391
 30
0.0
 11
8.692000384563599
 21
7.84717430164391
 31
0.0
  0
LINE
  5
85
330
7E
100
AcDbEntity
  8
중심선
100
AcDbLine
 10
15.74043728645272
 20
16.24717430164393
 30
0.0
 11
8.692000384563599
 21
7.84717430164391
 31
0.0
  0
LINE
  5
86
330
7E
100
AcDbEntity
  8
중심선
100
AcDbLine
 10
0.1404042013395286
 20
13.71084872107135
 30
0.0
 11
3.58671253028996
 21
13.71088815037384
 31
0.0
  0
LINE
  5
87
330
7E
100
AcDbEntity
  8
중심선
100
AcDbLine
 10
2.750260043222114
 20
10.84717430164391
 30
0.0
 11
6.196535287059397
 21
10.84717430164391
 31
0.0
  0
LINE
  5
88
330
7E
100
AcDbEntity
  8
중심선
100
AcDbLine
 10
12.29416204261559
 20
16.24717430164393
 30
0.0
 11
5.245725140726316
 21
7.84717430164391
 31
0.0
  0
LINE
  5
89
330
7E
100
AcDbEntity
  8
중심선
100
AcDbLine
 10
10.72767329541681
 20
16.24717430164393
 30
0.0
 11
6.196535287059397
 21
10.84717430164391
 31
0.0
  0
LINE
  5
8A
330
7E
100
AcDbEntity
  8
중심선
100
AcDbLine
 10
7.28139805157953
 20
16.24717430164393
 30
0.0
 11
2.750260043222114
 21
10.84717430164391
 31
0.0
  0
LINE
  5
8B
330
7E
100
AcDbEntity
  8
중심선
100
AcDbLine
 10
5.714909304380834
 20
16.24717430164393
 30
0.0
 11
3.58671253028996
 21
13.71088815037384
 31
0.0
  0
LINE
  5
8C
330
7E
100
AcDbEntity
  8
중심선
100
AcDbLine
 10
2.268634060543552
 20
16.24717430164393
 30
0.0
 11
0.1404042013395286
 21
13.71084872107135
 31
0.0
  0
LINE
  5
8D
330
7E
100
AcDbEntity
  8
중심선
100
AcDbLine
 10
7.28139805157953
 20
16.24717430164393
 30
0.0
 11
10.72767329541681
 21
16.24717430164393
 31
0.0
  0
LINE
  5
8E
330
7E
100
AcDbEntity
  8
중심선
100
AcDbLine
 10
12.29416204261559
 20
16.24717430164393
 30
0.0
 11
15.74043728645272
 21
16.24717430164393
 31
0.0
  0
LINE
  5
8F
330
7E
100
AcDbEntity
  8
중심선
100
AcDbLine
 10
19.22036997980202
 20
11.08717430171403
 30
0.0
 11
23.66174974927406
 21
11.08717430171406
 31
0.0
  0
LINE
  5
90
330
7E
100
AcDbEntity
  8
중심선
100
AcDbLine
 10
19.22039502424796
 20
13.00717430171391
 30
0.0
 11
19.22036997980202
 21
11.08717430171403
 31
0.0
  0
LINE
  5
91
330
7E
100
AcDbEntity
  8
중심선
100
AcDbLine
 10
19.22039502424796
 20
13.00717430171391
 30
0.0
 11
26.96566020931264
 21
13.00717430171391
 31
0.0
  0
LINE
  5
92
330
7E
100
AcDbEntity
  8
중심선
100
AcDbLine
 10
22.22332737316547
 20
13.45928029700563
 30
0.0
 11
24.52862924686651
 21
15.39360700705356
 31
0.0
  0
ATTDEF
  5
94
330
7E
100
AcDbEntity
  8
FORMAT
 62
     2
100
AcDbText
 10
-16.11926103943555
 20
2.075366912832191
 30
0.0
 40
4.233333333333333
  1
SEME7014050E [ 2 FLUTE ]
 41
0.75
  7
SLDTEXTSTYLE0
 11
-16.11926103943555
 21
-0.0412997538344756
 31
0.0
100
AcDbAttributeDefinition
  3

  2
AUTOATTR0
 70
     0
 74
     1
  0
ENDBLK
  5
80
330
7E
100
AcDbEntity
  8
0
100
AcDbBlockEnd
  0
BLOCK
  5
DD
330
DC
100
AcDbEntity
  8
0
100
AcDbBlockBegin
  2
_D
 70
     0
 10
0.0
 20
0.0
 30
0.0
  3
_D
  1

  0
LINE
  5
DF
330
DC
100
AcDbEntity
  8
치수문자_일반주서
 62
     0
370
    -2
100
AcDbLine
 10
56.79455080756888
 20
-6.999999999999815
 30
0.0
 11
68.12515516064299
 21
-6.999999999999773
 31
0.0
  0
LINE
  5
E0
330
DC
100
AcDbEntity
  8
치수문자_일반주서
 62
     0
370
    -2
100
AcDbLine
 10
56.79455080756856
 20
7.000000000000187
 30
0.0
 11
68.12515516064295
 21
7.000000000000231
 31
0.0
  0
LINE
  5
E1
330
DC
100
AcDbEntity
  8
치수문자_일반주서
 62
     0
370
    -2
100
AcDbLine
 10
68.12515516064299
 20
-6.999999999999773
 30
0.0
 11
68.1251551606429
 21
21.47900000000023
 31
0.0
  0
LINE
  5
E2
330
DC
100
AcDbEntity
  8
치수문자_일반주서
 62
     0
370
    -2
100
AcDbLine
 10
68.12515516064299
 20
-6.999999999999773
 30
0.0
 11
68.12515516064295
 21
7.000000000000231
 31
0.0
  0
LINE
  5
E3
330
DC
100
AcDbEntity
  8
치수문자_일반주서
 62
     0
370
    -2
100
AcDbLine
 10
68.125155160643
 20
-10.30199999999977
 30
0.0
 11
68.12515516064302
 21
-13.60399999999977
 31
0.0
  0
LINE
  5
E4
330
DC
100
AcDbEntity
  8
치수문자_일반주서
 62
     0
370
    -2
100
AcDbLine
 10
68.12515516064293
 20
10.30200000000023
 30
0.0
 11
68.12515516064292
 21
13.60400000000023
 31
0.0
  0
SOLID
  5
E5
330
DC
100
AcDbEntity
  8
치수문자_일반주서
 62
     0
100
AcDbTrace
 10
68.67548849397633
 20
-10.30199999999977
 30
0.0
 11
67.57482182730968
 21
-10.30199999999977
 31
0.0
 12
68.12515516064299
 22
-6.999999999999773
 32
0.0
 13
68.12515516064299
 23
-6.999999999999773
 33
0.0
  0
SOLID
  5
E6
330
DC
100
AcDbEntity
  8
치수문자_일반주서
 62
     0
100
AcDbTrace
 10
67.5748218273096
 20
10.30200000000023
 30
0.0
 11
68.67548849397626
 21
10.30200000000023
 31
0.0
 12
68.12515516064295
 22
7.000000000000231
 32
0.0
 13
68.12515516064295
 23
7.000000000000231
 33
0.0
  0
MTEXT
  5
E7
330
DC
100
AcDbEntity
  8
치수문자_일반주서
 62
     0
100
AcDbMText
 10
63.75015516064292
 20
17.54150000000022
 30
0.0
 40
3.5
 41
0.0
 71
     2
 72
     1
  1
\A1;%%c14
  7
SLDTEXTSTYLE0
 11
-3.045183153257571E-15
 21
1.0
 31
0.0
 73
     1
 44
1.0
  0
POINT
  5
13F
330
DC
100
AcDbEntity
  8
Defpoints
 62
     0
100
AcDbPoint
 10
56.73205080756888
 20
-6.999999999999815
 30
0.0
  0
POINT
  5
140
330
DC
100
AcDbEntity
  8
Defpoints
 62
     0
100
AcDbPoint
 10
56.73205080756856
 20
7.000000000000187
 30
0.0
  0
POINT
  5
141
330
DC
100
AcDbEntity
  8
Defpoints
 62
     0
100
AcDbPoint
 10
68.12515516064295
 20
7.00000000000023
 30
0.0
  0
ENDBLK
  5
DE
330
DC
100
AcDbEntity
  8
0
100
AcDbBlockEnd
  0
BLOCK
  5
EB
330
EA
100
AcDbEntity
  8
0
100
AcDbBlockBegin
  2
_D_1
 70
     0
 10
0.0
 20
0.0
 30
0.0
  3
_D_1
  1

  0
LINE
  5
ED
330
EA
100
AcDbEntity
  8
치수문자_일반주서
 62
     0
370
    -2
100
AcDbLine
 10
-53.26794919243113
 20
7.062499999999995
 30
0.0
 11
-53.26794919243113
 21
28.78841044024269
 31
0.0
  0
LINE
  5
EE
330
EA
100
AcDbEntity
  8
치수문자_일반주서
 62
     0
370
    -2
100
AcDbLine
 10
56.73205080756856
 20
7.062500000000187
 30
0.0
 11
56.73205080756855
 21
28.78841044024269
 31
0.0
  0
LINE
  5
EF
330
EA
100
AcDbEntity
  8
치수문자_일반주서
 62
     0
370
    -2
100
AcDbLine
 10
-49.96594919243113
 20
28.78841044024269
 30
0.0
 11
53.43005080756855
 21
28.78841044024269
 31
0.0
  0
SOLID
  5
F0
330
EA
100
AcDbEntity
  8
치수문자_일반주서
 62
     0
100
AcDbTrace
 10
-49.96594919243113
 20
29.33874377357603
 30
0.0
 11
-49.96594919243113
 21
28.23807710690936
 31
0.0
 12
-53.26794919243113
 22
28.78841044024269
 32
0.0
 13
-53.26794919243113
 23
28.78841044024269
 33
0.0
  0
SOLID
  5
F1
330
EA
100
AcDbEntity
  8
치수문자_일반주서
 62
     0
100
AcDbTrace
 10
53.43005080756855
 20
28.23807710690936
 30
0.0
 11
53.43005080756855
 21
29.33874377357603
 31
0.0
 12
56.73205080756855
 22
28.78841044024269
 32
0.0
 13
56.73205080756855
 23
28.78841044024269
 33
0.0
  0
MTEXT
  5
F2
330
EA
100
AcDbEntity
  8
치수문자_일반주서
 62
     0
100
AcDbMText
 10
1.732050807568733
 20
33.16341044024269
 30
0.0
 40
3.5
 41
0.0
 71
     2
 72
     1
  1
\A1;110
  7
SLDTEXTSTYLE0
 73
     1
 44
1.0
  0
POINT
  5
136
330
EA
100
AcDbEntity
  8
Defpoints
 62
     0
100
AcDbPoint
 10
-53.26794919243113
 20
6.999999999999995
 30
0.0
  0
POINT
  5
137
330
EA
100
AcDbEntity
  8
Defpoints
 62
     0
100
AcDbPoint
 10
56.73205080756856
 20
7.000000000000187
 30
0.0
  0
POINT
  5
138
330
EA
100
AcDbEntity
  8
Defpoints
 62
     0
100
AcDbPoint
 10
56.73205080756856
 20
28.78841044024269
 30
0.0
  0
ENDBLK
  5
EC
330
EA
100
AcDbEntity
  8
0
100
AcDbBlockEnd
  0
BLOCK
  5
F5
330
F4
100
AcDbEntity
  8
0
100
AcDbBlockBegin
  2
_D_2
 70
     0
 10
0.0
 20
0.0
 30
0.0
  3
_D_2
  1

  0
LINE
  5
F7
330
F4
100
AcDbEntity
  8
치수문자_일반주서
 62
     0
370
    -2
100
AcDbLine
 10
6.732050807568873
 20
4.942622499677769
 30
0.0
 11
6.732050807568875
 21
18.00486916369422
 31
0.0
  0
LINE
  5
F8
330
F4
100
AcDbEntity
  8
치수문자_일반주서
 62
     0
370
    -2
100
AcDbLine
 10
56.73205080756856
 20
7.062500000000187
 30
0.0
 11
56.73205080756856
 21
18.00486916369422
 31
0.0
  0
LINE
  5
F9
330
F4
100
AcDbEntity
  8
치수문자_일반주서
 62
     0
370
    -2
100
AcDbLine
 10
10.03405080756887
 20
18.00486916369422
 30
0.0
 11
53.43005080756856
 21
18.00486916369422
 31
0.0
  0
SOLID
  5
FA
330
F4
100
AcDbEntity
  8
치수문자_일반주서
 62
     0
100
AcDbTrace
 10
10.03405080756887
 20
18.55520249702755
 30
0.0
 11
10.03405080756887
 21
17.45453583036088
 31
0.0
 12
6.732050807568875
 22
18.00486916369422
 32
0.0
 13
6.732050807568875
 23
18.00486916369422
 33
0.0
  0
SOLID
  5
FB
330
F4
100
AcDbEntity
  8
치수문자_일반주서
 62
     0
100
AcDbTrace
 10
53.43005080756856
 20
17.45453583036088
 30
0.0
 11
53.43005080756856
 21
18.55520249702755
 31
0.0
 12
56.73205080756856
 22
18.00486916369422
 32
0.0
 13
56.73205080756856
 23
18.00486916369422
 33
0.0
  0
MTEXT
  5
FC
330
F4
100
AcDbEntity
  8
치수문자_일반주서
 62
     0
100
AcDbMText
 10
31.73205080756887
 20
22.37986916369422
 30
0.0
 40
3.5
 41
0.0
 71
     2
 72
     1
  1
\A1;50
  7
SLDTEXTSTYLE0
 73
     1
 44
1.0
  0
POINT
  5
139
330
F4
100
AcDbEntity
  8
Defpoints
 62
     0
100
AcDbPoint
 10
6.732050807568873
 20
4.880122499677769
 30
0.0
  0
POINT
  5
13A
330
F4
100
AcDbEntity
  8
Defpoints
 62
     0
100
AcDbPoint
 10
56.73205080756856
 20
7.000000000000187
 30
0.0
  0
POINT
  5
13B
330
F4
100
AcDbEntity
  8
Defpoints
 62
     0
100
AcDbPoint
 10
56.73205080756856
 20
18.00486916369422
 30
0.0
  0
ENDBLK
  5
F6
330
F4
100
AcDbEntity
  8
0
100
AcDbBlockEnd
  0
BLOCK
  5
FF
330
FE
100
AcDbEntity
  8
0
100
AcDbBlockBegin
  2
_D_3
 70
     0
 10
0.0
 20
0.0
 30
0.0
  3
_D_3
  1

  0
LINE
  5
101
330
FE
100
AcDbEntity
  8
치수문자_일반주서
 62
     0
370
    -2
100
AcDbLine
 10
-52.33044919243112
 20
7.999999999999996
 30
0.0
 11
-65.0716233134715
 21
7.999999999999947
 31
0.0
  0
LINE
  5
102
330
FE
100
AcDbEntity
  8
치수문자_일반주서
 62
     0
370
    -2
100
AcDbLine
 10
-52.33044919243112
 20
-8.0
 30
0.0
 11
-65.07162331347145
 21
-8.00000000000005
 31
0.0
  0
LINE
  5
103
330
FE
100
AcDbEntity
  8
치수문자_일반주서
 62
     0
370
    -2
100
AcDbLine
 10
-65.0716233134715
 20
7.999999999999947
 30
0.0
 11
-65.07162331347156
 21
22.47899999999995
 31
0.0
  0
LINE
  5
104
330
FE
100
AcDbEntity
  8
치수문자_일반주서
 62
     0
370
    -2
100
AcDbLine
 10
-65.0716233134715
 20
7.999999999999947
 30
0.0
 11
-65.07162331347145
 21
-8.00000000000005
 31
0.0
  0
LINE
  5
105
330
FE
100
AcDbEntity
  8
치수문자_일반주서
 62
     0
370
    -2
100
AcDbLine
 10
-65.07162331347152
 20
11.30199999999995
 30
0.0
 11
-65.07162331347153
 21
14.60399999999995
 31
0.0
  0
LINE
  5
106
330
FE
100
AcDbEntity
  8
치수문자_일반주서
 62
     0
370
    -2
100
AcDbLine
 10
-65.07162331347143
 20
-11.30200000000005
 30
0.0
 11
-65.07162331347142
 21
-14.60400000000005
 31
0.0
  0
SOLID
  5
107
330
FE
100
AcDbEntity
  8
치수문자_일반주서
 62
     0
100
AcDbTrace
 10
-65.62195664680485
 20
11.30199999999994
 30
0.0
 11
-64.52128998013819
 21
11.30199999999995
 31
0.0
 12
-65.0716233134715
 22
7.999999999999947
 32
0.0
 13
-65.0716233134715
 23
7.999999999999947
 33
0.0
  0
SOLID
  5
108
330
FE
100
AcDbEntity
  8
치수문자_일반주서
 62
     0
100
AcDbTrace
 10
-64.5212899801381
 20
-11.30200000000005
 30
0.0
 11
-65.62195664680476
 21
-11.30200000000005
 31
0.0
 12
-65.07162331347145
 22
-8.00000000000005
 32
0.0
 13
-65.07162331347145
 23
-8.00000000000005
 33
0.0
  0
MTEXT
  5
109
330
FE
100
AcDbEntity
  8
치수문자_일반주서
 62
     0
100
AcDbMText
 10
-69.44662331347155
 20
18.54149999999993
 30
0.0
 40
3.5
 41
0.0
 71
     2
 72
     1
  1
\A1;%%c16
  7
SLDTEXTSTYLE0
 11
-3.552713678800503E-15
 21
1.0
 31
0.0
 73
     1
 44
1.0
  0
POINT
  5
13C
330
FE
100
AcDbEntity
  8
Defpoints
 62
     0
100
AcDbPoint
 10
-52.26794919243112
 20
7.999999999999996
 30
0.0
  0
POINT
  5
13D
330
FE
100
AcDbEntity
  8
Defpoints
 62
     0
100
AcDbPoint
 10
-52.26794919243112
 20
-8.0
 30
0.0
  0
POINT
  5
13E
330
FE
100
AcDbEntity
  8
Defpoints
 62
     0
100
AcDbPoint
 10
-65.07162331347145
 20
-8.000000000000048
 30
0.0
  0
ENDBLK
  5
100
330
FE
100
AcDbEntity
  8
0
100
AcDbBlockEnd
  0
BLOCK
  5
10B
330
10A
100
AcDbEntity
  8
0
100
AcDbBlockBegin
  2
SW_DOWELSYMBOL_0
 70
     0
 10
0.0
 20
0.0
 30
0.0
  3
SW_DOWELSYMBOL_0
  1

  0
CIRCLE
  5
10D
330
10A
100
AcDbEntity
  8
외형선
 62
     0
100
AcDbCircle
 10
0.0
 20
0.0
 30
0.0
 40
3.000000000000004
  0
HATCH
  5
10E
330
10A
100
AcDbEntity
  8
0
  6
Continuous
 62
     0
370
    30
100
AcDbHatch
 10
0.0
 20
0.0
 30
0.0
210
0.0
220
0.0
230
1.0
  2
SOLID
 70
     1
 71
     0
 91
        1
 92
        0
 93
        3
 72
     2
 10
0.0000000000000104
 20
0.0
 40
3.000000000000004
 50
0.0
 51
90.0
 73
     1
 72
     1
 10
0.0000000000000104
 20
3.000000000000004
 11
0.0000000000000104
 21
0.0
 72
     1
 10
0.0000000000000104
 20
0.0
 11
3.000000000000015
 21
0.0
 97
        0
 75
     0
 76
     1
 98
        1
 10
0.0
 20
0.0
  0
HATCH
  5
10F
330
10A
100
AcDbEntity
  8
0
  6
Continuous
 62
     0
370
    30
100
AcDbHatch
 10
0.0
 20
0.0
 30
0.0
210
0.0
220
0.0
230
1.0
  2
SOLID
 70
     1
 71
     0
 91
        1
 92
        0
 93
        3
 72
     2
 10
0.0000000000000104
 20
0.0
 40
3.000000000000004
 50
180.0
 51
270.0000000000007
 73
     1
 72
     1
 10
0.0000000000000104
 20
-3.000000000000004
 11
0.0000000000000104
 21
0.0
 72
     1
 10
0.0000000000000104
 20
0.0
 11
-2.999999999999994
 21
0.0
 97
        0
 75
     0
 76
     1
 98
        1
 10
0.0
 20
0.0
  0
ENDBLK
  5
10C
330
10A
100
AcDbEntity
  8
0
100
AcDbBlockEnd
  0
ENDSEC
  0
SECTION
  2
ENTITIES
  0
LINE
  5
95
330
1F
100
AcDbEntity
  8
0
  6
Continuous
 62
     1
370
    15
100
AcDbLine
 10
22.53294713196609
 20
7.000000000000004
 30
0.0
 11
19.14153257602378
 21
7.000000000000004
 31
0.0
  0
SPLINE
  5
96
330
1F
100
AcDbEntity
  8
0
  6
Continuous
 62
     1
370
    15
100
AcDbSpline
210
0.0
220
0.0
230
1.0
 70
     8
 71
     3
 72
     9
 73
     5
 74
     0
 42
0.000000001
 43
0.00000001
 40
0.0
 40
0.0
 40
0.0
 40
0.0
 40
0.4992633015401168
 40
1.0
 40
1.0
 40
1.0
 40
1.0
 10
38.59753991087061
 20
1.793685604142318
 30
0.0
 10
38.2741229482718
 20
1.947715939325662
 30
0.0
 10
37.62633457367836
 20
2.256231175090424
 30
0.0
 10
36.97842816858504
 20
2.595363956852518
 30
0.0
 10
36.6539976543876
 20
2.765180186331585
 30
0.0
  0
LINE
  5
97
330
1F
100
AcDbEntity
  8
0
  6
Continuous
 62
     1
370
    15
100
AcDbLine
 10
19.14153257602381
 20
-7.000000000000003
 30
0.0
 11
22.53294713196605
 21
-7.000000000000003
 31
0.0
  0
SPLINE
  5
98
330
1F
100
AcDbEntity
  8
0
  6
Continuous
 62
     1
370
    15
100
AcDbSpline
210
0.0
220
0.0
230
1.0
 70
     8
 71
     3
 72
    15
 73
    11
 74
     0
 42
0.000000001
 43
0.00000001
 40
0.0
 40
0.0
 40
0.0
 40
0.0
 40
0.152813038771216
 40
0.2828783572477965
 40
0.4204100556871485
 40
0.5274771921617811
 40
0.6371158122011444
 40
0.7787295344556371
 40
0.906471230906281
 40
0.9999999999999999
 40
0.9999999999999999
 40
0.9999999999999999
 40
0.9999999999999999
 10
36.28327958403252
 20
5.56247922897548
 30
0.0
 10
36.02413290339211
 20
5.547631934535808
 30
0.0
 10
35.54441606839397
 20
5.520147511122456
 30
0.0
 10
34.71837415694072
 20
5.487462954276689
 30
0.0
 10
33.9846064798536
 20
5.478171741530065
 30
0.0
 10
33.28288256881745
 20
5.467856333205342
 30
0.0
 10
32.59277966744585
 20
5.465464608298737
 30
0.0
 10
31.85958721560345
 20
5.470747849258058
 30
0.0
 10
31.15444033929553
 20
5.483769358455483
 30
0.0
 10
30.72897848139436
 20
5.497005288941244
 30
0.0
 10
30.54914009325737
 20
5.50259998176705
 30
0.0
  0
SPLINE
  5
99
330
1F
100
AcDbEntity
  8
0
  6
Continuous
 62
     1
370
    15
100
AcDbSpline
210
0.0
220
0.0
230
1.0
 70
     8
 71
     3
 72
    23
 73
    19
 74
     0
 42
0.000000001
 43
0.00000001
 40
0.0
 40
0.0
 40
0.0
 40
0.0
 40
0.0698166722028728
 40
0.1286772392131266
 40
0.1878027133143436
 40
0.245262164683625
 40
0.3017661080653923
 40
0.3737329000855872
 40
0.4616843990110828
 40
0.5353446113369169
 40
0.5886107395580534
 40
0.6399341454125306
 40
0.6962172237046612
 40
0.7357662755780024
 40
0.7810801905978693
 40
0.8399000024666957
 40
0.9130056468012162
 40
1.0
 40
1.0
 40
1.0
 40
1.0
 10
25.75565161222766
 20
-5.8249458315351
 30
0.0
 10
25.96711957461736
 20
-5.802752385946129
 30
0.0
 10
26.35687051409587
 20
-5.76184824060507
 30
0.0
 10
27.01586330734541
 20
-5.698484635399688
 30
0.0
 10
27.64790440470921
 20
-5.656573356060486
 30
0.0
 10
28.26790879994736
 20
-5.614418140667955
 30
0.0
 10
28.93514768152298
 20
-5.573305032237251
 30
0.0
 10
29.70055814184799
 20
-5.533615782897704
 30
0.0
 10
30.52729096055365
 20
-5.501212198272474
 30
0.0
 10
31.28567115789535
 20
-5.481036479909178
 30
0.0
 10
31.91755791748401
 20
-5.470705046942864
 30
0.0
 10
32.48629709413679
 20
-5.466211069144562
 30
0.0
 10
33.0090991177878
 20
-5.466626327463374
 30
0.0
 10
33.51524203281371
 20
-5.470748243434503
 30
0.0
 10
34.0309473069656
 20
-5.478066721812842
 30
0.0
 10
34.65757844239653
 20
-5.493263491859306
 30
0.0
 10
35.42456347646049
 20
-5.519594941145688
 30
0.0
 10
35.98095194222981
 20
-5.547380984636463
 30
0.0
 10
36.28327958403252
 20
-5.562479228975476
 30
0.0
  0
SPLINE
  5
9A
330
1F
100
AcDbEntity
  8
0
  6
Continuous
 62
     1
370
    15
100
AcDbSpline
210
0.0
220
0.0
230
1.0
 70
     8
 71
     3
 72
    17
 73
    13
 74
     0
 42
0.000000001
 43
0.00000001
 40
0.0
 40
0.0
 40
0.0
 40
0.0
 40
0.1561575758643738
 40
0.2767025205900498
 40
0.3647266336931758
 40
0.4520421546452041
 40
0.546968441570931
 40
0.6405412299231481
 40
0.7191835207173233
 40
0.846268112759736
 40
0.9983491945052246
 40
1.0
 40
1.0
 40
1.0
 40
1.0
 10
41.9016261254219
 20
-5.26494025016533
 30
0.0
 10
42.16887142073048
 20
-5.223884178597737
 30
0.0
 10
42.64241518841768
 20
-5.151135108145048
 30
0.0
 10
43.27080770192052
 20
-5.064635162055697
 30
0.0
 10
43.78999820650621
 20
-4.997991632293137
 30
0.0
 10
44.26214568093947
 20
-4.941102992135994
 30
0.0
 10
44.7410393684054
 20
-4.887864444518168
 30
0.0
 10
45.20317530872097
 20
-4.840956378341965
 30
0.0
 10
45.72142602537436
 20
-4.792625418497525
 30
0.0
 10
46.3412743538311
 20
-4.742582118477078
 30
0.0
 10
46.82744611374327
 20
-4.705927228558253
 30
0.0
 10
47.09368306099009
 20
-4.692557891850578
 30
0.0
 10
47.09654196959596
 20
-4.692414329087544
 30
0.0
  0
SPLINE
  5
9B
330
1F
100
AcDbEntity
  8
0
  6
Continuous
 62
     1
370
    15
100
AcDbSpline
210
0.0
220
0.0
230
1.0
 70
     8
 71
     3
 72
    23
 73
    19
 74
     0
 42
0.000000001
 43
0.00000001
 40
0.0
 40
0.0
 40
0.0
 40
0.0
 40
0.1024168418722128
 40
0.1775205101916966
 40
0.2380983795546691
 40
0.3017221223546679
 40
0.3930389347852882
 40
0.4712744477751568
 40
0.5238086877591867
 40
0.5797512211424398
 40
0.6382437808194107
 40
0.6922929266406542
 40
0.7218917680091036
 40
0.747703273170146
 40
0.7852022679466305
 40
0.8395570488399536
 40
0.9111675027304091
 40
1.0
 40
1.0
 40
1.0
 40
1.0
 10
16.04139494666811
 20
4.787671622121266
 30
0.0
 10
15.72907731432833
 20
4.762315846481729
 30
0.0
 10
15.18773289849487
 20
4.718366334413655
 30
0.0
 10
14.44598048525895
 20
4.674523205472221
 30
0.0
 10
13.81465353358523
 20
4.645018477974375
 30
0.0
 10
13.13716492124055
 20
4.621307678550126
 30
0.0
 10
12.40749375794355
 20
4.607202322330075
 30
0.0
 10
11.73200401421199
 20
4.605410450730395
 30
0.0
 10
11.15214322731382
 20
4.610973028816878
 30
0.0
 10
10.6284987034553
 20
4.621724155794852
 30
0.0
 10
10.09301507558694
 20
4.638365324235055
 30
0.0
 10
9.642026217892534
 20
4.656919071428965
 30
0.0
 10
9.301599432154608
 20
4.674417806632557
 30
0.0
 10
9.029970825700053
 20
4.690418246901472
 30
0.0
 10
8.672821941119727
 20
4.712693042514943
 30
0.0
 10
8.171298903245328
 20
4.748413991351836
 30
0.0
 10
7.507026844968916
 20
4.802445931197437
 30
0.0
 10
7.008223439731525
 20
4.852441460085184
 30
0.0
 10
6.732050807568873
 20
4.880122499677769
 30
0.0
  0
SPLINE
  5
9C
330
1F
100
AcDbEntity
  8
0
  6
Continuous
 62
     1
370
    15
100
AcDbSpline
210
0.0
220
0.0
230
1.0
 70
     8
 71
     3
 72
    10
 73
     6
 74
     0
 42
0.000000001
 43
0.00000001
 40
0.0
 40
0.0
 40
0.0
 40
0.0
 40
0.4439008543726367
 40
0.7729345945727936
 40
1.0
 40
1.0
 40
1.0
 40
1.0
 10
6.732050807568873
 20
-4.880122499677767
 30
0.0
 10
7.06388764553482
 20
-4.847148621999848
 30
0.0
 10
7.641692732619006
 20
-4.78973343452404
 30
0.0
 10
8.403222551827126
 20
-4.730116389243281
 30
0.0
 10
8.831400770032213
 20
-4.703581617365847
 30
0.0
 10
9.006233731881403
 20
-4.692746986919742
 30
0.0
  0
SPLINE
  5
9D
330
1F
100
AcDbEntity
  8
0
  6
Continuous
 62
     1
370
    15
100
AcDbSpline
210
0.0
220
0.0
230
1.0
 70
     8
 71
     3
 72
    26
 73
    22
 74
     0
 42
0.000000001
 43
0.00000001
 40
0.0
 40
0.0
 40
0.0
 40
0.0
 40
0.0850593904836459
 40
0.15371749162963
 40
0.2125976792126272
 40
0.2641858538671142
 40
0.3093533825434169
 40
0.3646522094925136
 40
0.4300008381222125
 40
0.4882117916330981
 40
0.5333148976140943
 40
0.5738062928739797
 40
0.6247499122566469
 40
0.6830841373772745
 40
0.7362358183380331
 40
0.7668765500157092
 40
0.793028003980161
 40
0.8174001493052423
 40
0.8582101511279028
 40
0.9191387580314806
 40
1.0
 40
1.0
 40
1.0
 40
1.0
 10
54.13130151344776
 20
4.787681971988047
 30
0.0
 10
53.79679554669228
 20
4.760376156447933
 30
0.0
 10
53.19228359507321
 20
4.711029676913322
 30
0.0
 10
52.30436211219815
 20
4.662094714959937
 30
0.0
 10
51.56339219256456
 20
4.631806559221743
 30
0.0
 10
50.93070308435841
 20
4.615132926724501
 30
0.0
 10
50.30986030328141
 20
4.606427369449382
 30
0.0
 10
49.63322278749054
 20
4.605671329041585
 30
0.0
 10
48.90414206645587
 20
4.616227418885411
 30
0.0
 10
48.21631634198599
 20
4.637072990200148
 30
0.0
 10
47.6296707380743
 20
4.662506773963759
 30
0.0
 10
47.07254745582836
 20
4.692672907325061
 30
0.0
 10
46.46216275759323
 20
4.732896812615869
 30
0.0
 10
45.79995114385896
 20
4.785406087483354
 30
0.0
 10
45.21966997747923
 20
4.839092785962212
 30
0.0
 10
44.77164843262092
 20
4.885014742286247
 30
0.0
 10
44.44296180698873
 20
4.920927274552706
 30
0.0
 10
44.0769786402406
 20
4.962995673896043
 30
0.0
 10
43.56252358176483
 20
5.026253908940374
 30
0.0
 10
42.81588635582883
 20
5.125406337615249
 30
0.0
 10
42.23366230559067
 20
5.214265064057204
 30
0.0
 10
41.9016261254219
 20
5.264940250165338
 30
0.0
  0
LINE
  5
A0
330
1F
100
AcDbEntity
  8
0
  6
Continuous
 62
   131
370
    15
100
AcDbLine
 10
4.732050807568365
 20
8.0
 30
0.0
 11
-52.26794919243112
 21
7.999999999999996
 31
0.0
  0
LINE
  5
A1
330
1F
100
AcDbEntity
  8
0
  6
Continuous
 62
   131
370
    15
100
AcDbLine
 10
-52.26794919243112
 20
-8.000000000000004
 30
0.0
 11
4.732050807568363
 21
-8.0
 31
0.0
  0
LINE
  5
A2
330
1F
100
AcDbEntity
  8
0
  6
Continuous
 62
   131
370
    15
100
AcDbLine
 10
-52.26794919243112
 20
7.999999999999996
 30
0.0
 11
-53.26794919243113
 21
6.999999999999994
 31
0.0
  0
LINE
  5
A3
330
1F
100
AcDbEntity
  8
0
  6
Continuous
 62
   131
370
    15
100
AcDbLine
 10
-53.26794919243113
 20
-7.0
 30
0.0
 11
-52.26794919243112
 21
-8.0
 31
0.0
  0
SPLINE
  5
A4
330
1F
100
AcDbEntity
  8
0
  6
Continuous
 62
   131
370
    15
100
AcDbSpline
210
0.0
220
0.0
230
1.0
 70
     8
 71
     3
 72
     9
 73
     5
 74
     0
 42
0.000000001
 43
0.00000001
 40
0.5013125282636002
 40
0.5013125282636002
 40
0.5013125282636002
 40
0.5013125282636002
 40
0.5570104629205358
 40
1.0
 40
1.0
 40
1.0
 40
1.0
 10
5.73205080756818
 20
-4.994612002680295
 30
0.0
 10
5.769780770938122
 20
-4.989938223631916
 30
0.0
 10
6.106973299821162
 20
-4.948601693059584
 30
0.0
 10
6.437997970764307
 20
-4.912336906413611
 30
0.0
 10
6.732050807568873
 20
-4.880122499677768
 30
0.0
  0
SPLINE
  5
A5
330
1F
100
AcDbEntity
  8
0
  6
Continuous
 62
   131
370
    15
100
AcDbSpline
210
0.0
220
0.0
230
1.0
 70
     8
 71
     3
 72
     9
 73
     5
 74
     0
 42
0.000000001
 43
0.00000001
 40
0.0
 40
0.0
 40
0.0
 40
0.0
 40
0.4429895370794639
 40
0.4986874717364014
 40
0.4986874717364014
 40
0.4986874717364014
 40
0.4986874717364014
 10
6.732050807568873
 20
4.880122499677771
 30
0.0
 10
6.437997970764307
 20
4.912336906413612
 30
0.0
 10
6.10697329982116
 20
4.948601693059585
 30
0.0
 10
5.769780770938121
 20
4.989938223631918
 30
0.0
 10
5.732050807568179
 20
4.994612002680297
 30
0.0
  0
SPLINE
  5
A6
330
1F
100
AcDbEntity
  8
0
  6
Continuous
 62
     1
370
    15
100
AcDbSpline
210
0.0
220
0.0
230
1.0
 70
     8
 71
     3
 72
    27
 73
    23
 74
     0
 42
0.000000001
 43
0.00000001
 40
0.0
 40
0.0
 40
0.0
 40
0.0
 40
0.0462498452001272
 40
0.0932083395849226
 40
0.1401564075825686
 40
0.1870907436315158
 40
0.2340161090887766
 40
0.2809372912183579
 40
0.3325583799971298
 40
0.3841795844710678
 40
0.4358009812536372
 40
0.4874226469226627
 40
0.5390446580061479
 40
0.5906670909681117
 40
0.6422900221944537
 40
0.6939135279788485
 40
0.7455376845086756
 40
0.7971625678509942
 40
0.8478681549646433
 40
0.898576056368772
 40
0.9492865718525683
 40
1.0
 40
1.0
 40
1.0
 40
1.0
 10
9.004931670116372
 20
4.692237427593334
 30
0.0
 10
9.74069633822466
 20
4.992866560934851
 30
0.0
 10
11.22349920476133
 20
5.598731126067278
 30
0.0
 10
13.45342433869891
 20
6.277374433040809
 30
0.0
 10
15.69406232455352
 20
6.757766622771101
 30
0.0
 10
17.93403475216839
 20
7.004896210129888
 30
0.0
 10
20.173525545607
 20
7.014466368276129
 30
0.0
 10
22.48740670436592
 20
6.777452279127283
 30
0.0
 10
24.87648861960253
 20
6.274201941117495
 30
0.0
 10
27.34020495385855
 20
5.496935371564348
 30
0.0
 10
29.80397155703609
 20
4.493451511211119
 30
0.0
 10
32.26774304610622
 20
3.305031457321743
 30
0.0
 10
34.73153711603469
 20
1.980587268399944
 30
0.0
 10
37.19535466517969
 20
0.5746272294236466
 30
0.0
 10
39.65920067698408
 20
-0.854995254374078
 30
0.0
 10
42.12308056329204
 20
-2.249407629474309
 30
0.0
 10
44.58699390401844
 20
-3.551351504767779
 30
0.0
 10
47.03632488676632
 20
-4.699887041875095
 30
0.0
 10
49.4710340793097
 20
-5.653274337107947
 30
0.0
 10
51.89123601480686
 20
-6.371131007940927
 30
0.0
 10
54.31158091390893
 20
-6.855942263227992
 30
0.0
 10
55.92521206308386
 20
-6.94803567724361
 30
0.0
 10
56.73205080756888
 20
-6.999999999999815
 30
0.0
  0
SPLINE
  5
A7
330
1F
100
AcDbEntity
  8
0
  6
Continuous
 62
     1
370
    15
100
AcDbSpline
210
0.0
220
0.0
230
1.0
 70
     8
 71
     3
 72
    18
 73
    14
 74
     0
 42
0.000000001
 43
0.00000001
 40
0.0
 40
0.0
 40
0.0
 40
0.0
 40
0.0314878915429048
 40
0.1373092170372976
 40
0.2431327450154546
 40
0.3489586434426246
 40
0.454787079838398
 40
0.560618184799878
 40
0.6664487001324119
 40
0.7722765481714184
 40
0.8781018960702804
 40
0.983924911452051
 40
1.0
 40
1.0
 40
1.0
 40
1.0
 10
39.32289051708443
 20
-0.6553224210381889
 30
0.0
 10
39.07848979947999
 20
-0.5584805517855773
 30
0.0
 10
38.01273183560068
 20
-0.1361823097649624
 30
0.0
 10
36.12559467253894
 20
0.6354738587231266
 30
0.0
 10
33.66146006849136
 20
1.608103993327885
 30
0.0
 10
31.19726405658566
 20
2.516931120480134
 30
0.0
 10
28.73300388996113
 20
3.321444029896338
 30
0.0
 10
26.26869893852674
 20
3.989754869480925
 30
0.0
 10
23.80440128591939
 20
4.492503098111814
 30
0.0
 10
21.34015482506479
 20
4.815194005408796
 30
0.0
 10
18.87597621151767
 20
4.921596709704979
 30
0.0
 10
17.10843174667689
 20
4.901030792602572
 30
0.0
 10
16.16229603576971
 20
4.78977595691294
 30
0.0
 10
16.03752612679739
 20
4.775104429814129
 30
0.0
  0
SPLINE
  5
A8
330
1F
100
AcDbEntity
  8
0
  6
Continuous
 62
     1
370
    15
100
AcDbSpline
210
0.0
220
0.0
230
1.0
 70
     8
 71
     3
 72
    22
 73
    18
 74
     0
 42
0.000000001
 43
0.00000001
 40
0.0
 40
0.0
 40
0.0
 40
0.0
 40
0.0655271089574962
 40
0.1310326125408496
 40
0.1965231372699842
 40
0.2620053528882724
 40
0.3274859531610874
 40
0.3929716365275606
 40
0.4584690867237534
 40
0.5305158302062674
 40
0.6025638470262239
 40
0.6746132426109008
 40
0.7466641221335061
 40
0.8187165904940533
 40
0.8907707294833848
 40
0.9628244993386019
 40
1.0
 40
1.0
 40
1.0
 40
1.0
 10
56.73205080756888
 20
-6.642586084623291
 30
0.0
 10
55.98502106161764
 20
-6.484704528791687
 30
0.0
 10
54.49120787780676
 20
-6.168993473294822
 30
0.0
 10
52.25098107046693
 20
-5.424788230045825
 30
0.0
 10
50.01135493883564
 20
-4.512251597244575
 30
0.0
 10
47.77207240818783
 20
-3.441856288002972
 30
0.0
 10
45.53285832400003
 20
-2.255518864659805
 30
0.0
 10
43.29342414329317
 20
-0.9920495660758161
 30
0.0
 10
40.97910694494571
 20
0.3482090968133859
 30
0.0
 10
38.5896597550277
 20
1.720339387106137
 30
0.0
 10
36.12560107927695
 20
3.064413712487413
 30
0.0
 10
33.66146114069202
 20
4.282664476645467
 30
0.0
 10
31.19726669559396
 20
5.323594266387122
 30
0.0
 10
28.73300651267175
 20
6.149337465446429
 30
0.0
 10
26.26869869670625
 20
6.707309334292817
 30
0.0
 10
24.20200279686452
 20
6.989588476417691
 30
0.0
 10
22.95675831977838
 20
6.970443758352381
 30
0.0
 10
22.53294713196608
 20
6.963927973016335
 30
0.0
  0
LINE
  5
A9
330
1F
100
AcDbEntity
  8
0
  6
Continuous
 62
     1
370
    15
100
AcDbLine
 10
56.73205080756888
 20
-6.999999999999815
 30
0.0
 11
56.73205080756797
 21
-6.642586084623283
 31
0.0
  0
SPLINE
  5
AA
330
1F
100
AcDbEntity
  8
0
  6
Continuous
 62
     1
370
    15
100
AcDbSpline
210
0.0
220
0.0
230
1.0
 70
     8
 71
     3
 72
    14
 73
    10
 74
     0
 42
0.000000001
 43
0.00000001
 40
0.0
 40
0.0
 40
0.0
 40
0.0
 40
0.1440539587891543
 40
0.2881111100183344
 40
0.432171259063885
 40
0.576234210763075
 40
0.720299769448681
 40
0.86436773898377
 40
1.0
 40
1.0
 40
1.0
 40
1.0
 10
56.73205080756888
 20
-5.522805850577508
 30
0.0
 10
55.86108356939074
 20
-5.338976912527875
 30
0.0
 10
54.11912979116526
 20
-4.971314962518634
 30
0.0
 10
51.50616012027116
 20
-4.121277827136676
 30
0.0
 10
48.8931294503739
 20
-3.098984431684286
 30
0.0
 10
46.28003727812281
 20
-1.927940649035136
 30
0.0
 10
43.66690186672808
 20
-0.6705563167399593
 30
0.0
 10
41.10469319522745
 20
0.5987948437256527
 30
0.0
 10
39.41363857789292
 20
1.40468729019157
 30
0.0
 10
38.59361222039253
 20
1.795480727989679
 30
0.0
  0
LINE
  5
AB
330
1F
100
AcDbEntity
  8
0
  6
Continuous
 62
     1
370
    15
100
AcDbLine
 10
56.73205080756797
 20
-6.642586084623283
 30
0.0
 11
56.73205080756888
 21
-5.522805850577508
 31
0.0
  0
SPLINE
  5
AC
330
1F
100
AcDbEntity
  8
0
  6
Continuous
 62
     1
370
    15
100
AcDbSpline
210
0.0
220
0.0
230
1.0
 70
     8
 71
     3
 72
    17
 73
    13
 74
     0
 42
0.000000001
 43
0.00000001
 40
0.0
 40
0.0
 40
0.0
 40
0.0
 40
0.0762668828392501
 40
0.1797319784209319
 40
0.2831965439498372
 40
0.3866587117178769
 40
0.4901186320323464
 40
0.5935764556139727
 40
0.6951881541496922
 40
0.7967955747483288
 40
0.8983993214514089
 40
1.0
 40
1.0
 40
1.0
 40
1.0
 10
30.54953684996739
 20
-5.50246844401561
 30
0.0
 10
29.94403291785382
 20
-5.714166820653274
 30
0.0
 10
28.51709090044102
 20
-6.21305921857366
 30
0.0
 10
26.26869800964512
 20
-6.71158179252382
 30
0.0
 10
23.80439867356279
 20
-7.01095817536863
 30
0.0
 10
21.3401526070784
 20
-7.013915205939479
 30
0.0
 10
18.87597363411286
 20
-6.730307340045116
 30
0.0
 10
16.42648365376689
 20
-6.172337618331619
 30
0.0
 10
13.99175555636293
 20
-5.369642655510676
 30
0.0
 10
11.57175952007846
 20
-4.357112271309552
 30
0.0
 10
9.15186979718746
 20
-3.176885456816883
 30
0.0
 10
7.538649018175574
 20
-2.292842126238858
 30
0.0
 10
6.732050807564285
 20
-1.850827134971609
 30
0.0
  0
SPLINE
  5
AD
330
1F
100
AcDbEntity
  8
0
  6
Continuous
 62
   131
370
    15
100
AcDbSpline
210
0.0
220
0.0
230
1.0
 70
    24
 71
     3
 72
     8
 73
     4
 74
     0
 42
0.000000001
 43
0.00000001
 40
0.0
 40
0.0
 40
0.0
 40
0.0
 40
1.0
 40
1.0
 40
1.0
 40
1.0
 10
6.732050807568873
 20
-1.224487404479593
 30
0.0
 10
6.732050807568873
 20
-1.407444267385193
 30
0.0
 10
6.732050807568873
 20
-1.617451427309894
 30
0.0
 10
6.732050807568873
 20
-1.850827134956214
 30
0.0
  0
SPLINE
  5
AE
330
1F
100
AcDbEntity
  8
0
  6
Continuous
 62
     1
370
    15
100
AcDbSpline
210
0.0
220
0.0
230
1.0
 70
     8
 71
     3
 72
    15
 73
    11
 74
     0
 42
0.000000001
 43
0.00000001
 40
0.0
 40
0.0
 40
0.0
 40
0.0
 40
0.1026815447447659
 40
0.2321995697635497
 40
0.3617146556306504
 40
0.4912269994269691
 40
0.618427851170811
 40
0.7456231081971921
 40
0.8728135604195958
 40
0.9999999999999999
 40
0.9999999999999999
 40
0.9999999999999999
 40
0.9999999999999999
 10
25.75803526026051
 20
-5.804719644316312
 30
0.0
 10
25.10681697474297
 20
-5.863372176387036
 30
0.0
 10
23.63418032815573
 20
-5.996006455957112
 30
0.0
 10
21.34015402678229
 20
-5.911230472982301
 30
0.0
 10
18.87597425990427
 20
-5.604243977832994
 30
0.0
 10
16.42648853966974
 20
-5.062411846747222
 30
0.0
 10
13.99175753625314
 20
-4.322147367351137
 30
0.0
 10
11.57176152743566
 20
-3.413269450568527
 30
0.0
 10
9.15187152866792
 20
-2.372509734290959
 30
0.0
 10
7.538649232065737
 20
-1.607157490093413
 30
0.0
 10
6.732050807568873
 20
-1.224487404479593
 30
0.0
  0
SPLINE
  5
AF
330
1F
100
AcDbEntity
  8
0
  6
Continuous
 62
     1
370
    15
100
AcDbSpline
210
0.0
220
0.0
230
1.0
 70
     8
 71
     3
 72
    13
 73
     9
 74
     0
 42
0.000000001
 43
0.00000001
 40
0.0
 40
0.0
 40
0.0
 40
0.0
 40
0.1804947017800759
 40
0.3610374458940392
 40
0.5416358399483738
 40
0.7221941350003951
 40
0.9026996181402217
 40
1.0
 40
1.0
 40
1.0
 40
1.0
 10
6.732050807568873
 20
-3.643304981647153
 30
0.0
 10
7.478627336092002
 20
-3.999433375615816
 30
0.0
 10
8.97197910965736
 20
-4.7117849543644
 30
0.0
 10
11.21246028226271
 20
-5.585879074886363
 30
0.0
 10
13.45342365019884
 20
-6.281731123671663
 30
0.0
 10
15.69405942840399
 20
-6.749832883642767
 30
0.0
 10
17.59002272483247
 20
-6.98888842983998
 30
0.0
 10
18.73907993162219
 20
-6.975154402598315
 30
0.0
 10
19.14153257602381
 20
-6.970344115043411
 30
0.0
  0
SPLINE
  5
B0
330
1F
100
AcDbEntity
  8
0
  6
Continuous
 62
     1
370
    15
100
AcDbSpline
210
0.0
220
0.0
230
1.0
 70
     8
 71
     3
 72
    11
 73
     7
 74
     0
 42
0.000000001
 43
0.00000001
 40
0.0
 40
0.0
 40
0.0
 40
0.0
 40
0.2464256582134722
 40
0.4976036638119165
 40
0.7487946180692323
 40
1.0
 40
1.0
 40
1.0
 40
1.0
 10
47.09662252743574
 20
4.692445627983686
 30
0.0
 10
47.88808146950421
 20
5.015049392087135
 30
0.0
 10
49.48626273108701
 20
5.666478371281864
 30
0.0
 10
51.89123550327944
 20
6.368795522103938
 30
0.0
 10
54.31158104180207
 20
6.856526186354469
 30
0.0
 10
55.92521210571573
 20
6.94823032201217
 30
0.0
 10
56.73205080756856
 20
7.000000000000187
 30
0.0
  0
LINE
  5
B1
330
1F
100
AcDbEntity
  8
0
  6
Continuous
 62
   131
370
    15
100
AcDbLine
 10
6.732050807568877
 20
-3.64330498164715
 30
0.0
 11
6.732050807568873
 21
-1.850827134957401
 31
0.0
  0
SPLINE
  5
B2
330
1F
100
AcDbEntity
  8
0
  6
Continuous
 62
     1
370
    15
100
AcDbSpline
210
0.0
220
0.0
230
1.0
 70
     8
 71
     3
 72
     8
 73
     4
 74
     0
 42
0.000000001
 43
0.00000001
 40
0.0
 40
0.0
 40
0.0
 40
0.0
 40
1.0
 40
1.0
 40
1.0
 40
1.0
 10
52.40099025543608
 20
1.957814097821563
 30
0.0
 10
52.14863233766974
 20
2.256741973956528
 30
0.0
 10
51.92332269169019
 20
2.54476635813612
 30
0.0
 10
51.73205080757952
 20
2.819069700703791
 30
0.0
  0
LINE
  5
B3
330
1F
100
AcDbEntity
  8
0
  6
Continuous
 62
     1
370
    15
100
AcDbLine
 10
51.73205080756889
 20
2.937719435296593
 30
0.0
 11
56.73205080756888
 21
0.0000000000000069
 31
0.0
  0
LINE
  5
B4
330
1F
100
AcDbEntity
  8
0
  6
Continuous
 62
     1
370
    15
100
AcDbLine
 10
56.73205080756888
 20
0.0000000000000069
 30
0.0
 11
56.73205080756888
 21
-1.870700622207506
 31
0.0
  0
SPLINE
  5
B5
330
1F
100
AcDbEntity
  8
0
  6
Continuous
 62
     1
370
    15
100
AcDbSpline
210
0.0
220
0.0
230
1.0
 70
     8
 71
     3
 72
    12
 73
     8
 74
     0
 42
0.000000001
 43
0.00000001
 40
0.0
 40
0.0
 40
0.0
 40
0.0
 40
0.4999999999999987
 40
0.4999999999999987
 40
0.7499999999999993
 40
0.7499999999999993
 40
1.0
 40
1.0
 40
1.0
 40
1.0
 10
56.73205080756888
 20
-1.870700622207507
 30
0.0
 10
55.98233126561149
 20
-1.28129565858578
 30
0.0
 10
55.24513446198718
 20
-0.6677266902608336
 30
0.0
 10
54.15861183450417
 20
0.2898153268938082
 30
0.0
 10
53.79970143625111
 20
0.6152938823799546
 30
0.0
 10
53.08921115235589
 20
1.280396025891962
 30
0.0
 10
52.73956330224995
 20
1.618303437966511
 30
0.0
 10
52.40099025543606
 20
1.957814097821573
 30
0.0
  0
SPLINE
  5
B6
330
1F
100
AcDbEntity
  8
0
  6
Continuous
 62
     1
370
    15
100
AcDbSpline
210
0.0
220
0.0
230
1.0
 70
     8
 71
     3
 72
    14
 73
    10
 74
     0
 42
0.000000001
 43
0.00000001
 40
0.0
 40
0.0
 40
0.0
 40
0.0
 40
0.1480679461777659
 40
0.2961310938435135
 40
0.4441914253036477
 40
0.5922509250229043
 40
0.7403115781036338
 40
0.8883753687640413
 40
1.0
 40
1.0
 40
1.0
 40
1.0
 10
52.40099025543607
 20
1.957814097821566
 30
0.0
 10
51.60542161636626
 20
2.294772725963106
 30
0.0
 10
50.01431012061755
 20
2.968679062259323
 30
0.0
 10
47.62768484875753
 20
3.844718635389341
 30
0.0
 10
45.2411107743433
 20
4.577208403095752
 30
0.0
 10
42.85454906015443
 20
5.13310413324347
 30
0.0
 10
40.4679777993065
 20
5.484825487641251
 30
0.0
 10
38.2771228701194
 20
5.634586840903797
 30
0.0
 10
36.88188188342077
 20
5.573328593948815
 30
0.0
 10
36.28215063823001
 20
5.546997311342617
 30
0.0
  0
LINE
  5
B7
330
1F
100
AcDbEntity
  8
0
  6
Continuous
 62
     1
370
    15
100
AcDbLine
 10
56.73205080756888
 20
-5.522805850577506
 30
0.0
 11
56.73205080756888
 21
-1.870700622207506
 31
0.0
  0
SPLINE
  5
B8
330
1F
100
AcDbEntity
  8
0
  6
Continuous
 62
     1
370
    15
100
AcDbSpline
210
0.0
220
0.0
230
1.0
 70
    24
 71
     3
 72
    10
 73
     6
 74
     0
 42
0.000000001
 43
0.00000001
 40
0.0
 40
0.0
 40
0.0
 40
0.0
 40
0.5
 40
0.5
 40
1.0
 40
1.0
 40
1.0
 40
1.0
 10
56.73205080756888
 20
4.900000000000007
 30
0.0
 10
56.73205080756888
 20
5.197025797651205
 30
0.0
 10
56.73205080756888
 20
5.542197282069828
 30
0.0
 10
56.73205080756887
 20
6.266366126725996
 30
0.0
 10
56.73205080756888
 20
6.643514050610316
 30
0.0
 10
56.73205080756856
 20
7.000000000000187
 30
0.0
  0
LINE
  5
B9
330
1F
100
AcDbEntity
  8
0
  6
Continuous
 62
     1
370
    15
100
AcDbLine
 10
56.73205080756888
 20
4.900000000000006
 30
0.0
 11
54.13120243920751
 21
4.787153670383117
 31
0.0
  0
SPLINE
  5
BA
330
1F
100
AcDbEntity
  8
0
  6
Continuous
 62
     1
370
    15
100
AcDbSpline
210
0.0
220
0.0
230
1.0
 70
     8
 71
     3
 72
    22
 73
    18
 74
     0
 42
0.000000001
 43
0.00000001
 40
0.0
 40
0.0
 40
0.0
 40
0.0
 40
0.0410870072849228
 40
0.1089267693948881
 40
0.1728910741800822
 40
0.2368699644214724
 40
0.3008695614841432
 40
0.3648708149670845
 40
0.4288509654343918
 40
0.5002450165465031
 40
0.5716389364894905
 40
0.6430327305881928
 40
0.7144264041706002
 40
0.7858199625677239
 40
0.857213411113461
 40
0.9286067551444629
 40
1.0
 40
1.0
 40
1.0
 40
1.0
 10
41.9134382574924
 20
-5.238795900979084
 30
0.0
 10
41.43162228954505
 20
-5.317186528192615
 30
0.0
 10
40.15426819881198
 20
-5.525009836276245
 30
0.0
 10
38.12677758294342
 20
-5.625354157590858
 30
0.0
 10
35.83099381237515
 20
-5.567670550275721
 30
0.0
 10
33.58012712861397
 20
-5.311698629916305
 30
0.0
 10
31.32872002847256
 20
-4.875404609992779
 30
0.0
 10
29.07726063125135
 20
-4.271031625255168
 30
0.0
 10
26.73930168557155
 20
-3.490932578486517
 30
0.0
 10
24.31440766594633
 20
-2.543818464095038
 30
0.0
 10
21.8026420801597
 20
-1.454009372525243
 30
0.0
 10
19.29086219643035
 20
-0.3019367300197775
 30
0.0
 10
16.77909229060673
 20
0.8627701522757825
 30
0.0
 10
14.26732558609889
 20
1.991606933819305
 30
0.0
 10
11.75556363899179
 20
3.031438710311532
 30
0.0
 10
9.243805726325489
 20
3.955930731405552
 30
0.0
 10
7.569302059467024
 20
4.423891257163623
 30
0.0
 10
6.732050807568873
 20
4.657871357526684
 30
0.0
  0
SPLINE
  5
BB
330
1F
100
AcDbEntity
  8
0
  6
Continuous
 62
   131
370
    15
100
AcDbSpline
210
0.0
220
0.0
230
1.0
 70
    24
 71
     3
 72
    14
 73
    10
 74
     0
 42
0.000000001
 43
0.00000001
 40
0.0
 40
0.0
 40
0.0
 40
0.0
 40
0.2499999999999998
 40
0.2499999999999998
 40
0.4999999999999999
 40
0.4999999999999999
 40
0.75
 40
0.75
 40
1.0
 40
1.0
 40
1.0
 40
1.0
 10
6.732050807568873
 20
4.657871357526686
 30
0.0
 10
6.732050807568873
 20
4.308293793705128
 30
0.0
 10
6.732050807568873
 20
3.906670227743108
 30
0.0
 10
6.732050807568873
 20
3.017465459101056
 30
0.0
 10
6.732050807568873
 20
2.530031291860798
 30
0.0
 10
6.732050807568873
 20
1.501943355296241
 30
0.0
 10
6.732050807568873
 20
0.9615864665592837
 30
0.0
 10
6.732050807568873
 20
-0.1318572259600528
 30
0.0
 10
6.732050807568873
 20
-0.6846361680403652
 30
0.0
 10
6.732050807568873
 20
-1.224487404479593
 30
0.0
  0
SPLINE
  5
BC
330
1F
100
AcDbEntity
  8
0
  6
Continuous
 62
   131
370
    15
100
AcDbSpline
210
0.0
220
0.0
230
1.0
 70
    24
 71
     3
 72
     9
 73
     5
 74
     0
 42
0.000000001
 43
0.00000001
 40
0.0
 40
0.0
 40
0.0
 40
0.0
 40
0.2973469771918244
 40
0.9999999999999999
 40
0.9999999999999999
 40
0.9999999999999999
 40
0.9999999999999999
 10
6.732050807568877
 20
4.854504159493045
 30
0.0
 10
6.732050807568877
 20
4.861010451552725
 30
0.0
 10
6.732050807568873
 20
4.882891595666334
 30
0.0
 10
6.732050807568877
 20
4.750732996629799
 30
0.0
 10
6.732050807568877
 20
4.657871357526684
 30
0.0
  0
SPLINE
  5
BD
330
1F
100
AcDbEntity
  8
0
  6
Continuous
 62
     1
370
    15
100
AcDbSpline
210
0.0
220
0.0
230
1.0
 70
    24
 71
     3
 72
     8
 73
     4
 74
     0
 42
0.000000001
 43
0.00000001
 40
0.0
 40
0.0
 40
0.0
 40
0.0
 40
1.0
 40
1.0
 40
1.0
 40
1.0
 10
51.73205080756889
 20
2.819069700701243
 30
0.0
 10
51.73205080756889
 20
2.908476784839908
 30
0.0
 10
51.73205080756889
 20
2.995514202059081
 30
0.0
 10
51.73205080756889
 20
3.079907577329862
 30
0.0
  0
SPLINE
  5
BE
330
1F
100
AcDbEntity
  8
0
  6
Continuous
 62
     1
370
    15
100
AcDbSpline
210
0.0
220
0.0
230
1.0
 70
     8
 71
     3
 72
    10
 73
     6
 74
     0
 42
0.000000001
 43
0.00000001
 40
0.0
 40
0.0
 40
0.0
 40
0.0
 40
0.5
 40
0.5
 40
1.0
 40
1.0
 40
1.0
 40
1.0
 10
56.73205080756888
 20
4.900000000000006
 30
0.0
 10
55.8841018293072
 20
4.670024079555895
 30
0.0
 10
55.04224242142605
 20
4.40696117361336
 30
0.0
 10
53.37217833882861
 20
3.806888152160613
 30
0.0
 10
52.54486633988819
 20
3.470519755371331
 30
0.0
 10
51.73205080756886
 20
3.079907577329797
 30
0.0
  0
SPLINE
  5
BF
330
1F
100
AcDbEntity
  8
0
  6
Continuous
 62
   131
370
    15
100
AcDbSpline
210
0.0
220
0.0
230
1.0
 70
    24
 71
     3
 72
    11
 73
     7
 74
     0
 42
0.000000001
 43
0.00000001
 40
0.0
 40
0.0
 40
0.0
 40
0.0
 40
0.2190690067650924
 40
0.5208180817616714
 40
0.8313179003750859
 40
1.0
 40
1.0
 40
1.0
 40
1.0
 10
6.732050807568877
 20
-3.719961922544161
 30
0.0
 10
6.732050807568877
 20
-3.881374254021092
 30
0.0
 10
6.732050807568877
 20
-4.26511845450783
 30
0.0
 10
6.732050807568877
 20
-4.641035651981072
 30
0.0
 10
6.732050807568877
 20
-4.868483951954458
 30
0.0
 10
6.732050807568877
 20
-4.858143190306001
 30
0.0
 10
6.732050807568877
 20
-4.85450302501555
 30
0.0
  0
LINE
  5
C0
330
1F
100
AcDbEntity
  8
0
  6
Continuous
 62
     1
370
    15
100
AcDbLine
 10
56.73205080756888
 20
0.0000000000000069
 30
0.0
 11
56.73205080756888
 21
4.900000000000007
 31
0.0
  0
LINE
  5
C1
330
1F
100
AcDbEntity
  8
0
  6
Continuous
 62
   131
370
    15
100
AcDbLine
 10
5.732050807568175
 20
-1.127399140927567
 30
0.0
 11
5.732050807568179
 21
7.000000000000187
 31
0.0
  0
LINE
  5
C3
330
1F
100
AcDbEntity
  8
0
  6
Continuous
 62
   131
370
    15
100
AcDbLine
 10
5.73205080756887
 20
-1.287595654564765
 30
0.0
 11
5.732050807568873
 21
-3.137793754972514
 31
0.0
  0
LINE
  5
C5
330
1F
100
AcDbEntity
  8
0
  6
Continuous
 62
   131
370
    15
100
AcDbLine
 10
5.732050807568182
 20
-7.000000000000185
 30
0.0
 11
5.732050807568179
 21
-3.065378033076506
 31
0.0
  0
LINE
  5
C6
330
1F
100
AcDbEntity
  8
0
  6
Continuous
 62
   131
370
    15
100
AcDbLine
 10
4.732050807568363
 20
8.0
 30
0.0
 11
4.732050807568363
 21
-8.0
 31
0.0
  0
LINE
  5
C7
330
1F
100
AcDbEntity
  8
0
  6
Continuous
 62
   131
370
    15
100
AcDbLine
 10
-52.26794919243112
 20
7.999999999999996
 30
0.0
 11
-52.26794919243112
 21
-8.000000000000004
 31
0.0
  0
LINE
  5
C8
330
1F
100
AcDbEntity
  8
0
  6
Continuous
 62
   131
370
    15
100
AcDbLine
 10
-53.26794919243113
 20
6.999999999999995
 30
0.0
 11
-53.26794919243113
 21
-6.999999999999997
 31
0.0
  0
SPLINE
  5
C9
330
1F
100
AcDbEntity
  8
0
  6
Continuous
 62
   131
370
    15
100
AcDbSpline
210
0.0
220
0.0
230
1.0
 70
    24
 71
     3
 72
     8
 73
     4
 74
     0
 42
0.000000001
 43
0.00000001
 40
0.0
 40
0.0
 40
0.0
 40
0.0
 40
1.0
 40
1.0
 40
1.0
 40
1.0
 10
6.732050807568873
 20
-1.224487404479593
 30
0.0
 10
6.732050807568873
 20
-1.407444267389573
 30
0.0
 10
6.732050807568873
 20
-1.617451427319957
 30
0.0
 10
6.732050807568873
 20
-1.850827134972975
 30
0.0
  0
SPLINE
  5
CA
330
1F
100
AcDbEntity
  8
0
  6
Continuous
 62
   131
370
    15
100
AcDbSpline
210
0.0
220
0.0
230
1.0
 70
     8
 71
     3
 72
     8
 73
     4
 74
     0
 42
0.000000001
 43
0.00000001
 40
0.0
 40
0.0
 40
0.0
 40
0.0
 40
1.0
 40
1.0
 40
1.0
 40
1.0
 10
6.732050807568873
 20
-1.850827134974165
 30
0.0
 10
6.397521900435855
 20
-1.664753166988558
 30
0.0
 10
6.06507746481256
 20
-1.476959754554017
 30
0.0
 10
5.732050807568863
 20
-1.28759565456476
 30
0.0
  0
SPLINE
  5
CB
330
1F
100
AcDbEntity
  8
0
  6
Continuous
 62
   131
370
    15
100
AcDbSpline
210
0.0
220
0.0
230
1.0
 70
     8
 71
     3
 72
     8
 73
     4
 74
     0
 42
0.000000001
 43
0.00000001
 40
0.0
 40
0.0
 40
0.0
 40
0.0
 40
0.4933206826806944
 40
0.4933206826806944
 40
0.4933206826806944
 40
0.4933206826806944
 10
6.732050807568873
 20
-1.224487404479593
 30
0.0
 10
6.397521695164792
 20
-1.063998459747391
 30
0.0
 10
6.065108128660587
 20
-0.9024548230505935
 30
0.0
 10
5.732050807568175
 20
-0.7399674086331398
 30
0.0
  0
SPLINE
  5
CC
330
1F
100
AcDbEntity
  8
0
  6
Continuous
 62
   131
370
    15
100
AcDbSpline
210
0.0
220
0.0
230
1.0
 70
     8
 71
     3
 72
     8
 73
     4
 74
     0
 42
0.000000001
 43
0.00000001
 40
0.0
 40
0.0
 40
0.0
 40
0.0
 40
1.0
 40
1.0
 40
1.0
 40
1.0
 10
6.732050807568873
 20
-3.643304981647148
 30
0.0
 10
6.397521900435859
 20
-3.478557361721342
 30
0.0
 10
6.065077464812564
 20
-3.310005733894754
 30
0.0
 10
5.732050807568873
 20
-3.137793754972514
 30
0.0
  0
SPLINE
  5
CD
330
1F
100
AcDbEntity
  8
0
  6
Continuous
 62
   131
370
    15
100
AcDbSpline
210
0.0
220
0.0
230
1.0
 70
     8
 71
     3
 72
     8
 73
     4
 74
     0
 42
0.000000001
 43
0.00000001
 40
0.0
 40
0.0
 40
0.0
 40
0.0
 40
0.4933196080610895
 40
0.4933196080610895
 40
0.4933196080610895
 40
0.4933196080610895
 10
6.732050807568873
 20
4.657871357526684
 30
0.0
 10
6.397521695100795
 20
4.743557175724124
 30
0.0
 10
6.065108133302853
 20
4.823760997416035
 30
0.0
 10
5.732050807568189
 20
4.898453536609961
 30
0.0
  0
SPLINE
  5
CE
330
1F
100
AcDbEntity
  8
0
  6
Continuous
 62
   131
370
    15
100
AcDbSpline
210
0.0
220
0.0
230
1.0
 70
    24
 71
     3
 72
    14
 73
    10
 74
     0
 42
0.000000001
 43
0.00000001
 40
0.0
 40
0.0
 40
0.0
 40
0.0
 40
0.2499999999999998
 40
0.2499999999999998
 40
0.4999999999999999
 40
0.4999999999999999
 40
0.75
 40
0.75
 40
1.0
 40
1.0
 40
1.0
 40
1.0
 10
6.732050807568873
 20
4.657871357526686
 30
0.0
 10
6.732050807568873
 20
4.308293793705128
 30
0.0
 10
6.732050807568873
 20
3.906670227743108
 30
0.0
 10
6.732050807568873
 20
3.017465459101056
 30
0.0
 10
6.732050807568873
 20
2.530031291860798
 30
0.0
 10
6.732050807568873
 20
1.501943355296241
 30
0.0
 10
6.732050807568873
 20
0.9615864665592837
 30
0.0
 10
6.732050807568873
 20
-0.1318572259600528
 30
0.0
 10
6.732050807568873
 20
-0.6846361680403652
 30
0.0
 10
6.732050807568873
 20
-1.224487404479593
 30
0.0
  0
SPLINE
  5
CF
330
1F
100
AcDbEntity
  8
0
  6
Continuous
 62
   131
370
    15
100
AcDbSpline
210
0.0
220
0.0
230
1.0
 70
    24
 71
     3
 72
    11
 73
     7
 74
     0
 42
0.000000001
 43
0.00000001
 40
0.0
 40
0.0
 40
0.0
 40
0.0
 40
0.2185995959185209
 40
0.5196955230839799
 40
0.8295232525349239
 40
1.0
 40
1.0
 40
1.0
 40
1.0
 10
6.732050807568877
 20
-3.719951922544161
 30
0.0
 10
6.732050807568877
 20
-3.881363808282058
 30
0.0
 10
6.732050807568877
 20
-4.265102094888015
 30
0.0
 10
6.732050807568877
 20
-4.641116827941539
 30
0.0
 10
6.732050807568877
 20
-4.868863213635469
 30
0.0
 10
6.732050807568877
 20
-4.858337276488754
 30
0.0
 10
6.732050807568877
 20
-4.854601255662306
 30
0.0
  0
SPLINE
  5
D0
330
1F
100
AcDbEntity
  8
0
  6
Continuous
 62
   131
370
    15
100
AcDbSpline
210
0.0
220
0.0
230
1.0
 70
    24
 71
     3
 72
     9
 73
     5
 74
     0
 42
0.000000001
 43
0.00000001
 40
0.0
 40
0.0
 40
0.0
 40
0.0
 40
0.2938913409691705
 40
1.0
 40
1.0
 40
1.0
 40
1.0
 10
6.732050807568877
 20
4.854601255662306
 30
0.0
 10
6.732050807568877
 20
4.860948571808402
 30
0.0
 10
6.732050807568877
 20
4.882546064695276
 30
0.0
 10
6.732050807568877
 20
4.750857671942953
 30
0.0
 10
6.732050807568877
 20
4.657871357526684
 30
0.0
  0
LINE
  5
D1
330
1F
100
AcDbEntity
  8
중심선
 62
     1
100
AcDbLine
 10
-56.26794919243113
 20
-0.0000000000000046
 30
0.0
 11
63.73205080756889
 21
0.0000000000000076
 31
0.0
  0
CIRCLE
  5
D2
330
1F
100
AcDbEntity
  8
외형선
100
AcDbCircle
 10
0.0000000000000104
 20
0.0
 30
0.0
 40
3.000000000000005
  0
INSERT
  5
D3
330
1F
100
AcDbEntity
  8
0
  6
Continuous
 62
     7
100
AcDbBlockReference
 66
     1
  2
블럭10
 10
-22.93944368806589
 20
-52.04609937292004
 30
0.0
  0
ATTRIB
  5
D4
330
D3
100
AcDbEntity
  8
FORMAT
 62
     2
100
AcDbText
 10
-39.05870472750145
 20
-49.97073246008785
 30
0.0
 40
4.233333333333333
  1
SEME7014050E [ 2 FLUTE ]
 41
0.75
  7
SLDTEXTSTYLE0
 11
-39.05870472750145
 21
-52.08739912675452
 31
0.0
100
AcDbAttribute
  2
AUTOATTR0
 70
     0
 74
     1
  0
SEQEND
  5
D5
330
D3
100
AcDbEntity
  8
0
  6
Continuous
 62
     7
  0
HATCH
  5
D6
330
1F
100
AcDbEntity
  8
중심선
100
AcDbHatch
 10
0.0
 20
0.0
 30
0.0
210
0.0
220
0.0
230
1.0
  2
SOLID
 70
     1
 71
     0
 91
        1
 92
        0
 93
        4
 72
     1
 10
-17.22453438368504
 20
-35.7989250712761
 11
-20.67080962752232
 21
-35.7989250712761
 72
     1
 10
-20.67080962752232
 20
-35.7989250712761
 11
-22.79903948672635
 21
-38.3352506518487
 72
     1
 10
-22.79903948672635
 20
-38.3352506518487
 11
-19.35273115777591
 21
-38.33521122254621
 72
     1
 10
-19.35273115777591
 20
-38.33521122254621
 11
-17.22453438368504
 21
-35.7989250712761
 97
        0
 75
     0
 76
     1
 98
        1
 10
0.0
 20
0.0
  0
HATCH
  5
D7
330
1F
100
AcDbEntity
  8
중심선
100
AcDbHatch
 10
0.0
 20
0.0
 30
0.0
210
0.0
220
0.0
230
1.0
  2
SOLID
 70
     1
 71
     0
 91
        1
 92
        0
 93
        4
 72
     1
 10
-12.21177039264909
 20
-35.7989250712761
 11
-15.65804563648637
 21
-35.7989250712761
 72
     1
 10
-15.65804563648637
 20
-35.7989250712761
 11
-20.18918364484376
 21
-41.19892507127612
 72
     1
 10
-20.18918364484376
 20
-41.19892507127612
 11
-16.74290840100648
 21
-41.19892507127612
 72
     1
 10
-16.74290840100648
 20
-41.19892507127612
 11
-12.21177039264909
 21
-35.7989250712761
 97
        0
 75
     0
 76
     1
 98
        1
 10
0.0
 20
0.0
  0
HATCH
  5
D8
330
1F
100
AcDbEntity
  8
중심선
100
AcDbHatch
 10
0.0
 20
0.0
 30
0.0
210
0.0
220
0.0
230
1.0
  2
SOLID
 70
     1
 71
     0
 91
        1
 92
        0
 93
        4
 72
     1
 10
-7.199006401613195
 20
-35.79892507127613
 11
-10.64528164545031
 21
-35.7989250712761
 72
     1
 10
-10.64528164545031
 20
-35.7989250712761
 11
-17.69371854733956
 21
-44.19892507127612
 72
     1
 10
-17.69371854733956
 20
-44.19892507127612
 11
-14.24744330350228
 21
-44.19892507127612
 72
     1
 10
-14.24744330350228
 20
-44.19892507127612
 11
-7.199006401613195
 21
-35.79892507127613
 97
        0
 75
     0
 76
     1
 98
        1
 10
0.0
 20
0.0
  0
HATCH
  5
D9
330
1F
100
AcDbEntity
  8
중심선
100
AcDbHatch
 10
0.0
 20
0.0
 30
0.0
210
0.0
220
0.0
230
1.0
  2
SOLID
 70
     1
 71
     0
 91
        1
 92
        0
 93
        6
 72
     3
 10
-2.399115970600996
 20
-39.99892507132738
 11
3.960054785062284
 21
1.540850780301639E-10
 40
0.3939339440162633
 50
17.09539180608433
 51
320.0019657685079
 73
     0
 72
     1
 10
-0.7161163149004002
 20
-38.58681907591441
 11
1.589185558800638
 21
-36.65249236586649
 72
     3
 10
-2.399115970653842
 20
-39.99892507127625
 11
6.600054785286829
 21
-1.249000902703301E-13
 40
0.6363583540795982
 50
39.99873849337408
 51
368.4976242363724
 73
     1
 72
     1
 10
4.026216521246767
 20
-39.03892507120613
 11
-3.71904866381792
 21
-39.0389250712061
 72
     1
 10
-3.71904866381792
 20
-39.0389250712061
 11
-3.719073708263854
 21
-40.95892507120602
 72
     1
 10
-3.719073708263854
 20
-40.95892507120602
 11
0.7223060612081835
 21
-40.95892507120599
 97
        0
 75
     0
 76
     1
 98
        1
 10
0.0
 20
0.0
  0
DIMENSION
  5
DA
330
1F
100
AcDbEntity
  8
치수문자_일반주서
100
AcDbDimension
  2
_D
 10
68.12515516064295
 20
7.000000000000231
 30
0.0
 11
68.12515516064292
 21
17.54150000000023
 31
0.0
 70
   160
  1
%%c<>
 71
     2
 42
14.0
 52
-270.0
  3
SLDDIMSTYLE0
100
AcDbAlignedDimension
 13
56.73205080756888
 23
-6.999999999999815
 33
0.0
 14
56.73205080756856
 24
7.000000000000187
 34
0.0
 50
90.0000000000002
100
AcDbRotatedDimension
  0
DIMENSION
  5
E8
330
1F
100
AcDbEntity
  8
치수문자_일반주서
100
AcDbDimension
  2
_D_1
 10
56.73205080756855
 20
28.78841044024269
 30
0.0
 11
1.732050807568733
 21
28.78841044024269
 31
0.0
 70
   160
  1
<>
 71
     2
 42
109.9999999999997
  3
SLDDIMSTYLE1
100
AcDbAlignedDimension
 13
-53.26794919243113
 23
6.999999999999995
 33
0.0
 14
56.73205080756856
 24
7.000000000000187
 34
0.0
 50
-0.0000000000000037
100
AcDbRotatedDimension
  0
DIMENSION
  5
F3
330
1F
100
AcDbEntity
  8
치수문자_일반주서
100
AcDbDimension
  2
_D_2
 10
56.73205080756856
 20
18.00486916369422
 30
0.0
 11
31.73205080756887
 21
18.00486916369422
 31
0.0
 70
   160
  1
<>
 71
     2
 42
49.99999999999968
  3
SLDDIMSTYLE1
100
AcDbAlignedDimension
 13
6.732050807568873
 23
4.880122499677769
 33
0.0
 14
56.73205080756856
 24
7.000000000000187
 34
0.0
 50
0.0000000000000163
100
AcDbRotatedDimension
  0
DIMENSION
  5
FD
330
1F
100
AcDbEntity
  8
치수문자_일반주서
100
AcDbDimension
  2
_D_3
 10
-65.07162331347145
 20
-8.00000000000005
 30
0.0
 11
-65.07162331347155
 21
18.54149999999995
 31
0.0
 70
   160
  1
%%c<>
 71
     2
 42
16.0
 52
-270.0
  3
SLDDIMSTYLE0
100
AcDbAlignedDimension
 13
-52.26794919243112
 23
7.999999999999996
 33
0.0
 14
-52.26794919243112
 24
-8.0
 34
0.0
 50
90.0000000000002
100
AcDbRotatedDimension
  0
INSERT
  5
110
330
1F
100
AcDbEntity
  8
외형선
100
AcDbBlockReference
  2
SW_DOWELSYMBOL_0
 10
0.0000000000000104
 20
0.0
 30
0.0
  0
LINE
  5
166
330
1F
100
AcDbEntity
  8
0
  6
Continuous
 62
   131
370
    15
100
AcDbLine
 10
5.732050807568179
 20
7.000000000000187
 30
0.0
 11
4.732050807568365
 21
8.0
 31
0.0
1001
PE_URL
1000

  0
LINE
  5
16B
330
1F
100
AcDbEntity
  8
0
  6
Continuous
 62
   131
370
    15
100
AcDbLine
 10
5.73205080756818
 20
-7.000000000000183
 30
0.0
 11
4.732050807568367
 21
-7.999999999999996
 31
0.0
1001
PE_URL
1000

  0
ENDSEC
  0
SECTION
  2
OBJECTS
  0
DICTIONARY
  5
C
330
0
100
AcDbDictionary
281
     1
  3
ACAD_DETAILVIEWSTYLE
350
172
  3
ACAD_GROUP
350
D
  3
ACAD_IMAGE_VARS
350
134
  3
ACAD_LAYOUT
350
1A
  3
ACAD_MLINESTYLE
350
17
  3
ACAD_PLOTSETTINGS
350
19
  3
ACAD_PLOTSTYLENAME
350
E
  3
ACAD_SCALELIST
350
47
  3
ACAD_SECTIONVIEWSTYLE
350
173
  3
AcDbVariableDictionary
350
16D
  3
APPDATA
350
132
  3
DWGPROPS
350
176
  0
DICTIONARY
  5
174
330
1F
100
AcDbDictionary
280
     1
281
     1
  3
DIM_BOUNDING_BOXES_V1
360
175
  0
DICTIONARY
  5
172
102
{ACAD_REACTORS
330
C
102
}
330
C
100
AcDbDictionary
281
     1
  0
DICTIONARY
  5
D
102
{ACAD_REACTORS
330
C
102
}
330
C
100
AcDbDictionary
281
     1
  0
RASTERVARIABLES
  5
134
102
{ACAD_REACTORS
330
C
102
}
330
C
100
AcDbRasterVariables
 90
        0
 70
     1
 71
     1
 72
     1
  0
DICTIONARY
  5
1A
102
{ACAD_REACTORS
330
C
102
}
330
C
100
AcDbDictionary
281
     1
  3
Layout1
350
1E
  3
Layout2
350
26
  3
Model
350
22
  0
DICTIONARY
  5
17
102
{ACAD_REACTORS
330
C
102
}
330
C
100
AcDbDictionary
281
     1
  3
Standard
350
18
  0
DICTIONARY
  5
19
102
{ACAD_REACTORS
330
C
102
}
330
C
100
AcDbDictionary
281
     1
  0
ACDBDICTIONARYWDFLT
  5
E
102
{ACAD_REACTORS
330
C
102
}
330
C
100
AcDbDictionary
281
     1
  3
Normal
350
F
100
AcDbDictionaryWithDefault
340
F
  0
DICTIONARY
  5
47
102
{ACAD_REACTORS
330
C
102
}
330
C
100
AcDbDictionary
281
     1
  3
A0
350
48
  3
A1
350
49
  3
A2
350
4A
  3
A3
350
4B
  3
A4
350
4C
  3
A5
350
4D
  3
A6
350
4E
  3
A7
350
4F
  3
A8
350
50
  3
A9
350
51
  3
B0
350
52
  3
B1
350
53
  3
B2
350
54
  3
B3
350
55
  3
B4
350
56
  3
B5
350
57
  3
B6
350
58
  3
B7
350
59
  3
B8
350
5A
  3
B9
350
5B
  3
C0
350
5C
  3
C1
350
5D
  3
C2
350
5E
  3
C3
350
5F
  3
C4
350
60
  3
C5
350
61
  3
C6
350
62
  3
C7
350
63
  3
C8
350
64
  3
C9
350
65
  3
D0
350
66
  3
D1
350
67
  3
D2
350
68
  0
DICTIONARY
  5
173
102
{ACAD_REACTORS
330
C
102
}
330
C
100
AcDbDictionary
281
     1
  0
DICTIONARY
  5
16D
102
{ACAD_REACTORS
330
C
102
}
330
C
100
AcDbDictionary
281
     1
  0
DICTIONARY
  5
132
102
{ACAD_REACTORS
330
C
102
}
330
C
100
AcDbDictionary
281
     1
  0
XRECORD
  5
176
102
{ACAD_REACTORS
330
C
102
}
330
C
100
AcDbXrecord
280
     1
  1
DWGPROPS COOKIE
  2

  3

  4

  6

  7

  8
12014102
  9

300
=
301
=
302
=
303
=
304
=
305
=
306
=
307
=
308
=
309
=
 40
0.0
 41
2458262.17461419
 42
2459702.293067107
  1

 90
        0
  0
DICTIONARY
  5
175
102
{ACAD_REACTORS
330
174
102
}
330
174
100
AcDbDictionary
281
     1
  0
LAYOUT
  5
1E
102
{ACAD_REACTORS
330
1A
102
}
330
1A
100
AcDbPlotSettings
  1

  2
none_device
  4

  6

 40
0.0
 41
0.0
 42
0.0
 43
0.0
 44
0.0
 45
0.0
 46
0.0
 47
0.0
 48
0.0
 49
0.0
140
0.0
141
0.0
142
1.0
143
1.0
 70
   688
 72
     1
 73
     0
 74
     5
  7

 75
    16
147
1.0
148
0.0
149
0.0
100
AcDbLayout
  1
Layout1
 70
     1
 71
     1
 10
0.0
 20
0.0
 11
420.0
 21
297.0
 12
0.0
 22
0.0
 32
0.0
 14
1.000000000000000E+20
 24
1.000000000000000E+20
 34
1.000000000000000E+20
 15
-1.000000000000000E+20
 25
-1.000000000000000E+20
 35
-1.000000000000000E+20
146
0.0
 13
0.0
 23
0.0
 33
0.0
 16
1.0
 26
0.0
 36
0.0
 17
0.0
 27
1.0
 37
0.0
 76
     0
330
1B
  0
LAYOUT
  5
26
102
{ACAD_REACTORS
330
1A
102
}
330
1A
100
AcDbPlotSettings
  1

  2
none_device
  4

  6

 40
0.0
 41
0.0
 42
0.0
 43
0.0
 44
0.0
 45
0.0
 46
0.0
 47
0.0
 48
0.0
 49
0.0
140
0.0
141
0.0
142
1.0
143
1.0
 70
   688
 72
     1
 73
     0
 74
     5
  7

 75
    16
147
1.0
148
0.0
149
0.0
100
AcDbLayout
  1
Layout2
 70
     1
 71
     2
 10
0.0
 20
0.0
 11
0.0
 21
0.0
 12
0.0
 22
0.0
 32
0.0
 14
0.0
 24
0.0
 34
0.0
 15
0.0
 25
0.0
 35
0.0
146
0.0
 13
0.0
 23
0.0
 33
0.0
 16
1.0
 26
0.0
 36
0.0
 17
0.0
 27
1.0
 37
0.0
 76
     0
330
23
  0
LAYOUT
  5
22
102
{ACAD_REACTORS
330
1A
102
}
330
1A
100
AcDbPlotSettings
  1

  2
none_device
  4
ANSI_A_(11.00_x_8.50_Inches)
  6

 40
6.35
 41
19.05
 42
6.35000508
 43
19.05000254
 44
279.4
 45
215.9
 46
129.0319724949912
 47
108.0044260409566
 48
0.0
 49
0.0
140
0.0
141
0.0
142
0.0863862919975999
143
1.0
 70
  1696
 72
     0
 73
     0
 74
     0
  7

 75
     0
147
0.0235690232323232
148
0.0
149
0.0
100
AcDbLayout
  1
Model
 70
     1
 71
     0
 10
0.0
 20
0.0
 11
420.0
 21
297.0
 12
0.0
 22
0.0
 32
0.0
 14
-69.44662331347156
 24
-49.97073246008785
 34
0.0
 15
68.67548849397632
 25
33.16341044024269
 35
0.0
146
0.0
 13
0.0
 23
0.0
 33
0.0
 16
1.0
 26
0.0
 36
0.0
 17
0.0
 27
1.0
 37
0.0
 76
     0
330
1F
331
29
  0
MLINESTYLE
  5
18
102
{ACAD_REACTORS
330
17
102
}
330
17
100
AcDbMlineStyle
  2
Standard
 70
     0
  3

 62
   256
 51
90.0
 52
90.0
 71
     2
 49
0.5
 62
   256
  6
BYLAYER
 49
-0.5
 62
   256
  6
BYLAYER
  0
ACDBPLACEHOLDER
  5
F
102
{ACAD_REACTORS
330
E
102
}
330
E
  0
SCALE
  5
48
102
{ACAD_REACTORS
330
47
102
}
330
47
100
AcDbScale
 70
     0
300
1:1
140
1.0
141
1.0
290
     1
  0
SCALE
  5
49
102
{ACAD_REACTORS
330
47
102
}
330
47
100
AcDbScale
 70
     0
300
1:2
140
1.0
141
2.0
290
     0
  0
SCALE
  5
4A
102
{ACAD_REACTORS
330
47
102
}
330
47
100
AcDbScale
 70
     0
300
1:4
140
1.0
141
4.0
290
     0
  0
SCALE
  5
4B
102
{ACAD_REACTORS
330
47
102
}
330
47
100
AcDbScale
 70
     0
300
1:5
140
1.0
141
5.0
290
     0
  0
SCALE
  5
4C
102
{ACAD_REACTORS
330
47
102
}
330
47
100
AcDbScale
 70
     0
300
1:8
140
1.0
141
8.0
290
     0
  0
SCALE
  5
4D
102
{ACAD_REACTORS
330
47
102
}
330
47
100
AcDbScale
 70
     0
300
1:10
140
1.0
141
10.0
290
     0
  0
SCALE
  5
4E
102
{ACAD_REACTORS
330
47
102
}
330
47
100
AcDbScale
 70
     0
300
1:16
140
1.0
141
16.0
290
     0
  0
SCALE
  5
4F
102
{ACAD_REACTORS
330
47
102
}
330
47
100
AcDbScale
 70
     0
300
1:20
140
1.0
141
20.0
290
     0
  0
SCALE
  5
50
102
{ACAD_REACTORS
330
47
102
}
330
47
100
AcDbScale
 70
     0
300
1:30
140
1.0
141
30.0
290
     0
  0
SCALE
  5
51
102
{ACAD_REACTORS
330
47
102
}
330
47
100
AcDbScale
 70
     0
300
1:40
140
1.0
141
40.0
290
     0
  0
SCALE
  5
52
102
{ACAD_REACTORS
330
47
102
}
330
47
100
AcDbScale
 70
     0
300
1:50
140
1.0
141
50.0
290
     0
  0
SCALE
  5
53
102
{ACAD_REACTORS
330
47
102
}
330
47
100
AcDbScale
 70
     0
300
1:100
140
1.0
141
100.0
290
     0
  0
SCALE
  5
54
102
{ACAD_REACTORS
330
47
102
}
330
47
100
AcDbScale
 70
     0
300
2:1
140
2.0
141
1.0
290
     0
  0
SCALE
  5
55
102
{ACAD_REACTORS
330
47
102
}
330
47
100
AcDbScale
 70
     0
300
4:1
140
4.0
141
1.0
290
     0
  0
SCALE
  5
56
102
{ACAD_REACTORS
330
47
102
}
330
47
100
AcDbScale
 70
     0
300
8:1
140
8.0
141
1.0
290
     0
  0
SCALE
  5
57
102
{ACAD_REACTORS
330
47
102
}
330
47
100
AcDbScale
 70
     0
300
10:1
140
10.0
141
1.0
290
     0
  0
SCALE
  5
58
102
{ACAD_REACTORS
330
47
102
}
330
47
100
AcDbScale
 70
     0
300
100:1
140
100.0
141
1.0
290
     0
  0
SCALE
  5
59
102
{ACAD_REACTORS
330
47
102
}
330
47
100
AcDbScale
 70
     0
300
1/128" = 1'-0"
140
0.0078125
141
12.0
290
     0
  0
SCALE
  5
5A
102
{ACAD_REACTORS
330
47
102
}
330
47
100
AcDbScale
 70
     0
300
1/64" = 1'-0"
140
0.015625
141
12.0
290
     0
  0
SCALE
  5
5B
102
{ACAD_REACTORS
330
47
102
}
330
47
100
AcDbScale
 70
     0
300
1/32" = 1'-0"
140
0.03125
141
12.0
290
     0
  0
SCALE
  5
5C
102
{ACAD_REACTORS
330
47
102
}
330
47
100
AcDbScale
 70
     0
300
1/16" = 1'-0"
140
0.0625
141
12.0
290
     0
  0
SCALE
  5
5D
102
{ACAD_REACTORS
330
47
102
}
330
47
100
AcDbScale
 70
     0
300
3/32" = 1'-0"
140
0.09375
141
12.0
290
     0
  0
SCALE
  5
5E
102
{ACAD_REACTORS
330
47
102
}
330
47
100
AcDbScale
 70
     0
300
1/8" = 1'-0"
140
0.125
141
12.0
290
     0
  0
SCALE
  5
5F
102
{ACAD_REACTORS
330
47
102
}
330
47
100
AcDbScale
 70
     0
300
3/16" = 1'-0"
140
0.1875
141
12.0
290
     0
  0
SCALE
  5
60
102
{ACAD_REACTORS
330
47
102
}
330
47
100
AcDbScale
 70
     0
300
1/4" = 1'-0"
140
0.25
141
12.0
290
     0
  0
SCALE
  5
61
102
{ACAD_REACTORS
330
47
102
}
330
47
100
AcDbScale
 70
     0
300
3/8" = 1'-0"
140
0.375
141
12.0
290
     0
  0
SCALE
  5
62
102
{ACAD_REACTORS
330
47
102
}
330
47
100
AcDbScale
 70
     0
300
1/2" = 1'-0"
140
0.5
141
12.0
290
     0
  0
SCALE
  5
63
102
{ACAD_REACTORS
330
47
102
}
330
47
100
AcDbScale
 70
     0
300
3/4" = 1'-0"
140
0.75
141
12.0
290
     0
  0
SCALE
  5
64
102
{ACAD_REACTORS
330
47
102
}
330
47
100
AcDbScale
 70
     0
300
1" = 1'-0"
140
1.0
141
12.0
290
     0
  0
SCALE
  5
65
102
{ACAD_REACTORS
330
47
102
}
330
47
100
AcDbScale
 70
     0
300
1-1/2" = 1'-0"
140
1.5
141
12.0
290
     0
  0
SCALE
  5
66
102
{ACAD_REACTORS
330
47
102
}
330
47
100
AcDbScale
 70
     0
300
3" = 1'-0"
140
3.0
141
12.0
290
     0
  0
SCALE
  5
67
102
{ACAD_REACTORS
330
47
102
}
330
47
100
AcDbScale
 70
     0
300
6" = 1'-0"
140
6.0
141
12.0
290
     0
  0
SCALE
  5
68
102
{ACAD_REACTORS
330
47
102
}
330
47
100
AcDbScale
 70
     0
300
1'-0" = 1'-0"
140
12.0
141
12.0
290
     0
  0
ENDSEC
  0
EOF
