  0
SECTION
  2
HEADER
  9
$ACADVER
  1
AC1015
  9
$ACADMAINTVER
 70
     6
  9
$DWGCODEPAGE
  3
ANSI_949
  9
$INSBASE
 10
0.0
 20
0.0
 30
0.0
  9
$EXTMIN
 10
-98.45200171353439
 20
-49.97073246008785
 30
0.0
  9
$EXTMAX
 10
82.11301350744041
 20
33.16341044024269
 30
0.0
  9
$LIMMIN
 10
0.0
 20
0.0
  9
$LIMMAX
 10
420.0
 20
297.0
  9
$ORTHOMODE
 70
     0
  9
$REGENMODE
 70
     1
  9
$FILLMODE
 70
     1
  9
$QTEXTMODE
 70
     0
  9
$MIRRTEXT
 70
     1
  9
$LTSCALE
 40
1.0
  9
$ATTMODE
 70
     1
  9
$TEXTSIZE
 40
3.5
  9
$TRACEWID
 40
1.0
  9
$TEXTSTYLE
  7
Standard
  9
$CLAYER
  8
0
  9
$CELTYPE
  6
ByLayer
  9
$CECOLOR
 62
   256
  9
$CELTSCALE
 40
1.0
  9
$DISPSILH
 70
     0
  9
$DIMSCALE
 40
1.0
  9
$DIMASZ
 40
3.302
  9
$DIMEXO
 40
1.0
  9
$DIMDLI
 40
3.75
  9
$DIMRND
 40
0.0
  9
$DIMDLE
 40
0.0
  9
$DIMEXE
 40
1.0
  9
$DIMTP
 40
0.0
  9
$DIMTM
 40
0.0
  9
$DIMTXT
 40
3.5
  9
$DIMCEN
 40
2.5
  9
$DIMTSZ
 40
0.0
  9
$DIMTOL
 70
     0
  9
$DIMLIM
 70
     0
  9
$DIMTIH
 70
     1
  9
$DIMTOH
 70
     1
  9
$DIMSE1
 70
     0
  9
$DIMSE2
 70
     0
  9
$DIMTAD
 70
     1
  9
$DIMZIN
 70
     0
  9
$DIMBLK
  1

  9
$DIMASO
 70
     1
  9
$DIMSHO
 70
     1
  9
$DIMPOST
  1

  9
$DIMAPOST
  1

  9
$DIMALT
 70
     0
  9
$DIMALTD
 70
     3
  9
$DIMALTF
 40
0.0393700787401575
  9
$DIMLFAC
 40
1.0
  9
$DIMTOFL
 70
     1
  9
$DIMTVP
 40
0.0
  9
$DIMTIX
 70
     0
  9
$DIMSOXD
 70
     0
  9
$DIMSAH
 70
     0
  9
$DIMBLK1
  1

  9
$DIMBLK2
  1

  9
$DIMSTYLE
  2
ISO-25
  9
$DIMCLRD
 70
     0
  9
$DIMCLRE
 70
     0
  9
$DIMCLRT
 70
     0
  9
$DIMTFAC
 40
1.0
  9
$DIMGAP
 40
1.524
  9
$DIMJUST
 70
     0
  9
$DIMSD1
 70
     0
  9
$DIMSD2
 70
     0
  9
$DIMTOLJ
 70
     0
  9
$DIMTZIN
 70
     0
  9
$DIMALTZ
 70
     0
  9
$DIMALTTZ
 70
     0
  9
$DIMUPT
 70
     0
  9
$DIMDEC
 70
     2
  9
$DIMTDEC
 70
     2
  9
$DIMALTU
 70
     2
  9
$DIMALTTD
 70
     3
  9
$DIMTXSTY
  7
Standard
  9
$DIMAUNIT
 70
     0
  9
$DIMADEC
 70
     2
  9
$DIMALTRND
 40
0.0
  9
$DIMAZIN
 70
     0
  9
$DIMDSEP
 70
    44
  9
$DIMATFIT
 70
     3
  9
$DIMFRAC
 70
     0
  9
$DIMLDRBLK
  1

  9
$DIMLUNIT
 70
     2
  9
$DIMLWD
 70
    -2
  9
$DIMLWE
 70
    -2
  9
$DIMTMOVE
 70
     0
  9
$LUNITS
 70
     2
  9
$LUPREC
 70
     2
  9
$SKETCHINC
 40
1.0
  9
$FILLETRAD
 40
10.0
  9
$AUNITS
 70
     0
  9
$AUPREC
 70
     2
  9
$MENU
  1
.
  9
$ELEVATION
 40
0.0
  9
$PELEVATION
 40
0.0
  9
$THICKNESS
 40
0.0
  9
$LIMCHECK
 70
     0
  9
$CHAMFERA
 40
0.0
  9
$CHAMFERB
 40
0.0
  9
$CHAMFERC
 40
0.0
  9
$CHAMFERD
 40
0.0
  9
$SKPOLY
 70
     0
  9
$TDCREATE
 40
2458262.549801933
  9
$TDUCREATE
 40
2458262.174801933
  9
$TDUPDATE
 40
2459702.656325081
  9
$TDUUPDATE
 40
2459702.281325081
  9
$TDINDWG
 40
0.0032275231
  9
$TDUSRTIMER
 40
0.0017389005
  9
$USRTIMER
 70
     1
  9
$ANGBASE
 50
0.0
  9
$ANGDIR
 70
     0
  9
$PDMODE
 70
     0
  9
$PDSIZE
 40
-1.0
  9
$PLINEWID
 40
0.0
  9
$SPLFRAME
 70
     0
  9
$SPLINETYPE
 70
     6
  9
$SPLINESEGS
 70
     8
  9
$HANDSEED
  5
177
  9
$SURFTAB1
 70
     6
  9
$SURFTAB2
 70
     6
  9
$SURFTYPE
 70
     6
  9
$SURFU
 70
     6
  9
$SURFV
 70
     6
  9
$UCSBASE
  2

  9
$UCSNAME
  2

  9
$UCSORG
 10
0.0
 20
0.0
 30
0.0
  9
$UCSXDIR
 10
1.0
 20
0.0
 30
0.0
  9
$UCSYDIR
 10
0.0
 20
1.0
 30
0.0
  9
$UCSORTHOREF
  2

  9
$UCSORTHOVIEW
 70
     0
  9
$UCSORGTOP
 10
0.0
 20
0.0
 30
0.0
  9
$UCSORGBOTTOM
 10
0.0
 20
0.0
 30
0.0
  9
$UCSORGLEFT
 10
0.0
 20
0.0
 30
0.0
  9
$UCSORGRIGHT
 10
0.0
 20
0.0
 30
0.0
  9
$UCSORGFRONT
 10
0.0
 20
0.0
 30
0.0
  9
$UCSORGBACK
 10
0.0
 20
0.0
 30
0.0
  9
$PUCSBASE
  2

  9
$PUCSNAME
  2

  9
$PUCSORG
 10
0.0
 20
0.0
 30
0.0
  9
$PUCSXDIR
 10
1.0
 20
0.0
 30
0.0
  9
$PUCSYDIR
 10
0.0
 20
1.0
 30
0.0
  9
$PUCSORTHOREF
  2

  9
$PUCSORTHOVIEW
 70
     0
  9
$PUCSORGTOP
 10
0.0
 20
0.0
 30
0.0
  9
$PUCSORGBOTTOM
 10
0.0
 20
0.0
 30
0.0
  9
$PUCSORGLEFT
 10
0.0
 20
0.0
 30
0.0
  9
$PUCSORGRIGHT
 10
0.0
 20
0.0
 30
0.0
  9
$PUCSORGFRONT
 10
0.0
 20
0.0
 30
0.0
  9
$PUCSORGBACK
 10
0.0
 20
0.0
 30
0.0
  9
$USERI1
 70
     0
  9
$USERI2
 70
     0
  9
$USERI3
 70
     0
  9
$USERI4
 70
     0
  9
$USERI5
 70
     0
  9
$USERR1
 40
0.0
  9
$USERR2
 40
0.0
  9
$USERR3
 40
0.0
  9
$USERR4
 40
0.0
  9
$USERR5
 40
0.0
  9
$WORLDVIEW
 70
     1
  9
$SHADEDGE
 70
     3
  9
$SHADEDIF
 70
    70
  9
$TILEMODE
 70
     1
  9
$MAXACTVP
 70
    64
  9
$PINSBASE
 10
0.0
 20
0.0
 30
0.0
  9
$PLIMCHECK
 70
     0
  9
$PEXTMIN
 10
1.000000000000000E+20
 20
1.000000000000000E+20
 30
1.000000000000000E+20
  9
$PEXTMAX
 10
-1.000000000000000E+20
 20
-1.000000000000000E+20
 30
-1.000000000000000E+20
  9
$PLIMMIN
 10
0.0
 20
0.0
  9
$PLIMMAX
 10
0.0
 20
0.0
  9
$UNITMODE
 70
     0
  9
$VISRETAIN
 70
     1
  9
$PLINEGEN
 70
     0
  9
$PSLTSCALE
 70
     1
  9
$TREEDEPTH
 70
  3020
  9
$CMLSTYLE
  2
Standard
  9
$CMLJUST
 70
     0
  9
$CMLSCALE
 40
20.0
  9
$PROXYGRAPHICS
 70
     1
  9
$MEASUREMENT
 70
     1
  9
$CELWEIGHT
370
    -1
  9
$ENDCAPS
280
     0
  9
$JOINSTYLE
280
     0
  9
$LWDISPLAY
290
     1
  9
$INSUNITS
 70
     4
  9
$HYPERLINKBASE
  1

  9
$STYLESHEET
  1

  9
$XEDIT
290
     1
  9
$CEPSNTYPE
380
     0
  9
$PSTYLEMODE
290
     1
  9
$FINGERPRINTGUID
  2
{57964EF3-90C9-4995-A69B-E3E070D13902}
  9
$VERSIONGUID
  2
{FAEB1C32-E019-11D5-929B-00C0DF256EC4}
  9
$EXTNAMES
290
     1
  9
$PSVPSCALE
 40
0.0
  9
$OLESTARTUP
290
     0
  0
ENDSEC
  0
SECTION
  2
CLASSES
  0
CLASS
  1
ACDBDICTIONARYWDFLT
  2
AcDbDictionaryWithDefault
  3
ObjectDBX Classes
 90
        0
280
     0
281
     0
  0
CLASS
  1
VISUALSTYLE
  2
AcDbVisualStyle
  3
ObjectDBX Classes
 90
     4095
280
     0
281
     0
  0
CLASS
  1
MATERIAL
  2
AcDbMaterial
  3
ObjectDBX Classes
 90
     1153
280
     0
281
     0
  0
CLASS
  1
SCALE
  2
AcDbScale
  3
ObjectDBX Classes
 90
     1153
280
     0
281
     0
  0
CLASS
  1
SUN
  2
AcDbSun
  3
SCENEOE
 90
     1153
280
     0
281
     0
  0
CLASS
  1
ACDBPLACEHOLDER
  2
AcDbPlaceHolder
  3
ObjectDBX Classes
 90
        0
280
     0
281
     0
  0
CLASS
  1
LAYOUT
  2
AcDbLayout
  3
ObjectDBX Classes
 90
        0
280
     0
281
     0
  0
CLASS
  1
TABLESTYLE
  2
AcDbTableStyle
  3
ObjectDBX Classes
 90
     4095
280
     0
281
     0
  0
CLASS
  1
MLEADERSTYLE
  2
AcDbMLeaderStyle
  3
ACDB_MLEADERSTYLE_CLASS
 90
     4095
280
     0
281
     0
  0
CLASS
  1
RASTERVARIABLES
  2
AcDbRasterVariables
  3
ISM
 90
        0
280
     0
281
     0
  0
CLASS
  1
SORTENTSTABLE
  2
AcDbSortentsTable
  3
ObjectDBX Classes
 90
        0
280
     0
281
     0
  0
ENDSEC
  0
SECTION
  2
TABLES
  0
TABLE
  2
VPORT
  5
8
330
0
100
AcDbSymbolTable
 70
     1
  0
VPORT
  5
29
330
8
100
AcDbSymbolTableRecord
100
AcDbViewportTableRecord
  2
*Active
 70
     0
 10
0.0
 20
0.0
 11
1.0
 21
1.0
 12
-8.169494103046986
 22
-8.40366100992258
 13
0.0
 23
0.0
 14
10.0
 24
10.0
 15
10.0
 25
10.0
 16
0.0
 26
0.0
 36
1.0
 17
0.0
 27
0.0
 37
0.0
 40
88.30371292313424
 41
2.085714285714286
 42
50.0
 43
0.0
 44
0.0
 50
0.0
 51
0.0
 71
    16
 72
  2000
 73
     1
 74
     3
 75
     0
 76
     0
 77
     0
 78
     0
281
     0
 65
     1
110
0.0
120
0.0
130
0.0
111
1.0
121
0.0
131
0.0
112
0.0
122
1.0
132
0.0
 79
     0
146
0.0
  0
ENDTAB
  0
TABLE
  2
LTYPE
  5
5
330
0
100
AcDbSymbolTable
 70
     6
  0
LTYPE
  5
14
330
5
100
AcDbSymbolTableRecord
100
AcDbLinetypeTableRecord
  2
ByBlock
 70
     0
  3

 72
    65
 73
     0
 40
0.0
  0
LTYPE
  5
15
330
5
100
AcDbSymbolTableRecord
100
AcDbLinetypeTableRecord
  2
ByLayer
 70
     0
  3

 72
    65
 73
     0
 40
0.0
  0
LTYPE
  5
16
330
5
100
AcDbSymbolTableRecord
100
AcDbLinetypeTableRecord
  2
Continuous
 70
     0
  3
Solid line
 72
    65
 73
     0
 40
0.0
  0
LTYPE
  5
6A
330
5
100
AcDbSymbolTableRecord
100
AcDbLinetypeTableRecord
  2
HIDDEN
 70
     0
  3
Hidden __ __ __ __ __ __ __ __ __ __ __ __ __ __
 72
    65
 73
     2
 40
1.905
 49
1.27
 74
     0
 49
-0.635
 74
     0
  0
LTYPE
  5
6B
330
5
100
AcDbSymbolTableRecord
100
AcDbLinetypeTableRecord
  2
PHANTOM
 70
     0
  3
Phantom ______  __  __  ______  __  __  ______
 72
    65
 73
     6
 40
12.7
 49
6.35
 74
     0
 49
-1.27
 74
     0
 49
1.27
 74
     0
 49
-1.27
 74
     0
 49
1.27
 74
     0
 49
-1.27
 74
     0
  0
LTYPE
  5
6C
330
5
100
AcDbSymbolTableRecord
100
AcDbLinetypeTableRecord
  2
CENTER
 70
     0
  3
Center ____ _ ____ _ ____ _ ____ _ ____ _ ____
 72
    65
 73
     4
 40
10.16
 49
6.35
 74
     0
 49
-1.27
 74
     0
 49
1.27
 74
     0
 49
-1.27
 74
     0
  0
LTYPE
  5
6D
330
5
100
AcDbSymbolTableRecord
100
AcDbLinetypeTableRecord
  2
CENTERX2
 70
     0
  3
Center (2x) ________  __  ________  __  _____
 72
    65
 73
     4
 40
20.32
 49
12.7
 74
     0
 49
-2.54
 74
     0
 49
2.54
 74
     0
 49
-2.54
 74
     0
  0
LTYPE
  5
6E
330
5
100
AcDbSymbolTableRecord
100
AcDbLinetypeTableRecord
  2
DOT2
 70
     0
  3
Dot (.5x) ........................................
 72
    65
 73
     2
 40
0.635
 49
0.0
 74
     0
 49
-0.635
 74
     0
  0
ENDTAB
  0
TABLE
  2
LAYER
  5
2
330
0
100
AcDbSymbolTable
 70
    17
  0
LAYER
  5
10
330
2
100
AcDbSymbolTableRecord
100
AcDbLayerTableRecord
  2
0
 70
     0
 62
     7
  6
Continuous
370
    -3
390
F
  0
LAYER
  5
6F
330
2
100
AcDbSymbolTableRecord
100
AcDbLayerTableRecord
  2
FORMAT
 70
     0
 62
     2
  6
Continuous
370
    -3
390
F
  0
LAYER
  5
70
330
2
100
AcDbSymbolTableRecord
100
AcDbLayerTableRecord
  2
외형선
 70
     0
 62
   100
  6
Continuous
370
    30
390
F
  0
LAYER
  5
71
330
2
100
AcDbSymbolTableRecord
100
AcDbLayerTableRecord
  2
숨은선
 70
     0
 62
     2
  6
HIDDEN
370
    15
390
F
  0
LAYER
  5
72
330
2
100
AcDbSymbolTableRecord
100
AcDbLayerTableRecord
  2
중심선
 70
     0
 62
     1
  6
CENTERX2
370
    -3
390
F
  0
LAYER
  5
73
330
2
100
AcDbSymbolTableRecord
100
AcDbLayerTableRecord
  2
파단선
 70
     0
 62
     4
  6
Continuous
370
    -3
390
F
  0
LAYER
  5
74
330
2
100
AcDbSymbolTableRecord
100
AcDbLayerTableRecord
  2
해칭선
 70
     0
 62
     4
  6
Continuous
370
    -3
390
F
  0
LAYER
  5
75
330
2
100
AcDbSymbolTableRecord
100
AcDbLayerTableRecord
  2
가는실선
 70
     0
 62
     4
  6
Continuous
370
    -3
390
F
  0
LAYER
  5
76
330
2
100
AcDbSymbolTableRecord
100
AcDbLayerTableRecord
  2
치수_보조선
 70
     0
 62
     4
  6
Continuous
370
    -3
390
F
  0
LAYER
  5
77
330
2
100
AcDbSymbolTableRecord
100
AcDbLayerTableRecord
  2
치수문자_일반주서
 70
     0
 62
     7
  6
Continuous
370
    15
390
F
  0
LAYER
  5
78
330
2
100
AcDbSymbolTableRecord
100
AcDbLayerTableRecord
  2
개별주서
 70
     0
 62
   100
  6
Continuous
370
    30
390
F
  0
LAYER
  5
79
330
2
100
AcDbSymbolTableRecord
100
AcDbLayerTableRecord
  2
중간선
 70
     0
 62
     2
  6
Continuous
370
    15
390
F
  0
LAYER
  5
7A
330
2
100
AcDbSymbolTableRecord
100
AcDbLayerTableRecord
  2
윤곽선
 70
     0
 62
     3
  6
Continuous
370
    40
390
F
  0
LAYER
  5
7B
330
2
100
AcDbSymbolTableRecord
100
AcDbLayerTableRecord
  2
중심마크
 70
     0
 62
   100
  6
Continuous
370
    30
390
F
  0
LAYER
  5
7C
330
2
100
AcDbSymbolTableRecord
100
AcDbLayerTableRecord
  2
가상선
 70
     0
 62
     4
  6
PHANTOM
370
    -3
390
F
  0
LAYER
  5
7D
330
2
100
AcDbSymbolTableRecord
100
AcDbLayerTableRecord
  2
특수지정선
 70
     0
 62
     5
  6
CENTERX2
370
    60
390
F
  0
LAYER
  5
13C
330
2
100
AcDbSymbolTableRecord
100
AcDbLayerTableRecord
  2
Defpoints
 70
     0
 62
     7
  6
Continuous
290
     0
370
    -3
390
F
  0
ENDTAB
  0
TABLE
  2
STYLE
  5
3
330
0
100
AcDbSymbolTable
 70
     2
  0
STYLE
  5
11
330
3
100
AcDbSymbolTableRecord
100
AcDbTextStyleTableRecord
  2
Standard
 70
     0
 40
0.0
 41
1.0
 50
0.0
 71
     0
 42
3.5
  3
txt
  4

  0
STYLE
  5
93
330
3
100
AcDbSymbolTableRecord
100
AcDbTextStyleTableRecord
  2
SLDTEXTSTYLE0
 70
     0
 40
0.0
 41
0.75
 50
0.0
 71
     0
 42
3.5
  3
TXT
  4

  0
ENDTAB
  0
TABLE
  2
VIEW
  5
6
330
0
100
AcDbSymbolTable
 70
     0
  0
ENDTAB
  0
TABLE
  2
UCS
  5
7
330
0
100
AcDbSymbolTable
 70
     0
  0
ENDTAB
  0
TABLE
  2
APPID
  5
9
330
0
100
AcDbSymbolTable
 70
     2
  0
APPID
  5
12
330
9
100
AcDbSymbolTableRecord
100
AcDbRegAppTableRecord
  2
ACAD
 70
     0
  0
APPID
  5
173
330
9
100
AcDbSymbolTableRecord
100
AcDbRegAppTableRecord
  2
PE_URL
 70
     0
  0
ENDTAB
  0
TABLE
  2
DIMSTYLE
  5
A
330
0
100
AcDbSymbolTable
 70
     3
100
AcDbDimStyleTable
  0
DIMSTYLE
105
27
330
A
100
AcDbSymbolTableRecord
100
AcDbDimStyleTableRecord
  2
ISO-25
 70
     0
 41
2.5
 42
0.625
 43
3.75
 44
1.25
 73
     0
 74
     0
 77
     1
 78
     8
140
2.5
141
2.5
143
0.03937007874016
147
0.625
171
     3
172
     1
178
     0
271
     2
272
     2
274
     3
278
    44
283
     0
284
     8
340
11
  0
DIMSTYLE
105
E2
102
{ACAD_REACTORS
330
E1
330
104
102
}
330
A
100
AcDbSymbolTableRecord
100
AcDbDimStyleTableRecord
  2
SLDDIMSTYLE0
 70
     0
 41
3.302
 44
0.0
 45
0.000000001
 73
     0
 74
     0
 77
     1
 78
    12
 79
     3
140
3.5
147
0.875
172
     1
173
     1
178
     0
271
     2
272
     2
276
     2
284
    12
289
     0
340
93
  0
DIMSTYLE
105
F0
102
{ACAD_REACTORS
330
EF
330
FA
102
}
330
A
100
AcDbSymbolTableRecord
100
AcDbDimStyleTableRecord
  2
SLDDIMSTYLE1
 70
     0
 41
3.302
 44
0.0
 45
0.000000001
 73
     0
 74
     0
 77
     1
 78
    12
 79
     3
140
3.5
147
0.875
173
     1
178
     0
271
     2
272
     2
276
     2
284
    12
340
93
  0
ENDTAB
  0
TABLE
  2
BLOCK_RECORD
  5
1
330
0
100
AcDbSymbolTable
 70
     7
  0
BLOCK_RECORD
  5
1F
102
{ACAD_XDICTIONARY
360
16E
102
}
330
1
100
AcDbSymbolTableRecord
100
AcDbBlockTableRecord
  2
*Model_Space
340
22
  0
BLOCK_RECORD
  5
1B
330
1
100
AcDbSymbolTableRecord
100
AcDbBlockTableRecord
  2
*Paper_Space
340
1E
  0
BLOCK_RECORD
  5
23
330
1
100
AcDbSymbolTableRecord
100
AcDbBlockTableRecord
  2
*Paper_Space0
340
26
  0
BLOCK_RECORD
  5
7E
330
1
100
AcDbSymbolTableRecord
100
AcDbBlockTableRecord
  2
블럭10
340
0
102
{BLKREFS
331
DA
102
}
  0
BLOCK_RECORD
  5
E3
330
1
100
AcDbSymbolTableRecord
100
AcDbBlockTableRecord
  2
_D
340
0
  0
BLOCK_RECORD
  5
F1
330
1
100
AcDbSymbolTableRecord
100
AcDbBlockTableRecord
  2
_D_1
340
0
  0
BLOCK_RECORD
  5
FB
330
1
100
AcDbSymbolTableRecord
100
AcDbBlockTableRecord
  2
_D_2
340
0
  0
BLOCK_RECORD
  5
105
330
1
100
AcDbSymbolTableRecord
100
AcDbBlockTableRecord
  2
_D_3
340
0
  0
BLOCK_RECORD
  5
111
330
1
100
AcDbSymbolTableRecord
100
AcDbBlockTableRecord
  2
SW_DOWELSYMBOL_0
340
0
102
{BLKREFS
331
117
102
}
  0
ENDTAB
  0
ENDSEC
  0
SECTION
  2
BLOCKS
  0
BLOCK
  5
20
330
1F
100
AcDbEntity
  8
0
100
AcDbBlockBegin
  2
*Model_Space
 70
     0
 10
0.0
 20
0.0
 30
0.0
  3
*Model_Space
  1

  0
ENDBLK
  5
21
330
1F
100
AcDbEntity
  8
0
100
AcDbBlockEnd
  0
BLOCK
  5
1C
330
1B
100
AcDbEntity
 67
     1
  8
0
100
AcDbBlockBegin
  2
*Paper_Space
 70
     0
 10
0.0
 20
0.0
 30
0.0
  3
*Paper_Space
  1

  0
ENDBLK
  5
1D
330
1B
100
AcDbEntity
 67
     1
  8
0
100
AcDbBlockEnd
  0
BLOCK
  5
24
330
23
100
AcDbEntity
  8
0
100
AcDbBlockBegin
  2
*Paper_Space0
 70
     0
 10
0.0
 20
0.0
 30
0.0
  3
*Paper_Space0
  1

  0
ENDBLK
  5
25
330
23
100
AcDbEntity
  8
0
100
AcDbBlockEnd
  0
BLOCK
  5
7F
330
7E
100
AcDbEntity
  8
0
100
AcDbBlockBegin
  2
블럭10
 70
     2
 10
0.0
 20
0.0
 30
0.0
  3
블럭10
  1

  0
ELLIPSE
  5
81
330
7E
100
AcDbEntity
  8
중심선
100
AcDbEllipse
 10
20.54032771741204
 20
12.0471743016438
 30
0.0
 11
6.600054785286829
 21
-1.261213355974178E-13
 31
0.0
210
0.0
220
0.0
230
1.0
 40
0.636358354079598
 41
0.9219305317359503
 42
6.513795318482858
  0
ELLIPSE
  5
82
330
7E
100
AcDbEntity
  8
중심선
100
AcDbEllipse
 10
20.54032771746488
 20
12.04717430159265
 30
0.0
 11
3.960054785062283
 21
1.540847449632565E-10
 31
0.0
210
0.0
220
0.0
230
1.0
 40
0.3939339440162632
 41
1.131841032648279
 42
5.62031148352944
  0
LINE
  5
83
330
7E
100
AcDbEntity
  8
중심선
100
AcDbLine
 10
2.268634060543552
 20
16.24717430164393
 30
0.0
 11
5.714909304380834
 21
16.24717430164393
 31
0.0
  0
LINE
  5
84
330
7E
100
AcDbEntity
  8
중심선
100
AcDbLine
 10
5.245725140726316
 20
7.84717430164391
 30
0.0
 11
8.692000384563599
 21
7.84717430164391
 31
0.0
  0
LINE
  5
85
330
7E
100
AcDbEntity
  8
중심선
100
AcDbLine
 10
15.74043728645272
 20
16.24717430164393
 30
0.0
 11
8.692000384563599
 21
7.84717430164391
 31
0.0
  0
LINE
  5
86
330
7E
100
AcDbEntity
  8
중심선
100
AcDbLine
 10
0.1404042013395286
 20
13.71084872107135
 30
0.0
 11
3.58671253028996
 21
13.71088815037384
 31
0.0
  0
LINE
  5
87
330
7E
100
AcDbEntity
  8
중심선
100
AcDbLine
 10
2.750260043222114
 20
10.84717430164391
 30
0.0
 11
6.196535287059397
 21
10.84717430164391
 31
0.0
  0
LINE
  5
88
330
7E
100
AcDbEntity
  8
중심선
100
AcDbLine
 10
12.29416204261559
 20
16.24717430164393
 30
0.0
 11
5.245725140726316
 21
7.84717430164391
 31
0.0
  0
LINE
  5
89
330
7E
100
AcDbEntity
  8
중심선
100
AcDbLine
 10
10.72767329541681
 20
16.24717430164393
 30
0.0
 11
6.196535287059397
 21
10.84717430164391
 31
0.0
  0
LINE
  5
8A
330
7E
100
AcDbEntity
  8
중심선
100
AcDbLine
 10
7.28139805157953
 20
16.24717430164393
 30
0.0
 11
2.750260043222114
 21
10.84717430164391
 31
0.0
  0
LINE
  5
8B
330
7E
100
AcDbEntity
  8
중심선
100
AcDbLine
 10
5.714909304380834
 20
16.24717430164393
 30
0.0
 11
3.58671253028996
 21
13.71088815037384
 31
0.0
  0
LINE
  5
8C
330
7E
100
AcDbEntity
  8
중심선
100
AcDbLine
 10
2.268634060543552
 20
16.24717430164393
 30
0.0
 11
0.1404042013395286
 21
13.71084872107135
 31
0.0
  0
LINE
  5
8D
330
7E
100
AcDbEntity
  8
중심선
100
AcDbLine
 10
7.28139805157953
 20
16.24717430164393
 30
0.0
 11
10.72767329541681
 21
16.24717430164393
 31
0.0
  0
LINE
  5
8E
330
7E
100
AcDbEntity
  8
중심선
100
AcDbLine
 10
12.29416204261559
 20
16.24717430164393
 30
0.0
 11
15.74043728645272
 21
16.24717430164393
 31
0.0
  0
LINE
  5
8F
330
7E
100
AcDbEntity
  8
중심선
100
AcDbLine
 10
19.22036997980202
 20
11.08717430171403
 30
0.0
 11
23.66174974927406
 21
11.08717430171406
 31
0.0
  0
LINE
  5
90
330
7E
100
AcDbEntity
  8
중심선
100
AcDbLine
 10
19.22039502424796
 20
13.00717430171391
 30
0.0
 11
19.22036997980202
 21
11.08717430171403
 31
0.0
  0
LINE
  5
91
330
7E
100
AcDbEntity
  8
중심선
100
AcDbLine
 10
19.22039502424796
 20
13.00717430171391
 30
0.0
 11
26.96566020931264
 21
13.00717430171391
 31
0.0
  0
LINE
  5
92
330
7E
100
AcDbEntity
  8
중심선
100
AcDbLine
 10
22.22332737316547
 20
13.45928029700563
 30
0.0
 11
24.52862924686651
 21
15.39360700705356
 31
0.0
  0
ATTDEF
  5
94
330
7E
100
AcDbEntity
  8
FORMAT
 62
     2
100
AcDbText
 10
-16.11926103943555
 20
2.075366912832191
 30
0.0
 40
4.233333333333333
  1
SEME7014060E [ 2 FLUTE ]
 41
0.75
  7
SLDTEXTSTYLE0
 11
-16.11926103943555
 21
-0.0412997538344756
 31
0.0
100
AcDbAttributeDefinition
  3

  2
AUTOATTR0
 70
     0
 74
     1
  0
ENDBLK
  5
80
330
7E
100
AcDbEntity
  8
0
100
AcDbBlockEnd
  0
BLOCK
  5
E4
330
E3
100
AcDbEntity
  8
0
100
AcDbBlockBegin
  2
_D
 70
     0
 10
0.0
 20
0.0
 30
0.0
  3
_D
  1

  0
LINE
  5
E6
330
E3
100
AcDbEntity
  8
치수문자_일반주서
 62
     0
370
    -2
100
AcDbLine
 10
66.79455080756885
 20
-6.999999999999778
 30
0.0
 11
81.56268017410707
 21
-6.999999999999719
 31
0.0
  0
LINE
  5
E7
330
E3
100
AcDbEntity
  8
치수문자_일반주서
 62
     0
370
    -2
100
AcDbLine
 10
66.79455080756861
 20
7.000000000000225
 30
0.0
 11
81.56268017410703
 21
7.000000000000281
 31
0.0
  0
LINE
  5
E8
330
E3
100
AcDbEntity
  8
치수문자_일반주서
 62
     0
370
    -2
100
AcDbLine
 10
81.56268017410707
 20
-6.999999999999719
 30
0.0
 11
81.56268017410699
 21
21.47900000000028
 31
0.0
  0
LINE
  5
E9
330
E3
100
AcDbEntity
  8
치수문자_일반주서
 62
     0
370
    -2
100
AcDbLine
 10
81.56268017410707
 20
-6.999999999999719
 30
0.0
 11
81.56268017410703
 21
7.000000000000281
 31
0.0
  0
LINE
  5
EA
330
E3
100
AcDbEntity
  8
치수문자_일반주서
 62
     0
370
    -2
100
AcDbLine
 10
81.56268017410709
 20
-10.30199999999972
 30
0.0
 11
81.5626801741071
 21
-13.60399999999972
 31
0.0
  0
LINE
  5
EB
330
E3
100
AcDbEntity
  8
치수문자_일반주서
 62
     0
370
    -2
100
AcDbLine
 10
81.56268017410702
 20
10.30200000000028
 30
0.0
 11
81.562680174107
 21
13.60400000000028
 31
0.0
  0
SOLID
  5
EC
330
E3
100
AcDbEntity
  8
치수문자_일반주서
 62
     0
100
AcDbTrace
 10
82.11301350744041
 20
-10.30199999999972
 30
0.0
 11
81.01234684077376
 21
-10.30199999999972
 31
0.0
 12
81.56268017410707
 22
-6.999999999999719
 32
0.0
 13
81.56268017410707
 23
-6.999999999999719
 33
0.0
  0
SOLID
  5
ED
330
E3
100
AcDbEntity
  8
치수문자_일반주서
 62
     0
100
AcDbTrace
 10
81.01234684077369
 20
10.30200000000028
 30
0.0
 11
82.11301350744034
 21
10.30200000000028
 31
0.0
 12
81.56268017410703
 22
7.000000000000281
 32
0.0
 13
81.56268017410703
 23
7.000000000000281
 33
0.0
  0
MTEXT
  5
EE
330
E3
100
AcDbEntity
  8
치수문자_일반주서
 62
     0
100
AcDbMText
 10
77.187680174107
 20
17.54150000000027
 30
0.0
 40
3.5
 41
0.0
 71
     2
 72
     1
  1
\A1;%%c14
  7
SLDTEXTSTYLE0
 11
-3.045183153257572E-15
 21
1.0
 31
0.0
 73
     1
 44
1.0
  0
POINT
  5
146
330
E3
100
AcDbEntity
  8
Defpoints
 62
     0
100
AcDbPoint
 10
66.73205080756885
 20
-6.999999999999778
 30
0.0
  0
POINT
  5
147
330
E3
100
AcDbEntity
  8
Defpoints
 62
     0
100
AcDbPoint
 10
66.73205080756861
 20
7.000000000000225
 30
0.0
  0
POINT
  5
148
330
E3
100
AcDbEntity
  8
Defpoints
 62
     0
100
AcDbPoint
 10
81.56268017410703
 20
7.00000000000028
 30
0.0
  0
ENDBLK
  5
E5
330
E3
100
AcDbEntity
  8
0
100
AcDbBlockEnd
  0
BLOCK
  5
F2
330
F1
100
AcDbEntity
  8
0
100
AcDbBlockBegin
  2
_D_1
 70
     0
 10
0.0
 20
0.0
 30
0.0
  3
_D_1
  1

  0
LINE
  5
F4
330
F1
100
AcDbEntity
  8
치수문자_일반주서
 62
     0
370
    -2
100
AcDbLine
 10
-83.26794919243113
 20
7.062499999999989
 30
0.0
 11
-83.26794919243113
 21
28.78841044024269
 31
0.0
  0
LINE
  5
F5
330
F1
100
AcDbEntity
  8
치수문자_일반주서
 62
     0
370
    -2
100
AcDbLine
 10
66.73205080756861
 20
7.062500000000225
 30
0.0
 11
66.73205080756861
 21
28.78841044024269
 31
0.0
  0
LINE
  5
F6
330
F1
100
AcDbEntity
  8
치수문자_일반주서
 62
     0
370
    -2
100
AcDbLine
 10
-79.96594919243114
 20
28.78841044024269
 30
0.0
 11
63.43005080756861
 21
28.78841044024269
 31
0.0
  0
SOLID
  5
F7
330
F1
100
AcDbEntity
  8
치수문자_일반주서
 62
     0
100
AcDbTrace
 10
-79.96594919243114
 20
29.33874377357602
 30
0.0
 11
-79.96594919243114
 21
28.23807710690935
 31
0.0
 12
-83.26794919243113
 22
28.78841044024269
 32
0.0
 13
-83.26794919243113
 23
28.78841044024269
 33
0.0
  0
SOLID
  5
F8
330
F1
100
AcDbEntity
  8
치수문자_일반주서
 62
     0
100
AcDbTrace
 10
63.43005080756861
 20
28.23807710690935
 30
0.0
 11
63.43005080756861
 21
29.33874377357602
 31
0.0
 12
66.73205080756861
 22
28.78841044024269
 32
0.0
 13
66.73205080756861
 23
28.78841044024269
 33
0.0
  0
MTEXT
  5
F9
330
F1
100
AcDbEntity
  8
치수문자_일반주서
 62
     0
100
AcDbMText
 10
-8.267949192431269
 20
33.16341044024269
 30
0.0
 40
3.5
 41
0.0
 71
     2
 72
     1
  1
\A1;150
  7
SLDTEXTSTYLE0
 73
     1
 44
1.0
  0
POINT
  5
13D
330
F1
100
AcDbEntity
  8
Defpoints
 62
     0
100
AcDbPoint
 10
-83.26794919243113
 20
6.999999999999989
 30
0.0
  0
POINT
  5
13E
330
F1
100
AcDbEntity
  8
Defpoints
 62
     0
100
AcDbPoint
 10
66.73205080756861
 20
7.000000000000225
 30
0.0
  0
POINT
  5
13F
330
F1
100
AcDbEntity
  8
Defpoints
 62
     0
100
AcDbPoint
 10
66.73205080756861
 20
28.78841044024269
 30
0.0
  0
ENDBLK
  5
F3
330
F1
100
AcDbEntity
  8
0
100
AcDbBlockEnd
  0
BLOCK
  5
FC
330
FB
100
AcDbEntity
  8
0
100
AcDbBlockBegin
  2
_D_2
 70
     0
 10
0.0
 20
0.0
 30
0.0
  3
_D_2
  1

  0
LINE
  5
FE
330
FB
100
AcDbEntity
  8
치수문자_일반주서
 62
     0
370
    -2
100
AcDbLine
 10
6.73205080756887
 20
5.562690619235669
 30
0.0
 11
6.732050807568868
 21
18.65009530961795
 31
0.0
  0
LINE
  5
FF
330
FB
100
AcDbEntity
  8
치수문자_일반주서
 62
     0
370
    -2
100
AcDbLine
 10
66.73205080756861
 20
7.062500000000225
 30
0.0
 11
66.73205080756861
 21
18.65009530961795
 31
0.0
  0
LINE
  5
100
330
FB
100
AcDbEntity
  8
치수문자_일반주서
 62
     0
370
    -2
100
AcDbLine
 10
10.03405080756887
 20
18.65009530961795
 30
0.0
 11
63.43005080756861
 21
18.65009530961795
 31
0.0
  0
SOLID
  5
101
330
FB
100
AcDbEntity
  8
치수문자_일반주서
 62
     0
100
AcDbTrace
 10
10.03405080756887
 20
19.20042864295128
 30
0.0
 11
10.03405080756887
 21
18.09976197628461
 31
0.0
 12
6.732050807568868
 22
18.65009530961795
 32
0.0
 13
6.732050807568868
 23
18.65009530961795
 33
0.0
  0
SOLID
  5
102
330
FB
100
AcDbEntity
  8
치수문자_일반주서
 62
     0
100
AcDbTrace
 10
63.43005080756861
 20
18.09976197628461
 30
0.0
 11
63.43005080756861
 21
19.20042864295128
 31
0.0
 12
66.73205080756861
 22
18.65009530961795
 32
0.0
 13
66.73205080756861
 23
18.65009530961795
 33
0.0
  0
MTEXT
  5
103
330
FB
100
AcDbEntity
  8
치수문자_일반주서
 62
     0
100
AcDbMText
 10
36.44965113040851
 20
23.02509530961795
 30
0.0
 40
3.5
 41
0.0
 71
     2
 72
     1
  1
\A1;60
  7
SLDTEXTSTYLE0
 73
     1
 44
1.0
  0
POINT
  5
140
330
FB
100
AcDbEntity
  8
Defpoints
 62
     0
100
AcDbPoint
 10
6.73205080756887
 20
5.500190619235669
 30
0.0
  0
POINT
  5
141
330
FB
100
AcDbEntity
  8
Defpoints
 62
     0
100
AcDbPoint
 10
66.73205080756861
 20
7.000000000000225
 30
0.0
  0
POINT
  5
142
330
FB
100
AcDbEntity
  8
Defpoints
 62
     0
100
AcDbPoint
 10
66.73205080756861
 20
18.65009530961795
 30
0.0
  0
ENDBLK
  5
FD
330
FB
100
AcDbEntity
  8
0
100
AcDbBlockEnd
  0
BLOCK
  5
106
330
105
100
AcDbEntity
  8
0
100
AcDbBlockBegin
  2
_D_3
 70
     0
 10
0.0
 20
0.0
 30
0.0
  3
_D_3
  1

  0
LINE
  5
108
330
105
100
AcDbEntity
  8
치수문자_일반주서
 62
     0
370
    -2
100
AcDbLine
 10
-82.33044919243113
 20
7.999999999999993
 30
0.0
 11
-94.07700171353433
 21
7.999999999999947
 31
0.0
  0
LINE
  5
109
330
105
100
AcDbEntity
  8
치수문자_일반주서
 62
     0
370
    -2
100
AcDbLine
 10
-82.33044919243113
 20
-8.0
 30
0.0
 11
-94.07700171353427
 21
-8.000000000000046
 31
0.0
  0
LINE
  5
10A
330
105
100
AcDbEntity
  8
치수문자_일반주서
 62
     0
370
    -2
100
AcDbLine
 10
-94.07700171353433
 20
7.999999999999947
 30
0.0
 11
-94.07700171353439
 21
22.47899999999995
 31
0.0
  0
LINE
  5
10B
330
105
100
AcDbEntity
  8
치수문자_일반주서
 62
     0
370
    -2
100
AcDbLine
 10
-94.07700171353433
 20
7.999999999999947
 30
0.0
 11
-94.07700171353427
 21
-8.000000000000046
 31
0.0
  0
LINE
  5
10C
330
105
100
AcDbEntity
  8
치수문자_일반주서
 62
     0
370
    -2
100
AcDbLine
 10
-94.07700171353434
 20
11.30199999999995
 30
0.0
 11
-94.07700171353436
 21
14.60399999999995
 31
0.0
  0
LINE
  5
10D
330
105
100
AcDbEntity
  8
치수문자_일반주서
 62
     0
370
    -2
100
AcDbLine
 10
-94.07700171353426
 20
-11.30200000000005
 30
0.0
 11
-94.07700171353424
 21
-14.60400000000005
 31
0.0
  0
SOLID
  5
10E
330
105
100
AcDbEntity
  8
치수문자_일반주서
 62
     0
100
AcDbTrace
 10
-94.62733504686767
 20
11.30199999999994
 30
0.0
 11
-93.52666838020102
 21
11.30199999999995
 31
0.0
 12
-94.07700171353433
 22
7.999999999999947
 32
0.0
 13
-94.07700171353433
 23
7.999999999999947
 33
0.0
  0
SOLID
  5
10F
330
105
100
AcDbEntity
  8
치수문자_일반주서
 62
     0
100
AcDbTrace
 10
-93.52666838020093
 20
-11.30200000000004
 30
0.0
 11
-94.62733504686759
 21
-11.30200000000005
 31
0.0
 12
-94.07700171353427
 22
-8.000000000000046
 32
0.0
 13
-94.07700171353427
 23
-8.000000000000046
 33
0.0
  0
MTEXT
  5
110
330
105
100
AcDbEntity
  8
치수문자_일반주서
 62
     0
100
AcDbMText
 10
-98.45200171353437
 20
18.54149999999993
 30
0.0
 40
3.5
 41
0.0
 71
     2
 72
     1
  1
\A1;%%c16
  7
SLDTEXTSTYLE0
 11
-3.552713678800503E-15
 21
1.0
 31
0.0
 73
     1
 44
1.0
  0
POINT
  5
143
330
105
100
AcDbEntity
  8
Defpoints
 62
     0
100
AcDbPoint
 10
-82.26794919243113
 20
7.999999999999993
 30
0.0
  0
POINT
  5
144
330
105
100
AcDbEntity
  8
Defpoints
 62
     0
100
AcDbPoint
 10
-82.26794919243113
 20
-8.0
 30
0.0
  0
POINT
  5
145
330
105
100
AcDbEntity
  8
Defpoints
 62
     0
100
AcDbPoint
 10
-94.07700171353426
 20
-8.000000000000044
 30
0.0
  0
ENDBLK
  5
107
330
105
100
AcDbEntity
  8
0
100
AcDbBlockEnd
  0
BLOCK
  5
112
330
111
100
AcDbEntity
  8
0
100
AcDbBlockBegin
  2
SW_DOWELSYMBOL_0
 70
     0
 10
0.0
 20
0.0
 30
0.0
  3
SW_DOWELSYMBOL_0
  1

  0
CIRCLE
  5
114
330
111
100
AcDbEntity
  8
외형선
 62
     0
100
AcDbCircle
 10
0.0
 20
0.0
 30
0.0
 40
3.000000000000004
  0
HATCH
  5
115
330
111
100
AcDbEntity
  8
0
  6
Continuous
 62
     0
370
    30
100
AcDbHatch
 10
0.0
 20
0.0
 30
0.0
210
0.0
220
0.0
230
1.0
  2
SOLID
 70
     1
 71
     0
 91
        1
 92
        0
 93
        3
 72
     2
 10
0.0000000000000104
 20
0.0
 40
3.000000000000004
 50
0.0
 51
90.0
 73
     1
 72
     1
 10
0.0000000000000104
 20
3.000000000000004
 11
0.0000000000000104
 21
0.0
 72
     1
 10
0.0000000000000104
 20
0.0
 11
3.000000000000015
 21
0.0
 97
        0
 75
     0
 76
     1
 98
        1
 10
0.0
 20
0.0
  0
HATCH
  5
116
330
111
100
AcDbEntity
  8
0
  6
Continuous
 62
     0
370
    30
100
AcDbHatch
 10
0.0
 20
0.0
 30
0.0
210
0.0
220
0.0
230
1.0
  2
SOLID
 70
     1
 71
     0
 91
        1
 92
        0
 93
        3
 72
     2
 10
0.0000000000000104
 20
0.0
 40
3.000000000000004
 50
180.0
 51
270.0000000000007
 73
     1
 72
     1
 10
0.0000000000000104
 20
-3.000000000000004
 11
0.0000000000000104
 21
0.0
 72
     1
 10
0.0000000000000104
 20
0.0
 11
-2.999999999999994
 21
0.0
 97
        0
 75
     0
 76
     1
 98
        1
 10
0.0
 20
0.0
  0
ENDBLK
  5
113
330
111
100
AcDbEntity
  8
0
100
AcDbBlockEnd
  0
ENDSEC
  0
SECTION
  2
ENTITIES
  0
LINE
  5
95
330
1F
100
AcDbEntity
  8
0
  6
Continuous
 62
     1
370
    15
100
AcDbLine
 10
7.130341493090176
 20
1.690688086610807
 30
0.0
 11
6.732050807568864
 21
1.906188193690606
 31
0.0
  0
LINE
  5
96
330
1F
100
AcDbEntity
  8
0
  6
Continuous
 62
     1
370
    15
100
AcDbLine
 10
44.76271614711823
 20
1.949994610238241
 30
0.0
 11
44.64902385065341
 21
2.012626222005381
 31
0.0
  0
LINE
  5
97
330
1F
100
AcDbEntity
  8
0
  6
Continuous
 62
     1
370
    15
100
AcDbLine
 10
29.14142333456429
 20
-7.000000000000004
 30
0.0
 11
32.53521474162945
 21
-7.000000000000004
 31
0.0
  0
LINE
  5
98
330
1F
100
AcDbEntity
  8
0
  6
Continuous
 62
     1
370
    15
100
AcDbLine
 10
32.53521474162947
 20
7.000000000000005
 30
0.0
 11
29.14142333456429
 21
7.000000000000005
 31
0.0
  0
SPLINE
  5
99
330
1F
100
AcDbEntity
  8
0
  6
Continuous
 62
     1
370
    15
100
AcDbSpline
210
0.0
220
0.0
230
1.0
 70
     8
 71
     3
 72
     9
 73
     5
 74
     0
 42
0.000000001
 43
0.00000001
 40
0.0
 40
0.0
 40
0.0
 40
0.0
 40
0.4371339611189581
 40
1.0
 40
1.0
 40
1.0
 40
1.0
 10
48.59781592530254
 20
1.793556323851452
 30
0.0
 10
48.31455464571658
 20
1.928184584446487
 30
0.0
 10
47.66655813942622
 20
2.236163997097059
 30
0.0
 10
47.0187055473339
 20
2.574636814400646
 30
0.0
 10
46.65405132504407
 20
2.765151668345222
 30
0.0
  0
SPLINE
  5
9A
330
1F
100
AcDbEntity
  8
0
  6
Continuous
 62
     1
370
    15
100
AcDbSpline
210
0.0
220
0.0
230
1.0
 70
     8
 71
     3
 72
     9
 73
     5
 74
     0
 42
0.000000001
 43
0.00000001
 40
0.0
 40
0.0
 40
0.0
 40
0.0
 40
0.4370094418704613
 40
1.0
 40
1.0
 40
1.0
 40
1.0
 10
10.50761240275052
 20
1.793751579663162
 30
0.0
 10
10.2245617098628
 20
1.92828181033685
 30
0.0
 10
9.576862448088916
 20
2.236124657159289
 30
0.0
 10
8.929204550818637
 20
2.57448872963921
 30
0.0
 10
8.56457926975744
 20
2.764984507655665
 30
0.0
  0
SPLINE
  5
9B
330
1F
100
AcDbEntity
  8
0
  6
Continuous
 62
     1
370
    15
100
AcDbSpline
210
0.0
220
0.0
230
1.0
 70
     8
 71
     3
 72
     9
 73
     5
 74
     0
 42
0.000000001
 43
0.00000001
 40
0.0
 40
0.0
 40
0.0
 40
0.0
 40
0.5009657078313022
 40
1.0
 40
1.0
 40
1.0
 40
1.0
 10
6.732050807568861
 20
-5.500127993066628
 30
0.0
 10
6.975952777487736
 20
-5.508551346542124
 30
0.0
 10
7.462816381335461
 20
-5.525365578222688
 30
0.0
 10
7.950296384052452
 20
-5.550126546426434
 30
0.0
 10
8.193565622154724
 20
-5.562483118667401
 30
0.0
  0
SPLINE
  5
9C
330
1F
100
AcDbEntity
  8
0
  6
Continuous
 62
     1
370
    15
100
AcDbSpline
210
0.0
220
0.0
230
1.0
 70
     8
 71
     3
 72
    14
 73
    10
 74
     0
 42
0.000000001
 43
0.00000001
 40
0.0
 40
0.0
 40
0.0
 40
0.0
 40
0.1572727144047159
 40
0.2768703176964103
 40
0.3581966054992912
 40
0.5305912270893598
 40
0.7131929249163027
 40
0.9205565840405245
 40
1.0
 40
1.0
 40
1.0
 40
1.0
 10
46.28310305888015
 20
5.562469781781069
 30
0.0
 10
45.98190433032845
 20
5.547494719356941
 30
0.0
 10
45.45165985671137
 20
5.521131911882133
 30
0.0
 10
44.76732918895646
 20
5.497624872416752
 30
0.0
 10
44.05807188891578
 20
5.478896761189339
 30
0.0
 10
43.23602246263075
 20
5.465859390981187
 30
0.0
 10
42.16089960106171
 20
5.466694595475919
 30
0.0
 10
41.26497192792021
 20
5.478016532526979
 30
0.0
 10
40.71849997090115
 20
5.499058160817606
 30
0.0
 10
40.56713132360058
 20
5.50488653457118
 30
0.0
  0
SPLINE
  5
9D
330
1F
100
AcDbEntity
  8
0
  6
Continuous
 62
     1
370
    15
100
AcDbSpline
210
0.0
220
0.0
230
1.0
 70
     8
 71
     3
 72
    22
 73
    18
 74
     0
 42
0.000000001
 43
0.00000001
 40
0.0
 40
0.0
 40
0.0
 40
0.0
 40
0.086778796483341
 40
0.1511022502893332
 40
0.1931916478299862
 40
0.2281487132892828
 40
0.2629089584616056
 40
0.2986729293494714
 40
0.3951503327187816
 40
0.5001565901471009
 40
0.6127502218283538
 40
0.711898685914731
 40
0.7586093545972702
 40
0.8055075954996441
 40
0.8496658734426255
 40
0.9146045833007427
 40
1.0
 40
1.0
 40
1.0
 40
1.0
 10
35.75537844291338
 20
-5.824973174599776
 30
0.0
 10
36.06088498137327
 20
-5.795328250942226
 30
0.0
 10
36.5928435623874
 20
-5.743709481659439
 30
0.0
 10
37.27185663685074
 20
-5.687433598385022
 30
0.0
 10
37.76624380979834
 20
-5.649960438386654
 30
0.0
 10
38.15697987234934
 20
-5.622556797585434
 30
0.0
 10
38.52684382273539
 20
-5.598474061546347
 30
0.0
 10
39.11302193485526
 20
-5.563300572881534
 30
0.0
 10
39.9457420139631
 20
-5.521988511006602
 30
0.0
 10
41.0475450886497
 20
-5.484534362035516
 30
0.0
 10
42.16110019771043
 20
-5.465801342894572
 30
0.0
 10
43.0703311951582
 20
-5.466000185898988
 30
0.0
 10
43.74307719394065
 20
-5.474012800147383
 30
0.0
 10
44.22126397261346
 20
-5.483180755199111
 30
0.0
 10
44.76742407629004
 20
-5.497637357702569
 30
0.0
 10
45.45162238721809
 20
-5.521126981642068
 30
0.0
 10
45.98189075662469
 20
-5.547492933327495
 30
0.0
 10
46.28310305888015
 20
-5.562469781781064
 30
0.0
  0
SPLINE
  5
9E
330
1F
100
AcDbEntity
  8
0
  6
Continuous
 62
     1
370
    15
100
AcDbSpline
210
0.0
220
0.0
230
1.0
 70
     8
 71
     3
 72
     9
 73
     5
 74
     0
 42
0.000000001
 43
0.00000001
 40
0.0
 40
0.0
 40
0.0
 40
0.0
 40
0.4990342921686976
 40
0.9999999999999999
 40
0.9999999999999999
 40
0.9999999999999999
 40
0.9999999999999999
 10
8.193565622154724
 20
5.562483118667402
 30
0.0
 10
7.950296384052452
 20
5.550126546426434
 30
0.0
 10
7.462816381335458
 20
5.525365578222689
 30
0.0
 10
6.975952777487736
 20
5.508551346542124
 30
0.0
 10
6.732050807568861
 20
5.500127993066629
 30
0.0
  0
SPLINE
  5
9F
330
1F
100
AcDbEntity
  8
0
  6
Continuous
 62
     1
370
    15
100
AcDbSpline
210
0.0
220
0.0
230
1.0
 70
     8
 71
     3
 72
    15
 73
    11
 74
     0
 42
0.000000001
 43
0.00000001
 40
0.0
 40
0.0
 40
0.0
 40
0.0
 40
0.1595178406141311
 40
0.2807391021050676
 40
0.3665403377149419
 40
0.459821794995893
 40
0.5743476471311763
 40
0.6940593931497641
 40
0.9307592928244537
 40
1.0
 40
1.0
 40
1.0
 40
1.0
 10
51.90159978611118
 20
-5.264944398054401
 30
0.0
 10
52.17835433550808
 20
-5.222483749155905
 30
0.0
 10
52.66542100718605
 20
-5.147756280424697
 30
0.0
 10
53.30330222956519
 20
-5.060407807659353
 30
0.0
 10
53.83353609172747
 20
-4.992547552783809
 30
0.0
 10
54.35010300717082
 20
-4.9307691292277
 30
0.0
 10
54.92331380476134
 20
-4.868261707528454
 30
0.0
 10
55.74622009057581
 20
-4.789184706715035
 30
0.0
 10
56.4895682138765
 20
-4.727023523171965
 30
0.0
 10
57.02438536749111
 20
-4.698299640539005
 30
0.0
 10
57.14542558607189
 20
-4.691798829918246
 30
0.0
  0
SPLINE
  5
A0
330
1F
100
AcDbEntity
  8
0
  6
Continuous
 62
     1
370
    15
100
AcDbSpline
210
0.0
220
0.0
230
1.0
 70
     8
 71
     3
 72
    23
 73
    19
 74
     0
 42
0.000000001
 43
0.00000001
 40
0.0
 40
0.0
 40
0.0
 40
0.0
 40
0.1004911926791726
 40
0.1766857552864601
 40
0.2654241169407011
 40
0.3433044659694552
 40
0.4043407440099908
 40
0.4646953400348539
 40
0.5167346924528374
 40
0.5770766161122737
 40
0.6462505037355508
 40
0.7078472129684132
 40
0.7569202106608514
 40
0.8024777838088514
 40
0.8271351288207577
 40
0.8673206914628794
 40
0.9250097224371404
 40
1.0
 40
1.0
 40
1.0
 40
1.0
 10
26.04151926156032
 20
4.787682351478097
 30
0.0
 10
25.64160151882019
 20
4.755675237940083
 30
0.0
 10
24.93845762586147
 20
4.699399649212043
 30
0.0
 10
23.83102281929386
 20
4.643597800682848
 30
0.0
 10
22.84060697145154
 20
4.612614733345565
 30
0.0
 10
21.91264500797017
 20
4.603972764289451
 30
0.0
 10
21.10035228729789
 20
4.610763625129328
 30
0.0
 10
20.39315014785291
 20
4.62781537868142
 30
0.0
 10
19.68873754596007
 20
4.654810565601445
 30
0.0
 10
18.94848397477723
 20
4.69365130130965
 30
0.0
 10
18.16967699892574
 20
4.747462910208514
 30
0.0
 10
17.43616172891373
 20
4.809650654162492
 30
0.0
 10
16.79823667410794
 20
4.872146914277973
 30
0.0
 10
16.31529679521535
 20
4.92488206735796
 30
0.0
 10
15.8707007115384
 20
4.977061089607042
 30
0.0
 10
15.3707278415152
 20
5.039551789803684
 30
0.0
 10
14.66381173811829
 20
5.134619873824767
 30
0.0
 10
14.11928454965732
 20
5.217913404014157
 30
0.0
 10
13.81151806026695
 20
5.264990864825201
 30
0.0
  0
SPLINE
  5
A1
330
1F
100
AcDbEntity
  8
0
  6
Continuous
 62
     1
370
    15
100
AcDbSpline
210
0.0
220
0.0
230
1.0
 70
     8
 71
     3
 72
    17
 73
    13
 74
     0
 42
0.000000001
 43
0.00000001
 40
0.0
 40
0.0
 40
0.0
 40
0.0
 40
0.1746458992444222
 40
0.3089986849451337
 40
0.4231692022658881
 40
0.4920142041785273
 40
0.5617710007385391
 40
0.6337462738985393
 40
0.7154530815806996
 40
0.811180791420852
 40
0.9768161029330126
 40
1.0
 40
1.0
 40
1.0
 40
1.0
 10
13.81151806026695
 20
-5.264990864825199
 30
0.0
 10
14.11926763869256
 20
-5.217916099512381
 30
0.0
 10
14.66376490680674
 20
-5.134627338432433
 30
0.0
 10
15.40699777218174
 20
-5.034670876032592
 30
0.0
 10
15.96245669737659
 20
-4.96573904271894
 30
0.0
 10
16.3988179827098
 20
-4.915709459357733
 30
0.0
 10
16.76562892122546
 20
-4.876160010841529
 30
0.0
 10
17.15667779124771
 20
-4.836860258229038
 30
0.0
 10
17.59376901170954
 20
-4.796240324840094
 30
0.0
 10
18.19461304290287
 20
-4.746541021299116
 30
0.0
 10
18.6924478103983
 20
-4.70915942601833
 30
0.0
 10
19.0230057787665
 20
-4.691900446211118
 30
0.0
 10
19.06359286718293
 20
-4.689781327005279
 30
0.0
  0
SPLINE
  5
A2
330
1F
100
AcDbEntity
  8
0
  6
Continuous
 62
     1
370
    15
100
AcDbSpline
210
0.0
220
0.0
230
1.0
 70
     8
 71
     3
 72
    25
 73
    21
 74
     0
 42
0.000000001
 43
0.00000001
 40
0.0
 40
0.0
 40
0.0
 40
0.0
 40
0.06657321934707
 40
0.1187672709292154
 40
0.1648271941982974
 40
0.1949430592400428
 40
0.2278095795921398
 40
0.2641408950387971
 40
0.3041301151712918
 40
0.3478317888676826
 40
0.4181809567377643
 40
0.4736838341644644
 40
0.51996696661144
 40
0.5876044276245156
 40
0.6687957427361125
 40
0.7686938125553224
 40
0.8225177862318143
 40
0.8650923308958864
 40
0.9211020646789795
 40
1.0
 40
1.0
 40
1.0
 40
1.0
 10
64.13103966296325
 20
4.787659371609349
 30
0.0
 10
63.858403731019
 20
4.765429348700912
 30
0.0
 10
63.37201857627004
 20
4.725770771582013
 30
0.0
 10
62.6987998204954
 20
4.683890583235303
 30
0.0
 10
62.17589388273567
 20
4.657226472645453
 30
0.0
 10
61.73433406930415
 20
4.639019366654344
 30
0.0
 10
61.33053305438415
 20
4.625537900421264
 30
0.0
 10
60.88554767585519
 20
4.614691035166904
 30
0.0
 10
60.39610278043359
 20
4.607550655906886
 30
0.0
 10
59.76802643909999
 20
4.605121213402014
 30
0.0
 10
59.07723364572302
 20
4.612598130164062
 30
0.0
 10
58.37588571722701
 20
4.631550183005025
 30
0.0
 10
57.68507383863805
 20
4.659096264019457
 30
0.0
 10
56.8894768788555
 20
4.702252589206608
 30
0.0
 10
55.87639837317666
 20
4.77645610879308
 30
0.0
 10
54.9193038318909
 20
4.867016864225526
 30
0.0
 10
54.11758140978252
 20
4.957659338024294
 30
0.0
 10
53.48880518184857
 20
5.035876799034136
 30
0.0
 10
52.76639295498297
 20
5.132752122061453
 30
0.0
 10
52.22072329873919
 20
5.216163180792713
 30
0.0
 10
51.90159978611118
 20
5.26494439805441
 30
0.0
  0
LINE
  5
A5
330
1F
100
AcDbEntity
  8
0
  6
Continuous
 62
   131
370
    15
100
AcDbLine
 10
4.732050807568261
 20
8.0
 30
0.0
 11
-82.26794919243113
 21
7.999999999999993
 31
0.0
  0
LINE
  5
A6
330
1F
100
AcDbEntity
  8
0
  6
Continuous
 62
   131
370
    15
100
AcDbLine
 10
-82.26794919243113
 20
-8.000000000000004
 30
0.0
 11
4.732050807568243
 21
-7.999999999999997
 31
0.0
  0
LINE
  5
A7
330
1F
100
AcDbEntity
  8
0
  6
Continuous
 62
   131
370
    15
100
AcDbLine
 10
-82.26794919243113
 20
7.999999999999993
 30
0.0
 11
-83.26794919243113
 21
6.999999999999989
 31
0.0
  0
LINE
  5
A8
330
1F
100
AcDbEntity
  8
0
  6
Continuous
 62
   131
370
    15
100
AcDbLine
 10
-83.26794919243113
 20
-6.999999999999998
 30
0.0
 11
-82.26794919243113
 21
-8.0
 31
0.0
  0
SPLINE
  5
A9
330
1F
100
AcDbEntity
  8
0
  6
Continuous
 62
   131
370
    15
100
AcDbSpline
210
0.0
220
0.0
230
1.0
 70
     8
 71
     3
 72
     9
 73
     5
 74
     0
 42
0.000000001
 43
0.00000001
 40
0.0
 40
0.0
 40
0.0
 40
0.0
 40
0.4410993733743391
 40
0.4962402682543039
 40
0.4962402682543039
 40
0.4962402682543039
 40
0.4962402682543039
 10
6.73205080756887
 20
5.500127993066628
 30
0.0
 10
6.436964698711041
 20
5.491703311114459
 30
0.0
 10
6.104990502743511
 20
5.482225477582482
 30
0.0
 10
5.769383047016084
 20
5.476514251805489
 30
0.0
 10
5.732050807568002
 20
5.475921553854846
 30
0.0
  0
SPLINE
  5
AB
330
1F
100
AcDbEntity
  8
0
  6
Continuous
 62
     1
370
    15
100
AcDbSpline
210
0.0
220
0.0
230
1.0
 70
     8
 71
     3
 72
    16
 73
    12
 74
     0
 42
0.000000001
 43
0.00000001
 40
0.0
 40
0.0
 40
0.0
 40
0.0
 40
0.1202880313594312
 40
0.240577631180293
 40
0.3608673540384064
 40
0.4811557544111623
 40
0.6014413878338161
 40
0.7167844876017885
 40
0.8321271971721245
 40
0.9474694813058201
 40
0.9999999999999999
 40
0.9999999999999999
 40
0.9999999999999999
 40
0.9999999999999999
 10
6.732050807568864
 20
1.916983191430021
 30
0.0
 10
7.630598321060074
 20
1.408938098965901
 30
0.0
 10
9.427705064396173
 20
0.3928412895287755
 30
0.0
 10
12.12338144050062
 20
-1.17593190654362
 30
0.0
 10
14.8190647981835
 20
-2.679955983497429
 30
0.0
 10
17.5146954504395
 20
-4.054250397226063
 30
0.0
 10
20.17342693601214
 20
-5.211077542753773
 30
0.0
 10
22.79496465505839
 20
-6.111768837801906
 30
0.0
 10
25.37964085548229
 20
-6.705204287619396
 30
0.0
 10
27.49511943365454
 20
-6.997086423824352
 30
0.0
 10
28.74904631753106
 20
-6.969289132405729
 30
0.0
 10
29.14142333456429
 20
-6.960590843511304
 30
0.0
  0
SPLINE
  5
AC
330
1F
100
AcDbEntity
  8
0
  6
Continuous
 62
     1
370
    15
100
AcDbSpline
210
0.0
220
0.0
230
1.0
 70
     8
 71
     3
 72
    11
 73
     7
 74
     0
 42
0.000000001
 43
0.00000001
 40
0.0
 40
0.0
 40
0.0
 40
0.0
 40
0.1914430214436901
 40
0.4609641788226645
 40
0.7304831986006541
 40
1.0
 40
1.0
 40
1.0
 40
1.0
 10
57.14313968019515
 20
4.69086565583595
 30
0.0
 10
57.75505143363817
 20
4.950865808202309
 30
0.0
 10
59.22843707501952
 20
5.576904594184272
 30
0.0
 10
61.56328517240937
 20
6.28784576401391
 30
0.0
 10
64.147677728429
 20
6.841871547524111
 30
0.0
 10
65.87059547805343
 20
6.943346459451585
 30
0.0
 10
66.73205080756861
 20
7.000000000000225
 30
0.0
  0
SPLINE
  5
AD
330
1F
100
AcDbEntity
  8
0
  6
Continuous
 62
     1
370
    15
100
AcDbSpline
210
0.0
220
0.0
230
1.0
 70
    24
 71
     3
 72
    10
 73
     6
 74
     0
 42
0.000000001
 43
0.00000001
 40
0.0
 40
0.0
 40
0.0
 40
0.0
 40
0.5
 40
0.5
 40
1.0
 40
1.0
 40
1.0
 40
1.0
 10
66.73205080756885
 20
4.900000000000008
 30
0.0
 10
66.73205080756885
 20
5.197025797651206
 30
0.0
 10
66.73205080756884
 20
5.542197282069827
 30
0.0
 10
66.73205080756883
 20
6.266366126725996
 30
0.0
 10
66.73205080756885
 20
6.643514050610316
 30
0.0
 10
66.73205080756861
 20
7.000000000000225
 30
0.0
  0
SPLINE
  5
AE
330
1F
100
AcDbEntity
  8
0
  6
Continuous
 62
     1
370
    15
100
AcDbSpline
210
0.0
220
0.0
230
1.0
 70
     8
 71
     3
 72
     9
 73
     5
 74
     0
 42
0.000000001
 43
0.00000001
 40
0.0
 40
0.0
 40
0.0
 40
0.0
 40
0.9935059418673834
 40
0.9999999999999999
 40
0.9999999999999999
 40
0.9999999999999999
 40
0.9999999999999999
 10
66.73205080756885
 20
4.900000000000007
 30
0.0
 10
65.87059572422335
 20
4.898928321930341
 30
0.0
 10
65.00350973405168
 20
4.897849638829912
 30
0.0
 10
64.13642254428389
 20
4.787665120680874
 30
0.0
 10
64.1307916296675
 20
4.786949576014702
 30
0.0
  0
SPLINE
  5
AF
330
1F
100
AcDbEntity
  8
0
  6
Continuous
 62
     1
370
    15
100
AcDbSpline
210
0.0
220
0.0
230
1.0
 70
     8
 71
     3
 72
     9
 73
     5
 74
     0
 42
0.000000001
 43
0.00000001
 40
0.0
 40
0.0
 40
0.0
 40
0.0
 40
0.3655650582087548
 40
0.9999999999999999
 40
0.9999999999999999
 40
0.9999999999999999
 40
0.9999999999999999
 10
11.24329898058994
 20
-0.6589190349362793
 30
0.0
 10
10.69358069678196
 20
-0.4388429635764258
 30
0.0
 10
9.189831168581504
 20
0.1631731931049923
 30
0.0
 10
7.686081892199139
 20
0.7651330967441915
 30
0.0
 10
6.73205080756887
 20
1.14703749317019
 30
0.0
  0
LINE
  5
B0
330
1F
100
AcDbEntity
  8
0
  6
Continuous
 62
   131
370
    15
100
AcDbLine
 10
6.732050807568864
 20
1.916983191430021
 30
0.0
 11
6.732050807568864
 21
1.890594868745432
 31
0.0
  0
SPLINE
  5
B1
330
1F
100
AcDbEntity
  8
0
  6
Continuous
 62
   131
370
    15
100
AcDbSpline
210
0.0
220
0.0
230
1.0
 70
    24
 71
     3
 72
     9
 73
     5
 74
     0
 42
0.000000001
 43
0.00000001
 40
0.0
 40
0.0
 40
0.0
 40
0.0
 40
0.536077944954408
 40
1.0
 40
1.0
 40
1.0
 40
1.0
 10
6.732050807568864
 20
1.787048189009434
 30
0.0
 10
6.732050807568864
 20
1.71622592381852
 30
0.0
 10
6.732050807568864
 20
1.584114043713217
 30
0.0
 10
6.73205080756887
 20
1.285548591381526
 30
0.0
 10
6.732050807568873
 20
1.147037493170191
 30
0.0
  0
SPLINE
  5
B2
330
1F
100
AcDbEntity
  8
0
  6
Continuous
 62
     1
370
    15
100
AcDbSpline
210
0.0
220
0.0
230
1.0
 70
     8
 71
     3
 72
    26
 73
    22
 74
     0
 42
0.000000001
 43
0.00000001
 40
0.0
 40
0.0
 40
0.0
 40
0.0
 40
0.0240658270775943
 40
0.0782866995101916
 40
0.132507388517371
 40
0.1867278775338631
 40
0.2409481500078149
 40
0.2951681894018954
 40
0.3493879791944004
 40
0.4036075028803515
 40
0.4578267439725978
 40
0.5120456860029106
 40
0.5662643125230774
 40
0.6204826071059929
 40
0.674700553346746
 40
0.7289181348637059
 40
0.7831353352996016
 40
0.8373521383226009
 40
0.8915685276273839
 40
0.945784486936213
 40
1.0
 40
1.0
 40
1.0
 40
1.0
 10
19.06303800346696
 20
4.68954163489312
 30
0.0
 10
19.44546379791007
 20
4.859314156529885
 30
0.0
 10
20.68950387008309
 20
5.411588148344571
 30
0.0
 10
22.79496060154452
 20
6.100672153675597
 30
0.0
 10
25.37964195252516
 20
6.718580997293643
 30
0.0
 10
27.96428820850151
 20
7.019409832205439
 30
0.0
 10
30.54892841748578
 20
7.005916402098636
 30
0.0
 10
33.13355359677031
 20
6.674325387540336
 30
0.0
 10
35.71816495504946
 20
6.040825897927996
 30
0.0
 10
38.30276097150107
 20
5.133784101023575
 30
0.0
 10
40.88734085799307
 20
3.994349317703686
 30
0.0
 10
43.47190363149254
 20
2.674083235555166
 30
0.0
 10
46.05644836263466
 20
1.232765752787579
 30
0.0
 10
48.6409741094227
 20
-0.2643650044831874
 30
0.0
 10
51.22547993424926
 20
-1.749492451101809
 30
0.0
 10
53.80996490249873
 20
-3.155533220538025
 30
0.0
 10
56.39442807150363
 20
-4.418281885520689
 30
0.0
 10
58.97886853650147
 20
-5.482644800916677
 30
0.0
 10
61.56328525823755
 20
-6.292717284421714
 30
0.0
 10
64.14767770697225
 20
-6.840653683141696
 30
0.0
 10
65.8705954709012
 20
-6.942940505771237
 30
0.0
 10
66.73205080756885
 20
-6.999999999999778
 30
0.0
  0
SPLINE
  5
B3
330
1F
100
AcDbEntity
  8
0
  6
Continuous
 62
     1
370
    15
100
AcDbSpline
210
0.0
220
0.0
230
1.0
 70
     8
 71
     3
 72
    17
 73
    13
 74
     0
 42
0.000000001
 43
0.00000001
 40
0.0
 40
0.0
 40
0.0
 40
0.0
 40
0.0302152878991613
 40
0.1410987957386928
 40
0.2519830419068742
 40
0.3628679898713412
 40
0.4737536030518731
 40
0.5846398448228712
 40
0.6955266785158339
 40
0.8064140674218435
 40
0.9173019747940567
 40
1.0
 40
1.0
 40
1.0
 40
1.0
 10
49.34525424512676
 20
-0.6640182212548157
 30
0.0
 10
49.11049700030389
 20
-0.571173778119078
 30
0.0
 10
48.01423193587729
 20
-0.1376105050765666
 30
0.0
 10
46.05645143191187
 20
0.6641403333936892
 30
0.0
 10
43.47190733488151
 20
1.682013031161897
 30
0.0
 10
40.8873450464431
 20
2.626515018340639
 30
0.0
 10
38.30276569414524
 20
3.451500498838605
 30
0.0
 10
35.71817016630025
 20
4.119913448086728
 30
0.0
 10
33.13355943154014
 20
4.603707096338167
 30
0.0
 10
30.5489343832059
 20
4.871827700459142
 30
0.0
 10
28.18332182951917
 20
4.940193707123882
 30
0.0
 10
26.67925057353316
 20
4.818469649667972
 30
0.0
 10
26.03672598002299
 20
4.766470317704146
 30
0.0
  0
SPLINE
  5
B4
330
1F
100
AcDbEntity
  8
0
  6
Continuous
 62
     1
370
    15
100
AcDbSpline
210
0.0
220
0.0
230
1.0
 70
     8
 71
     3
 72
    20
 73
    16
 74
     0
 42
0.000000001
 43
0.00000001
 40
0.0
 40
0.0
 40
0.0
 40
0.0
 40
0.0670210123782991
 40
0.1434032397996674
 40
0.2197858420804288
 40
0.2961687959721325
 40
0.3725520782027668
 40
0.448935665478309
 40
0.5253195344842817
 40
0.6017036618873084
 40
0.6813611780389209
 40
0.761020526906787
 40
0.84068075178392
 40
0.9203408952625417
 40
1.0
 40
1.0
 40
1.0
 40
1.0
 10
40.57061753169179
 20
-5.503781602512284
 30
0.0
 10
39.81467419333175
 20
-5.759391008114155
 30
0.0
 10
38.19720050890101
 20
-6.306312273338796
 30
0.0
 10
35.71818894197886
 20
-6.807367639310494
 30
0.0
 10
33.13357967869973
 20
-7.045688510762366
 30
0.0
 10
30.54895639764029
 20
-6.958581061844776
 30
0.0
 10
27.96431857427154
 20
-6.558177651480952
 30
0.0
 10
25.37967295467848
 20
-5.860404426799794
 30
0.0
 10
22.79499875246054
 20
-4.897456649008358
 30
0.0
 10
20.17345998492188
 20
-3.695777102333832
 30
0.0
 10
17.51472435539248
 20
-2.300803379232248
 30
0.0
 10
14.81908648591563
 20
-0.772271300735801
 30
0.0
 10
12.12339590089294
 20
0.7907722597818281
 30
0.0
 10
9.427712294461132
 20
2.327974209594568
 30
0.0
 10
7.630600730883884
 20
3.243848214421281
 30
0.0
 10
6.732050807564267
 20
3.701782231143832
 30
0.0
  0
LINE
  5
B5
330
1F
100
AcDbEntity
  8
0
  6
Continuous
 62
   131
370
    15
100
AcDbLine
 10
6.732050807568864
 20
1.916983191430021
 30
0.0
 11
6.73205080756887
 21
3.701782231137523
 31
0.0
  0
SPLINE
  5
B6
330
1F
100
AcDbEntity
  8
0
  6
Continuous
 62
     1
370
    15
100
AcDbSpline
210
0.0
220
0.0
230
1.0
 70
     8
 71
     3
 72
    21
 73
    17
 74
     0
 42
0.000000001
 43
0.00000001
 40
0.0
 40
0.0
 40
0.0
 40
0.0
 40
0.0755738733200582
 40
0.1511483686311525
 40
0.2267234632858104
 40
0.3022991345966287
 40
0.377875359837764
 40
0.4534521162464207
 40
0.5290293810243503
 40
0.6046071313393511
 40
0.6801853443267777
 40
0.7557639970910504
 40
0.8313430667071715
 40
0.9069225302222468
 40
0.9825023646570082
 40
1.0
 40
1.0
 40
1.0
 40
1.0
 10
66.73205080756885
 20
-6.642586084623292
 30
0.0
 10
65.87059613527038
 20
-6.456528516578139
 30
0.0
 10
64.14767970069562
 20
-6.08441184918959
 30
0.0
 10
61.5632892473545
 20
-5.17023009146709
 30
0.0
 10
58.97887452307857
 20
-4.043582769346469
 30
0.0
 10
56.39443605751183
 20
-2.728096843016392
 30
0.0
 10
53.80997488980366
 20
-1.290654311353874
 30
0.0
 10
51.22549192448959
 20
0.2056259031362857
 30
0.0
 10
48.64098810450566
 20
1.692526279088375
 30
0.0
 10
46.05646436287351
 20
3.102704175257805
 30
0.0
 10
43.47192164256
 20
4.372918864118916
 30
0.0
 10
40.88736086496818
 20
5.443296129022658
 30
0.0
 10
38.30278303572829
 20
6.274254815091273
 30
0.0
 10
35.71818885265142
 20
6.795033771041735
 30
0.0
 10
33.79566449129582
 20
7.026149433843063
 30
0.0
 10
32.73467093987357
 20
6.980360169861132
 30
0.0
 10
32.53521474162947
 20
6.971752245239925
 30
0.0
  0
LINE
  5
B7
330
1F
100
AcDbEntity
  8
0
  6
Continuous
 62
     1
370
    15
100
AcDbLine
 10
66.73205080756885
 20
-6.999999999999778
 30
0.0
 11
66.73205080756938
 21
-6.642586084623285
 31
0.0
  0
SPLINE
  5
B8
330
1F
100
AcDbEntity
  8
0
  6
Continuous
 62
     1
370
    15
100
AcDbSpline
210
0.0
220
0.0
230
1.0
 70
     8
 71
     3
 72
    15
 73
    11
 74
     0
 42
0.000000001
 43
0.00000001
 40
0.0
 40
0.0
 40
0.0
 40
0.0
 40
0.1422826047145282
 40
0.2845664327620492
 40
0.4268514396066821
 40
0.5691375806332079
 40
0.7114248111500188
 40
0.8537130863920864
 40
0.9960023615239321
 40
1.0
 40
1.0
 40
1.0
 40
1.0
 10
66.73205080756885
 20
-5.522805850577506
 30
0.0
 10
65.87059606790427
 20
-5.341257243928032
 30
0.0
 10
64.14767918186499
 20
-4.978158469690548
 30
0.0
 10
61.56328880032014
 20
-4.141220705782158
 30
0.0
 10
58.97887408291486
 20
-3.134538740680827
 30
0.0
 10
56.39443562171169
 20
-1.981977376836211
 30
0.0
 10
53.80997453353896
 20
-0.7378702196422856
 30
0.0
 10
51.225491349785
 20
0.5283911350749684
 30
0.0
 10
49.47829127347606
 20
1.397451984863318
 30
0.0
 10
48.5925850194033
 20
1.795083196662124
 30
0.0
 10
48.56838098561484
 20
1.805949416971023
 30
0.0
  0
LINE
  5
B9
330
1F
100
AcDbEntity
  8
0
  6
Continuous
 62
     1
370
    15
100
AcDbLine
 10
66.73205080756858
 20
-6.642586084623297
 30
0.0
 11
66.73205080756885
 21
-5.522805850577506
 31
0.0
  0
SPLINE
  5
BA
330
1F
100
AcDbEntity
  8
0
  6
Continuous
 62
     1
370
    15
100
AcDbSpline
210
0.0
220
0.0
230
1.0
 70
     8
 71
     3
 72
    18
 73
    14
 74
     0
 42
0.000000001
 43
0.00000001
 40
0.0
 40
0.0
 40
0.0
 40
0.0
 40
0.0014923082105338
 40
0.1037396358659086
 40
0.2059874552482788
 40
0.3082357338133322
 40
0.4104844389856587
 40
0.5127335381609474
 40
0.6149829987081862
 40
0.717232787971865
 40
0.8194828732741856
 40
0.9217332219172699
 40
1.0
 40
1.0
 40
1.0
 40
1.0
 10
35.75591533849155
 20
-5.82305035556936
 30
0.0
 10
35.74334115166229
 20
-5.824931017795091
 30
0.0
 10
34.8692311295035
 20
-5.955667559420318
 30
0.0
 10
33.13357930681986
 20
-5.975297449203787
 30
0.0
 10
30.54895597866992
 20
-5.850630953303322
 30
0.0
 10
27.96431913105629
 20
-5.429845045749737
 30
0.0
 10
25.37966976119305
 20
-4.77162701404595
 30
0.0
 10
22.79500969016856
 20
-3.895084553920002
 30
0.0
 10
20.21033631509216
 20
-2.843021465255293
 30
0.0
 10
17.62566390998223
 20
-1.661270333418029
 30
0.0
 10
15.0409436693231
 20
-0.4073947659360358
 30
0.0
 10
12.6584417204278
 20
0.7759284692054751
 30
0.0
 10
11.13718042060353
 20
1.488724989261378
 30
0.0
 10
10.47760743316043
 20
1.797772047926863
 30
0.0
  0
SPLINE
  5
BB
330
1F
100
AcDbEntity
  8
0
  6
Continuous
 62
     1
370
    15
100
AcDbSpline
210
0.0
220
0.0
230
1.0
 70
     8
 71
     3
 72
     8
 73
     4
 74
     0
 42
0.000000001
 43
0.00000001
 40
0.0
 40
0.0
 40
0.0
 40
0.0
 40
1.0
 40
1.0
 40
1.0
 40
1.0
 10
62.40099025543608
 20
1.957814097821566
 30
0.0
 10
62.1486323376678
 20
2.256741973958827
 30
0.0
 10
61.92332269168666
 20
2.544766358140544
 30
0.0
 10
61.73205080757507
 20
2.819069700710109
 30
0.0
  0
LINE
  5
BC
330
1F
100
AcDbEntity
  8
0
  6
Continuous
 62
     1
370
    15
100
AcDbLine
 10
61.73205080756886
 20
2.937719435296595
 30
0.0
 11
66.73205080756885
 21
0.0000000000000081
 31
0.0
  0
LINE
  5
BD
330
1F
100
AcDbEntity
  8
0
  6
Continuous
 62
     1
370
    15
100
AcDbLine
 10
66.73205080756885
 20
0.0000000000000081
 30
0.0
 11
66.73205080756885
 21
-1.870700622207505
 31
0.0
  0
SPLINE
  5
BE
330
1F
100
AcDbEntity
  8
0
  6
Continuous
 62
     1
370
    15
100
AcDbSpline
210
0.0
220
0.0
230
1.0
 70
     8
 71
     3
 72
    12
 73
     8
 74
     0
 42
0.000000001
 43
0.00000001
 40
0.0
 40
0.0
 40
0.0
 40
0.0
 40
0.5
 40
0.5
 40
0.75
 40
0.75
 40
1.0
 40
1.0
 40
1.0
 40
1.0
 10
66.73205080756885
 20
-1.87070062220751
 30
0.0
 10
65.98233126561148
 20
-1.28129565858579
 30
0.0
 10
65.24513446198718
 20
-0.6677266902608497
 30
0.0
 10
64.15861183450421
 20
0.2898153268937805
 30
0.0
 10
63.79970143625113
 20
0.6152938823799221
 30
0.0
 10
63.08921115235595
 20
1.280396025891921
 30
0.0
 10
62.73956330225001
 20
1.618303437966485
 30
0.0
 10
62.40099025543611
 20
1.957814097821543
 30
0.0
  0
SPLINE
  5
BF
330
1F
100
AcDbEntity
  8
0
  6
Continuous
 62
     1
370
    15
100
AcDbSpline
210
0.0
220
0.0
230
1.0
 70
     8
 71
     3
 72
    14
 73
    10
 74
     0
 42
0.000000001
 43
0.00000001
 40
0.0
 40
0.0
 40
0.0
 40
0.0
 40
0.1061107315569895
 40
0.2123389510706641
 40
0.3726623071033753
 40
0.5329869079535856
 40
0.6933127024744811
 40
0.8536396394384947
 40
1.0
 40
1.0
 40
1.0
 40
1.0
 10
62.40099025543612
 20
1.957814097821535
 30
0.0
 10
61.83101216003205
 20
2.200931207747174
 30
0.0
 10
60.69042487790261
 20
2.687434611799345
 30
0.0
 10
58.6883028235864
 20
3.465799039252448
 30
0.0
 10
56.39439916713923
 20
4.249110374194284
 30
0.0
 10
53.8099763930869
 20
4.939301020354406
 30
0.0
 10
51.22548152333902
 20
5.400368510502598
 30
0.0
 10
48.71603330197017
 20
5.63214892420448
 30
0.0
 10
47.06807571431807
 20
5.578081496538934
 30
0.0
 10
46.2816210138303
 20
5.552278901284384
 30
0.0
  0
SPLINE
  5
C0
330
1F
100
AcDbEntity
  8
0
  6
Continuous
 62
     1
370
    15
100
AcDbSpline
210
0.0
220
0.0
230
1.0
 70
     8
 71
     3
 72
    10
 73
     6
 74
     0
 42
0.000000001
 43
0.00000001
 40
0.0
 40
0.0
 40
0.0
 40
0.0
 40
0.1933772334394186
 40
0.596688829173802
 40
1.0
 40
1.0
 40
1.0
 40
1.0
 10
13.82840381452291
 20
-5.232755384647579
 30
0.0
 10
13.37102638835349
 20
-5.309487108729714
 30
0.0
 10
11.95973305222735
 20
-5.54625211869869
 30
0.0
 10
9.594120106753719
 20
-5.658211588960429
 30
0.0
 10
7.686073572260495
 20
-5.5156735567179
 30
0.0
 10
6.73205080756887
 20
-5.444404578139326
 30
0.0
  0
SPLINE
  5
C1
330
1F
100
AcDbEntity
  8
0
  6
Continuous
 62
     1
370
    15
100
AcDbSpline
210
0.0
220
0.0
230
1.0
 70
    24
 71
     3
 72
    10
 73
     6
 74
     0
 42
0.000000001
 43
0.00000001
 40
0.0
 40
0.0
 40
0.0
 40
0.0
 40
0.5
 40
0.5
 40
1.0
 40
1.0
 40
1.0
 40
1.0
 10
66.73205080756885
 20
-5.522805850577504
 30
0.0
 10
66.73205080756885
 20
-5.099439723026628
 30
0.0
 10
66.73205080756885
 20
-4.564500387345273
 30
0.0
 10
66.73205080756885
 20
-3.320817914054755
 30
0.0
 10
66.73205080756887
 20
-2.613152101359165
 30
0.0
 10
66.73205080756887
 20
-1.870700622207734
 30
0.0
  0
SPLINE
  5
C2
330
1F
100
AcDbEntity
  8
0
  6
Continuous
 62
     1
370
    15
100
AcDbSpline
210
0.0
220
0.0
230
1.0
 70
     8
 71
     3
 72
    25
 73
    21
 74
     0
 42
0.000000001
 43
0.00000001
 40
0.0
 40
0.0
 40
0.0
 40
0.0
 40
0.0157370621729079
 40
0.0748435894628747
 40
0.1339505190145734
 40
0.1930578318865712
 40
0.2521655091114622
 40
0.3112735316971386
 40
0.370381880628068
 40
0.4294905368665739
 40
0.488599481354117
 40
0.5477086950125822
 40
0.6068181587455675
 40
0.6659278534396746
 40
0.7250377599658043
 40
0.784147859180451
 40
0.843258131927002
 40
0.9023685590370382
 40
0.9678161380349181
 40
0.9999999999999999
 40
0.9999999999999999
 40
0.9999999999999999
 40
0.9999999999999999
 10
51.91361120412778
 20
-5.240247834211996
 30
0.0
 10
51.68423733250216
 20
-5.283244575033272
 30
0.0
 10
50.59336257501337
 20
-5.487731942682437
 30
0.0
 10
48.64097860537004
 20
-5.613660822189223
 30
0.0
 10
46.05645376743759
 20
-5.594642024601495
 30
0.0
 10
43.47190975174042
 20
-5.304018185691689
 30
0.0
 10
40.88734774390078
 20
-4.778187696888162
 30
0.0
 10
38.30276861851859
 20
-4.034725867612928
 30
0.0
 10
35.71817333377256
 20
-3.108957607801016
 30
0.0
 10
33.1335628316917
 20
-2.042346158561988
 30
0.0
 10
30.54893804207429
 20
-0.8832962015377079
 30
0.0
 10
27.9642999661508
 20
0.3157458252488443
 30
0.0
 10
25.37964933761921
 20
1.500512871039993
 30
0.0
 10
22.79498789445527
 20
2.617278608960146
 30
0.0
 10
20.21031363021745
 20
3.615824981577589
 30
0.0
 10
17.62563851670788
 20
4.449670581978401
 30
0.0
 10
15.04092236133879
 20
5.085820725889231
 30
0.0
 10
12.36395765285872
 20
5.491728648976745
 30
0.0
 10
10.07902371107727
 20
5.65583833128211
 30
0.0
 10
8.655852383325646
 20
5.556298643587987
 30
0.0
 10
8.18670894845207
 20
5.523485734783227
 30
0.0
  0
SPLINE
  5
C3
330
1F
100
AcDbEntity
  8
0
  6
Continuous
 62
   131
370
    15
100
AcDbSpline
210
0.0
220
0.0
230
1.0
 70
    24
 71
     3
 72
    12
 73
     8
 74
     0
 42
0.000000001
 43
0.00000001
 40
0.0
 40
0.0
 40
0.0
 40
0.0
 40
0.1596936736632224
 40
0.3975654400324432
 40
0.6423355037409492
 40
0.8570354372993493
 40
1.0
 40
1.0
 40
1.0
 40
1.0
 10
6.73205080756887
 20
5.498874214011297
 30
0.0
 10
6.73205080756887
 20
5.491162932624777
 30
0.0
 10
6.732050807568873
 20
5.471965309404514
 30
0.0
 10
6.732050807568873
 20
5.245286645018815
 30
0.0
 10
6.73205080756887
 20
4.802151359171213
 30
0.0
 10
6.732050807568873
 20
4.278547473494998
 30
0.0
 10
6.732050807568873
 20
3.866488991922275
 30
0.0
 10
6.732050807568873
 20
3.701782231141439
 30
0.0
  0
SPLINE
  5
C4
330
1F
100
AcDbEntity
  8
0
  6
Continuous
 62
     1
370
    15
100
AcDbSpline
210
0.0
220
0.0
230
1.0
 70
    24
 71
     3
 72
     8
 73
     4
 74
     0
 42
0.000000001
 43
0.00000001
 40
0.0
 40
0.0
 40
0.0
 40
0.0
 40
1.0
 40
1.0
 40
1.0
 40
1.0
 10
61.73205080756889
 20
2.819069700701244
 30
0.0
 10
61.73205080756889
 20
2.908476784839908
 30
0.0
 10
61.73205080756886
 20
2.995514202059084
 30
0.0
 10
61.73205080756886
 20
3.079907577329864
 30
0.0
  0
SPLINE
  5
C5
330
1F
100
AcDbEntity
  8
0
  6
Continuous
 62
     1
370
    15
100
AcDbSpline
210
0.0
220
0.0
230
1.0
 70
     8
 71
     3
 72
    10
 73
     6
 74
     0
 42
0.000000001
 43
0.00000001
 40
0.0
 40
0.0
 40
0.0
 40
0.0
 40
0.5
 40
0.5
 40
1.0
 40
1.0
 40
1.0
 40
1.0
 10
66.73205080756885
 20
4.900000000000007
 30
0.0
 10
65.8841931861609
 20
4.670048856844463
 30
0.0
 10
65.04178579723161
 20
4.406806050126997
 30
0.0
 10
63.37207402368339
 20
3.806841720755539
 30
0.0
 10
62.54475015735645
 20
3.47046392190117
 30
0.0
 10
61.73205080756886
 20
3.079907577329799
 30
0.0
  0
SPLINE
  5
C6
330
1F
100
AcDbEntity
  8
0
  6
Continuous
 62
   131
370
    15
100
AcDbSpline
210
0.0
220
0.0
230
1.0
 70
    24
 71
     3
 72
    14
 73
    10
 74
     0
 42
0.000000001
 43
0.00000001
 40
0.0
 40
0.0
 40
0.0
 40
0.0
 40
0.25
 40
0.25
 40
0.5
 40
0.5
 40
0.75
 40
0.75
 40
1.0
 40
1.0
 40
1.0
 40
1.0
 10
6.73205080756887
 20
1.14703749317019
 30
0.0
 10
6.73205080756887
 20
0.5270922462824331
 30
0.0
 10
6.73205080756887
 20
-0.1144132985163395
 30
0.0
 10
6.73205080756887
 20
-1.382147619761614
 30
0.0
 10
6.73205080756887
 20
-2.007730394962556
 30
0.0
 10
6.73205080756887
 20
-3.179219689626239
 30
0.0
 10
6.73205080756887
 20
-3.7245019906149
 30
0.0
 10
6.73205080756887
 20
-4.686265559509259
 30
0.0
 10
6.73205080756887
 20
-5.102530578600492
 30
0.0
 10
6.73205080756887
 20
-5.444404578139322
 30
0.0
  0
LINE
  5
C7
330
1F
100
AcDbEntity
  8
0
  6
Continuous
 62
     1
370
    15
100
AcDbLine
 10
66.73205080756885
 20
0.0000000000000081
 30
0.0
 11
66.73205080756885
 21
4.900000000000008
 31
0.0
  0
LINE
  5
C8
330
1F
100
AcDbEntity
  8
0
  6
Continuous
 62
   131
370
    15
100
AcDbLine
 10
5.73205080756798
 20
4.453039384453502
 30
0.0
 11
5.732050807568038
 21
7.000000000000223
 31
0.0
  0
LINE
  5
CA
330
1F
100
AcDbEntity
  8
0
  6
Continuous
 62
   131
370
    15
100
AcDbLine
 10
5.732050807568866
 20
4.179004743124505
 30
0.0
 11
5.732050807568863
 21
2.465521038299284
 31
0.0
  0
LINE
  5
CC
330
1F
100
AcDbEntity
  8
0
  6
Continuous
 62
   131
370
    15
100
AcDbLine
 10
5.732050807568034
 20
-7.000000000000222
 30
0.0
 11
5.732050807567948
 21
2.766188554953687
 31
0.0
  0
LINE
  5
CD
330
1F
100
AcDbEntity
  8
0
  6
Continuous
 62
   131
370
    15
100
AcDbLine
 10
4.732050807568261
 20
8.0
 30
0.0
 11
4.732050807568261
 21
-7.999999999999991
 31
0.0
  0
LINE
  5
CE
330
1F
100
AcDbEntity
  8
0
  6
Continuous
 62
   131
370
    15
100
AcDbLine
 10
-82.26794919243113
 20
7.999999999999993
 30
0.0
 11
-82.26794919243113
 21
-8.000000000000004
 31
0.0
  0
LINE
  5
CF
330
1F
100
AcDbEntity
  8
0
  6
Continuous
 62
   131
370
    15
100
AcDbLine
 10
-83.26794919243113
 20
6.999999999999989
 30
0.0
 11
-83.26794919243113
 21
-6.999999999999998
 31
0.0
  0
LINE
  5
D0
330
1F
100
AcDbEntity
  8
0
  6
Continuous
 62
   131
370
    15
100
AcDbLine
 10
6.732050807568864
 20
1.91698319143002
 30
0.0
 11
6.732050807568864
 21
1.903227637363772
 31
0.0
  0
SPLINE
  5
D1
330
1F
100
AcDbEntity
  8
0
  6
Continuous
 62
   131
370
    15
100
AcDbSpline
210
0.0
220
0.0
230
1.0
 70
    24
 71
     3
 72
     9
 73
     5
 74
     0
 42
0.000000001
 43
0.00000001
 40
0.0
 40
0.0
 40
0.0
 40
0.0
 40
0.5360874989769056
 40
1.0
 40
1.0
 40
1.0
 40
1.0
 10
6.732050807568864
 20
1.787058189009434
 30
0.0
 10
6.732050807568864
 20
1.716233487233144
 30
0.0
 10
6.732050807568864
 20
1.584119416467729
 30
0.0
 10
6.73205080756887
 20
1.285548345456264
 30
0.0
 10
6.732050807568873
 20
1.147037493170191
 30
0.0
  0
SPLINE
  5
D2
330
1F
100
AcDbEntity
  8
0
  6
Continuous
 62
   131
370
    15
100
AcDbSpline
210
0.0
220
0.0
230
1.0
 70
     8
 71
     3
 72
     8
 73
     4
 74
     0
 42
0.000000001
 43
0.00000001
 40
0.0
 40
0.0
 40
0.0
 40
0.0
 40
0.4926599555479621
 40
0.4926599555479621
 40
0.4926599555479621
 40
0.4926599555479621
 10
6.73205080756887
 20
1.14703749317019
 30
0.0
 10
6.397740433992693
 20
1.278200707460642
 30
0.0
 10
6.064899825152858
 20
1.40786959837929
 30
0.0
 10
5.73205080756796
 20
1.535796787404968
 30
0.0
  0
SPLINE
  5
D3
330
1F
100
AcDbEntity
  8
0
  6
Continuous
 62
   131
370
    15
100
AcDbSpline
210
0.0
220
0.0
230
1.0
 70
     8
 71
     3
 72
     8
 73
     4
 74
     0
 42
0.000000001
 43
0.00000001
 40
0.0
 40
0.0
 40
0.0
 40
0.0
 40
1.0
 40
1.0
 40
1.0
 40
1.0
 10
6.732050807568864
 20
1.91698319143002
 30
0.0
 10
6.397606971284675
 20
2.102420321767591
 30
0.0
 10
6.064169176278646
 20
2.285487376777156
 30
0.0
 10
5.732050807568863
 20
2.465521038299284
 30
0.0
  0
SPLINE
  5
D4
330
1F
100
AcDbEntity
  8
0
  6
Continuous
 62
   131
370
    15
100
AcDbSpline
210
0.0
220
0.0
230
1.0
 70
     8
 71
     3
 72
     8
 73
     4
 74
     0
 42
0.000000001
 43
0.00000001
 40
0.0
 40
0.0
 40
0.0
 40
0.0
 40
1.0
 40
1.0
 40
1.0
 40
1.0
 10
6.732050807568861
 20
3.701782231141585
 30
0.0
 10
6.397606971284672
 20
3.865424189876681
 30
0.0
 10
6.064169176278646
 20
4.024685350883273
 30
0.0
 10
5.732050807568866
 20
4.179004743124505
 30
0.0
  0
SPLINE
  5
D5
330
1F
100
AcDbEntity
  8
0
  6
Continuous
 62
   131
370
    15
100
AcDbSpline
210
0.0
220
0.0
230
1.0
 70
     8
 71
     3
 72
     8
 73
     4
 74
     0
 42
0.000000001
 43
0.00000001
 40
0.0
 40
0.0
 40
0.0
 40
0.0
 40
0.4926614093218378
 40
0.4926614093218378
 40
0.4926614093218378
 40
0.4926614093218378
 10
6.73205080756887
 20
-5.444404578139324
 30
0.0
 10
6.397740430343999
 20
-5.408311562221076
 30
0.0
 10
6.064899825047974
 20
-5.366091219440611
 30
0.0
 10
5.73205080756802
 20
-5.317836030546707
 30
0.0
  0
SPLINE
  5
D6
330
1F
100
AcDbEntity
  8
0
  6
Continuous
 62
   131
370
    15
100
AcDbSpline
210
0.0
220
0.0
230
1.0
 70
    24
 71
     3
 72
    14
 73
    10
 74
     0
 42
0.000000001
 43
0.00000001
 40
0.0
 40
0.0
 40
0.0
 40
0.0
 40
0.25
 40
0.25
 40
0.5
 40
0.5
 40
0.75
 40
0.75
 40
1.0
 40
1.0
 40
1.0
 40
1.0
 10
6.73205080756887
 20
1.14703749317019
 30
0.0
 10
6.73205080756887
 20
0.5270922462824331
 30
0.0
 10
6.73205080756887
 20
-0.1144132985163395
 30
0.0
 10
6.73205080756887
 20
-1.382147619761614
 30
0.0
 10
6.73205080756887
 20
-2.007730394962556
 30
0.0
 10
6.73205080756887
 20
-3.179219689626239
 30
0.0
 10
6.73205080756887
 20
-3.7245019906149
 30
0.0
 10
6.73205080756887
 20
-4.686265559509259
 30
0.0
 10
6.73205080756887
 20
-5.102530578600492
 30
0.0
 10
6.73205080756887
 20
-5.444404578139322
 30
0.0
  0
SPLINE
  5
D7
330
1F
100
AcDbEntity
  8
0
  6
Continuous
 62
   131
370
    15
100
AcDbSpline
210
0.0
220
0.0
230
1.0
 70
    24
 71
     3
 72
    12
 73
     8
 74
     0
 42
0.000000001
 43
0.00000001
 40
0.0
 40
0.0
 40
0.0
 40
0.0
 40
0.1589998576723994
 40
0.3970680276983581
 40
0.6420401907829526
 40
0.8569173957035485
 40
1.0
 40
1.0
 40
1.0
 40
1.0
 10
6.732050807568873
 20
5.498653761101721
 30
0.0
 10
6.732050807568873
 20
5.49096340743545
 30
0.0
 10
6.732050807568873
 20
5.471758399284681
 30
0.0
 10
6.732050807568873
 20
5.245259417853203
 30
0.0
 10
6.732050807568873
 20
4.802157801876278
 30
0.0
 10
6.732050807568873
 20
4.278546529951217
 30
0.0
 10
6.732050807568873
 20
3.866488722474624
 30
0.0
 10
6.732050807568873
 20
3.701782231141438
 30
0.0
  0
LINE
  5
D8
330
1F
100
AcDbEntity
  8
중심선
 62
     1
100
AcDbLine
 10
-86.26794919243113
 20
-0.0000000000000046
 30
0.0
 11
73.73205080756887
 21
0.0000000000000087
 31
0.0
  0
CIRCLE
  5
D9
330
1F
100
AcDbEntity
  8
외형선
100
AcDbCircle
 10
0.0000000000000104
 20
0.0
 30
0.0
 40
3.000000000000005
  0
INSERT
  5
DA
330
1F
100
AcDbEntity
  8
0
  6
Continuous
 62
     7
100
AcDbBlockReference
 66
     1
  2
블럭10
 10
-22.93944368806589
 20
-52.04609937292004
 30
0.0
  0
ATTRIB
  5
DB
330
DA
100
AcDbEntity
  8
FORMAT
 62
     2
100
AcDbText
 10
-39.05870472750145
 20
-49.97073246008785
 30
0.0
 40
4.233333333333333
  1
SEME7014060E [ 2 FLUTE ]
 41
0.75
  7
SLDTEXTSTYLE0
 11
-39.05870472750145
 21
-52.08739912675452
 31
0.0
100
AcDbAttribute
  2
AUTOATTR0
 70
     0
 74
     1
  0
SEQEND
  5
DC
330
DA
100
AcDbEntity
  8
0
  6
Continuous
 62
     7
  0
HATCH
  5
DD
330
1F
100
AcDbEntity
  8
중심선
100
AcDbHatch
 10
0.0
 20
0.0
 30
0.0
210
0.0
220
0.0
230
1.0
  2
SOLID
 70
     1
 71
     0
 91
        1
 92
        0
 93
        4
 72
     1
 10
-17.22453438368504
 20
-35.7989250712761
 11
-20.67080962752232
 21
-35.7989250712761
 72
     1
 10
-20.67080962752232
 20
-35.7989250712761
 11
-22.79903948672635
 21
-38.3352506518487
 72
     1
 10
-22.79903948672635
 20
-38.3352506518487
 11
-19.35273115777591
 21
-38.33521122254621
 72
     1
 10
-19.35273115777591
 20
-38.33521122254621
 11
-17.22453438368504
 21
-35.7989250712761
 97
        0
 75
     0
 76
     1
 98
        1
 10
0.0
 20
0.0
  0
HATCH
  5
DE
330
1F
100
AcDbEntity
  8
중심선
100
AcDbHatch
 10
0.0
 20
0.0
 30
0.0
210
0.0
220
0.0
230
1.0
  2
SOLID
 70
     1
 71
     0
 91
        1
 92
        0
 93
        4
 72
     1
 10
-12.21177039264909
 20
-35.7989250712761
 11
-15.65804563648637
 21
-35.7989250712761
 72
     1
 10
-15.65804563648637
 20
-35.7989250712761
 11
-20.18918364484376
 21
-41.19892507127612
 72
     1
 10
-20.18918364484376
 20
-41.19892507127612
 11
-16.74290840100648
 21
-41.19892507127612
 72
     1
 10
-16.74290840100648
 20
-41.19892507127612
 11
-12.21177039264909
 21
-35.7989250712761
 97
        0
 75
     0
 76
     1
 98
        1
 10
0.0
 20
0.0
  0
HATCH
  5
DF
330
1F
100
AcDbEntity
  8
중심선
100
AcDbHatch
 10
0.0
 20
0.0
 30
0.0
210
0.0
220
0.0
230
1.0
  2
SOLID
 70
     1
 71
     0
 91
        1
 92
        0
 93
        4
 72
     1
 10
-7.199006401613195
 20
-35.79892507127613
 11
-10.64528164545031
 21
-35.7989250712761
 72
     1
 10
-10.64528164545031
 20
-35.7989250712761
 11
-17.69371854733956
 21
-44.19892507127612
 72
     1
 10
-17.69371854733956
 20
-44.19892507127612
 11
-14.24744330350228
 21
-44.19892507127612
 72
     1
 10
-14.24744330350228
 20
-44.19892507127612
 11
-7.199006401613195
 21
-35.79892507127613
 97
        0
 75
     0
 76
     1
 98
        1
 10
0.0
 20
0.0
  0
HATCH
  5
E0
330
1F
100
AcDbEntity
  8
중심선
100
AcDbHatch
 10
0.0
 20
0.0
 30
0.0
210
0.0
220
0.0
230
1.0
  2
SOLID
 70
     1
 71
     0
 91
        1
 92
        0
 93
        6
 72
     3
 10
-2.399115970600996
 20
-39.99892507132738
 11
3.960054785062284
 21
1.540850780301639E-10
 40
0.3939339440162633
 50
17.09539180608433
 51
320.0019657685079
 73
     0
 72
     1
 10
-0.7161163149004002
 20
-38.58681907591441
 11
1.589185558800638
 21
-36.65249236586649
 72
     3
 10
-2.399115970653842
 20
-39.99892507127625
 11
6.600054785286829
 21
-1.249000902703301E-13
 40
0.6363583540795982
 50
39.99873849337408
 51
368.4976242363724
 73
     1
 72
     1
 10
4.026216521246767
 20
-39.03892507120613
 11
-3.71904866381792
 21
-39.0389250712061
 72
     1
 10
-3.71904866381792
 20
-39.0389250712061
 11
-3.719073708263854
 21
-40.95892507120602
 72
     1
 10
-3.719073708263854
 20
-40.95892507120602
 11
0.7223060612081835
 21
-40.95892507120599
 97
        0
 75
     0
 76
     1
 98
        1
 10
0.0
 20
0.0
  0
DIMENSION
  5
E1
330
1F
100
AcDbEntity
  8
치수문자_일반주서
100
AcDbDimension
  2
_D
 10
81.56268017410703
 20
7.000000000000281
 30
0.0
 11
81.562680174107
 21
17.54150000000028
 31
0.0
 70
   160
  1
%%c<>
 71
     2
 42
14.0
 52
-270.0
  3
SLDDIMSTYLE0
100
AcDbAlignedDimension
 13
66.73205080756885
 23
-6.999999999999778
 33
0.0
 14
66.73205080756861
 24
7.000000000000225
 34
0.0
 50
90.0000000000002
100
AcDbRotatedDimension
  0
DIMENSION
  5
EF
330
1F
100
AcDbEntity
  8
치수문자_일반주서
100
AcDbDimension
  2
_D_1
 10
66.73205080756861
 20
28.78841044024269
 30
0.0
 11
-8.267949192431269
 21
28.78841044024269
 31
0.0
 70
   160
  1
<>
 71
     2
 42
149.9999999999997
  3
SLDDIMSTYLE1
100
AcDbAlignedDimension
 13
-83.26794919243113
 23
6.999999999999989
 33
0.0
 14
66.73205080756861
 24
7.000000000000225
 34
0.0
 50
-0.0000000000000041
100
AcDbRotatedDimension
  0
DIMENSION
  5
FA
330
1F
100
AcDbEntity
  8
치수문자_일반주서
100
AcDbDimension
  2
_D_2
 10
66.73205080756861
 20
18.65009530961795
 30
0.0
 11
36.44965113040851
 21
18.65009530961795
 31
0.0
 70
   160
  1
<>
 71
     2
 42
59.99999999999974
  3
SLDDIMSTYLE1
100
AcDbAlignedDimension
 13
6.73205080756887
 23
5.500190619235669
 33
0.0
 14
66.73205080756861
 24
7.000000000000225
 34
0.0
 50
-0.0000000000000068
100
AcDbRotatedDimension
  0
DIMENSION
  5
104
330
1F
100
AcDbEntity
  8
치수문자_일반주서
100
AcDbDimension
  2
_D_3
 10
-94.07700171353427
 20
-8.000000000000046
 30
0.0
 11
-94.07700171353437
 21
18.54149999999995
 31
0.0
 70
   160
  1
%%c<>
 71
     2
 42
15.99999999999999
 52
-270.0
  3
SLDDIMSTYLE0
100
AcDbAlignedDimension
 13
-82.26794919243113
 23
7.999999999999993
 33
0.0
 14
-82.26794919243113
 24
-8.0
 34
0.0
 50
90.0000000000002
100
AcDbRotatedDimension
  0
INSERT
  5
117
330
1F
100
AcDbEntity
  8
외형선
100
AcDbBlockReference
  2
SW_DOWELSYMBOL_0
 10
0.0000000000000104
 20
0.0
 30
0.0
  0
LINE
  5
16C
330
1F
100
AcDbEntity
  8
0
  6
Continuous
 62
   131
370
    15
100
AcDbLine
 10
5.732050807568038
 20
7.000000000000223
 30
0.0
 11
4.732050807568261
 21
8.0
 31
0.0
1001
PE_URL
1000

  0
SPLINE
  5
171
330
1F
100
AcDbEntity
  8
0
  6
Continuous
 62
   131
370
    15
100
AcDbSpline
210
0.0
220
0.0
230
1.0
 70
     8
 71
     3
 72
     8
 73
     4
 74
     0
 42
0.000000001
 43
0.00000001
 40
0.5069467998895509
 40
0.5069467998895509
 40
0.5069467998895509
 40
0.5069467998895509
 40
0.9999999999999999
 40
0.9999999999999999
 40
0.9999999999999999
 40
0.9999999999999999
 10
5.732050807567995
 20
-5.475927562996632
 30
0.0
 10
6.065632532325695
 20
-5.481785727887468
 30
0.0
 10
6.398841669947283
 20
-5.490956860477048
 30
0.0
 10
6.73205080756887
 20
-5.500127993066627
 30
0.0
  0
LINE
  5
174
330
1F
100
AcDbEntity
  8
0
  6
Continuous
 62
   131
370
    15
100
AcDbLine
 10
5.732050807568039
 20
-7.000000000000217
 30
0.0
 11
4.732050807568262
 21
-7.999999999999994
 31
0.0
1001
PE_URL
1000

  0
ENDSEC
  0
SECTION
  2
OBJECTS
  0
DICTIONARY
  5
C
330
0
100
AcDbDictionary
281
     1
  3
ACAD_GROUP
350
D
  3
ACAD_IMAGE_VARS
350
13B
  3
ACAD_LAYOUT
350
1A
  3
ACAD_MLINESTYLE
350
17
  3
ACAD_PLOTSETTINGS
350
19
  3
ACAD_PLOTSTYLENAME
350
E
  3
ACAD_SCALELIST
350
47
  3
APPDATA
350
139
  3
DWGPROPS
350
176
  0
DICTIONARY
  5
16E
330
1F
100
AcDbDictionary
280
     1
281
     1
  3
ACAD_SORTENTS
360
16F
  3
DIM_BOUNDING_BOXES_V1
360
175
  0
DICTIONARY
  5
D
102
{ACAD_REACTORS
330
C
102
}
330
C
100
AcDbDictionary
281
     1
  0
RASTERVARIABLES
  5
13B
102
{ACAD_REACTORS
330
C
102
}
330
C
100
AcDbRasterVariables
 90
        0
 70
     1
 71
     1
 72
     1
  0
DICTIONARY
  5
1A
102
{ACAD_REACTORS
330
C
102
}
330
C
100
AcDbDictionary
281
     1
  3
Layout1
350
1E
  3
Layout2
350
26
  3
Model
350
22
  0
DICTIONARY
  5
17
102
{ACAD_REACTORS
330
C
102
}
330
C
100
AcDbDictionary
281
     1
  3
Standard
350
18
  0
DICTIONARY
  5
19
102
{ACAD_REACTORS
330
C
102
}
330
C
100
AcDbDictionary
281
     1
  0
ACDBDICTIONARYWDFLT
  5
E
102
{ACAD_REACTORS
330
C
102
}
330
C
100
AcDbDictionary
281
     1
  3
Normal
350
F
100
AcDbDictionaryWithDefault
340
F
  0
DICTIONARY
  5
47
102
{ACAD_REACTORS
330
C
102
}
330
C
100
AcDbDictionary
281
     1
  3
A0
350
48
  3
A1
350
49
  3
A2
350
4A
  3
A3
350
4B
  3
A4
350
4C
  3
A5
350
4D
  3
A6
350
4E
  3
A7
350
4F
  3
A8
350
50
  3
A9
350
51
  3
B0
350
52
  3
B1
350
53
  3
B2
350
54
  3
B3
350
55
  3
B4
350
56
  3
B5
350
57
  3
B6
350
58
  3
B7
350
59
  3
B8
350
5A
  3
B9
350
5B
  3
C0
350
5C
  3
C1
350
5D
  3
C2
350
5E
  3
C3
350
5F
  3
C4
350
60
  3
C5
350
61
  3
C6
350
62
  3
C7
350
63
  3
C8
350
64
  3
C9
350
65
  3
D0
350
66
  3
D1
350
67
  3
D2
350
68
  0
DICTIONARY
  5
139
102
{ACAD_REACTORS
330
C
102
}
330
C
100
AcDbDictionary
281
     1
  0
XRECORD
  5
176
102
{ACAD_REACTORS
330
C
102
}
330
C
100
AcDbXrecord
280
     1
  1
DWGPROPS COOKIE
  2

  3

  4

  6

  7

  8
12014102
  9

300
=
301
=
302
=
303
=
304
=
305
=
306
=
307
=
308
=
309
=
 40
0.0
 41
2458262.174801933
 42
2459702.281325081
  1

 90
        0
  0
SORTENTSTABLE
  5
16F
102
{ACAD_REACTORS
330
16E
102
}
330
16E
100
AcDbSortentsTable
330
1F
331
0
  5
AB
331
AB
  5
AD
331
AC
  5
AE
331
AD
  5
AF
331
AE
  5
B0
331
AF
  5
B1
331
B0
  5
B2
331
B1
  5
B3
331
B2
  5
B4
331
B3
  5
B5
331
B4
  5
B6
331
B5
  5
B7
331
B6
  5
B8
331
B7
  5
B9
331
B8
  5
BA
331
B9
  5
BB
331
BA
  5
BC
331
BB
  5
BD
331
BC
  5
BE
331
BD
  5
BF
331
BE
  5
C0
331
BF
  5
C1
331
C0
  5
C2
331
C1
  5
C3
331
C2
  5
C4
331
C3
  5
C5
331
C4
  5
C6
331
C5
  5
C7
331
C6
  5
C8
331
C7
  5
C9
331
C8
  5
CA
331
0
  5
CB
331
CA
  5
CC
331
0
  5
CD
331
CC
  5
CE
331
CD
  5
CF
331
CE
  5
D0
331
CF
  5
D1
331
D0
  5
D2
331
D1
  5
D3
331
D2
  5
D4
331
D3
  5
D6
331
D4
  5
D7
331
D5
  5
D8
331
D6
  5
DA
331
D7
  5
DD
331
D8
  5
DE
331
D9
  5
DF
331
DA
  5
E0
331
DD
  5
E1
331
DE
  5
EF
331
DF
  5
FA
331
E0
  5
104
331
E1
  5
117
331
EF
  5
16B
331
FA
  5
16C
331
104
  5
16D
331
117
  5
170
331
0
  5
171
331
16C
  5
172
331
0
  5
AA
331
0
  5
D5
331
171
  5
AC
331
0
  5
D9
  0
DICTIONARY
  5
175
102
{ACAD_REACTORS
330
16E
102
}
330
16E
100
AcDbDictionary
281
     1
  0
LAYOUT
  5
1E
102
{ACAD_REACTORS
330
1A
102
}
330
1A
100
AcDbPlotSettings
  1

  2
none_device
  4

  6

 40
0.0
 41
0.0
 42
0.0
 43
0.0
 44
0.0
 45
0.0
 46
0.0
 47
0.0
 48
0.0
 49
0.0
140
0.0
141
0.0
142
1.0
143
1.0
 70
   688
 72
     1
 73
     0
 74
     5
  7

 75
    16
147
1.0
148
0.0
149
0.0
100
AcDbLayout
  1
Layout1
 70
     1
 71
     1
 10
0.0
 20
0.0
 11
420.0
 21
297.0
 12
0.0
 22
0.0
 32
0.0
 14
1.000000000000000E+20
 24
1.000000000000000E+20
 34
1.000000000000000E+20
 15
-1.000000000000000E+20
 25
-1.000000000000000E+20
 35
-1.000000000000000E+20
146
0.0
 13
0.0
 23
0.0
 33
0.0
 16
1.0
 26
0.0
 36
0.0
 17
0.0
 27
1.0
 37
0.0
 76
     0
330
1B
  0
LAYOUT
  5
26
102
{ACAD_REACTORS
330
1A
102
}
330
1A
100
AcDbPlotSettings
  1

  2
none_device
  4

  6

 40
0.0
 41
0.0
 42
0.0
 43
0.0
 44
0.0
 45
0.0
 46
0.0
 47
0.0
 48
0.0
 49
0.0
140
0.0
141
0.0
142
1.0
143
1.0
 70
   688
 72
     1
 73
     0
 74
     5
  7

 75
    16
147
1.0
148
0.0
149
0.0
100
AcDbLayout
  1
Layout2
 70
     1
 71
     2
 10
0.0
 20
0.0
 11
0.0
 21
0.0
 12
0.0
 22
0.0
 32
0.0
 14
0.0
 24
0.0
 34
0.0
 15
0.0
 25
0.0
 35
0.0
146
0.0
 13
0.0
 23
0.0
 33
0.0
 16
1.0
 26
0.0
 36
0.0
 17
0.0
 27
1.0
 37
0.0
 76
     0
330
23
  0
LAYOUT
  5
22
102
{ACAD_REACTORS
330
1A
102
}
330
1A
100
AcDbPlotSettings
  1

  2
none_device
  4
ANSI_A_(11.00_x_8.50_Inches)
  6

 40
6.35
 41
19.05
 42
6.35000508
 43
19.05000254
 44
279.4
 45
215.9
 46
146.728898261206
 47
103.4026590894338
 48
0.0
 49
0.0
140
0.0
141
0.0
142
0.0655780480702268
143
1.0
 70
  1696
 72
     0
 73
     0
 74
     0
  7

 75
     0
147
0.0235690232323232
148
0.0
149
0.0
100
AcDbLayout
  1
Model
 70
     1
 71
     0
 10
0.0
 20
0.0
 11
420.0
 21
297.0
 12
0.0
 22
0.0
 32
0.0
 14
-98.45200171353439
 24
-49.97073246008785
 34
0.0
 15
82.11301350744041
 25
33.16341044024269
 35
0.0
146
0.0
 13
0.0
 23
0.0
 33
0.0
 16
1.0
 26
0.0
 36
0.0
 17
0.0
 27
1.0
 37
0.0
 76
     0
330
1F
331
29
  0
MLINESTYLE
  5
18
102
{ACAD_REACTORS
330
17
102
}
330
17
100
AcDbMlineStyle
  2
Standard
 70
     0
  3

 62
   256
 51
90.0
 52
90.0
 71
     2
 49
0.5
 62
   256
  6
BYLAYER
 49
-0.5
 62
   256
  6
BYLAYER
  0
ACDBPLACEHOLDER
  5
F
102
{ACAD_REACTORS
330
E
102
}
330
E
  0
SCALE
  5
48
102
{ACAD_REACTORS
330
47
102
}
330
47
100
AcDbScale
 70
     0
300
1:1
140
1.0
141
1.0
290
     1
  0
SCALE
  5
49
102
{ACAD_REACTORS
330
47
102
}
330
47
100
AcDbScale
 70
     0
300
1:2
140
1.0
141
2.0
290
     0
  0
SCALE
  5
4A
102
{ACAD_REACTORS
330
47
102
}
330
47
100
AcDbScale
 70
     0
300
1:4
140
1.0
141
4.0
290
     0
  0
SCALE
  5
4B
102
{ACAD_REACTORS
330
47
102
}
330
47
100
AcDbScale
 70
     0
300
1:5
140
1.0
141
5.0
290
     0
  0
SCALE
  5
4C
102
{ACAD_REACTORS
330
47
102
}
330
47
100
AcDbScale
 70
     0
300
1:8
140
1.0
141
8.0
290
     0
  0
SCALE
  5
4D
102
{ACAD_REACTORS
330
47
102
}
330
47
100
AcDbScale
 70
     0
300
1:10
140
1.0
141
10.0
290
     0
  0
SCALE
  5
4E
102
{ACAD_REACTORS
330
47
102
}
330
47
100
AcDbScale
 70
     0
300
1:16
140
1.0
141
16.0
290
     0
  0
SCALE
  5
4F
102
{ACAD_REACTORS
330
47
102
}
330
47
100
AcDbScale
 70
     0
300
1:20
140
1.0
141
20.0
290
     0
  0
SCALE
  5
50
102
{ACAD_REACTORS
330
47
102
}
330
47
100
AcDbScale
 70
     0
300
1:30
140
1.0
141
30.0
290
     0
  0
SCALE
  5
51
102
{ACAD_REACTORS
330
47
102
}
330
47
100
AcDbScale
 70
     0
300
1:40
140
1.0
141
40.0
290
     0
  0
SCALE
  5
52
102
{ACAD_REACTORS
330
47
102
}
330
47
100
AcDbScale
 70
     0
300
1:50
140
1.0
141
50.0
290
     0
  0
SCALE
  5
53
102
{ACAD_REACTORS
330
47
102
}
330
47
100
AcDbScale
 70
     0
300
1:100
140
1.0
141
100.0
290
     0
  0
SCALE
  5
54
102
{ACAD_REACTORS
330
47
102
}
330
47
100
AcDbScale
 70
     0
300
2:1
140
2.0
141
1.0
290
     0
  0
SCALE
  5
55
102
{ACAD_REACTORS
330
47
102
}
330
47
100
AcDbScale
 70
     0
300
4:1
140
4.0
141
1.0
290
     0
  0
SCALE
  5
56
102
{ACAD_REACTORS
330
47
102
}
330
47
100
AcDbScale
 70
     0
300
8:1
140
8.0
141
1.0
290
     0
  0
SCALE
  5
57
102
{ACAD_REACTORS
330
47
102
}
330
47
100
AcDbScale
 70
     0
300
10:1
140
10.0
141
1.0
290
     0
  0
SCALE
  5
58
102
{ACAD_REACTORS
330
47
102
}
330
47
100
AcDbScale
 70
     0
300
100:1
140
100.0
141
1.0
290
     0
  0
SCALE
  5
59
102
{ACAD_REACTORS
330
47
102
}
330
47
100
AcDbScale
 70
     0
300
1/128" = 1'-0"
140
0.0078125
141
12.0
290
     0
  0
SCALE
  5
5A
102
{ACAD_REACTORS
330
47
102
}
330
47
100
AcDbScale
 70
     0
300
1/64" = 1'-0"
140
0.015625
141
12.0
290
     0
  0
SCALE
  5
5B
102
{ACAD_REACTORS
330
47
102
}
330
47
100
AcDbScale
 70
     0
300
1/32" = 1'-0"
140
0.03125
141
12.0
290
     0
  0
SCALE
  5
5C
102
{ACAD_REACTORS
330
47
102
}
330
47
100
AcDbScale
 70
     0
300
1/16" = 1'-0"
140
0.0625
141
12.0
290
     0
  0
SCALE
  5
5D
102
{ACAD_REACTORS
330
47
102
}
330
47
100
AcDbScale
 70
     0
300
3/32" = 1'-0"
140
0.09375
141
12.0
290
     0
  0
SCALE
  5
5E
102
{ACAD_REACTORS
330
47
102
}
330
47
100
AcDbScale
 70
     0
300
1/8" = 1'-0"
140
0.125
141
12.0
290
     0
  0
SCALE
  5
5F
102
{ACAD_REACTORS
330
47
102
}
330
47
100
AcDbScale
 70
     0
300
3/16" = 1'-0"
140
0.1875
141
12.0
290
     0
  0
SCALE
  5
60
102
{ACAD_REACTORS
330
47
102
}
330
47
100
AcDbScale
 70
     0
300
1/4" = 1'-0"
140
0.25
141
12.0
290
     0
  0
SCALE
  5
61
102
{ACAD_REACTORS
330
47
102
}
330
47
100
AcDbScale
 70
     0
300
3/8" = 1'-0"
140
0.375
141
12.0
290
     0
  0
SCALE
  5
62
102
{ACAD_REACTORS
330
47
102
}
330
47
100
AcDbScale
 70
     0
300
1/2" = 1'-0"
140
0.5
141
12.0
290
     0
  0
SCALE
  5
63
102
{ACAD_REACTORS
330
47
102
}
330
47
100
AcDbScale
 70
     0
300
3/4" = 1'-0"
140
0.75
141
12.0
290
     0
  0
SCALE
  5
64
102
{ACAD_REACTORS
330
47
102
}
330
47
100
AcDbScale
 70
     0
300
1" = 1'-0"
140
1.0
141
12.0
290
     0
  0
SCALE
  5
65
102
{ACAD_REACTORS
330
47
102
}
330
47
100
AcDbScale
 70
     0
300
1-1/2" = 1'-0"
140
1.5
141
12.0
290
     0
  0
SCALE
  5
66
102
{ACAD_REACTORS
330
47
102
}
330
47
100
AcDbScale
 70
     0
300
3" = 1'-0"
140
3.0
141
12.0
290
     0
  0
SCALE
  5
67
102
{ACAD_REACTORS
330
47
102
}
330
47
100
AcDbScale
 70
     0
300
6" = 1'-0"
140
6.0
141
12.0
290
     0
  0
SCALE
  5
68
102
{ACAD_REACTORS
330
47
102
}
330
47
100
AcDbScale
 70
     0
300
1'-0" = 1'-0"
140
12.0
141
12.0
290
     0
  0
ENDSEC
  0
EOF
