  0
SECTION
  2
HEADER
  9
$ACADVER
  1
AC1015
  9
$ACADMAINTVER
 70
     6
  9
$DWGCODEPAGE
  3
ANSI_949
  9
$INSBASE
 10
0.0
 20
0.0
 30
0.0
  9
$EXTMIN
 10
-63.22450739353431
 20
-49.97073246008785
 30
0.0
  9
$EXTMAX
 10
84.69332183245393
 20
33.17014219714923
 30
0.0
  9
$LIMMIN
 10
0.0
 20
0.0
  9
$LIMMAX
 10
420.0
 20
297.0
  9
$ORTHOMODE
 70
     0
  9
$REGENMODE
 70
     1
  9
$FILLMODE
 70
     1
  9
$QTEXTMODE
 70
     0
  9
$MIRRTEXT
 70
     1
  9
$LTSCALE
 40
1.0
  9
$ATTMODE
 70
     1
  9
$TEXTSIZE
 40
3.5
  9
$TRACEWID
 40
1.0
  9
$TEXTSTYLE
  7
Standard
  9
$CLAYER
  8
0
  9
$CELTYPE
  6
ByLayer
  9
$CECOLOR
 62
   256
  9
$CELTSCALE
 40
1.0
  9
$DISPSILH
 70
     0
  9
$DIMSCALE
 40
1.0
  9
$DIMASZ
 40
3.302
  9
$DIMEXO
 40
1.0
  9
$DIMDLI
 40
3.75
  9
$DIMRND
 40
0.0
  9
$DIMDLE
 40
0.0
  9
$DIMEXE
 40
1.0
  9
$DIMTP
 40
0.0
  9
$DIMTM
 40
0.0
  9
$DIMTXT
 40
3.5
  9
$DIMCEN
 40
2.5
  9
$DIMTSZ
 40
0.0
  9
$DIMTOL
 70
     0
  9
$DIMLIM
 70
     0
  9
$DIMTIH
 70
     1
  9
$DIMTOH
 70
     1
  9
$DIMSE1
 70
     0
  9
$DIMSE2
 70
     0
  9
$DIMTAD
 70
     1
  9
$DIMZIN
 70
     0
  9
$DIMBLK
  1

  9
$DIMASO
 70
     1
  9
$DIMSHO
 70
     1
  9
$DIMPOST
  1

  9
$DIMAPOST
  1

  9
$DIMALT
 70
     0
  9
$DIMALTD
 70
     3
  9
$DIMALTF
 40
0.0393700787401575
  9
$DIMLFAC
 40
1.0
  9
$DIMTOFL
 70
     1
  9
$DIMTVP
 40
0.0
  9
$DIMTIX
 70
     0
  9
$DIMSOXD
 70
     0
  9
$DIMSAH
 70
     0
  9
$DIMBLK1
  1

  9
$DIMBLK2
  1

  9
$DIMSTYLE
  2
ISO-25
  9
$DIMCLRD
 70
     0
  9
$DIMCLRE
 70
     0
  9
$DIMCLRT
 70
     0
  9
$DIMTFAC
 40
1.0
  9
$DIMGAP
 40
1.524
  9
$DIMJUST
 70
     0
  9
$DIMSD1
 70
     0
  9
$DIMSD2
 70
     0
  9
$DIMTOLJ
 70
     0
  9
$DIMTZIN
 70
     0
  9
$DIMALTZ
 70
     0
  9
$DIMALTTZ
 70
     0
  9
$DIMUPT
 70
     0
  9
$DIMDEC
 70
     2
  9
$DIMTDEC
 70
     2
  9
$DIMALTU
 70
     2
  9
$DIMALTTD
 70
     3
  9
$DIMTXSTY
  7
Standard
  9
$DIMAUNIT
 70
     0
  9
$DIMADEC
 70
     2
  9
$DIMALTRND
 40
0.0
  9
$DIMAZIN
 70
     0
  9
$DIMDSEP
 70
    44
  9
$DIMATFIT
 70
     3
  9
$DIMFRAC
 70
     0
  9
$DIMLDRBLK
  1

  9
$DIMLUNIT
 70
     2
  9
$DIMLWD
 70
    -2
  9
$DIMLWE
 70
    -2
  9
$DIMTMOVE
 70
     0
  9
$LUNITS
 70
     2
  9
$LUPREC
 70
     2
  9
$SKETCHINC
 40
1.0
  9
$FILLETRAD
 40
10.0
  9
$AUNITS
 70
     0
  9
$AUPREC
 70
     2
  9
$MENU
  1
.
  9
$ELEVATION
 40
0.0
  9
$PELEVATION
 40
0.0
  9
$THICKNESS
 40
0.0
  9
$LIMCHECK
 70
     0
  9
$CHAMFERA
 40
0.0
  9
$CHAMFERB
 40
0.0
  9
$CHAMFERC
 40
0.0
  9
$CHAMFERD
 40
0.0
  9
$SKPOLY
 70
     0
  9
$TDCREATE
 40
2458262.550928333
  9
$TDUCREATE
 40
2458262.175928333
  9
$TDUPDATE
 40
2458266.555777222
  9
$TDUUPDATE
 40
2458266.180777222
  9
$TDINDWG
 40
0.0018660995
  9
$TDUSRTIMER
 40
2458266.178911169
  9
$USRTIMER
 70
     1
  9
$ANGBASE
 50
0.0
  9
$ANGDIR
 70
     0
  9
$PDMODE
 70
     0
  9
$PDSIZE
 40
-1.0
  9
$PLINEWID
 40
0.0
  9
$SPLFRAME
 70
     0
  9
$SPLINETYPE
 70
     6
  9
$SPLINESEGS
 70
     8
  9
$HANDSEED
  5
142
  9
$SURFTAB1
 70
     6
  9
$SURFTAB2
 70
     6
  9
$SURFTYPE
 70
     6
  9
$SURFU
 70
     6
  9
$SURFV
 70
     6
  9
$UCSBASE
  2

  9
$UCSNAME
  2

  9
$UCSORG
 10
0.0
 20
0.0
 30
0.0
  9
$UCSXDIR
 10
1.0
 20
0.0
 30
0.0
  9
$UCSYDIR
 10
0.0
 20
1.0
 30
0.0
  9
$UCSORTHOREF
  2

  9
$UCSORTHOVIEW
 70
     0
  9
$UCSORGTOP
 10
0.0
 20
0.0
 30
0.0
  9
$UCSORGBOTTOM
 10
0.0
 20
0.0
 30
0.0
  9
$UCSORGLEFT
 10
0.0
 20
0.0
 30
0.0
  9
$UCSORGRIGHT
 10
0.0
 20
0.0
 30
0.0
  9
$UCSORGFRONT
 10
0.0
 20
0.0
 30
0.0
  9
$UCSORGBACK
 10
0.0
 20
0.0
 30
0.0
  9
$PUCSBASE
  2

  9
$PUCSNAME
  2

  9
$PUCSORG
 10
0.0
 20
0.0
 30
0.0
  9
$PUCSXDIR
 10
1.0
 20
0.0
 30
0.0
  9
$PUCSYDIR
 10
0.0
 20
1.0
 30
0.0
  9
$PUCSORTHOREF
  2

  9
$PUCSORTHOVIEW
 70
     0
  9
$PUCSORGTOP
 10
0.0
 20
0.0
 30
0.0
  9
$PUCSORGBOTTOM
 10
0.0
 20
0.0
 30
0.0
  9
$PUCSORGLEFT
 10
0.0
 20
0.0
 30
0.0
  9
$PUCSORGRIGHT
 10
0.0
 20
0.0
 30
0.0
  9
$PUCSORGFRONT
 10
0.0
 20
0.0
 30
0.0
  9
$PUCSORGBACK
 10
0.0
 20
0.0
 30
0.0
  9
$USERI1
 70
     0
  9
$USERI2
 70
     0
  9
$USERI3
 70
     0
  9
$USERI4
 70
     0
  9
$USERI5
 70
     0
  9
$USERR1
 40
0.0
  9
$USERR2
 40
0.0
  9
$USERR3
 40
0.0
  9
$USERR4
 40
0.0
  9
$USERR5
 40
0.0
  9
$WORLDVIEW
 70
     1
  9
$SHADEDGE
 70
     3
  9
$SHADEDIF
 70
    70
  9
$TILEMODE
 70
     1
  9
$MAXACTVP
 70
    64
  9
$PINSBASE
 10
0.0
 20
0.0
 30
0.0
  9
$PLIMCHECK
 70
     0
  9
$PEXTMIN
 10
1.000000000000000E+20
 20
1.000000000000000E+20
 30
1.000000000000000E+20
  9
$PEXTMAX
 10
-1.000000000000000E+20
 20
-1.000000000000000E+20
 30
-1.000000000000000E+20
  9
$PLIMMIN
 10
0.0
 20
0.0
  9
$PLIMMAX
 10
0.0
 20
0.0
  9
$UNITMODE
 70
     0
  9
$VISRETAIN
 70
     1
  9
$PLINEGEN
 70
     0
  9
$PSLTSCALE
 70
     1
  9
$TREEDEPTH
 70
  3020
  9
$CMLSTYLE
  2
Standard
  9
$CMLJUST
 70
     0
  9
$CMLSCALE
 40
20.0
  9
$PROXYGRAPHICS
 70
     1
  9
$MEASUREMENT
 70
     1
  9
$CELWEIGHT
370
    -1
  9
$ENDCAPS
280
     0
  9
$JOINSTYLE
280
     0
  9
$LWDISPLAY
290
     1
  9
$INSUNITS
 70
     4
  9
$HYPERLINKBASE
  1

  9
$STYLESHEET
  1

  9
$XEDIT
290
     1
  9
$CEPSNTYPE
380
     0
  9
$PSTYLEMODE
290
     1
  9
$FINGERPRINTGUID
  2
{F44EEB5E-7364-48A4-A0D7-39D6DAF3E2B1}
  9
$VERSIONGUID
  2
{FAEB1C32-E019-11D5-929B-00C0DF256EC4}
  9
$EXTNAMES
290
     1
  9
$PSVPSCALE
 40
0.0
  9
$OLESTARTUP
290
     0
  0
ENDSEC
  0
SECTION
  2
CLASSES
  0
CLASS
  1
ACDBDICTIONARYWDFLT
  2
AcDbDictionaryWithDefault
  3
ObjectDBX Classes
 90
        0
280
     0
281
     0
  0
CLASS
  1
VISUALSTYLE
  2
AcDbVisualStyle
  3
ObjectDBX Classes
 90
     4095
280
     0
281
     0
  0
CLASS
  1
MATERIAL
  2
AcDbMaterial
  3
ObjectDBX Classes
 90
     1153
280
     0
281
     0
  0
CLASS
  1
SCALE
  2
AcDbScale
  3
ObjectDBX Classes
 90
     1153
280
     0
281
     0
  0
CLASS
  1
SUN
  2
AcDbSun
  3
SCENEOE
 90
     1153
280
     0
281
     0
  0
CLASS
  1
ACDBPLACEHOLDER
  2
AcDbPlaceHolder
  3
ObjectDBX Classes
 90
        0
280
     0
281
     0
  0
CLASS
  1
LAYOUT
  2
AcDbLayout
  3
ObjectDBX Classes
 90
        0
280
     0
281
     0
  0
CLASS
  1
TABLESTYLE
  2
AcDbTableStyle
  3
ObjectDBX Classes
 90
     4095
280
     0
281
     0
  0
CLASS
  1
MLEADERSTYLE
  2
AcDbMLeaderStyle
  3
ACDB_MLEADERSTYLE_CLASS
 90
     4095
280
     0
281
     0
  0
CLASS
  1
RASTERVARIABLES
  2
AcDbRasterVariables
  3
ISM
 90
        0
280
     0
281
     0
  0
ENDSEC
  0
SECTION
  2
TABLES
  0
TABLE
  2
VPORT
  5
8
330
0
100
AcDbSymbolTable
 70
     1
  0
VPORT
  5
29
330
8
100
AcDbSymbolTableRecord
100
AcDbViewportTableRecord
  2
*Active
 70
     0
 10
0.0
 20
0.0
 11
1.0
 21
1.0
 12
10.73440721945981
 22
-8.400295131469306
 13
0.0
 23
0.0
 14
10.0
 24
10.0
 15
10.0
 25
10.0
 16
0.0
 26
0.0
 36
1.0
 17
0.0
 27
0.0
 37
0.0
 40
130.9172284947682
 41
1.152454780361757
 42
50.0
 43
0.0
 44
0.0
 50
0.0
 51
0.0
 71
    16
 72
  2000
 73
     1
 74
     3
 75
     0
 76
     0
 77
     0
 78
     0
281
     0
 65
     1
110
0.0
120
0.0
130
0.0
111
1.0
121
0.0
131
0.0
112
0.0
122
1.0
132
0.0
 79
     0
146
0.0
  0
ENDTAB
  0
TABLE
  2
LTYPE
  5
5
330
0
100
AcDbSymbolTable
 70
     6
  0
LTYPE
  5
14
330
5
100
AcDbSymbolTableRecord
100
AcDbLinetypeTableRecord
  2
ByBlock
 70
     0
  3

 72
    65
 73
     0
 40
0.0
  0
LTYPE
  5
15
330
5
100
AcDbSymbolTableRecord
100
AcDbLinetypeTableRecord
  2
ByLayer
 70
     0
  3

 72
    65
 73
     0
 40
0.0
  0
LTYPE
  5
16
330
5
100
AcDbSymbolTableRecord
100
AcDbLinetypeTableRecord
  2
Continuous
 70
     0
  3
Solid line
 72
    65
 73
     0
 40
0.0
  0
LTYPE
  5
6A
330
5
100
AcDbSymbolTableRecord
100
AcDbLinetypeTableRecord
  2
HIDDEN
 70
     0
  3
Hidden __ __ __ __ __ __ __ __ __ __ __ __ __ __
 72
    65
 73
     2
 40
1.905
 49
1.27
 74
     0
 49
-0.635
 74
     0
  0
LTYPE
  5
6B
330
5
100
AcDbSymbolTableRecord
100
AcDbLinetypeTableRecord
  2
PHANTOM
 70
     0
  3
Phantom ______  __  __  ______  __  __  ______
 72
    65
 73
     6
 40
12.7
 49
6.35
 74
     0
 49
-1.27
 74
     0
 49
1.27
 74
     0
 49
-1.27
 74
     0
 49
1.27
 74
     0
 49
-1.27
 74
     0
  0
LTYPE
  5
6C
330
5
100
AcDbSymbolTableRecord
100
AcDbLinetypeTableRecord
  2
CENTER
 70
     0
  3
Center ____ _ ____ _ ____ _ ____ _ ____ _ ____
 72
    65
 73
     4
 40
10.16
 49
6.35
 74
     0
 49
-1.27
 74
     0
 49
1.27
 74
     0
 49
-1.27
 74
     0
  0
LTYPE
  5
6D
330
5
100
AcDbSymbolTableRecord
100
AcDbLinetypeTableRecord
  2
CENTERX2
 70
     0
  3
Center (2x) ________  __  ________  __  _____
 72
    65
 73
     4
 40
20.32
 49
12.7
 74
     0
 49
-2.54
 74
     0
 49
2.54
 74
     0
 49
-2.54
 74
     0
  0
LTYPE
  5
6E
330
5
100
AcDbSymbolTableRecord
100
AcDbLinetypeTableRecord
  2
DOT2
 70
     0
  3
Dot (.5x) ........................................
 72
    65
 73
     2
 40
0.635
 49
0.0
 74
     0
 49
-0.635
 74
     0
  0
ENDTAB
  0
TABLE
  2
LAYER
  5
2
330
0
100
AcDbSymbolTable
 70
    17
  0
LAYER
  5
10
330
2
100
AcDbSymbolTableRecord
100
AcDbLayerTableRecord
  2
0
 70
     0
 62
     7
  6
Continuous
370
    -3
390
F
  0
LAYER
  5
6F
330
2
100
AcDbSymbolTableRecord
100
AcDbLayerTableRecord
  2
FORMAT
 70
     0
 62
     2
  6
Continuous
370
    -3
390
F
  0
LAYER
  5
70
330
2
100
AcDbSymbolTableRecord
100
AcDbLayerTableRecord
  2
외형선
 70
     0
 62
   100
  6
Continuous
370
    30
390
F
  0
LAYER
  5
71
330
2
100
AcDbSymbolTableRecord
100
AcDbLayerTableRecord
  2
숨은선
 70
     0
 62
     2
  6
HIDDEN
370
    15
390
F
  0
LAYER
  5
72
330
2
100
AcDbSymbolTableRecord
100
AcDbLayerTableRecord
  2
중심선
 70
     0
 62
     1
  6
CENTERX2
370
    -3
390
F
  0
LAYER
  5
73
330
2
100
AcDbSymbolTableRecord
100
AcDbLayerTableRecord
  2
파단선
 70
     0
 62
     4
  6
Continuous
370
    -3
390
F
  0
LAYER
  5
74
330
2
100
AcDbSymbolTableRecord
100
AcDbLayerTableRecord
  2
해칭선
 70
     0
 62
     4
  6
Continuous
370
    -3
390
F
  0
LAYER
  5
75
330
2
100
AcDbSymbolTableRecord
100
AcDbLayerTableRecord
  2
가는실선
 70
     0
 62
     4
  6
Continuous
370
    -3
390
F
  0
LAYER
  5
76
330
2
100
AcDbSymbolTableRecord
100
AcDbLayerTableRecord
  2
치수_보조선
 70
     0
 62
     4
  6
Continuous
370
    -3
390
F
  0
LAYER
  5
77
330
2
100
AcDbSymbolTableRecord
100
AcDbLayerTableRecord
  2
치수문자_일반주서
 70
     0
 62
     7
  6
Continuous
370
    15
390
F
  0
LAYER
  5
78
330
2
100
AcDbSymbolTableRecord
100
AcDbLayerTableRecord
  2
개별주서
 70
     0
 62
   100
  6
Continuous
370
    30
390
F
  0
LAYER
  5
79
330
2
100
AcDbSymbolTableRecord
100
AcDbLayerTableRecord
  2
중간선
 70
     0
 62
     2
  6
Continuous
370
    15
390
F
  0
LAYER
  5
7A
330
2
100
AcDbSymbolTableRecord
100
AcDbLayerTableRecord
  2
윤곽선
 70
     0
 62
     3
  6
Continuous
370
    40
390
F
  0
LAYER
  5
7B
330
2
100
AcDbSymbolTableRecord
100
AcDbLayerTableRecord
  2
중심마크
 70
     0
 62
   100
  6
Continuous
370
    30
390
F
  0
LAYER
  5
7C
330
2
100
AcDbSymbolTableRecord
100
AcDbLayerTableRecord
  2
가상선
 70
     0
 62
     4
  6
PHANTOM
370
    -3
390
F
  0
LAYER
  5
7D
330
2
100
AcDbSymbolTableRecord
100
AcDbLayerTableRecord
  2
특수지정선
 70
     0
 62
     5
  6
CENTERX2
370
    60
390
F
  0
LAYER
  5
133
330
2
100
AcDbSymbolTableRecord
100
AcDbLayerTableRecord
  2
Defpoints
 70
     0
 62
     7
  6
Continuous
290
     0
370
    -3
390
F
  0
ENDTAB
  0
TABLE
  2
STYLE
  5
3
330
0
100
AcDbSymbolTable
 70
     2
  0
STYLE
  5
11
330
3
100
AcDbSymbolTableRecord
100
AcDbTextStyleTableRecord
  2
Standard
 70
     0
 40
0.0
 41
1.0
 50
0.0
 71
     0
 42
3.5
  3
txt
  4

  0
STYLE
  5
93
330
3
100
AcDbSymbolTableRecord
100
AcDbTextStyleTableRecord
  2
SLDTEXTSTYLE0
 70
     0
 40
0.0
 41
0.75
 50
0.0
 71
     0
 42
3.5
  3
TXT
  4

  0
ENDTAB
  0
TABLE
  2
VIEW
  5
6
330
0
100
AcDbSymbolTable
 70
     0
  0
ENDTAB
  0
TABLE
  2
UCS
  5
7
330
0
100
AcDbSymbolTable
 70
     0
  0
ENDTAB
  0
TABLE
  2
APPID
  5
9
330
0
100
AcDbSymbolTable
 70
     1
  0
APPID
  5
12
330
9
100
AcDbSymbolTableRecord
100
AcDbRegAppTableRecord
  2
ACAD
 70
     0
  0
ENDTAB
  0
TABLE
  2
DIMSTYLE
  5
A
330
0
100
AcDbSymbolTable
 70
     3
100
AcDbDimStyleTable
  0
DIMSTYLE
105
27
330
A
100
AcDbSymbolTableRecord
100
AcDbDimStyleTableRecord
  2
ISO-25
 70
     0
 41
2.5
 42
0.625
 43
3.75
 44
1.25
 73
     0
 74
     0
 77
     1
 78
     8
140
2.5
141
2.5
143
0.03937007874016
147
0.625
171
     3
172
     1
178
     0
271
     2
272
     2
274
     3
278
    44
283
     0
284
     8
340
11
  0
DIMSTYLE
105
D9
102
{ACAD_REACTORS
330
D8
330
FB
102
}
330
A
100
AcDbSymbolTableRecord
100
AcDbDimStyleTableRecord
  2
SLDDIMSTYLE0
 70
     0
 41
3.302
 44
0.0
 45
0.000000001
 73
     0
 74
     0
 77
     1
 78
    12
 79
     3
140
3.5
147
0.875
172
     1
173
     1
178
     0
271
     2
272
     2
276
     2
284
    12
289
     0
340
93
  0
DIMSTYLE
105
E7
102
{ACAD_REACTORS
330
E6
330
F1
102
}
330
A
100
AcDbSymbolTableRecord
100
AcDbDimStyleTableRecord
  2
SLDDIMSTYLE1
 70
     0
 41
3.302
 44
0.0
 45
0.000000001
 73
     0
 74
     0
 77
     1
 78
    12
 79
     3
140
3.5
147
0.875
173
     1
178
     0
271
     2
272
     2
276
     2
284
    12
340
93
  0
ENDTAB
  0
TABLE
  2
BLOCK_RECORD
  5
1
330
0
100
AcDbSymbolTable
 70
     7
  0
BLOCK_RECORD
  5
1F
330
1
100
AcDbSymbolTableRecord
100
AcDbBlockTableRecord
  2
*Model_Space
340
22
  0
BLOCK_RECORD
  5
1B
330
1
100
AcDbSymbolTableRecord
100
AcDbBlockTableRecord
  2
*Paper_Space
340
1E
  0
BLOCK_RECORD
  5
23
330
1
100
AcDbSymbolTableRecord
100
AcDbBlockTableRecord
  2
*Paper_Space0
340
26
  0
BLOCK_RECORD
  5
7E
330
1
100
AcDbSymbolTableRecord
100
AcDbBlockTableRecord
  2
블럭10
340
0
102
{BLKREFS
331
D1
102
}
  0
BLOCK_RECORD
  5
DA
330
1
100
AcDbSymbolTableRecord
100
AcDbBlockTableRecord
  2
_D
340
0
  0
BLOCK_RECORD
  5
E8
330
1
100
AcDbSymbolTableRecord
100
AcDbBlockTableRecord
  2
_D_1
340
0
  0
BLOCK_RECORD
  5
F2
330
1
100
AcDbSymbolTableRecord
100
AcDbBlockTableRecord
  2
_D_2
340
0
  0
BLOCK_RECORD
  5
FC
330
1
100
AcDbSymbolTableRecord
100
AcDbBlockTableRecord
  2
_D_3
340
0
  0
BLOCK_RECORD
  5
108
330
1
100
AcDbSymbolTableRecord
100
AcDbBlockTableRecord
  2
SW_DOWELSYMBOL_0
340
0
102
{BLKREFS
331
10E
102
}
  0
ENDTAB
  0
ENDSEC
  0
SECTION
  2
BLOCKS
  0
BLOCK
  5
20
330
1F
100
AcDbEntity
  8
0
100
AcDbBlockBegin
  2
*Model_Space
 70
     0
 10
0.0
 20
0.0
 30
0.0
  3
*Model_Space
  1

  0
ENDBLK
  5
21
330
1F
100
AcDbEntity
  8
0
100
AcDbBlockEnd
  0
BLOCK
  5
1C
330
1B
100
AcDbEntity
 67
     1
  8
0
100
AcDbBlockBegin
  2
*Paper_Space
 70
     0
 10
0.0
 20
0.0
 30
0.0
  3
*Paper_Space
  1

  0
ENDBLK
  5
1D
330
1B
100
AcDbEntity
 67
     1
  8
0
100
AcDbBlockEnd
  0
BLOCK
  5
24
330
23
100
AcDbEntity
  8
0
100
AcDbBlockBegin
  2
*Paper_Space0
 70
     0
 10
0.0
 20
0.0
 30
0.0
  3
*Paper_Space0
  1

  0
ENDBLK
  5
25
330
23
100
AcDbEntity
  8
0
100
AcDbBlockEnd
  0
BLOCK
  5
7F
330
7E
100
AcDbEntity
  8
0
100
AcDbBlockBegin
  2
블럭10
 70
     2
 10
0.0
 20
0.0
 30
0.0
  3
블럭10
  1

  0
ELLIPSE
  5
81
330
7E
100
AcDbEntity
  8
중심선
100
AcDbEllipse
 10
20.54032771741204
 20
12.0471743016438
 30
0.0
 11
6.600054785286829
 21
-1.261213355974178E-13
 31
0.0
210
0.0
220
0.0
230
1.0
 40
0.636358354079598
 41
0.9219305317359503
 42
6.513795318482858
  0
ELLIPSE
  5
82
330
7E
100
AcDbEntity
  8
중심선
100
AcDbEllipse
 10
20.54032771746488
 20
12.04717430159265
 30
0.0
 11
3.960054785062283
 21
1.540847449632565E-10
 31
0.0
210
0.0
220
0.0
230
1.0
 40
0.3939339440162632
 41
1.131841032648279
 42
5.62031148352944
  0
LINE
  5
83
330
7E
100
AcDbEntity
  8
중심선
100
AcDbLine
 10
2.268634060543552
 20
16.24717430164393
 30
0.0
 11
5.714909304380834
 21
16.24717430164393
 31
0.0
  0
LINE
  5
84
330
7E
100
AcDbEntity
  8
중심선
100
AcDbLine
 10
5.245725140726316
 20
7.84717430164391
 30
0.0
 11
8.692000384563599
 21
7.84717430164391
 31
0.0
  0
LINE
  5
85
330
7E
100
AcDbEntity
  8
중심선
100
AcDbLine
 10
15.74043728645272
 20
16.24717430164393
 30
0.0
 11
8.692000384563599
 21
7.84717430164391
 31
0.0
  0
LINE
  5
86
330
7E
100
AcDbEntity
  8
중심선
100
AcDbLine
 10
0.1404042013395286
 20
13.71084872107135
 30
0.0
 11
3.58671253028996
 21
13.71088815037384
 31
0.0
  0
LINE
  5
87
330
7E
100
AcDbEntity
  8
중심선
100
AcDbLine
 10
2.750260043222114
 20
10.84717430164391
 30
0.0
 11
6.196535287059397
 21
10.84717430164391
 31
0.0
  0
LINE
  5
88
330
7E
100
AcDbEntity
  8
중심선
100
AcDbLine
 10
12.29416204261559
 20
16.24717430164393
 30
0.0
 11
5.245725140726316
 21
7.84717430164391
 31
0.0
  0
LINE
  5
89
330
7E
100
AcDbEntity
  8
중심선
100
AcDbLine
 10
10.72767329541681
 20
16.24717430164393
 30
0.0
 11
6.196535287059397
 21
10.84717430164391
 31
0.0
  0
LINE
  5
8A
330
7E
100
AcDbEntity
  8
중심선
100
AcDbLine
 10
7.28139805157953
 20
16.24717430164393
 30
0.0
 11
2.750260043222114
 21
10.84717430164391
 31
0.0
  0
LINE
  5
8B
330
7E
100
AcDbEntity
  8
중심선
100
AcDbLine
 10
5.714909304380834
 20
16.24717430164393
 30
0.0
 11
3.58671253028996
 21
13.71088815037384
 31
0.0
  0
LINE
  5
8C
330
7E
100
AcDbEntity
  8
중심선
100
AcDbLine
 10
2.268634060543552
 20
16.24717430164393
 30
0.0
 11
0.1404042013395286
 21
13.71084872107135
 31
0.0
  0
LINE
  5
8D
330
7E
100
AcDbEntity
  8
중심선
100
AcDbLine
 10
7.28139805157953
 20
16.24717430164393
 30
0.0
 11
10.72767329541681
 21
16.24717430164393
 31
0.0
  0
LINE
  5
8E
330
7E
100
AcDbEntity
  8
중심선
100
AcDbLine
 10
12.29416204261559
 20
16.24717430164393
 30
0.0
 11
15.74043728645272
 21
16.24717430164393
 31
0.0
  0
LINE
  5
8F
330
7E
100
AcDbEntity
  8
중심선
100
AcDbLine
 10
19.22036997980202
 20
11.08717430171403
 30
0.0
 11
23.66174974927406
 21
11.08717430171406
 31
0.0
  0
LINE
  5
90
330
7E
100
AcDbEntity
  8
중심선
100
AcDbLine
 10
19.22039502424796
 20
13.00717430171391
 30
0.0
 11
19.22036997980202
 21
11.08717430171403
 31
0.0
  0
LINE
  5
91
330
7E
100
AcDbEntity
  8
중심선
100
AcDbLine
 10
19.22039502424796
 20
13.00717430171391
 30
0.0
 11
26.96566020931264
 21
13.00717430171391
 31
0.0
  0
LINE
  5
92
330
7E
100
AcDbEntity
  8
중심선
100
AcDbLine
 10
22.22332737316547
 20
13.45928029700563
 30
0.0
 11
24.52862924686651
 21
15.39360700705356
 31
0.0
  0
ATTDEF
  5
94
330
7E
100
AcDbEntity
  8
FORMAT
 62
     2
100
AcDbText
 10
-16.11926103943555
 20
2.075366912832191
 30
0.0
 40
4.233333333333333
  1
SEME7016060E [ 2 FLUTE ]
 41
0.75
  7
SLDTEXTSTYLE0
 11
-16.11926103943555
 21
-0.0412997538344756
 31
0.0
100
AcDbAttributeDefinition
  3

  2
AUTOATTR0
 70
     0
 74
     1
  0
ENDBLK
  5
80
330
7E
100
AcDbEntity
  8
0
100
AcDbBlockEnd
  0
BLOCK
  5
DB
330
DA
100
AcDbEntity
  8
0
100
AcDbBlockBegin
  2
_D
 70
     0
 10
0.0
 20
0.0
 30
0.0
  3
_D
  1

  0
LINE
  5
DD
330
DA
100
AcDbEntity
  8
치수문자_일반주서
 62
     0
370
    -2
100
AcDbLine
 10
72.06249999999979
 20
-7.993268243093232
 30
0.0
 11
84.14298849912059
 21
-7.993268243093187
 31
0.0
  0
LINE
  5
DE
330
DA
100
AcDbEntity
  8
치수문자_일반주서
 62
     0
370
    -2
100
AcDbLine
 10
72.06249999999955
 20
8.006731756906756
 30
0.0
 11
84.14298849912053
 21
8.006731756906802
 31
0.0
  0
LINE
  5
DF
330
DA
100
AcDbEntity
  8
치수문자_일반주서
 62
     0
370
    -2
100
AcDbLine
 10
84.14298849912059
 20
-7.993268243093187
 30
0.0
 11
84.14298849912048
 21
25.72239271162401
 31
0.0
  0
LINE
  5
E0
330
DA
100
AcDbEntity
  8
치수문자_일반주서
 62
     0
370
    -2
100
AcDbLine
 10
84.14298849912059
 20
-7.993268243093187
 30
0.0
 11
84.14298849912053
 21
8.006731756906802
 31
0.0
  0
LINE
  5
E1
330
DA
100
AcDbEntity
  8
치수문자_일반주서
 62
     0
370
    -2
100
AcDbLine
 10
84.1429884991206
 20
-11.29526824309319
 30
0.0
 11
84.14298849912062
 21
-14.59726824309319
 31
0.0
  0
LINE
  5
E2
330
DA
100
AcDbEntity
  8
치수문자_일반주서
 62
     0
370
    -2
100
AcDbLine
 10
84.14298849912052
 20
11.3087317569068
 30
0.0
 11
84.1429884991205
 21
14.6107317569068
 31
0.0
  0
SOLID
  5
E3
330
DA
100
AcDbEntity
  8
치수문자_일반주서
 62
     0
100
AcDbTrace
 10
84.69332183245393
 20
-11.29526824309318
 30
0.0
 11
83.59265516578728
 21
-11.29526824309319
 31
0.0
 12
84.14298849912059
 22
-7.993268243093187
 32
0.0
 13
84.14298849912059
 23
-7.993268243093187
 33
0.0
  0
SOLID
  5
E4
330
DA
100
AcDbEntity
  8
치수문자_일반주서
 62
     0
100
AcDbTrace
 10
83.59265516578719
 20
11.3087317569068
 30
0.0
 11
84.69332183245385
 21
11.3087317569068
 31
0.0
 12
84.14298849912053
 22
8.006731756906802
 32
0.0
 13
84.14298849912053
 23
8.006731756906802
 33
0.0
  0
MTEXT
  5
E5
330
DA
100
AcDbEntity
  8
치수문자_일반주서
 62
     0
100
AcDbMText
 10
79.76798849912049
 20
21.78489271162399
 30
0.0
 40
3.5
 41
0.0
 71
     2
 72
     1
  1
\A1;%%c16
  7
SLDTEXTSTYLE0
 11
-3.552713678800503E-15
 21
1.0
 31
0.0
 73
     1
 44
1.0
  0
POINT
  5
13D
330
DA
100
AcDbEntity
  8
Defpoints
 62
     0
100
AcDbPoint
 10
71.99999999999979
 20
-7.993268243093232
 30
0.0
  0
POINT
  5
13E
330
DA
100
AcDbEntity
  8
Defpoints
 62
     0
100
AcDbPoint
 10
71.99999999999955
 20
8.006731756906756
 30
0.0
  0
POINT
  5
13F
330
DA
100
AcDbEntity
  8
Defpoints
 62
     0
100
AcDbPoint
 10
84.14298849912053
 20
8.006731756906802
 30
0.0
  0
ENDBLK
  5
DC
330
DA
100
AcDbEntity
  8
0
100
AcDbBlockEnd
  0
BLOCK
  5
E9
330
E8
100
AcDbEntity
  8
0
100
AcDbBlockBegin
  2
_D_1
 70
     0
 10
0.0
 20
0.0
 30
0.0
  3
_D_1
  1

  0
LINE
  5
EB
330
E8
100
AcDbEntity
  8
치수문자_일반주서
 62
     0
370
    -2
100
AcDbLine
 10
-48.00000000000021
 20
7.069231756906535
 30
0.0
 11
-48.00000000000021
 21
28.79514219714923
 31
0.0
  0
LINE
  5
EC
330
E8
100
AcDbEntity
  8
치수문자_일반주서
 62
     0
370
    -2
100
AcDbLine
 10
71.99999999999955
 20
8.069231756906756
 30
0.0
 11
71.99999999999955
 21
28.79514219714923
 31
0.0
  0
LINE
  5
ED
330
E8
100
AcDbEntity
  8
치수문자_일반주서
 62
     0
370
    -2
100
AcDbLine
 10
-44.69800000000021
 20
28.79514219714923
 30
0.0
 11
68.69799999999955
 21
28.79514219714923
 31
0.0
  0
SOLID
  5
EE
330
E8
100
AcDbEntity
  8
치수문자_일반주서
 62
     0
100
AcDbTrace
 10
-44.69800000000021
 20
29.34547553048257
 30
0.0
 11
-44.69800000000021
 21
28.2448088638159
 31
0.0
 12
-48.00000000000021
 22
28.79514219714923
 32
0.0
 13
-48.00000000000021
 23
28.79514219714923
 33
0.0
  0
SOLID
  5
EF
330
E8
100
AcDbEntity
  8
치수문자_일반주서
 62
     0
100
AcDbTrace
 10
68.69799999999955
 20
28.2448088638159
 30
0.0
 11
68.69799999999955
 21
29.34547553048257
 31
0.0
 12
71.99999999999955
 22
28.79514219714923
 32
0.0
 13
71.99999999999955
 23
28.79514219714923
 33
0.0
  0
MTEXT
  5
F0
330
E8
100
AcDbEntity
  8
치수문자_일반주서
 62
     0
100
AcDbMText
 10
11.99999999999965
 20
33.17014219714923
 30
0.0
 40
3.5
 41
0.0
 71
     2
 72
     1
  1
\A1;120
  7
SLDTEXTSTYLE0
 73
     1
 44
1.0
  0
POINT
  5
134
330
E8
100
AcDbEntity
  8
Defpoints
 62
     0
100
AcDbPoint
 10
-48.00000000000021
 20
7.006731756906535
 30
0.0
  0
POINT
  5
135
330
E8
100
AcDbEntity
  8
Defpoints
 62
     0
100
AcDbPoint
 10
71.99999999999955
 20
8.006731756906756
 30
0.0
  0
POINT
  5
136
330
E8
100
AcDbEntity
  8
Defpoints
 62
     0
100
AcDbPoint
 10
71.99999999999955
 20
28.79514219714923
 30
0.0
  0
ENDBLK
  5
EA
330
E8
100
AcDbEntity
  8
0
100
AcDbBlockEnd
  0
BLOCK
  5
F3
330
F2
100
AcDbEntity
  8
0
100
AcDbBlockBegin
  2
_D_2
 70
     0
 10
0.0
 20
0.0
 30
0.0
  3
_D_2
  1

  0
LINE
  5
F5
330
F2
100
AcDbEntity
  8
치수문자_일반주서
 62
     0
370
    -2
100
AcDbLine
 10
11.99999999999979
 20
6.007368513188156
 30
0.0
 11
11.99999999999979
 21
19.29186631935567
 31
0.0
  0
LINE
  5
F6
330
F2
100
AcDbEntity
  8
치수문자_일반주서
 62
     0
370
    -2
100
AcDbLine
 10
71.99999999999955
 20
8.069231756906756
 30
0.0
 11
71.99999999999955
 21
19.29186631935567
 31
0.0
  0
LINE
  5
F7
330
F2
100
AcDbEntity
  8
치수문자_일반주서
 62
     0
370
    -2
100
AcDbLine
 10
15.30199999999979
 20
19.29186631935567
 30
0.0
 11
68.69799999999955
 21
19.29186631935567
 31
0.0
  0
SOLID
  5
F8
330
F2
100
AcDbEntity
  8
치수문자_일반주서
 62
     0
100
AcDbTrace
 10
15.30199999999979
 20
19.842199652689
 30
0.0
 11
15.30199999999979
 21
18.74153298602234
 31
0.0
 12
11.99999999999979
 22
19.29186631935567
 32
0.0
 13
11.99999999999979
 23
19.29186631935567
 33
0.0
  0
SOLID
  5
F9
330
F2
100
AcDbEntity
  8
치수문자_일반주서
 62
     0
100
AcDbTrace
 10
68.69799999999955
 20
18.74153298602234
 30
0.0
 11
68.69799999999955
 21
19.842199652689
 31
0.0
 12
71.99999999999955
 22
19.29186631935567
 32
0.0
 13
71.99999999999955
 23
19.29186631935567
 33
0.0
  0
MTEXT
  5
FA
330
F2
100
AcDbEntity
  8
치수문자_일반주서
 62
     0
100
AcDbMText
 10
41.99999999999979
 20
23.66686631935567
 30
0.0
 40
3.5
 41
0.0
 71
     2
 72
     1
  1
\A1;60
  7
SLDTEXTSTYLE0
 73
     1
 44
1.0
  0
POINT
  5
137
330
F2
100
AcDbEntity
  8
Defpoints
 62
     0
100
AcDbPoint
 10
11.99999999999979
 20
5.944868513188156
 30
0.0
  0
POINT
  5
138
330
F2
100
AcDbEntity
  8
Defpoints
 62
     0
100
AcDbPoint
 10
71.99999999999955
 20
8.006731756906756
 30
0.0
  0
POINT
  5
139
330
F2
100
AcDbEntity
  8
Defpoints
 62
     0
100
AcDbPoint
 10
71.99999999999955
 20
19.29186631935567
 30
0.0
  0
ENDBLK
  5
F4
330
F2
100
AcDbEntity
  8
0
100
AcDbBlockEnd
  0
BLOCK
  5
FD
330
FC
100
AcDbEntity
  8
0
100
AcDbBlockBegin
  2
_D_3
 70
     0
 10
0.0
 20
0.0
 30
0.0
  3
_D_3
  1

  0
LINE
  5
FF
330
FC
100
AcDbEntity
  8
치수문자_일반주서
 62
     0
370
    -2
100
AcDbLine
 10
-47.0625000000002
 20
8.006731756906534
 30
0.0
 11
-58.84950739353425
 21
8.00673175690649
 31
0.0
  0
LINE
  5
100
330
FC
100
AcDbEntity
  8
치수문자_일반주서
 62
     0
370
    -2
100
AcDbLine
 10
-47.0625000000002
 20
-7.993268243093461
 30
0.0
 11
-58.8495073935342
 21
-7.993268243093507
 31
0.0
  0
LINE
  5
101
330
FC
100
AcDbEntity
  8
치수문자_일반주서
 62
     0
370
    -2
100
AcDbLine
 10
-58.84950739353425
 20
8.00673175690649
 30
0.0
 11
-58.8495073935343
 21
22.48573175690649
 31
0.0
  0
LINE
  5
102
330
FC
100
AcDbEntity
  8
치수문자_일반주서
 62
     0
370
    -2
100
AcDbLine
 10
-58.84950739353425
 20
8.00673175690649
 30
0.0
 11
-58.8495073935342
 21
-7.993268243093507
 31
0.0
  0
LINE
  5
103
330
FC
100
AcDbEntity
  8
치수문자_일반주서
 62
     0
370
    -2
100
AcDbLine
 10
-58.84950739353427
 20
11.30873175690649
 30
0.0
 11
-58.84950739353428
 21
14.61073175690649
 31
0.0
  0
LINE
  5
104
330
FC
100
AcDbEntity
  8
치수문자_일반주서
 62
     0
370
    -2
100
AcDbLine
 10
-58.84950739353418
 20
-11.29526824309351
 30
0.0
 11
-58.84950739353417
 21
-14.59726824309351
 31
0.0
  0
SOLID
  5
105
330
FC
100
AcDbEntity
  8
치수문자_일반주서
 62
     0
100
AcDbTrace
 10
-59.3998407268676
 20
11.30873175690649
 30
0.0
 11
-58.29917406020093
 21
11.30873175690649
 31
0.0
 12
-58.84950739353425
 22
8.00673175690649
 32
0.0
 13
-58.84950739353425
 23
8.00673175690649
 33
0.0
  0
SOLID
  5
106
330
FC
100
AcDbEntity
  8
치수문자_일반주서
 62
     0
100
AcDbTrace
 10
-58.29917406020085
 20
-11.2952682430935
 30
0.0
 11
-59.39984072686752
 21
-11.29526824309351
 31
0.0
 12
-58.8495073935342
 22
-7.993268243093507
 32
0.0
 13
-58.8495073935342
 23
-7.993268243093507
 33
0.0
  0
MTEXT
  5
107
330
FC
100
AcDbEntity
  8
치수문자_일반주서
 62
     0
100
AcDbMText
 10
-63.22450739353429
 20
18.54823175690647
 30
0.0
 40
3.5
 41
0.0
 71
     2
 72
     1
  1
\A1;%%c16
  7
SLDTEXTSTYLE0
 11
-3.552713678800502E-15
 21
1.0
 31
0.0
 73
     1
 44
1.0
  0
POINT
  5
13A
330
FC
100
AcDbEntity
  8
Defpoints
 62
     0
100
AcDbPoint
 10
-47.0000000000002
 20
8.006731756906534
 30
0.0
  0
POINT
  5
13B
330
FC
100
AcDbEntity
  8
Defpoints
 62
     0
100
AcDbPoint
 10
-47.0000000000002
 20
-7.993268243093461
 30
0.0
  0
POINT
  5
13C
330
FC
100
AcDbEntity
  8
Defpoints
 62
     0
100
AcDbPoint
 10
-58.8495073935342
 20
-7.993268243093506
 30
0.0
  0
ENDBLK
  5
FE
330
FC
100
AcDbEntity
  8
0
100
AcDbBlockEnd
  0
BLOCK
  5
109
330
108
100
AcDbEntity
  8
0
100
AcDbBlockBegin
  2
SW_DOWELSYMBOL_0
 70
     0
 10
0.0
 20
0.0
 30
0.0
  3
SW_DOWELSYMBOL_0
  1

  0
CIRCLE
  5
10B
330
108
100
AcDbEntity
  8
외형선
 62
     0
100
AcDbCircle
 10
0.0
 20
0.0
 30
0.0
 40
3.000000000000004
  0
HATCH
  5
10C
330
108
100
AcDbEntity
  8
0
  6
Continuous
 62
     0
370
    30
100
AcDbHatch
 10
0.0
 20
0.0
 30
0.0
210
0.0
220
0.0
230
1.0
  2
SOLID
 70
     1
 71
     0
 91
        1
 92
        0
 93
        3
 72
     2
 10
0.0000000000000104
 20
0.0
 40
3.000000000000004
 50
0.0
 51
90.0
 73
     1
 72
     1
 10
0.0000000000000104
 20
3.000000000000004
 11
0.0000000000000104
 21
0.0
 72
     1
 10
0.0000000000000104
 20
0.0
 11
3.000000000000015
 21
0.0
 97
        0
 75
     0
 76
     1
 98
        1
 10
0.0
 20
0.0
  0
HATCH
  5
10D
330
108
100
AcDbEntity
  8
0
  6
Continuous
 62
     0
370
    30
100
AcDbHatch
 10
0.0
 20
0.0
 30
0.0
210
0.0
220
0.0
230
1.0
  2
SOLID
 70
     1
 71
     0
 91
        1
 92
        0
 93
        3
 72
     2
 10
0.0000000000000104
 20
0.0
 40
3.000000000000004
 50
180.0
 51
270.0000000000008
 73
     1
 72
     1
 10
0.0000000000000104
 20
-3.000000000000004
 11
0.0000000000000104
 21
0.0
 72
     1
 10
0.0000000000000104
 20
0.0
 11
-2.999999999999994
 21
0.0
 97
        0
 75
     0
 76
     1
 98
        1
 10
0.0
 20
0.0
  0
ENDBLK
  5
10A
330
108
100
AcDbEntity
  8
0
100
AcDbBlockEnd
  0
ENDSEC
  0
SECTION
  2
ENTITIES
  0
SPLINE
  5
95
330
1F
100
AcDbEntity
  8
0
  6
Continuous
 62
     1
370
    15
100
AcDbSpline
210
0.0
220
0.0
230
1.0
 70
     8
 71
     3
 72
     9
 73
     5
 74
     0
 42
0.000000001
 43
0.00000001
 40
0.0
 40
0.0
 40
0.0
 40
0.0
 40
0.4829969575046313
 40
1.0
 40
1.0
 40
1.0
 40
1.0
 10
51.27320858258999
 20
2.05676240354788
 30
0.0
 10
50.91626915849683
 20
2.226948618337437
 30
0.0
 10
50.17725948452853
 20
2.57930324944901
 30
0.0
 10
49.43751551967708
 20
2.966530325250702
 30
0.0
 10
49.05506563918128
 20
3.16672790157676
 30
0.0
  0
LINE
  5
96
330
1F
100
AcDbEntity
  8
0
  6
Continuous
 62
     1
370
    15
100
AcDbLine
 10
32.9152327765248
 20
8.006731756906545
 30
0.0
 11
29.03934594680039
 21
8.006731756906545
 31
0.0
  0
LINE
  5
97
330
1F
100
AcDbEntity
  8
0
  6
Continuous
 62
     1
370
    15
100
AcDbLine
 10
46.83885639034203
 20
2.265131251797487
 30
0.0
 11
46.7642266784249
 21
2.306706380508814
 31
0.0
  0
LINE
  5
99
330
1F
100
AcDbEntity
  8
0
  6
Continuous
 62
     1
370
    15
100
AcDbLine
 10
29.03934594680038
 20
-7.993268243093465
 30
0.0
 11
32.91523277652476
 21
-7.993268243093465
 31
0.0
  0
SPLINE
  5
9C
330
1F
100
AcDbEntity
  8
0
  6
Continuous
 62
     1
370
    15
100
AcDbSpline
210
0.0
220
0.0
230
1.0
 70
     8
 71
     3
 72
    16
 73
    12
 74
     0
 42
0.000000001
 43
0.00000001
 40
0.0
 40
0.0
 40
0.0
 40
0.0
 40
0.2061516046635598
 40
0.378995400506501
 40
0.5199130998483517
 40
0.6322347752565327
 40
0.7018826291346998
 40
0.7588510258074368
 40
0.8322773217505547
 40
0.9287436882981384
 40
1.0
 40
1.0
 40
1.0
 40
1.0
 10
48.6290068127207
 20
6.363844916634038
 30
0.0
 10
48.18936825976174
 20
6.342078666721823
 30
0.0
 10
47.38112332890753
 20
6.302062928709655
 30
0.0
 10
46.24585816668022
 20
6.2689296154144
 30
0.0
 10
45.2953355515189
 20
6.256385305473134
 30
0.0
 10
44.57717071689423
 20
6.253492355895526
 30
0.0
 10
44.04767994003159
 20
6.255510388642298
 30
0.0
 10
43.61588449549856
 20
6.259763080673332
 30
0.0
 10
43.12126722943016
 20
6.267390063006953
 30
0.0
 10
42.59309402537808
 20
6.278623265996006
 30
0.0
 10
42.22554011782991
 20
6.290974468575025
 30
0.0
 10
42.06938630442291
 20
6.296221827787562
 30
0.0
  0
SPLINE
  5
9D
330
1F
100
AcDbEntity
  8
0
  6
Continuous
 62
     1
370
    15
100
AcDbSpline
210
0.0
220
0.0
230
1.0
 70
     8
 71
     3
 72
    22
 73
    18
 74
     0
 42
0.000000001
 43
0.00000001
 40
0.0
 40
0.0
 40
0.0
 40
0.0
 40
0.0824173247548482
 40
0.1541854437740196
 40
0.2319587260367267
 40
0.2933146460419105
 40
0.3498500883234411
 40
0.420322499076626
 40
0.4964999420329845
 40
0.5549637799638302
 40
0.5972764333126636
 40
0.6338597271811492
 40
0.6815272427054383
 40
0.7408919453025551
 40
0.8131277030553273
 40
0.899314068663264
 40
0.9999999999999999
 40
0.9999999999999999
 40
0.9999999999999999
 40
0.9999999999999999
 10
36.59711213523902
 20
-6.650386689594041
 30
0.0
 10
36.89056204395114
 20
-6.619744802688781
 30
0.0
 10
37.43954497363013
 20
-6.562420290583908
 30
0.0
 10
38.39012743632986
 20
-6.478431766964325
 30
0.0
 10
39.24918866082935
 20
-6.4250178583832
 30
0.0
 10
40.05756563684848
 20
-6.372793320014766
 30
0.0
 10
40.81439614049208
 20
-6.332130042523756
 30
0.0
 10
41.63760107623915
 20
-6.295541773344704
 30
0.0
 10
42.46596576979236
 20
-6.268296162217703
 30
0.0
 10
43.18187029114502
 20
-6.252559624592144
 30
0.0
 10
43.73148890163431
 20
-6.244833999684515
 30
0.0
 10
44.23998929329207
 20
-6.240782251981518
 30
0.0
 10
44.82917169694325
 20
-6.240531562630246
 30
0.0
 10
45.56600193477277
 20
-6.245585437562076
 30
0.0
 10
46.45835965338078
 20
-6.2608434684892
 30
0.0
 10
47.49806992383472
 20
-6.294006119335883
 30
0.0
 10
48.23301941698143
 20
-6.330642103563235
 30
0.0
 10
48.6290068127207
 20
-6.350381402820955
 30
0.0
  0
SPLINE
  5
9E
330
1F
100
AcDbEntity
  8
0
  6
Continuous
 62
     1
370
    15
100
AcDbSpline
210
0.0
220
0.0
230
1.0
 70
     8
 71
     3
 72
    16
 73
    12
 74
     0
 42
0.000000001
 43
0.00000001
 40
0.0
 40
0.0
 40
0.0
 40
0.0
 40
0.1640415601790376
 40
0.2820308789877494
 40
0.3569736779489328
 40
0.4332907291441755
 40
0.5828456317105518
 40
0.7418036203865566
 40
0.8608874366758479
 40
0.9606087907458509
 40
1.0
 40
1.0
 40
1.0
 40
1.0
 10
55.05273136174485
 20
-6.010345887630034
 30
0.0
 10
55.37696601300161
 20
-5.96050321362527
 30
0.0
 10
55.93441123354465
 20
-5.874810459025024
 30
0.0
 10
56.64040159075776
 20
-5.778181830591536
 30
0.0
 10
57.17946254046782
 20
-5.709043708373619
 30
0.0
 10
57.78124567892398
 20
-5.636278111562167
 30
0.0
 10
58.54680557577122
 20
-5.55178565229972
 30
0.0
 10
59.3958214554701
 20
-5.471336213367827
 30
0.0
 10
60.14617864504534
 20
-5.41171702996511
 30
0.0
 10
60.65930758843268
 20
-5.375328254751564
 30
0.0
 10
60.93553031495124
 20
-5.359769644793107
 30
0.0
 10
61.01374573245953
 20
-5.355364058080215
 30
0.0
  0
SPLINE
  5
9F
330
1F
100
AcDbEntity
  8
0
  6
Continuous
 62
     1
370
    15
100
AcDbSpline
210
0.0
220
0.0
230
1.0
 70
     8
 71
     3
 72
    27
 73
    23
 74
     0
 42
0.000000001
 43
0.00000001
 40
0.0
 40
0.0
 40
0.0
 40
0.0
 40
0.0990944915965437
 40
0.1791765515246019
 40
0.2400475176151528
 40
0.2824985739844159
 40
0.3191139089332608
 40
0.355262405715321
 40
0.3963224496643262
 40
0.4332537518619142
 40
0.4699960220186827
 40
0.5207827393772915
 40
0.5916244587628682
 40
0.6529204933838499
 40
0.7017400280788083
 40
0.7421436725296767
 40
0.7679761803754611
 40
0.7929436938867236
 40
0.8188601306304737
 40
0.8603268896384387
 40
0.9207829387793683
 40
1.0
 40
1.0
 40
1.0
 40
1.0
 10
25.49689713117914
 20
5.478368923849335
 30
0.0
 10
25.05705084150978
 20
5.443368842293364
 30
0.0
 10
24.26174789263631
 20
5.380083852227404
 30
0.0
 10
23.19397405196212
 20
5.324138950386022
 30
0.0
 10
22.37453917732581
 20
5.294026619917347
 30
0.0
 10
21.73711511888362
 20
5.279604584022818
 30
0.0
 10
21.21225439586597
 20
5.272672891322607
 30
0.0
 10
20.6983568257632
 20
5.27044433399884
 30
0.0
 10
20.18775176595121
 20
5.273138700660761
 30
0.0
 10
19.67334622647214
 20
5.280814518396293
 30
0.0
 10
19.11517594164783
 20
5.294204146523022
 30
0.0
 10
18.40549553094649
 20
5.318815943571057
 30
0.0
 10
17.58640569279729
 20
5.359505745976469
 30
0.0
 10
16.77559294810564
 20
5.412734451891355
 30
0.0
 10
16.10019554496266
 20
5.465729660506211
 30
0.0
 10
15.58368586620161
 20
5.511670232060433
 30
0.0
 10
15.17466364544176
 20
5.55122078386903
 30
0.0
 10
14.83097180986817
 20
5.586544817245507
 30
0.0
 10
14.41699659145817
 20
5.631438128459301
 30
0.0
 10
13.83163159393968
 20
5.69917312636924
 30
0.0
 10
13.00266693880114
 20
5.802405623356072
 30
0.0
 10
12.36286840884976
 20
5.891975957864616
 30
0.0
 10
11.99999999999978
 20
5.942776707228242
 30
0.0
  0
SPLINE
  5
A0
330
1F
100
AcDbEntity
  8
0
  6
Continuous
 62
     1
370
    15
100
AcDbSpline
210
0.0
220
0.0
230
1.0
 70
     8
 71
     3
 72
    15
 73
    11
 74
     0
 42
0.000000001
 43
0.00000001
 40
0.0
 40
0.0
 40
0.0
 40
0.0
 40
0.1962402129068646
 40
0.3460047683210236
 40
0.448728165161219
 40
0.5435826472413052
 40
0.6387708159325086
 40
0.7388606156180693
 40
0.8597986526385318
 40
1.0
 40
1.0
 40
1.0
 40
1.0
 10
11.99999999999978
 20
-5.929313193415163
 30
0.0
 10
12.36285994861782
 20
-5.878513843957498
 30
0.0
 10
13.00264356174583
 20
-5.788945977720517
 30
0.0
 10
13.83169119912194
 20
-5.685699749747372
 30
0.0
 10
14.47351214453295
 20
-5.611442093518363
 30
0.0
 10
15.00182999755551
 20
-5.55483490589385
 30
0.0
 10
15.52720768176806
 20
-5.503199979665037
 30
0.0
 10
16.10017344415003
 20
-5.452370680794222
 30
0.0
 10
16.75453190054109
 20
-5.400429641691035
 30
0.0
 10
17.22680302386728
 20
-5.37089100629876
 30
0.0
 10
17.48035745406922
 20
-5.355032209315617
 30
0.0
  0
SPLINE
  5
A1
330
1F
100
AcDbEntity
  8
0
  6
Continuous
 62
     1
370
    15
100
AcDbSpline
210
0.0
220
0.0
230
1.0
 70
     8
 71
     3
 72
    25
 73
    21
 74
     0
 42
0.000000001
 43
0.00000001
 40
0.0
 40
0.0
 40
0.0
 40
0.0
 40
0.0890300001820738
 40
0.1670028782029406
 40
0.2350950315513912
 40
0.2914000926036067
 40
0.3342705059000673
 40
0.3766769857586822
 40
0.4281548836653023
 40
0.4896351980448401
 40
0.5580360492725719
 40
0.6138040979899141
 40
0.6744735485939886
 40
0.7501548691900158
 40
0.7901124976516125
 40
0.8246437692975402
 40
0.8536841447791558
 40
0.8853813578495485
 40
0.9341230159300127
 40
1.0
 40
1.0
 40
1.0
 40
1.0
 10
69.02798728337686
 20
5.478360772722755
 30
0.0
 10
68.63882780718464
 20
5.446208268769145
 30
0.0
 10
67.9088406964227
 20
5.385896456001506
 30
0.0
 10
66.82112274002125
 20
5.322973096688534
 30
0.0
 10
65.84683005371575
 20
5.291340861163286
 30
0.0
 10
65.04130906166819
 20
5.27543600625351
 30
0.0
 10
64.37499668025599
 20
5.270263705177418
 30
0.0
 10
63.74356294763037
 20
5.272435750269903
 30
0.0
 10
63.01631777999553
 20
5.283625256527109
 30
0.0
 10
62.17022048842169
 20
5.308926001327142
 30
0.0
 10
61.30364658948093
 20
5.349170000664736
 30
0.0
 10
60.44079549523684
 20
5.402942895431921
 30
0.0
 10
59.54364931223583
 20
5.471519407448493
 30
0.0
 10
58.72091078853725
 20
5.548095104980806
 30
0.0
 10
58.01911825886044
 20
5.623348919115105
 30
0.0
 10
57.53390489853815
 20
5.679383705488364
 30
0.0
 10
57.08531207214851
 20
5.734360679837715
 30
0.0
 10
56.57129042810023
 20
5.800927808156878
 30
0.0
 10
55.89119485978048
 20
5.894742392420844
 30
0.0
 10
55.3587523311167
 20
5.976702745867224
 30
0.0
 10
55.05273136174485
 20
6.023809401443117
 30
0.0
  0
LINE
  5
A2
330
1F
100
AcDbEntity
  8
0
  6
Continuous
 62
   131
370
    15
100
AcDbLine
 10
8.950115227249727
 20
8.006731756906538
 30
0.0
 11
-47.0000000000002
 21
8.006731756906534
 31
0.0
  0
LINE
  5
A3
330
1F
100
AcDbEntity
  8
0
  6
Continuous
 62
   131
370
    15
100
AcDbLine
 10
-47.0000000000002
 20
-7.993268243093465
 30
0.0
 11
8.950115227249727
 21
-7.993268243093461
 31
0.0
  0
LINE
  5
A4
330
1F
100
AcDbEntity
  8
0
  6
Continuous
 62
   131
370
    15
100
AcDbLine
 10
-47.0000000000002
 20
8.006731756906534
 30
0.0
 11
-48.00000000000021
 21
7.006731756906534
 31
0.0
  0
LINE
  5
A5
330
1F
100
AcDbEntity
  8
0
  6
Continuous
 62
   131
370
    15
100
AcDbLine
 10
-48.00000000000021
 20
-6.993268243093464
 30
0.0
 11
-47.0000000000002
 21
-7.993268243093461
 31
0.0
  0
SPLINE
  5
A6
330
1F
100
AcDbEntity
  8
0
  6
Continuous
 62
   131
370
    15
100
AcDbSpline
210
0.0
220
0.0
230
1.0
 70
     8
 71
     3
 72
     9
 73
     5
 74
     0
 42
0.000000001
 43
0.00000001
 40
0.0
 40
0.0
 40
0.0
 40
0.0
 40
0.4957447333369102
 40
1.0
 40
1.0
 40
1.0
 40
1.0
 10
11.40321722053228
 20
-6.028740006446745
 30
0.0
 10
11.50325593600295
 20
-6.010227575951308
 30
0.0
 10
11.70505074842041
 20
-5.972884908948417
 30
0.0
 10
11.90112734400626
 20
-5.918274602482289
 30
0.0
 10
11.99999999999979
 20
-5.890737067832658
 30
0.0
  0
SPLINE
  5
A7
330
1F
100
AcDbEntity
  8
0
  6
Continuous
 62
     1
370
    15
100
AcDbSpline
210
0.0
220
0.0
230
1.0
 70
     8
 71
     3
 72
    22
 73
    18
 74
     0
 42
0.000000001
 43
0.00000001
 40
0.0
 40
0.0
 40
0.0
 40
0.0
 40
0.0672246990369761
 40
0.1344475554109338
 40
0.201668703616887
 40
0.2688882785207731
 40
0.3361064153305082
 40
0.4033232495668856
 40
0.4705389170343276
 40
0.5377535537915069
 40
0.604967296121846
 40
0.672180280503917
 40
0.7393926435817447
 40
0.8066045221350374
 40
0.873816053049351
 40
0.941027373286204
 40
1.0
 40
1.0
 40
1.0
 40
1.0
 10
71.99999999999979
 20
-7.584795196948655
 30
0.0
 10
71.12415561787267
 20
-7.398958248311872
 30
0.0
 10
69.37249086095612
 20
-7.027289444923105
 30
0.0
 10
66.7450464944385
 20
-6.144758661513734
 30
0.0
 10
64.1176811135502
 20
-5.061292790186251
 30
0.0
 10
61.49038980125982
 20
-3.790960013351293
 30
0.0
 10
58.86316584401375
 20
-2.385930377157892
 30
0.0
 10
56.23600298980129
 20
-0.8947828082671734
 30
0.0
 10
53.60889484493897
 20
0.6285604997560333
 30
0.0
 10
50.98183503753789
 20
2.12964586863716
 30
0.0
 10
48.35481717546367
 20
3.554596296296153
 30
0.0
 10
45.72783485970345
 20
4.852534549051481
 30
0.0
 10
43.10088168163699
 20
5.976278362327507
 30
0.0
 10
40.47395122931331
 20
6.888048788678744
 30
0.0
 10
37.84703707382447
 20
7.545879762875214
 30
0.0
 10
35.32746618772863
 20
7.943922431376893
 30
0.0
 10
33.68353247925788
 20
7.976209671012579
 30
0.0
 10
32.91523277652479
 20
7.991299255517324
 30
0.0
  0
SPLINE
  5
A8
330
1F
100
AcDbEntity
  8
0
  6
Continuous
 62
     1
370
    15
100
AcDbSpline
210
0.0
220
0.0
230
1.0
 70
     8
 71
     3
 72
    15
 73
    11
 74
     0
 42
0.000000001
 43
0.00000001
 40
0.0
 40
0.0
 40
0.0
 40
0.0
 40
0.1263682593822534
 40
0.2527329002073137
 40
0.379094186555628
 40
0.5054523832443106
 40
0.6318077557696732
 40
0.7581605702494282
 40
0.8845110933646058
 40
0.9999999999999999
 40
0.9999999999999999
 40
0.9999999999999999
 40
0.9999999999999999
 10
71.99999999999979
 20
-6.305046358039183
 30
0.0
 10
71.12415584796678
 20
-6.123239881446045
 30
0.0
 10
69.37249262371252
 20
-5.759632134291226
 30
0.0
 10
66.74504794531796
 20
-4.946926926619674
 30
0.0
 10
64.11768249736403
 20
-3.972892593285052
 30
0.0
 10
61.49039106065381
 20
-2.852003714319519
 30
0.0
 10
58.86316696129296
 20
-1.629378229750017
 30
0.0
 10
56.23600409098098
 20
-0.3495076783311387
 30
0.0
 10
53.68416042166055
 20
0.9121534740788587
 30
0.0
 10
52.0080398318821
 20
1.70582345557607
 30
0.0
 10
51.20761893069891
 20
2.084835589730466
 30
0.0
  0
LINE
  5
A9
330
1F
100
AcDbEntity
  8
0
  6
Continuous
 62
     1
370
    15
100
AcDbLine
 10
71.99999999999952
 20
-7.58479519694866
 30
0.0
 11
71.99999999999979
 21
-6.305046358039183
 31
0.0
  0
SPLINE
  5
AA
330
1F
100
AcDbEntity
  8
0
  6
Continuous
 62
     1
370
    15
100
AcDbSpline
210
0.0
220
0.0
230
1.0
 70
     8
 71
     3
 72
    29
 73
    25
 74
     0
 42
0.000000001
 43
0.00000001
 40
0.0
 40
0.0
 40
0.0
 40
0.0
 40
0.0122318545104959
 40
0.0579644786695879
 40
0.1036945661775612
 40
0.1494227799449923
 40
0.1966747250626005
 40
0.2439264331412653
 40
0.2911780004565407
 40
0.3384295233147419
 40
0.3856810980318988
 40
0.4329328209127093
 40
0.4801847882294927
 40
0.5274370962011622
 40
0.5746898409722206
 40
0.6219431185917916
 40
0.6691970249926945
 40
0.7164516559705745
 40
0.763707107163096
 40
0.8109634740292109
 40
0.8582208518285086
 40
0.9054793356006601
 40
0.9527390201449629
 40
1.0
 40
1.0
 40
1.0
 40
1.0
 10
16.40553502726102
 20
4.889986398817465
 30
0.0
 10
16.63220900747332
 20
4.998005723017842
 30
0.0
 10
17.70637475067214
 20
5.509889167032272
 30
0.0
 10
19.62794596337567
 20
6.258568568205733
 30
0.0
 10
22.1702352966475
 20
7.085368144085032
 30
0.0
 10
24.74061229490428
 20
7.668595288062714
 30
0.0
 10
27.33933642436989
 20
7.994494740847387
 30
0.0
 10
29.96624566047661
 20
8.036737911782513
 30
0.0
 10
32.593156886214
 20
7.791456940080548
 30
0.0
 10
35.22006209686937
 20
7.267124599604508
 30
0.0
 10
37.84697158416408
 20
6.482616332810786
 30
0.0
 10
40.47389073671091
 20
5.466022824917092
 30
0.0
 10
43.10082625443542
 20
4.253780441224747
 30
0.0
 10
45.72778448158137
 20
2.889329392005189
 30
0.0
 10
48.35477185147012
 20
1.42156607922186
 30
0.0
 10
50.98179476568085
 20
-0.0969072643135064
 30
0.0
 10
53.60885962379955
 20
-1.611682089280287
 30
0.0
 10
56.23597281649489
 20
-3.068435311724423
 30
0.0
 10
58.86314071473959
 20
-4.415091892030088
 30
0.0
 10
61.49036971115294
 20
-5.602884416996553
 30
0.0
 10
64.117666056737
 20
-6.591110887181307
 30
0.0
 10
66.74503646397804
 20
-7.337359418517157
 30
0.0
 10
69.37248584903757
 20
-7.840956418474618
 30
0.0
 10
71.12415394806193
 20
-7.937989539531469
 30
0.0
 10
71.99999999999979
 20
-7.993268243093232
 30
0.0
  0
LINE
  5
AB
330
1F
100
AcDbEntity
  8
0
  6
Continuous
 62
     1
370
    15
100
AcDbLine
 10
71.99999999999979
 20
-7.993268243093232
 30
0.0
 11
71.99999999999974
 21
-7.584795196948646
 31
0.0
  0
SPLINE
  5
AC
330
1F
100
AcDbEntity
  8
0
  6
Continuous
 62
     1
370
    15
100
AcDbSpline
210
0.0
220
0.0
230
1.0
 70
     8
 71
     3
 72
    18
 73
    14
 74
     0
 42
0.000000001
 43
0.00000001
 40
0.0
 40
0.0
 40
0.0
 40
0.0
 40
0.0429663527617396
 40
0.1415974058967275
 40
0.240227249276247
 40
0.3388561009655609
 40
0.4374841792511309
 40
0.5361117025919833
 40
0.634738889570999
 40
0.7333659588461415
 40
0.8319931291016496
 40
0.93062061899922
 40
1.0
 40
1.0
 40
1.0
 40
1.0
 10
52.12619665542969
 20
-0.752208713484421
 30
0.0
 10
51.7447290203684
 20
-0.6003316432225443
 30
0.0
 10
50.48758653360051
 20
-0.099814429589585
 30
0.0
 10
48.35478422631041
 20
0.7693541261133707
 30
0.0
 10
45.72779764625238
 20
1.806347543381154
 30
0.0
 10
43.1008404513228
 20
2.780525209642819
 30
0.0
 10
40.4739059144744
 20
3.654808729007523
 30
0.0
 10
37.84698770242439
 20
4.398609768933566
 30
0.0
 10
35.22007936402005
 20
4.984471780063815
 30
0.0
 10
32.59317450349647
 20
5.393865154978831
 30
0.0
 10
29.96626660786829
 20
5.603059503581563
 30
0.0
 10
27.59902603400461
 20
5.634842570978926
 30
0.0
 10
26.10741981536767
 20
5.509194749005146
 30
0.0
 10
25.4914526493072
 20
5.457307775180658
 30
0.0
  0
SPLINE
  5
AE
330
1F
100
AcDbEntity
  8
0
  6
Continuous
 62
     1
370
    15
100
AcDbSpline
210
0.0
220
0.0
230
1.0
 70
     8
 71
     3
 72
    19
 73
    15
 74
     0
 42
0.000000001
 43
0.00000001
 40
0.0
 40
0.0
 40
0.0
 40
0.0
 40
0.0530119759133631
 40
0.1403776356725918
 40
0.2277430215803686
 40
0.3151083117275046
 40
0.4024736842257409
 40
0.48983931716882
 40
0.5772053885935627
 40
0.6617549356677785
 40
0.7463079469796274
 40
0.8308656478396031
 40
0.9154292598604659
 40
1.0
 40
1.0
 40
1.0
 40
1.0
 10
42.06791403737584
 20
-6.283265396458111
 30
0.0
 10
41.53659164411188
 20
-6.474140433633748
 30
0.0
 10
40.12963066857316
 20
-6.979584457667562
 30
0.0
 10
37.84703720490796
 20
-7.530819001190666
 30
0.0
 10
35.22013264986913
 20
-7.931957023974078
 30
0.0
 10
32.59323250699956
 20
-8.03871247699395
 30
0.0
 10
29.96632632393261
 20
-7.859789253743288
 30
0.0
 10
27.33942206243186
 20
-7.398239898407208
 30
0.0
 10
24.74069544014685
 20
-6.679320098558964
 30
0.0
 10
22.17030725710026
 20
-5.737721799535489
 30
0.0
 10
19.62800241818518
 20
-4.613714563530348
 30
0.0
 10
17.08553876252368
 20
-3.334239032309288
 30
0.0
 10
14.54286246703535
 20
-1.94373183072561
 30
0.0
 10
12.847644637163
 20
-0.9701568563407046
 30
0.0
 10
11.99999999999267
 20
-0.4833488536294809
 30
0.0
  0
SPLINE
  5
AF
330
1F
100
AcDbEntity
  8
0
  6
Continuous
 62
   131
370
    15
100
AcDbSpline
210
0.0
220
0.0
230
1.0
 70
    24
 71
     3
 72
     8
 73
     4
 74
     0
 42
0.000000001
 43
0.00000001
 40
0.0
 40
0.0
 40
0.0
 40
0.0
 40
1.0
 40
1.0
 40
1.0
 40
1.0
 10
12.0
 20
0.0
 30
0.0
 10
12.0
 20
-0.1287211835376144
 30
0.0
 10
12.0
 20
-0.2907292199519012
 30
0.0
 10
12.0
 20
-0.483348853629123
 30
0.0
  0
SPLINE
  5
B0
330
1F
100
AcDbEntity
  8
0
  6
Continuous
 62
     1
370
    15
100
AcDbSpline
210
0.0
220
0.0
230
1.0
 70
     8
 71
     3
 72
    17
 73
    13
 74
     0
 42
0.000000001
 43
0.00000001
 40
0.0
 40
0.0
 40
0.0
 40
0.0
 40
0.0561611354816322
 40
0.1629376220158758
 40
0.2697142137035005
 40
0.3764911379505445
 40
0.4832686220895391
 40
0.5900468933292828
 40
0.6968261787046722
 40
0.8036067050266142
 40
0.9017916309035321
 40
1.0
 40
1.0
 40
1.0
 40
1.0
 10
36.6018000653647
 20
-6.620064673235168
 30
0.0
 10
36.14124400963802
 20
-6.671395090769417
 30
0.0
 10
34.80505470574363
 20
-6.820317581356308
 30
0.0
 10
32.59323195201391
 20
-6.802770231297226
 30
0.0
 10
29.9663280843117
 20
-6.582444889396053
 30
0.0
 10
27.33941452432917
 20
-6.114043694931672
 30
0.0
 10
24.71248639646726
 20
-5.429487236901946
 30
0.0
 10
22.08553131266632
 20
-4.549249189573777
 30
0.0
 10
19.45856518280836
 20
-3.505965265041411
 30
0.0
 10
16.90200131137391
 20
-2.368088941418943
 30
0.0
 10
14.41594394195596
 20
-1.185294125114572
 30
0.0
 10
12.80537873103008
 20
-0.3951294820232166
 30
0.0
 10
11.99999999999971
 20
0.0000000000001421
 30
0.0
  0
SPLINE
  5
B1
330
1F
100
AcDbEntity
  8
0
  6
Continuous
 62
     1
370
    15
100
AcDbSpline
210
0.0
220
0.0
230
1.0
 70
     8
 71
     3
 72
    14
 73
    10
 74
     0
 42
0.000000001
 43
0.00000001
 40
0.0
 40
0.0
 40
0.0
 40
0.0
 40
0.149233504455611
 40
0.2984544282078662
 40
0.447664919371241
 40
0.5968671342774303
 40
0.7460632357853233
 40
0.9002307708669828
 40
1.0
 40
1.0
 40
1.0
 40
1.0
 10
11.99999999999586
 20
-2.669584016768578
 30
0.0
 10
12.84763861308991
 20
-3.122000203950725
 30
0.0
 10
14.54284438153143
 20
-4.026794438663572
 30
0.0
 10
17.0855025670482
 20
-5.224718928708023
 30
0.0
 10
19.6279480428845
 20
-6.252631750243609
 30
0.0
 10
22.17023481664403
 20
-7.071601758757027
 30
0.0
 10
24.7406121391253
 20
-7.648750600760231
 30
0.0
 10
27.03036521809757
 20
-7.965180227075519
 30
0.0
 10
28.47267627646562
 20
-7.961796831037491
 30
0.0
 10
29.03934594680038
 20
-7.960467528383703
 30
0.0
  0
SPLINE
  5
B3
330
1F
100
AcDbEntity
  8
0
  6
Continuous
 62
     1
370
    15
100
AcDbSpline
210
0.0
220
0.0
230
1.0
 70
     8
 71
     3
 72
    12
 73
     8
 74
     0
 42
0.000000001
 43
0.00000001
 40
0.0
 40
0.0
 40
0.0
 40
0.0
 40
0.0433422215564467
 40
0.2824977912452897
 40
0.5216589579346483
 40
0.7608262013756442
 40
1.0
 40
1.0
 40
1.0
 40
1.0
 10
61.01420959605866
 20
5.369036091079973
 30
0.0
 10
61.17292396394468
 20
5.441169828392188
 30
0.0
 10
62.20739928054337
 20
5.911326196321554
 30
0.0
 10
64.11766666319782
 20
6.594221688465427
 30
0.0
 10
66.74503630224912
 20
7.353583758758994
 30
0.0
 10
69.37248588947153
 20
7.853729696302868
 30
0.0
 10
71.12415396154005
 20
7.951222972580952
 30
0.0
 10
71.99999999999955
 20
8.006731756906756
 30
0.0
  0
LINE
  5
B4
330
1F
100
AcDbEntity
  8
0
  6
Continuous
 62
   131
370
    15
100
AcDbLine
 10
11.99999999999979
 20
-2.66958401677072
 30
0.0
 11
11.99999999999979
 21
-0.4833488536252179
 31
0.0
  0
SPLINE
  5
B5
330
1F
100
AcDbEntity
  8
0
  6
Continuous
 62
     1
370
    15
100
AcDbSpline
210
0.0
220
0.0
230
1.0
 70
    24
 71
     3
 72
    10
 73
     6
 74
     0
 42
0.000000001
 43
0.00000001
 40
0.0
 40
0.0
 40
0.0
 40
0.0
 40
0.5
 40
0.5
 40
1.0
 40
1.0
 40
1.0
 40
1.0
 10
71.99999999999979
 20
5.606731756906546
 30
0.0
 10
71.99999999999979
 20
5.946189811365056
 30
0.0
 10
71.99999999999979
 20
6.340671507843482
 30
0.0
 10
71.99999999999979
 20
7.168293044593391
 30
0.0
 10
71.9999999999998
 20
7.599319243318327
 30
0.0
 10
71.99999999999955
 20
8.006731756906756
 30
0.0
  0
SPLINE
  5
B6
330
1F
100
AcDbEntity
  8
0
  6
Continuous
 62
     1
370
    15
100
AcDbSpline
210
0.0
220
0.0
230
1.0
 70
     8
 71
     3
 72
     9
 73
     5
 74
     0
 42
0.000000001
 43
0.00000001
 40
0.0
 40
0.0
 40
0.0
 40
0.0
 40
0.8832263122462438
 40
0.9999999999999999
 40
0.9999999999999999
 40
0.9999999999999999
 40
0.9999999999999999
 10
71.99999999999979
 20
5.606731756906546
 30
0.0
 10
71.12415419061303
 20
5.602296413324864
 30
0.0
 10
70.13251048928434
 20
5.597274661232356
 30
0.0
 10
69.14087135723486
 20
5.480657357575741
 30
0.0
 10
69.02507399886449
 20
5.467039524971858
 30
0.0
  0
SPLINE
  5
B7
330
1F
100
AcDbEntity
  8
0
  6
Continuous
 62
     1
370
    15
100
AcDbSpline
210
0.0
220
0.0
230
1.0
 70
     8
 71
     3
 72
     8
 73
     4
 74
     0
 42
0.000000001
 43
0.00000001
 40
0.0
 40
0.0
 40
0.0
 40
0.0
 40
1.0
 40
1.0
 40
1.0
 40
1.0
 10
67.05015961782907
 20
2.244292371201863
 30
0.0
 10
67.03334167603614
 20
2.264211739302071
 30
0.0
 10
67.01662136476887
 20
2.284098778058483
 30
0.0
 10
67.00000000000811
 20
2.303953051697534
 30
0.0
  0
LINE
  5
B8
330
1F
100
AcDbEntity
  8
0
  6
Continuous
 62
     1
370
    15
100
AcDbLine
 10
66.99999999999979
 20
2.944451192203133
 30
0.0
 11
71.99999999999979
 21
0.0067317569065466
 31
0.0
  0
LINE
  5
B9
330
1F
100
AcDbEntity
  8
0
  6
Continuous
 62
     1
370
    15
100
AcDbLine
 10
71.99999999999979
 20
0.0067317569065466
 30
0.0
 11
71.99999999999979
 21
-2.131211811330612
 31
0.0
  0
SPLINE
  5
BA
330
1F
100
AcDbEntity
  8
0
  6
Continuous
 62
     1
370
    15
100
AcDbSpline
210
0.0
220
0.0
230
1.0
 70
     8
 71
     3
 72
    12
 73
     8
 74
     0
 42
0.000000001
 43
0.00000001
 40
0.0
 40
0.0
 40
0.0
 40
0.0
 40
0.5
 40
0.5
 40
0.75
 40
0.75
 40
1.0
 40
1.0
 40
1.0
 40
1.0
 10
71.99999999999979
 20
-2.131211811330617
 30
0.0
 10
71.1431630450192
 20
-1.457595683639643
 30
0.0
 10
70.3006401780235
 20
-0.7563654703337443
 30
0.0
 10
69.05889110091604
 20
0.3379891974625261
 30
0.0
 10
68.64870036019417
 20
0.7099613796381591
 30
0.0
 10
67.8367033635171
 20
1.470080709549752
 30
0.0
 10
67.43709642869186
 20
1.856271666746206
 30
0.0
 10
67.05015961782907
 20
2.244292371201862
 30
0.0
  0
SPLINE
  5
BB
330
1F
100
AcDbEntity
  8
0
  6
Continuous
 62
     1
370
    15
100
AcDbSpline
210
0.0
220
0.0
230
1.0
 70
     8
 71
     3
 72
    14
 73
    10
 74
     0
 42
0.000000001
 43
0.00000001
 40
0.0
 40
0.0
 40
0.0
 40
0.0
 40
0.1591720805507092
 40
0.3017842231470371
 40
0.4443931339263689
 40
0.5869991173972172
 40
0.7296024787149306
 40
0.8722035236146984
 40
1.0
 40
1.0
 40
1.0
 40
1.0
 10
67.05015961782904
 20
2.244292371201871
 30
0.0
 10
66.07264491588305
 20
2.657711414229549
 30
0.0
 10
64.21931414379706
 20
3.441538227968735
 30
0.0
 10
61.49038641239895
 20
4.433944099897604
 30
0.0
 10
58.86314934501793
 20
5.236438992462881
 30
0.0
 10
56.23598572476635
 20
5.851349138288546
 30
0.0
 10
53.60887360096486
 20
6.251630403395207
 30
0.0
 10
51.07271013014196
 20
6.442049326530388
 30
0.0
 10
49.41225170884131
 20
6.381656485610923
 30
0.0
 10
48.62747848156452
 20
6.353113353145337
 30
0.0
  0
SPLINE
  5
BC
330
1F
100
AcDbEntity
  8
0
  6
Continuous
 62
     1
370
    15
100
AcDbSpline
210
0.0
220
0.0
230
1.0
 70
    24
 71
     3
 72
    10
 73
     6
 74
     0
 42
0.000000001
 43
0.00000001
 40
0.0
 40
0.0
 40
0.0
 40
0.0
 40
0.5
 40
0.5
 40
1.0
 40
1.0
 40
1.0
 40
1.0
 10
71.99999999999979
 20
-6.30504635803918
 30
0.0
 10
71.99999999999979
 20
-5.821199355123894
 30
0.0
 10
71.99999999999979
 20
-5.209840114345206
 30
0.0
 10
71.99999999999979
 20
-3.788488716298898
 30
0.0
 10
71.9999999999998
 20
-2.979727787503938
 30
0.0
 10
71.9999999999998
 20
-2.131211811330874
 30
0.0
  0
SPLINE
  5
BD
330
1F
100
AcDbEntity
  8
0
  6
Continuous
 62
     1
370
    15
100
AcDbSpline
210
0.0
220
0.0
230
1.0
 70
     8
 71
     3
 72
    22
 73
    18
 74
     0
 42
0.000000001
 43
0.00000001
 40
0.0
 40
0.0
 40
0.0
 40
0.0
 40
0.0074450803248324
 40
0.0791664484109229
 40
0.1508871141540624
 40
0.2226072321552495
 40
0.2943269571369115
 40
0.3660464439086262
 40
0.4377658473328022
 40
0.5094853222903344
 40
0.5812050236462516
 40
0.6529251062153713
 40
0.7246457247279768
 40
0.796367033795536
 40
0.8680891878764756
 40
0.9340366092944701
 40
1.0
 40
1.0
 40
1.0
 40
1.0
 10
55.05273136174485
 20
-6.010345887630034
 30
0.0
 10
48.53657691137816
 20
-6.338274180541958
 30
0.0
 10
47.57001544892198
 20
-6.323646835999401
 30
0.0
 10
45.72780388779763
 20
-6.079543552805325
 30
0.0
 10
43.10084698265096
 20
-5.601244220877683
 30
0.0
 10
40.47391326068652
 20
-4.898414782367752
 30
0.0
 10
37.84699571987754
 20
-4.026110129318333
 30
0.0
 10
35.22008810073629
 20
-3.007588514711335
 30
0.0
 10
32.59318390867342
 20
-1.881496683506031
 30
0.0
 10
29.9662768334358
 20
-0.6876084583788504
 30
0.0
 10
27.33936005778718
 20
0.5311118148218591
 30
0.0
 10
24.71242861216439
 20
1.73112626327253
 30
0.0
 10
22.08547065610002
 20
2.869061639235908
 30
0.0
 10
19.45850000704069
 20
3.905473131166886
 30
0.0
 10
16.90195323991955
 20
4.774276014363452
 30
0.0
 10
14.41590492088332
 20
5.476512993586466
 30
0.0
 10
12.8053666315527
 20
5.788737407228541
 30
0.0
 10
11.99999999999979
 20
5.944868513188159
 30
0.0
  0
SPLINE
  5
BE
330
1F
100
AcDbEntity
  8
0
  6
Continuous
 62
   131
370
    15
100
AcDbSpline
210
0.0
220
0.0
230
1.0
 70
    24
 71
     3
 72
    14
 73
    10
 74
     0
 42
0.000000001
 43
0.00000001
 40
0.0
 40
0.0
 40
0.0
 40
0.0
 40
0.2499999999999999
 40
0.2499999999999999
 40
0.4999999999999999
 40
0.4999999999999999
 40
0.7499999999999999
 40
0.7499999999999999
 40
1.0
 40
1.0
 40
1.0
 40
1.0
 10
11.99999999999978
 20
5.94486851318816
 30
0.0
 10
11.99999999999978
 20
5.650121784025603
 30
0.0
 10
11.99999999999978
 20
5.290739594372853
 30
0.0
 10
11.99999999999978
 20
4.454928227478219
 30
0.0
 10
11.99999999999978
 20
3.97859816322805
 30
0.0
 10
11.99999999999978
 20
2.939585098886058
 30
0.0
 10
11.99999999999978
 20
2.377202134226833
 30
0.0
 10
11.99999999999978
 20
1.209296134270645
 30
0.0
 10
11.99999999999978
 20
0.6041337171552424
 30
0.0
 10
11.99999999999978
 20
0.000000000000108
 30
0.0
  0
SPLINE
  5
BF
330
1F
100
AcDbEntity
  8
0
  6
Continuous
 62
     1
370
    15
100
AcDbSpline
210
0.0
220
0.0
230
1.0
 70
    24
 71
     3
 72
     8
 73
     4
 74
     0
 42
0.000000001
 43
0.00000001
 40
0.0
 40
0.0
 40
0.0
 40
0.0
 40
1.0
 40
1.0
 40
1.0
 40
1.0
 10
66.99999999999977
 20
2.303953051707431
 30
0.0
 10
66.99999999999979
 20
2.880619270739006
 30
0.0
 10
66.99999999999979
 20
3.410914611813858
 30
0.0
 10
66.99999999999979
 20
3.856457093597167
 30
0.0
  0
SPLINE
  5
C0
330
1F
100
AcDbEntity
  8
0
  6
Continuous
 62
     1
370
    15
100
AcDbSpline
210
0.0
220
0.0
230
1.0
 70
     8
 71
     3
 72
    10
 73
     6
 74
     0
 42
0.000000001
 43
0.00000001
 40
0.0
 40
0.0
 40
0.0
 40
0.0
 40
0.5
 40
0.5
 40
1.0
 40
1.0
 40
1.0
 40
1.0
 10
71.99999999999979
 20
5.606731756906546
 30
0.0
 10
71.15451548105696
 20
5.37745746281696
 30
0.0
 10
70.31427087673413
 20
5.119196068867874
 30
0.0
 10
68.64521591934457
 20
4.539606239634396
 30
0.0
 10
67.81772385668908
 20
4.219248729450199
 30
0.0
 10
66.99999999999979
 20
3.856457093594601
 30
0.0
  0
SPLINE
  5
C1
330
1F
100
AcDbEntity
  8
0
  6
Continuous
 62
   131
370
    15
100
AcDbSpline
210
0.0
220
0.0
230
1.0
 70
    24
 71
     3
 72
    13
 73
     9
 74
     0
 42
0.000000001
 43
0.00000001
 40
0.0
 40
0.0
 40
0.0
 40
0.0
 40
0.0815762487364595
 40
0.2864810821732687
 40
0.4856111307124145
 40
0.6905159641492237
 40
0.887631983054595
 40
0.9999999999999999
 40
0.9999999999999999
 40
0.9999999999999999
 40
0.9999999999999999
 10
11.99999999999979
 20
-2.752944041069521
 30
0.0
 10
11.99999999999979
 20
-2.910922544104853
 30
0.0
 10
11.99999999999978
 20
-3.465714572552804
 30
0.0
 10
11.99999999999979
 20
-4.231409294449497
 30
0.0
 10
11.99999999999979
 20
-5.028182837789954
 30
0.0
 10
11.99999999999978
 20
-5.571490440438614
 30
0.0
 10
11.99999999999979
 20
-5.873560789033279
 30
0.0
 10
11.99999999999979
 20
-5.891650031684265
 30
0.0
 10
11.99999999999979
 20
-5.898217906240858
 30
0.0
  0
LINE
  5
C2
330
1F
100
AcDbEntity
  8
0
  6
Continuous
 62
     1
370
    15
100
AcDbLine
 10
71.99999999999979
 20
0.0067317569065466
 30
0.0
 11
71.99999999999979
 21
5.606731756906547
 31
0.0
  0
SPLINE
  5
C3
330
1F
100
AcDbEntity
  8
0
  6
Continuous
 62
   131
370
    15
100
AcDbSpline
210
0.0
220
0.0
230
1.0
 70
    24
 71
     3
 72
     8
 73
     4
 74
     0
 42
0.000000001
 43
0.00000001
 40
0.0
 40
0.0
 40
0.0
 40
0.0
 40
1.0
 40
1.0
 40
1.0
 40
1.0
 10
12.0
 20
0.0
 30
0.0
 10
12.0
 20
-0.1287211835376154
 30
0.0
 10
12.0
 20
-0.2907292199519038
 30
0.0
 10
12.0
 20
-0.4833488536291274
 30
0.0
  0
SPLINE
  5
C4
330
1F
100
AcDbEntity
  8
0
  6
Continuous
 62
   131
370
    15
100
AcDbSpline
210
0.0
220
0.0
230
1.0
 70
     8
 71
     3
 72
    10
 73
     6
 74
     0
 42
0.000000001
 43
0.00000001
 40
0.0
 40
0.0
 40
0.0
 40
0.0
 40
0.5
 40
0.5
 40
1.0
 40
1.0
 40
1.0
 40
1.0
 10
11.99999999999586
 20
-0.4833488536313207
 30
0.0
 10
11.49330724357904
 20
-0.1907029846014763
 30
0.0
 10
10.98293344533744
 20
0.1036403238869696
 30
0.0
 10
9.96406177382865
 20
0.6903894759264488
 30
0.0
 10
9.458302772307906
 20
0.9822692343800065
 30
0.0
 10
8.950235847914739
 20
1.272036532881041
 30
0.0
  0
SPLINE
  5
C5
330
1F
100
AcDbEntity
  8
0
  6
Continuous
 62
   131
370
    15
100
AcDbSpline
210
0.0
220
0.0
230
1.0
 70
     8
 71
     3
 72
    10
 73
     6
 74
     0
 42
0.000000001
 43
0.00000001
 40
0.0
 40
0.0
 40
0.0
 40
0.0
 40
0.5
 40
0.5
 40
1.0
 40
1.0
 40
1.0
 40
1.0
 10
11.99999999999258
 20
0.0000000000036484
 30
0.0
 10
11.49330724357629
 20
0.2492169366234902
 30
0.0
 10
10.98293344533524
 20
0.4990495872448638
 30
0.0
 10
9.964061773827552
 20
0.9954114309542041
 30
0.0
 10
9.458302772307357
 20
1.241499418759665
 30
0.0
 10
8.950235847914742
 20
1.484975964343984
 30
0.0
  0
LINE
  5
C6
330
1F
100
AcDbEntity
  8
0
  6
Continuous
 62
   131
370
    15
100
AcDbLine
 10
8.950115227249793
 20
1.27237507366673
 30
0.0
 11
8.950115227249727
 21
8.006731756906538
 31
0.0
  0
SPLINE
  5
C7
330
1F
100
AcDbEntity
  8
0
  6
Continuous
 62
   131
370
    15
100
AcDbSpline
210
0.0
220
0.0
230
1.0
 70
     8
 71
     3
 72
    10
 73
     6
 74
     0
 42
0.000000001
 43
0.00000001
 40
0.0
 40
0.0
 40
0.0
 40
0.0
 40
0.5
 40
0.5
 40
1.0
 40
1.0
 40
1.0
 40
1.0
 10
11.99999999999586
 20
-2.669584016768573
 30
0.0
 10
11.49328719451703
 20
-2.393270018951074
 30
0.0
 10
10.98289305553741
 20
-2.110879416040927
 30
0.0
 10
9.963981218028598
 20
-1.539013231647973
 30
0.0
 10
9.458202679807345
 20
-1.250071116964548
 30
0.0
 10
8.950115227249833
 20
-0.9587433442015065
 30
0.0
  0
LINE
  5
C8
330
1F
100
AcDbEntity
  8
0
  6
Continuous
 62
   131
370
    15
100
AcDbLine
 10
8.950115227249727
 20
-7.993268243093461
 30
0.0
 11
8.950115227249833
 21
-0.9587442013317525
 31
0.0
  0
LINE
  5
C9
330
1F
100
AcDbEntity
  8
0
  6
Continuous
 62
   131
370
    15
100
AcDbLine
 10
-47.0000000000002
 20
8.006731756906534
 30
0.0
 11
-47.0000000000002
 21
-7.993268243093465
 31
0.0
  0
LINE
  5
CA
330
1F
100
AcDbEntity
  8
0
  6
Continuous
 62
   131
370
    15
100
AcDbLine
 10
-48.00000000000021
 20
7.006731756906535
 30
0.0
 11
-48.00000000000021
 21
-6.993268243093464
 31
0.0
  0
SPLINE
  5
CB
330
1F
100
AcDbEntity
  8
0
  6
Continuous
 62
   131
370
    15
100
AcDbSpline
210
0.0
220
0.0
230
1.0
 70
     8
 71
     3
 72
    10
 73
     6
 74
     0
 42
0.000000001
 43
0.00000001
 40
0.0
 40
0.0
 40
0.0
 40
0.0
 40
0.5
 40
0.5
 40
1.0
 40
1.0
 40
1.0
 40
1.0
 10
11.99999999999125
 20
5.944868513189633
 30
0.0
 10
11.49329451714404
 20
6.032359084376425
 30
0.0
 10
10.98290780732788
 20
6.108060039064998
 30
0.0
 10
9.964010639868375
 20
6.234379358833154
 30
0.0
 10
9.45823923716397
 20
6.284941335860258
 30
0.0
 10
8.950159282220557
 20
6.322831760096542
 30
0.0
  0
SPLINE
  5
CC
330
1F
100
AcDbEntity
  8
0
  6
Continuous
 62
   131
370
    15
100
AcDbSpline
210
0.0
220
0.0
230
1.0
 70
    24
 71
     3
 72
    14
 73
    10
 74
     0
 42
0.000000001
 43
0.00000001
 40
0.0
 40
0.0
 40
0.0
 40
0.0
 40
0.2499999999999999
 40
0.2499999999999999
 40
0.4999999999999999
 40
0.4999999999999999
 40
0.7499999999999999
 40
0.7499999999999999
 40
1.0
 40
1.0
 40
1.0
 40
1.0
 10
11.99999999999978
 20
5.94486851318816
 30
0.0
 10
11.99999999999978
 20
5.650121784025603
 30
0.0
 10
11.99999999999978
 20
5.290739594372853
 30
0.0
 10
11.99999999999978
 20
4.454928227478219
 30
0.0
 10
11.99999999999978
 20
3.97859816322805
 30
0.0
 10
11.99999999999978
 20
2.939585098886058
 30
0.0
 10
11.99999999999978
 20
2.377202134226833
 30
0.0
 10
11.99999999999978
 20
1.209296134270645
 30
0.0
 10
11.99999999999978
 20
0.6041337171552424
 30
0.0
 10
11.99999999999978
 20
0.000000000000108
 30
0.0
  0
LINE
  5
CD
330
1F
100
AcDbEntity
  8
0
  6
Continuous
 62
   131
370
    15
100
AcDbLine
 10
11.40461836313342
 20
-6.005189959785571
 30
0.0
 11
8.950159282220557
 21
-6.309368246283464
 31
0.0
  0
SPLINE
  5
CE
330
1F
100
AcDbEntity
  8
0
  6
Continuous
 62
   131
370
    15
100
AcDbSpline
210
0.0
220
0.0
230
1.0
 70
    24
 71
     3
 72
    13
 73
     9
 74
     0
 42
0.000000001
 43
0.00000001
 40
0.0
 40
0.0
 40
0.0
 40
0.0
 40
0.0876521141947431
 40
0.3078184265423568
 40
0.5217798433089625
 40
0.7419461556565764
 40
0.953743536221646
 40
0.9999999999999999
 40
0.9999999999999999
 40
0.9999999999999999
 40
0.9999999999999999
 10
11.99999999999979
 20
-2.752944041069521
 30
0.0
 10
11.99999999999979
 20
-2.910931051446524
 30
0.0
 10
11.99999999999978
 20
-3.465752956145045
 30
0.0
 10
11.99999999999979
 20
-4.230964774497303
 30
0.0
 10
11.99999999999979
 20
-5.029771257988241
 30
0.0
 10
11.99999999999979
 20
-5.565474306762479
 30
0.0
 10
11.99999999999979
 20
-5.847266436576345
 30
0.0
 10
11.99999999999979
 20
-5.868880118650819
 30
0.0
 10
11.99999999999979
 20
-5.872754397309749
 30
0.0
  0
LINE
  5
CF
330
1F
100
AcDbEntity
  8
0
  6
Continuous
 62
     1
370
    15
100
AcDbLine
 10
-51.00000000000021
 20
0.0067317569065339
 30
0.0
 11
78.99999999999979
 21
0.0067317569065473
 31
0.0
  0
CIRCLE
  5
D0
330
1F
100
AcDbEntity
  8
외형선
100
AcDbCircle
 10
0.0000000000000104
 20
0.0
 30
0.0
 40
3.000000000000005
  0
INSERT
  5
D1
330
1F
100
AcDbEntity
  8
0
  6
Continuous
 62
     7
100
AcDbBlockReference
 66
     1
  2
블럭10
 10
-22.93944368806589
 20
-52.04609937292004
 30
0.0
  0
ATTRIB
  5
D2
330
D1
100
AcDbEntity
  8
FORMAT
 62
     2
100
AcDbText
 10
-39.05870472750145
 20
-49.97073246008785
 30
0.0
 40
4.233333333333333
  1
SEME7016060E [ 2 FLUTE ]
 41
0.75
  7
SLDTEXTSTYLE0
 11
-39.05870472750145
 21
-52.08739912675452
 31
0.0
100
AcDbAttribute
  2
AUTOATTR0
 70
     0
 74
     1
  0
SEQEND
  5
D3
330
D1
100
AcDbEntity
  8
0
  6
Continuous
 62
     7
  0
HATCH
  5
D4
330
1F
100
AcDbEntity
  8
중심선
100
AcDbHatch
 10
0.0
 20
0.0
 30
0.0
210
0.0
220
0.0
230
1.0
  2
SOLID
 70
     1
 71
     0
 91
        1
 92
        0
 93
        4
 72
     1
 10
-17.22453438368504
 20
-35.7989250712761
 11
-20.67080962752232
 21
-35.7989250712761
 72
     1
 10
-20.67080962752232
 20
-35.7989250712761
 11
-22.79903948672635
 21
-38.3352506518487
 72
     1
 10
-22.79903948672635
 20
-38.3352506518487
 11
-19.35273115777591
 21
-38.33521122254621
 72
     1
 10
-19.35273115777591
 20
-38.33521122254621
 11
-17.22453438368504
 21
-35.7989250712761
 97
        0
 75
     0
 76
     1
 98
        1
 10
0.0
 20
0.0
  0
HATCH
  5
D5
330
1F
100
AcDbEntity
  8
중심선
100
AcDbHatch
 10
0.0
 20
0.0
 30
0.0
210
0.0
220
0.0
230
1.0
  2
SOLID
 70
     1
 71
     0
 91
        1
 92
        0
 93
        4
 72
     1
 10
-12.21177039264909
 20
-35.7989250712761
 11
-15.65804563648637
 21
-35.7989250712761
 72
     1
 10
-15.65804563648637
 20
-35.7989250712761
 11
-20.18918364484376
 21
-41.19892507127612
 72
     1
 10
-20.18918364484376
 20
-41.19892507127612
 11
-16.74290840100648
 21
-41.19892507127612
 72
     1
 10
-16.74290840100648
 20
-41.19892507127612
 11
-12.21177039264909
 21
-35.7989250712761
 97
        0
 75
     0
 76
     1
 98
        1
 10
0.0
 20
0.0
  0
HATCH
  5
D6
330
1F
100
AcDbEntity
  8
중심선
100
AcDbHatch
 10
0.0
 20
0.0
 30
0.0
210
0.0
220
0.0
230
1.0
  2
SOLID
 70
     1
 71
     0
 91
        1
 92
        0
 93
        4
 72
     1
 10
-7.199006401613195
 20
-35.79892507127613
 11
-10.64528164545031
 21
-35.7989250712761
 72
     1
 10
-10.64528164545031
 20
-35.7989250712761
 11
-17.69371854733956
 21
-44.19892507127612
 72
     1
 10
-17.69371854733956
 20
-44.19892507127612
 11
-14.24744330350228
 21
-44.19892507127612
 72
     1
 10
-14.24744330350228
 20
-44.19892507127612
 11
-7.199006401613195
 21
-35.79892507127613
 97
        0
 75
     0
 76
     1
 98
        1
 10
0.0
 20
0.0
  0
HATCH
  5
D7
330
1F
100
AcDbEntity
  8
중심선
100
AcDbHatch
 10
0.0
 20
0.0
 30
0.0
210
0.0
220
0.0
230
1.0
  2
SOLID
 70
     1
 71
     0
 91
        1
 92
        0
 93
        6
 72
     3
 10
-2.399115970600996
 20
-39.99892507132738
 11
3.960054785062284
 21
1.540850780301639E-10
 40
0.3939339440162633
 50
17.09539180608433
 51
320.0019657685079
 73
     0
 72
     1
 10
-0.7161163149004002
 20
-38.58681907591441
 11
1.589185558800638
 21
-36.65249236586649
 72
     3
 10
-2.399115970653842
 20
-39.99892507127625
 11
6.600054785286829
 21
-1.249000902703301E-13
 40
0.6363583540795982
 50
39.99873849337408
 51
368.4976242363725
 73
     1
 72
     1
 10
4.026216521246767
 20
-39.03892507120613
 11
-3.71904866381792
 21
-39.0389250712061
 72
     1
 10
-3.71904866381792
 20
-39.0389250712061
 11
-3.719073708263854
 21
-40.95892507120602
 72
     1
 10
-3.719073708263854
 20
-40.95892507120602
 11
0.7223060612081831
 21
-40.95892507120599
 97
        0
 75
     0
 76
     1
 98
        1
 10
0.0
 20
0.0
  0
DIMENSION
  5
D8
330
1F
100
AcDbEntity
  8
치수문자_일반주서
100
AcDbDimension
  2
_D
 10
84.14298849912053
 20
8.006731756906802
 30
0.0
 11
84.14298849912049
 21
21.78489271162401
 31
0.0
 70
   160
  1
%%c<>
 71
     2
 42
15.99999999999999
 52
-270.0
  3
SLDDIMSTYLE0
100
AcDbAlignedDimension
 13
71.99999999999979
 23
-7.993268243093232
 33
0.0
 14
71.99999999999955
 24
8.006731756906756
 34
0.0
 50
90.0000000000002
100
AcDbRotatedDimension
  0
DIMENSION
  5
E6
330
1F
100
AcDbEntity
  8
치수문자_일반주서
100
AcDbDimension
  2
_D_1
 10
71.99999999999955
 20
28.79514219714923
 30
0.0
 11
11.99999999999965
 21
28.79514219714923
 31
0.0
 70
   160
  1
<>
 71
     2
 42
119.9999999999998
  3
SLDDIMSTYLE1
100
AcDbAlignedDimension
 13
-48.00000000000021
 23
7.006731756906535
 33
0.0
 14
71.99999999999955
 24
8.006731756906756
 34
0.0
 50
-0.0000000000000051
100
AcDbRotatedDimension
  0
DIMENSION
  5
F1
330
1F
100
AcDbEntity
  8
치수문자_일반주서
100
AcDbDimension
  2
_D_2
 10
71.99999999999955
 20
19.29186631935567
 30
0.0
 11
41.99999999999979
 21
19.29186631935567
 31
0.0
 70
   160
  1
<>
 71
     2
 42
59.99999999999976
  3
SLDDIMSTYLE1
100
AcDbAlignedDimension
 13
11.99999999999979
 23
5.944868513188156
 33
0.0
 14
71.99999999999955
 24
8.006731756906756
 34
0.0
 50
-0.0000000000000204
100
AcDbRotatedDimension
  0
DIMENSION
  5
FB
330
1F
100
AcDbEntity
  8
치수문자_일반주서
100
AcDbDimension
  2
_D_3
 10
-58.8495073935342
 20
-7.993268243093507
 30
0.0
 11
-58.84950739353429
 21
18.54823175690649
 31
0.0
 70
   160
  1
%%c<>
 71
     2
 42
16.0
 52
-270.0
  3
SLDDIMSTYLE0
100
AcDbAlignedDimension
 13
-47.0000000000002
 23
8.006731756906534
 33
0.0
 14
-47.0000000000002
 24
-7.993268243093461
 34
0.0
 50
90.0000000000002
100
AcDbRotatedDimension
  0
INSERT
  5
10E
330
1F
100
AcDbEntity
  8
외형선
100
AcDbBlockReference
  2
SW_DOWELSYMBOL_0
 10
0.0000000000000104
 20
0.0
 30
0.0
  0
ENDSEC
  0
SECTION
  2
OBJECTS
  0
DICTIONARY
  5
C
330
0
100
AcDbDictionary
281
     1
  3
ACAD_GROUP
350
D
  3
ACAD_IMAGE_VARS
350
132
  3
ACAD_LAYOUT
350
1A
  3
ACAD_MLINESTYLE
350
17
  3
ACAD_PLOTSETTINGS
350
19
  3
ACAD_PLOTSTYLENAME
350
E
  3
ACAD_SCALELIST
350
47
  3
APPDATA
350
130
  3
DWGPROPS
350
141
  0
DICTIONARY
  5
D
102
{ACAD_REACTORS
330
C
102
}
330
C
100
AcDbDictionary
281
     1
  0
RASTERVARIABLES
  5
132
102
{ACAD_REACTORS
330
C
102
}
330
C
100
AcDbRasterVariables
 90
        0
 70
     1
 71
     1
 72
     1
  0
DICTIONARY
  5
1A
102
{ACAD_REACTORS
330
C
102
}
330
C
100
AcDbDictionary
281
     1
  3
Layout1
350
1E
  3
Layout2
350
26
  3
Model
350
22
  0
DICTIONARY
  5
17
102
{ACAD_REACTORS
330
C
102
}
330
C
100
AcDbDictionary
281
     1
  3
Standard
350
18
  0
DICTIONARY
  5
19
102
{ACAD_REACTORS
330
C
102
}
330
C
100
AcDbDictionary
281
     1
  0
ACDBDICTIONARYWDFLT
  5
E
102
{ACAD_REACTORS
330
C
102
}
330
C
100
AcDbDictionary
281
     1
  3
Normal
350
F
100
AcDbDictionaryWithDefault
340
F
  0
DICTIONARY
  5
47
102
{ACAD_REACTORS
330
C
102
}
330
C
100
AcDbDictionary
281
     1
  3
A0
350
48
  3
A1
350
49
  3
A2
350
4A
  3
A3
350
4B
  3
A4
350
4C
  3
A5
350
4D
  3
A6
350
4E
  3
A7
350
4F
  3
A8
350
50
  3
A9
350
51
  3
B0
350
52
  3
B1
350
53
  3
B2
350
54
  3
B3
350
55
  3
B4
350
56
  3
B5
350
57
  3
B6
350
58
  3
B7
350
59
  3
B8
350
5A
  3
B9
350
5B
  3
C0
350
5C
  3
C1
350
5D
  3
C2
350
5E
  3
C3
350
5F
  3
C4
350
60
  3
C5
350
61
  3
C6
350
62
  3
C7
350
63
  3
C8
350
64
  3
C9
350
65
  3
D0
350
66
  3
D1
350
67
  3
D2
350
68
  0
DICTIONARY
  5
130
102
{ACAD_REACTORS
330
C
102
}
330
C
100
AcDbDictionary
281
     1
  0
XRECORD
  5
141
102
{ACAD_REACTORS
330
C
102
}
330
C
100
AcDbXrecord
280
     1
  1
DWGPROPS COOKIE
  2

  3

  4

  6

  7

  8
12014102
  9

300
=
301
=
302
=
303
=
304
=
305
=
306
=
307
=
308
=
309
=
 40
0.0
 41
2458262.175928333
 42
2458266.180777222
  1

 90
        0
  0
LAYOUT
  5
1E
102
{ACAD_REACTORS
330
1A
102
}
330
1A
100
AcDbPlotSettings
  1

  2
none_device
  4

  6

 40
0.0
 41
0.0
 42
0.0
 43
0.0
 44
0.0
 45
0.0
 46
0.0
 47
0.0
 48
0.0
 49
0.0
140
0.0
141
0.0
142
1.0
143
1.0
 70
   688
 72
     1
 73
     0
 74
     5
  7

 75
    16
147
1.0
148
0.0
149
0.0
100
AcDbLayout
  1
Layout1
 70
     1
 71
     1
 10
0.0
 20
0.0
 11
420.0
 21
297.0
 12
0.0
 22
0.0
 32
0.0
 14
1.000000000000000E+20
 24
1.000000000000000E+20
 34
1.000000000000000E+20
 15
-1.000000000000000E+20
 25
-1.000000000000000E+20
 35
-1.000000000000000E+20
146
0.0
 13
0.0
 23
0.0
 33
0.0
 16
1.0
 26
0.0
 36
0.0
 17
0.0
 27
1.0
 37
0.0
 76
     0
330
1B
  0
LAYOUT
  5
26
102
{ACAD_REACTORS
330
1A
102
}
330
1A
100
AcDbPlotSettings
  1

  2
none_device
  4

  6

 40
0.0
 41
0.0
 42
0.0
 43
0.0
 44
0.0
 45
0.0
 46
0.0
 47
0.0
 48
0.0
 49
0.0
140
0.0
141
0.0
142
1.0
143
1.0
 70
   688
 72
     1
 73
     0
 74
     5
  7

 75
    16
147
1.0
148
0.0
149
0.0
100
AcDbLayout
  1
Layout2
 70
     1
 71
     2
 10
0.0
 20
0.0
 11
0.0
 21
0.0
 12
0.0
 22
0.0
 32
0.0
 14
0.0
 24
0.0
 34
0.0
 15
0.0
 25
0.0
 35
0.0
146
0.0
 13
0.0
 23
0.0
 33
0.0
 16
1.0
 26
0.0
 36
0.0
 17
0.0
 27
1.0
 37
0.0
 76
     0
330
23
  0
LAYOUT
  5
22
102
{ACAD_REACTORS
330
1A
102
}
330
1A
100
AcDbPlotSettings
  1

  2
none_device
  4
ANSI_A_(11.00_x_8.50_Inches)
  6

 40
6.35
 41
19.05
 42
6.35000508
 43
19.05000254
 44
279.4
 45
215.9
 46
119.1846012473712
 47
106.6003254083668
 48
0.0
 49
0.0
140
0.0
141
0.0
142
0.0800372376518905
143
1.0
 70
  1696
 72
     0
 73
     0
 74
     0
  7

 75
     0
147
0.0235690232323232
148
0.0
149
0.0
100
AcDbLayout
  1
Model
 70
     1
 71
     0
 10
0.0
 20
0.0
 11
420.0
 21
297.0
 12
0.0
 22
0.0
 32
0.0
 14
-63.22450739353431
 24
-49.97073246008785
 34
0.0
 15
84.69332183245393
 25
33.17014219714923
 35
0.0
146
0.0
 13
0.0
 23
0.0
 33
0.0
 16
1.0
 26
0.0
 36
0.0
 17
0.0
 27
1.0
 37
0.0
 76
     0
330
1F
331
29
  0
MLINESTYLE
  5
18
102
{ACAD_REACTORS
330
17
102
}
330
17
100
AcDbMlineStyle
  2
Standard
 70
     0
  3

 62
   256
 51
90.0
 52
90.0
 71
     2
 49
0.5
 62
   256
  6
BYLAYER
 49
-0.5
 62
   256
  6
BYLAYER
  0
ACDBPLACEHOLDER
  5
F
102
{ACAD_REACTORS
330
E
102
}
330
E
  0
SCALE
  5
48
102
{ACAD_REACTORS
330
47
102
}
330
47
100
AcDbScale
 70
     0
300
1:1
140
1.0
141
1.0
290
     1
  0
SCALE
  5
49
102
{ACAD_REACTORS
330
47
102
}
330
47
100
AcDbScale
 70
     0
300
1:2
140
1.0
141
2.0
290
     0
  0
SCALE
  5
4A
102
{ACAD_REACTORS
330
47
102
}
330
47
100
AcDbScale
 70
     0
300
1:4
140
1.0
141
4.0
290
     0
  0
SCALE
  5
4B
102
{ACAD_REACTORS
330
47
102
}
330
47
100
AcDbScale
 70
     0
300
1:5
140
1.0
141
5.0
290
     0
  0
SCALE
  5
4C
102
{ACAD_REACTORS
330
47
102
}
330
47
100
AcDbScale
 70
     0
300
1:8
140
1.0
141
8.0
290
     0
  0
SCALE
  5
4D
102
{ACAD_REACTORS
330
47
102
}
330
47
100
AcDbScale
 70
     0
300
1:10
140
1.0
141
10.0
290
     0
  0
SCALE
  5
4E
102
{ACAD_REACTORS
330
47
102
}
330
47
100
AcDbScale
 70
     0
300
1:16
140
1.0
141
16.0
290
     0
  0
SCALE
  5
4F
102
{ACAD_REACTORS
330
47
102
}
330
47
100
AcDbScale
 70
     0
300
1:20
140
1.0
141
20.0
290
     0
  0
SCALE
  5
50
102
{ACAD_REACTORS
330
47
102
}
330
47
100
AcDbScale
 70
     0
300
1:30
140
1.0
141
30.0
290
     0
  0
SCALE
  5
51
102
{ACAD_REACTORS
330
47
102
}
330
47
100
AcDbScale
 70
     0
300
1:40
140
1.0
141
40.0
290
     0
  0
SCALE
  5
52
102
{ACAD_REACTORS
330
47
102
}
330
47
100
AcDbScale
 70
     0
300
1:50
140
1.0
141
50.0
290
     0
  0
SCALE
  5
53
102
{ACAD_REACTORS
330
47
102
}
330
47
100
AcDbScale
 70
     0
300
1:100
140
1.0
141
100.0
290
     0
  0
SCALE
  5
54
102
{ACAD_REACTORS
330
47
102
}
330
47
100
AcDbScale
 70
     0
300
2:1
140
2.0
141
1.0
290
     0
  0
SCALE
  5
55
102
{ACAD_REACTORS
330
47
102
}
330
47
100
AcDbScale
 70
     0
300
4:1
140
4.0
141
1.0
290
     0
  0
SCALE
  5
56
102
{ACAD_REACTORS
330
47
102
}
330
47
100
AcDbScale
 70
     0
300
8:1
140
8.0
141
1.0
290
     0
  0
SCALE
  5
57
102
{ACAD_REACTORS
330
47
102
}
330
47
100
AcDbScale
 70
     0
300
10:1
140
10.0
141
1.0
290
     0
  0
SCALE
  5
58
102
{ACAD_REACTORS
330
47
102
}
330
47
100
AcDbScale
 70
     0
300
100:1
140
100.0
141
1.0
290
     0
  0
SCALE
  5
59
102
{ACAD_REACTORS
330
47
102
}
330
47
100
AcDbScale
 70
     0
300
1/128" = 1'-0"
140
0.0078125
141
12.0
290
     0
  0
SCALE
  5
5A
102
{ACAD_REACTORS
330
47
102
}
330
47
100
AcDbScale
 70
     0
300
1/64" = 1'-0"
140
0.015625
141
12.0
290
     0
  0
SCALE
  5
5B
102
{ACAD_REACTORS
330
47
102
}
330
47
100
AcDbScale
 70
     0
300
1/32" = 1'-0"
140
0.03125
141
12.0
290
     0
  0
SCALE
  5
5C
102
{ACAD_REACTORS
330
47
102
}
330
47
100
AcDbScale
 70
     0
300
1/16" = 1'-0"
140
0.0625
141
12.0
290
     0
  0
SCALE
  5
5D
102
{ACAD_REACTORS
330
47
102
}
330
47
100
AcDbScale
 70
     0
300
3/32" = 1'-0"
140
0.09375
141
12.0
290
     0
  0
SCALE
  5
5E
102
{ACAD_REACTORS
330
47
102
}
330
47
100
AcDbScale
 70
     0
300
1/8" = 1'-0"
140
0.125
141
12.0
290
     0
  0
SCALE
  5
5F
102
{ACAD_REACTORS
330
47
102
}
330
47
100
AcDbScale
 70
     0
300
3/16" = 1'-0"
140
0.1875
141
12.0
290
     0
  0
SCALE
  5
60
102
{ACAD_REACTORS
330
47
102
}
330
47
100
AcDbScale
 70
     0
300
1/4" = 1'-0"
140
0.25
141
12.0
290
     0
  0
SCALE
  5
61
102
{ACAD_REACTORS
330
47
102
}
330
47
100
AcDbScale
 70
     0
300
3/8" = 1'-0"
140
0.375
141
12.0
290
     0
  0
SCALE
  5
62
102
{ACAD_REACTORS
330
47
102
}
330
47
100
AcDbScale
 70
     0
300
1/2" = 1'-0"
140
0.5
141
12.0
290
     0
  0
SCALE
  5
63
102
{ACAD_REACTORS
330
47
102
}
330
47
100
AcDbScale
 70
     0
300
3/4" = 1'-0"
140
0.75
141
12.0
290
     0
  0
SCALE
  5
64
102
{ACAD_REACTORS
330
47
102
}
330
47
100
AcDbScale
 70
     0
300
1" = 1'-0"
140
1.0
141
12.0
290
     0
  0
SCALE
  5
65
102
{ACAD_REACTORS
330
47
102
}
330
47
100
AcDbScale
 70
     0
300
1-1/2" = 1'-0"
140
1.5
141
12.0
290
     0
  0
SCALE
  5
66
102
{ACAD_REACTORS
330
47
102
}
330
47
100
AcDbScale
 70
     0
300
3" = 1'-0"
140
3.0
141
12.0
290
     0
  0
SCALE
  5
67
102
{ACAD_REACTORS
330
47
102
}
330
47
100
AcDbScale
 70
     0
300
6" = 1'-0"
140
6.0
141
12.0
290
     0
  0
SCALE
  5
68
102
{ACAD_REACTORS
330
47
102
}
330
47
100
AcDbScale
 70
     0
300
1'-0" = 1'-0"
140
12.0
141
12.0
290
     0
  0
ENDSEC
  0
EOF
