  0
SECTION
  2
HEADER
  9
$ACADVER
  1
AC1015
  9
$ACADMAINTVER
 70
     6
  9
$DWGCODEPAGE
  3
ANSI_949
  9
$INSBASE
 10
0.0
 20
0.0
 30
0.0
  9
$EXTMIN
 10
-133.6666595898687
 20
-49.97073246008785
 30
0.0
  9
$EXTMAX
 10
98.80553070244366
 20
33.16341044024269
 30
0.0
  9
$LIMMIN
 10
0.0
 20
0.0
  9
$LIMMAX
 10
420.0
 20
297.0
  9
$ORTHOMODE
 70
     0
  9
$REGENMODE
 70
     1
  9
$FILLMODE
 70
     1
  9
$QTEXTMODE
 70
     0
  9
$MIRRTEXT
 70
     1
  9
$LTSCALE
 40
1.0
  9
$ATTMODE
 70
     1
  9
$TEXTSIZE
 40
3.5
  9
$TRACEWID
 40
1.0
  9
$TEXTSTYLE
  7
Standard
  9
$CLAYER
  8
0
  9
$CELTYPE
  6
ByLayer
  9
$CECOLOR
 62
   256
  9
$CELTSCALE
 40
1.0
  9
$DISPSILH
 70
     0
  9
$DIMSCALE
 40
1.0
  9
$DIMASZ
 40
3.302
  9
$DIMEXO
 40
1.0
  9
$DIMDLI
 40
3.75
  9
$DIMRND
 40
0.0
  9
$DIMDLE
 40
0.0
  9
$DIMEXE
 40
1.0
  9
$DIMTP
 40
0.0
  9
$DIMTM
 40
0.0
  9
$DIMTXT
 40
3.5
  9
$DIMCEN
 40
2.5
  9
$DIMTSZ
 40
0.0
  9
$DIMTOL
 70
     0
  9
$DIMLIM
 70
     0
  9
$DIMTIH
 70
     1
  9
$DIMTOH
 70
     1
  9
$DIMSE1
 70
     0
  9
$DIMSE2
 70
     0
  9
$DIMTAD
 70
     1
  9
$DIMZIN
 70
     0
  9
$DIMBLK
  1

  9
$DIMASO
 70
     1
  9
$DIMSHO
 70
     1
  9
$DIMPOST
  1

  9
$DIMAPOST
  1

  9
$DIMALT
 70
     0
  9
$DIMALTD
 70
     3
  9
$DIMALTF
 40
0.0393700787401575
  9
$DIMLFAC
 40
1.0
  9
$DIMTOFL
 70
     1
  9
$DIMTVP
 40
0.0
  9
$DIMTIX
 70
     0
  9
$DIMSOXD
 70
     0
  9
$DIMSAH
 70
     0
  9
$DIMBLK1
  1

  9
$DIMBLK2
  1

  9
$DIMSTYLE
  2
ISO-25
  9
$DIMCLRD
 70
     0
  9
$DIMCLRE
 70
     0
  9
$DIMCLRT
 70
     0
  9
$DIMTFAC
 40
1.0
  9
$DIMGAP
 40
1.524
  9
$DIMJUST
 70
     0
  9
$DIMSD1
 70
     0
  9
$DIMSD2
 70
     0
  9
$DIMTOLJ
 70
     0
  9
$DIMTZIN
 70
     0
  9
$DIMALTZ
 70
     0
  9
$DIMALTTZ
 70
     0
  9
$DIMUPT
 70
     0
  9
$DIMDEC
 70
     2
  9
$DIMTDEC
 70
     2
  9
$DIMALTU
 70
     2
  9
$DIMALTTD
 70
     3
  9
$DIMTXSTY
  7
Standard
  9
$DIMAUNIT
 70
     0
  9
$DIMADEC
 70
     2
  9
$DIMALTRND
 40
0.0
  9
$DIMAZIN
 70
     0
  9
$DIMDSEP
 70
    44
  9
$DIMATFIT
 70
     3
  9
$DIMFRAC
 70
     0
  9
$DIMLDRBLK
  1

  9
$DIMLUNIT
 70
     2
  9
$DIMLWD
 70
    -2
  9
$DIMLWE
 70
    -2
  9
$DIMTMOVE
 70
     0
  9
$LUNITS
 70
     2
  9
$LUPREC
 70
     2
  9
$SKETCHINC
 40
1.0
  9
$FILLETRAD
 40
10.0
  9
$AUNITS
 70
     0
  9
$AUPREC
 70
     2
  9
$MENU
  1
.
  9
$ELEVATION
 40
0.0
  9
$PELEVATION
 40
0.0
  9
$THICKNESS
 40
0.0
  9
$LIMCHECK
 70
     0
  9
$CHAMFERA
 40
0.0
  9
$CHAMFERB
 40
0.0
  9
$CHAMFERC
 40
0.0
  9
$CHAMFERD
 40
0.0
  9
$SKPOLY
 70
     0
  9
$TDCREATE
 40
2458262.551303981
  9
$TDUCREATE
 40
2458262.176303981
  9
$TDUPDATE
 40
2458266.691646805
  9
$TDUUPDATE
 40
2458266.316646805
  9
$TDINDWG
 40
0.0010932407
  9
$TDUSRTIMER
 40
2458266.3155536
  9
$USRTIMER
 70
     1
  9
$ANGBASE
 50
0.0
  9
$ANGDIR
 70
     0
  9
$PDMODE
 70
     0
  9
$PDSIZE
 40
-1.0
  9
$PLINEWID
 40
0.0
  9
$SPLFRAME
 70
     0
  9
$SPLINETYPE
 70
     6
  9
$SPLINESEGS
 70
     8
  9
$HANDSEED
  5
143
  9
$SURFTAB1
 70
     6
  9
$SURFTAB2
 70
     6
  9
$SURFTYPE
 70
     6
  9
$SURFU
 70
     6
  9
$SURFV
 70
     6
  9
$UCSBASE
  2

  9
$UCSNAME
  2

  9
$UCSORG
 10
0.0
 20
0.0
 30
0.0
  9
$UCSXDIR
 10
1.0
 20
0.0
 30
0.0
  9
$UCSYDIR
 10
0.0
 20
1.0
 30
0.0
  9
$UCSORTHOREF
  2

  9
$UCSORTHOVIEW
 70
     0
  9
$UCSORGTOP
 10
0.0
 20
0.0
 30
0.0
  9
$UCSORGBOTTOM
 10
0.0
 20
0.0
 30
0.0
  9
$UCSORGLEFT
 10
0.0
 20
0.0
 30
0.0
  9
$UCSORGRIGHT
 10
0.0
 20
0.0
 30
0.0
  9
$UCSORGFRONT
 10
0.0
 20
0.0
 30
0.0
  9
$UCSORGBACK
 10
0.0
 20
0.0
 30
0.0
  9
$PUCSBASE
  2

  9
$PUCSNAME
  2

  9
$PUCSORG
 10
0.0
 20
0.0
 30
0.0
  9
$PUCSXDIR
 10
1.0
 20
0.0
 30
0.0
  9
$PUCSYDIR
 10
0.0
 20
1.0
 30
0.0
  9
$PUCSORTHOREF
  2

  9
$PUCSORTHOVIEW
 70
     0
  9
$PUCSORGTOP
 10
0.0
 20
0.0
 30
0.0
  9
$PUCSORGBOTTOM
 10
0.0
 20
0.0
 30
0.0
  9
$PUCSORGLEFT
 10
0.0
 20
0.0
 30
0.0
  9
$PUCSORGRIGHT
 10
0.0
 20
0.0
 30
0.0
  9
$PUCSORGFRONT
 10
0.0
 20
0.0
 30
0.0
  9
$PUCSORGBACK
 10
0.0
 20
0.0
 30
0.0
  9
$USERI1
 70
     0
  9
$USERI2
 70
     0
  9
$USERI3
 70
     0
  9
$USERI4
 70
     0
  9
$USERI5
 70
     0
  9
$USERR1
 40
0.0
  9
$USERR2
 40
0.0
  9
$USERR3
 40
0.0
  9
$USERR4
 40
0.0
  9
$USERR5
 40
0.0
  9
$WORLDVIEW
 70
     1
  9
$SHADEDGE
 70
     3
  9
$SHADEDIF
 70
    70
  9
$TILEMODE
 70
     1
  9
$MAXACTVP
 70
    64
  9
$PINSBASE
 10
0.0
 20
0.0
 30
0.0
  9
$PLIMCHECK
 70
     0
  9
$PEXTMIN
 10
1.000000000000000E+20
 20
1.000000000000000E+20
 30
1.000000000000000E+20
  9
$PEXTMAX
 10
-1.000000000000000E+20
 20
-1.000000000000000E+20
 30
-1.000000000000000E+20
  9
$PLIMMIN
 10
0.0
 20
0.0
  9
$PLIMMAX
 10
0.0
 20
0.0
  9
$UNITMODE
 70
     0
  9
$VISRETAIN
 70
     1
  9
$PLINEGEN
 70
     0
  9
$PSLTSCALE
 70
     1
  9
$TREEDEPTH
 70
  3020
  9
$CMLSTYLE
  2
Standard
  9
$CMLJUST
 70
     0
  9
$CMLSCALE
 40
20.0
  9
$PROXYGRAPHICS
 70
     1
  9
$MEASUREMENT
 70
     1
  9
$CELWEIGHT
370
    -1
  9
$ENDCAPS
280
     0
  9
$JOINSTYLE
280
     0
  9
$LWDISPLAY
290
     1
  9
$INSUNITS
 70
     4
  9
$HYPERLINKBASE
  1

  9
$STYLESHEET
  1

  9
$XEDIT
290
     1
  9
$CEPSNTYPE
380
     0
  9
$PSTYLEMODE
290
     1
  9
$FINGERPRINTGUID
  2
{7C12826E-E1A7-4102-9E29-8D6CEC0F9E6F}
  9
$VERSIONGUID
  2
{FAEB1C32-E019-11D5-929B-00C0DF256EC4}
  9
$EXTNAMES
290
     1
  9
$PSVPSCALE
 40
0.0
  9
$OLESTARTUP
290
     0
  0
ENDSEC
  0
SECTION
  2
CLASSES
  0
CLASS
  1
ACDBDICTIONARYWDFLT
  2
AcDbDictionaryWithDefault
  3
ObjectDBX Classes
 90
        0
280
     0
281
     0
  0
CLASS
  1
VISUALSTYLE
  2
AcDbVisualStyle
  3
ObjectDBX Classes
 90
     4095
280
     0
281
     0
  0
CLASS
  1
MATERIAL
  2
AcDbMaterial
  3
ObjectDBX Classes
 90
     1153
280
     0
281
     0
  0
CLASS
  1
SCALE
  2
AcDbScale
  3
ObjectDBX Classes
 90
     1153
280
     0
281
     0
  0
CLASS
  1
SUN
  2
AcDbSun
  3
SCENEOE
 90
     1153
280
     0
281
     0
  0
CLASS
  1
ACDBPLACEHOLDER
  2
AcDbPlaceHolder
  3
ObjectDBX Classes
 90
        0
280
     0
281
     0
  0
CLASS
  1
LAYOUT
  2
AcDbLayout
  3
ObjectDBX Classes
 90
        0
280
     0
281
     0
  0
CLASS
  1
TABLESTYLE
  2
AcDbTableStyle
  3
ObjectDBX Classes
 90
     4095
280
     0
281
     0
  0
CLASS
  1
MLEADERSTYLE
  2
AcDbMLeaderStyle
  3
ACDB_MLEADERSTYLE_CLASS
 90
     4095
280
     0
281
     0
  0
CLASS
  1
RASTERVARIABLES
  2
AcDbRasterVariables
  3
ISM
 90
        0
280
     0
281
     0
  0
ENDSEC
  0
SECTION
  2
TABLES
  0
TABLE
  2
VPORT
  5
8
330
0
100
AcDbSymbolTable
 70
     1
  0
VPORT
  5
29
330
8
100
AcDbSymbolTableRecord
100
AcDbViewportTableRecord
  2
*Active
 70
     0
 10
0.0
 20
0.0
 11
1.0
 21
1.0
 12
-17.43056444371251
 22
-8.40366100992258
 13
0.0
 23
0.0
 14
10.0
 24
10.0
 15
10.0
 25
10.0
 16
0.0
 26
0.0
 36
1.0
 17
0.0
 27
0.0
 37
0.0
 40
205.7535255515412
 41
1.152454780361757
 42
50.0
 43
0.0
 44
0.0
 50
0.0
 51
0.0
 71
    16
 72
  2000
 73
     1
 74
     3
 75
     0
 76
     0
 77
     0
 78
     0
281
     0
 65
     1
110
0.0
120
0.0
130
0.0
111
1.0
121
0.0
131
0.0
112
0.0
122
1.0
132
0.0
 79
     0
146
0.0
  0
ENDTAB
  0
TABLE
  2
LTYPE
  5
5
330
0
100
AcDbSymbolTable
 70
     6
  0
LTYPE
  5
14
330
5
100
AcDbSymbolTableRecord
100
AcDbLinetypeTableRecord
  2
ByBlock
 70
     0
  3

 72
    65
 73
     0
 40
0.0
  0
LTYPE
  5
15
330
5
100
AcDbSymbolTableRecord
100
AcDbLinetypeTableRecord
  2
ByLayer
 70
     0
  3

 72
    65
 73
     0
 40
0.0
  0
LTYPE
  5
16
330
5
100
AcDbSymbolTableRecord
100
AcDbLinetypeTableRecord
  2
Continuous
 70
     0
  3
Solid line
 72
    65
 73
     0
 40
0.0
  0
LTYPE
  5
6A
330
5
100
AcDbSymbolTableRecord
100
AcDbLinetypeTableRecord
  2
HIDDEN
 70
     0
  3
Hidden __ __ __ __ __ __ __ __ __ __ __ __ __ __
 72
    65
 73
     2
 40
1.905
 49
1.27
 74
     0
 49
-0.635
 74
     0
  0
LTYPE
  5
6B
330
5
100
AcDbSymbolTableRecord
100
AcDbLinetypeTableRecord
  2
PHANTOM
 70
     0
  3
Phantom ______  __  __  ______  __  __  ______
 72
    65
 73
     6
 40
12.7
 49
6.35
 74
     0
 49
-1.27
 74
     0
 49
1.27
 74
     0
 49
-1.27
 74
     0
 49
1.27
 74
     0
 49
-1.27
 74
     0
  0
LTYPE
  5
6C
330
5
100
AcDbSymbolTableRecord
100
AcDbLinetypeTableRecord
  2
CENTER
 70
     0
  3
Center ____ _ ____ _ ____ _ ____ _ ____ _ ____
 72
    65
 73
     4
 40
10.16
 49
6.35
 74
     0
 49
-1.27
 74
     0
 49
1.27
 74
     0
 49
-1.27
 74
     0
  0
LTYPE
  5
6D
330
5
100
AcDbSymbolTableRecord
100
AcDbLinetypeTableRecord
  2
CENTERX2
 70
     0
  3
Center (2x) ________  __  ________  __  _____
 72
    65
 73
     4
 40
20.32
 49
12.7
 74
     0
 49
-2.54
 74
     0
 49
2.54
 74
     0
 49
-2.54
 74
     0
  0
LTYPE
  5
6E
330
5
100
AcDbSymbolTableRecord
100
AcDbLinetypeTableRecord
  2
DOT2
 70
     0
  3
Dot (.5x) ........................................
 72
    65
 73
     2
 40
0.635
 49
0.0
 74
     0
 49
-0.635
 74
     0
  0
ENDTAB
  0
TABLE
  2
LAYER
  5
2
330
0
100
AcDbSymbolTable
 70
    17
  0
LAYER
  5
10
330
2
100
AcDbSymbolTableRecord
100
AcDbLayerTableRecord
  2
0
 70
     0
 62
     7
  6
Continuous
370
    -3
390
F
  0
LAYER
  5
6F
330
2
100
AcDbSymbolTableRecord
100
AcDbLayerTableRecord
  2
FORMAT
 70
     0
 62
     2
  6
Continuous
370
    -3
390
F
  0
LAYER
  5
70
330
2
100
AcDbSymbolTableRecord
100
AcDbLayerTableRecord
  2
외형선
 70
     0
 62
   100
  6
Continuous
370
    30
390
F
  0
LAYER
  5
71
330
2
100
AcDbSymbolTableRecord
100
AcDbLayerTableRecord
  2
숨은선
 70
     0
 62
     2
  6
HIDDEN
370
    15
390
F
  0
LAYER
  5
72
330
2
100
AcDbSymbolTableRecord
100
AcDbLayerTableRecord
  2
중심선
 70
     0
 62
     1
  6
CENTERX2
370
    -3
390
F
  0
LAYER
  5
73
330
2
100
AcDbSymbolTableRecord
100
AcDbLayerTableRecord
  2
파단선
 70
     0
 62
     4
  6
Continuous
370
    -3
390
F
  0
LAYER
  5
74
330
2
100
AcDbSymbolTableRecord
100
AcDbLayerTableRecord
  2
해칭선
 70
     0
 62
     4
  6
Continuous
370
    -3
390
F
  0
LAYER
  5
75
330
2
100
AcDbSymbolTableRecord
100
AcDbLayerTableRecord
  2
가는실선
 70
     0
 62
     4
  6
Continuous
370
    -3
390
F
  0
LAYER
  5
76
330
2
100
AcDbSymbolTableRecord
100
AcDbLayerTableRecord
  2
치수_보조선
 70
     0
 62
     4
  6
Continuous
370
    -3
390
F
  0
LAYER
  5
77
330
2
100
AcDbSymbolTableRecord
100
AcDbLayerTableRecord
  2
치수문자_일반주서
 70
     0
 62
     7
  6
Continuous
370
    15
390
F
  0
LAYER
  5
78
330
2
100
AcDbSymbolTableRecord
100
AcDbLayerTableRecord
  2
개별주서
 70
     0
 62
   100
  6
Continuous
370
    30
390
F
  0
LAYER
  5
79
330
2
100
AcDbSymbolTableRecord
100
AcDbLayerTableRecord
  2
중간선
 70
     0
 62
     2
  6
Continuous
370
    15
390
F
  0
LAYER
  5
7A
330
2
100
AcDbSymbolTableRecord
100
AcDbLayerTableRecord
  2
윤곽선
 70
     0
 62
     3
  6
Continuous
370
    40
390
F
  0
LAYER
  5
7B
330
2
100
AcDbSymbolTableRecord
100
AcDbLayerTableRecord
  2
중심마크
 70
     0
 62
   100
  6
Continuous
370
    30
390
F
  0
LAYER
  5
7C
330
2
100
AcDbSymbolTableRecord
100
AcDbLayerTableRecord
  2
가상선
 70
     0
 62
     4
  6
PHANTOM
370
    -3
390
F
  0
LAYER
  5
7D
330
2
100
AcDbSymbolTableRecord
100
AcDbLayerTableRecord
  2
특수지정선
 70
     0
 62
     5
  6
CENTERX2
370
    60
390
F
  0
LAYER
  5
135
330
2
100
AcDbSymbolTableRecord
100
AcDbLayerTableRecord
  2
Defpoints
 70
     0
 62
     7
  6
Continuous
290
     0
370
    -3
390
F
  0
ENDTAB
  0
TABLE
  2
STYLE
  5
3
330
0
100
AcDbSymbolTable
 70
     2
  0
STYLE
  5
11
330
3
100
AcDbSymbolTableRecord
100
AcDbTextStyleTableRecord
  2
Standard
 70
     0
 40
0.0
 41
1.0
 50
0.0
 71
     0
 42
3.5
  3
txt
  4

  0
STYLE
  5
93
330
3
100
AcDbSymbolTableRecord
100
AcDbTextStyleTableRecord
  2
SLDTEXTSTYLE0
 70
     0
 40
0.0
 41
0.75
 50
0.0
 71
     0
 42
3.5
  3
TXT
  4

  0
ENDTAB
  0
TABLE
  2
VIEW
  5
6
330
0
100
AcDbSymbolTable
 70
     0
  0
ENDTAB
  0
TABLE
  2
UCS
  5
7
330
0
100
AcDbSymbolTable
 70
     0
  0
ENDTAB
  0
TABLE
  2
APPID
  5
9
330
0
100
AcDbSymbolTable
 70
     1
  0
APPID
  5
12
330
9
100
AcDbSymbolTableRecord
100
AcDbRegAppTableRecord
  2
ACAD
 70
     0
  0
ENDTAB
  0
TABLE
  2
DIMSTYLE
  5
A
330
0
100
AcDbSymbolTable
 70
     3
100
AcDbDimStyleTable
  0
DIMSTYLE
105
27
330
A
100
AcDbSymbolTableRecord
100
AcDbDimStyleTableRecord
  2
ISO-25
 70
     0
 41
2.5
 42
0.625
 43
3.75
 44
1.25
 73
     0
 74
     0
 77
     1
 78
     8
140
2.5
141
2.5
143
0.03937007874016
147
0.625
171
     3
172
     1
178
     0
271
     2
272
     2
274
     3
278
    44
283
     0
284
     8
340
11
  0
DIMSTYLE
105
DB
102
{ACAD_REACTORS
330
DA
330
FD
102
}
330
A
100
AcDbSymbolTableRecord
100
AcDbDimStyleTableRecord
  2
SLDDIMSTYLE0
 70
     0
 41
3.302
 44
0.0
 45
0.000000001
 73
     0
 74
     0
 77
     1
 78
    12
 79
     3
140
3.5
147
0.875
172
     1
173
     1
178
     0
271
     2
272
     2
276
     2
284
    12
289
     0
340
93
  0
DIMSTYLE
105
E9
102
{ACAD_REACTORS
330
E8
330
F3
102
}
330
A
100
AcDbSymbolTableRecord
100
AcDbDimStyleTableRecord
  2
SLDDIMSTYLE1
 70
     0
 41
3.302
 44
0.0
 45
0.000000001
 73
     0
 74
     0
 77
     1
 78
    12
 79
     3
140
3.5
147
0.875
173
     1
178
     0
271
     2
272
     2
276
     2
284
    12
340
93
  0
ENDTAB
  0
TABLE
  2
BLOCK_RECORD
  5
1
330
0
100
AcDbSymbolTable
 70
     7
  0
BLOCK_RECORD
  5
1F
330
1
100
AcDbSymbolTableRecord
100
AcDbBlockTableRecord
  2
*Model_Space
340
22
  0
BLOCK_RECORD
  5
1B
330
1
100
AcDbSymbolTableRecord
100
AcDbBlockTableRecord
  2
*Paper_Space
340
1E
  0
BLOCK_RECORD
  5
23
330
1
100
AcDbSymbolTableRecord
100
AcDbBlockTableRecord
  2
*Paper_Space0
340
26
  0
BLOCK_RECORD
  5
7E
330
1
100
AcDbSymbolTableRecord
100
AcDbBlockTableRecord
  2
블럭10
340
0
102
{BLKREFS
331
D3
102
}
  0
BLOCK_RECORD
  5
DC
330
1
100
AcDbSymbolTableRecord
100
AcDbBlockTableRecord
  2
_D
340
0
  0
BLOCK_RECORD
  5
EA
330
1
100
AcDbSymbolTableRecord
100
AcDbBlockTableRecord
  2
_D_1
340
0
  0
BLOCK_RECORD
  5
F4
330
1
100
AcDbSymbolTableRecord
100
AcDbBlockTableRecord
  2
_D_2
340
0
  0
BLOCK_RECORD
  5
FE
330
1
100
AcDbSymbolTableRecord
100
AcDbBlockTableRecord
  2
_D_3
340
0
  0
BLOCK_RECORD
  5
10A
330
1
100
AcDbSymbolTableRecord
100
AcDbBlockTableRecord
  2
SW_DOWELSYMBOL_0
340
0
102
{BLKREFS
331
110
102
}
  0
ENDTAB
  0
ENDSEC
  0
SECTION
  2
BLOCKS
  0
BLOCK
  5
20
330
1F
100
AcDbEntity
  8
0
100
AcDbBlockBegin
  2
*Model_Space
 70
     0
 10
0.0
 20
0.0
 30
0.0
  3
*Model_Space
  1

  0
ENDBLK
  5
21
330
1F
100
AcDbEntity
  8
0
100
AcDbBlockEnd
  0
BLOCK
  5
1C
330
1B
100
AcDbEntity
 67
     1
  8
0
100
AcDbBlockBegin
  2
*Paper_Space
 70
     0
 10
0.0
 20
0.0
 30
0.0
  3
*Paper_Space
  1

  0
ENDBLK
  5
1D
330
1B
100
AcDbEntity
 67
     1
  8
0
100
AcDbBlockEnd
  0
BLOCK
  5
24
330
23
100
AcDbEntity
  8
0
100
AcDbBlockBegin
  2
*Paper_Space0
 70
     0
 10
0.0
 20
0.0
 30
0.0
  3
*Paper_Space0
  1

  0
ENDBLK
  5
25
330
23
100
AcDbEntity
  8
0
100
AcDbBlockEnd
  0
BLOCK
  5
7F
330
7E
100
AcDbEntity
  8
0
100
AcDbBlockBegin
  2
블럭10
 70
     2
 10
0.0
 20
0.0
 30
0.0
  3
블럭10
  1

  0
ELLIPSE
  5
81
330
7E
100
AcDbEntity
  8
중심선
100
AcDbEllipse
 10
20.54032771741204
 20
12.0471743016438
 30
0.0
 11
6.600054785286829
 21
-1.261213355974178E-13
 31
0.0
210
0.0
220
0.0
230
1.0
 40
0.636358354079598
 41
0.9219305317359503
 42
6.513795318482858
  0
ELLIPSE
  5
82
330
7E
100
AcDbEntity
  8
중심선
100
AcDbEllipse
 10
20.54032771746488
 20
12.04717430159265
 30
0.0
 11
3.960054785062283
 21
1.540847449632565E-10
 31
0.0
210
0.0
220
0.0
230
1.0
 40
0.3939339440162632
 41
1.131841032648279
 42
5.62031148352944
  0
LINE
  5
83
330
7E
100
AcDbEntity
  8
중심선
100
AcDbLine
 10
2.268634060543552
 20
16.24717430164393
 30
0.0
 11
5.714909304380834
 21
16.24717430164393
 31
0.0
  0
LINE
  5
84
330
7E
100
AcDbEntity
  8
중심선
100
AcDbLine
 10
5.245725140726316
 20
7.84717430164391
 30
0.0
 11
8.692000384563599
 21
7.84717430164391
 31
0.0
  0
LINE
  5
85
330
7E
100
AcDbEntity
  8
중심선
100
AcDbLine
 10
15.74043728645272
 20
16.24717430164393
 30
0.0
 11
8.692000384563599
 21
7.84717430164391
 31
0.0
  0
LINE
  5
86
330
7E
100
AcDbEntity
  8
중심선
100
AcDbLine
 10
0.1404042013395286
 20
13.71084872107135
 30
0.0
 11
3.58671253028996
 21
13.71088815037384
 31
0.0
  0
LINE
  5
87
330
7E
100
AcDbEntity
  8
중심선
100
AcDbLine
 10
2.750260043222114
 20
10.84717430164391
 30
0.0
 11
6.196535287059397
 21
10.84717430164391
 31
0.0
  0
LINE
  5
88
330
7E
100
AcDbEntity
  8
중심선
100
AcDbLine
 10
12.29416204261559
 20
16.24717430164393
 30
0.0
 11
5.245725140726316
 21
7.84717430164391
 31
0.0
  0
LINE
  5
89
330
7E
100
AcDbEntity
  8
중심선
100
AcDbLine
 10
10.72767329541681
 20
16.24717430164393
 30
0.0
 11
6.196535287059397
 21
10.84717430164391
 31
0.0
  0
LINE
  5
8A
330
7E
100
AcDbEntity
  8
중심선
100
AcDbLine
 10
7.28139805157953
 20
16.24717430164393
 30
0.0
 11
2.750260043222114
 21
10.84717430164391
 31
0.0
  0
LINE
  5
8B
330
7E
100
AcDbEntity
  8
중심선
100
AcDbLine
 10
5.714909304380834
 20
16.24717430164393
 30
0.0
 11
3.58671253028996
 21
13.71088815037384
 31
0.0
  0
LINE
  5
8C
330
7E
100
AcDbEntity
  8
중심선
100
AcDbLine
 10
2.268634060543552
 20
16.24717430164393
 30
0.0
 11
0.1404042013395286
 21
13.71084872107135
 31
0.0
  0
LINE
  5
8D
330
7E
100
AcDbEntity
  8
중심선
100
AcDbLine
 10
7.28139805157953
 20
16.24717430164393
 30
0.0
 11
10.72767329541681
 21
16.24717430164393
 31
0.0
  0
LINE
  5
8E
330
7E
100
AcDbEntity
  8
중심선
100
AcDbLine
 10
12.29416204261559
 20
16.24717430164393
 30
0.0
 11
15.74043728645272
 21
16.24717430164393
 31
0.0
  0
LINE
  5
8F
330
7E
100
AcDbEntity
  8
중심선
100
AcDbLine
 10
19.22036997980202
 20
11.08717430171403
 30
0.0
 11
23.66174974927406
 21
11.08717430171406
 31
0.0
  0
LINE
  5
90
330
7E
100
AcDbEntity
  8
중심선
100
AcDbLine
 10
19.22039502424796
 20
13.00717430171391
 30
0.0
 11
19.22036997980202
 21
11.08717430171403
 31
0.0
  0
LINE
  5
91
330
7E
100
AcDbEntity
  8
중심선
100
AcDbLine
 10
19.22039502424796
 20
13.00717430171391
 30
0.0
 11
26.96566020931264
 21
13.00717430171391
 31
0.0
  0
LINE
  5
92
330
7E
100
AcDbEntity
  8
중심선
100
AcDbLine
 10
22.22332737316547
 20
13.45928029700563
 30
0.0
 11
24.52862924686651
 21
15.39360700705356
 31
0.0
  0
ATTDEF
  5
94
330
7E
100
AcDbEntity
  8
FORMAT
 62
     2
100
AcDbText
 10
-20.85824753159254
 20
2.075366912832191
 30
0.0
 40
4.233333333333333
  1
SEME7016070200E [ 2 FLUTE ]
 41
0.75
  7
SLDTEXTSTYLE0
 11
-20.85824753159254
 21
-0.0412997538344756
 31
0.0
100
AcDbAttributeDefinition
  3

  2
AUTOATTR0
 70
     0
 74
     1
  0
ENDBLK
  5
80
330
7E
100
AcDbEntity
  8
0
100
AcDbBlockEnd
  0
BLOCK
  5
DD
330
DC
100
AcDbEntity
  8
0
100
AcDbBlockBegin
  2
_D
 70
     0
 10
0.0
 20
0.0
 30
0.0
  3
_D
  1

  0
LINE
  5
DF
330
DC
100
AcDbEntity
  8
치수문자_일반주서
 62
     0
370
    -2
100
AcDbLine
 10
82.06249999999957
 20
-7.999999999999734
 30
0.0
 11
98.25519736911032
 21
-7.999999999999673
 31
0.0
  0
LINE
  5
E0
330
DC
100
AcDbEntity
  8
치수문자_일반주서
 62
     0
370
    -2
100
AcDbLine
 10
82.06249999999957
 20
8.000000000000256
 30
0.0
 11
98.25519736911026
 21
8.000000000000316
 31
0.0
  0
LINE
  5
E1
330
DC
100
AcDbEntity
  8
치수문자_일반주서
 62
     0
370
    -2
100
AcDbLine
 10
98.25519736911032
 20
-7.999999999999673
 30
0.0
 11
98.2551973691102
 21
22.47900000000033
 31
0.0
  0
LINE
  5
E2
330
DC
100
AcDbEntity
  8
치수문자_일반주서
 62
     0
370
    -2
100
AcDbLine
 10
98.25519736911032
 20
-7.999999999999673
 30
0.0
 11
98.25519736911026
 21
8.000000000000316
 31
0.0
  0
LINE
  5
E3
330
DC
100
AcDbEntity
  8
치수문자_일반주서
 62
     0
370
    -2
100
AcDbLine
 10
98.25519736911033
 20
-11.30199999999967
 30
0.0
 11
98.25519736911035
 21
-14.60399999999967
 31
0.0
  0
LINE
  5
E4
330
DC
100
AcDbEntity
  8
치수문자_일반주서
 62
     0
370
    -2
100
AcDbLine
 10
98.25519736911025
 20
11.30200000000032
 30
0.0
 11
98.25519736911023
 21
14.60400000000032
 31
0.0
  0
SOLID
  5
E5
330
DC
100
AcDbEntity
  8
치수문자_일반주서
 62
     0
100
AcDbTrace
 10
98.80553070244366
 20
-11.30199999999967
 30
0.0
 11
97.704864035777
 21
-11.30199999999967
 31
0.0
 12
98.25519736911032
 22
-7.999999999999673
 32
0.0
 13
98.25519736911032
 23
-7.999999999999673
 33
0.0
  0
SOLID
  5
E6
330
DC
100
AcDbEntity
  8
치수문자_일반주서
 62
     0
100
AcDbTrace
 10
97.70486403577692
 20
11.30200000000031
 30
0.0
 11
98.80553070244358
 21
11.30200000000032
 31
0.0
 12
98.25519736911026
 22
8.000000000000316
 32
0.0
 13
98.25519736911026
 23
8.000000000000316
 33
0.0
  0
MTEXT
  5
E7
330
DC
100
AcDbEntity
  8
치수문자_일반주서
 62
     0
100
AcDbMText
 10
93.88019736911022
 20
18.54150000000031
 30
0.0
 40
3.5
 41
0.0
 71
     2
 72
     1
  1
\A1;%%c16
  7
SLDTEXTSTYLE0
 11
-3.552713678800503E-15
 21
1.0
 31
0.0
 73
     1
 44
1.0
  0
POINT
  5
13F
330
DC
100
AcDbEntity
  8
Defpoints
 62
     0
100
AcDbPoint
 10
81.99999999999957
 20
-7.999999999999734
 30
0.0
  0
POINT
  5
140
330
DC
100
AcDbEntity
  8
Defpoints
 62
     0
100
AcDbPoint
 10
81.99999999999957
 20
8.000000000000256
 30
0.0
  0
POINT
  5
141
330
DC
100
AcDbEntity
  8
Defpoints
 62
     0
100
AcDbPoint
 10
98.25519736911026
 20
8.000000000000316
 30
0.0
  0
ENDBLK
  5
DE
330
DC
100
AcDbEntity
  8
0
100
AcDbBlockEnd
  0
BLOCK
  5
EB
330
EA
100
AcDbEntity
  8
0
100
AcDbBlockBegin
  2
_D_1
 70
     0
 10
0.0
 20
0.0
 30
0.0
  3
_D_1
  1

  0
LINE
  5
ED
330
EA
100
AcDbEntity
  8
치수문자_일반주서
 62
     0
370
    -2
100
AcDbLine
 10
-118.0
 20
7.062499999999992
 30
0.0
 11
-118.0
 21
28.78841044024269
 31
0.0
  0
LINE
  5
EE
330
EA
100
AcDbEntity
  8
치수문자_일반주서
 62
     0
370
    -2
100
AcDbLine
 10
82.00000000000006
 20
8.06250000000026
 30
0.0
 11
82.00000000000006
 21
28.78841044024269
 31
0.0
  0
LINE
  5
EF
330
EA
100
AcDbEntity
  8
치수문자_일반주서
 62
     0
370
    -2
100
AcDbLine
 10
-114.698
 20
28.78841044024269
 30
0.0
 11
78.69800000000006
 21
28.78841044024269
 31
0.0
  0
SOLID
  5
F0
330
EA
100
AcDbEntity
  8
치수문자_일반주서
 62
     0
100
AcDbTrace
 10
-114.698
 20
29.33874377357602
 30
0.0
 11
-114.698
 21
28.23807710690935
 31
0.0
 12
-118.0
 22
28.78841044024269
 32
0.0
 13
-118.0
 23
28.78841044024269
 33
0.0
  0
SOLID
  5
F1
330
EA
100
AcDbEntity
  8
치수문자_일반주서
 62
     0
100
AcDbTrace
 10
78.69800000000006
 20
28.23807710690935
 30
0.0
 11
78.69800000000006
 21
29.33874377357602
 31
0.0
 12
82.00000000000006
 22
28.78841044024269
 32
0.0
 13
82.00000000000006
 23
28.78841044024269
 33
0.0
  0
MTEXT
  5
F2
330
EA
100
AcDbEntity
  8
치수문자_일반주서
 62
     0
100
AcDbMText
 10
-17.99999999999996
 20
33.16341044024269
 30
0.0
 40
3.5
 41
0.0
 71
     2
 72
     1
  1
\A1;200
  7
SLDTEXTSTYLE0
 73
     1
 44
1.0
  0
POINT
  5
136
330
EA
100
AcDbEntity
  8
Defpoints
 62
     0
100
AcDbPoint
 10
-118.0
 20
6.999999999999992
 30
0.0
  0
POINT
  5
137
330
EA
100
AcDbEntity
  8
Defpoints
 62
     0
100
AcDbPoint
 10
82.00000000000006
 20
8.00000000000026
 30
0.0
  0
POINT
  5
138
330
EA
100
AcDbEntity
  8
Defpoints
 62
     0
100
AcDbPoint
 10
82.00000000000006
 20
28.78841044024269
 30
0.0
  0
ENDBLK
  5
EC
330
EA
100
AcDbEntity
  8
0
100
AcDbBlockEnd
  0
BLOCK
  5
F5
330
F4
100
AcDbEntity
  8
0
100
AcDbBlockBegin
  2
_D_2
 70
     0
 10
0.0
 20
0.0
 30
0.0
  3
_D_2
  1

  0
LINE
  5
F7
330
F4
100
AcDbEntity
  8
치수문자_일반주서
 62
     0
370
    -2
100
AcDbLine
 10
12.00000000000003
 20
6.316418263706757
 30
0.0
 11
12.00000000000003
 21
19.60091606987428
 31
0.0
  0
LINE
  5
F8
330
F4
100
AcDbEntity
  8
치수문자_일반주서
 62
     0
370
    -2
100
AcDbLine
 10
82.00000000000006
 20
8.06250000000026
 30
0.0
 11
82.00000000000006
 21
19.60091606987428
 31
0.0
  0
LINE
  5
F9
330
F4
100
AcDbEntity
  8
치수문자_일반주서
 62
     0
370
    -2
100
AcDbLine
 10
15.30200000000003
 20
19.60091606987428
 30
0.0
 11
78.69800000000006
 21
19.60091606987428
 31
0.0
  0
SOLID
  5
FA
330
F4
100
AcDbEntity
  8
치수문자_일반주서
 62
     0
100
AcDbTrace
 10
15.30200000000003
 20
20.15124940320761
 30
0.0
 11
15.30200000000003
 21
19.05058273654094
 31
0.0
 12
12.00000000000003
 22
19.60091606987428
 32
0.0
 13
12.00000000000003
 23
19.60091606987428
 33
0.0
  0
SOLID
  5
FB
330
F4
100
AcDbEntity
  8
치수문자_일반주서
 62
     0
100
AcDbTrace
 10
78.69800000000006
 20
19.05058273654094
 30
0.0
 11
78.69800000000006
 21
20.15124940320761
 31
0.0
 12
82.00000000000006
 22
19.60091606987428
 32
0.0
 13
82.00000000000006
 23
19.60091606987428
 33
0.0
  0
MTEXT
  5
FC
330
F4
100
AcDbEntity
  8
치수문자_일반주서
 62
     0
100
AcDbMText
 10
47.00000000000003
 20
23.97591606987428
 30
0.0
 40
3.5
 41
0.0
 71
     2
 72
     1
  1
\A1;70
  7
SLDTEXTSTYLE0
 73
     1
 44
1.0
  0
POINT
  5
139
330
F4
100
AcDbEntity
  8
Defpoints
 62
     0
100
AcDbPoint
 10
12.00000000000003
 20
6.253918263706757
 30
0.0
  0
POINT
  5
13A
330
F4
100
AcDbEntity
  8
Defpoints
 62
     0
100
AcDbPoint
 10
82.00000000000006
 20
8.00000000000026
 30
0.0
  0
POINT
  5
13B
330
F4
100
AcDbEntity
  8
Defpoints
 62
     0
100
AcDbPoint
 10
82.00000000000006
 20
19.60091606987428
 30
0.0
  0
ENDBLK
  5
F6
330
F4
100
AcDbEntity
  8
0
100
AcDbBlockEnd
  0
BLOCK
  5
FF
330
FE
100
AcDbEntity
  8
0
100
AcDbBlockBegin
  2
_D_3
 70
     0
 10
0.0
 20
0.0
 30
0.0
  3
_D_3
  1

  0
LINE
  5
101
330
FE
100
AcDbEntity
  8
치수문자_일반주서
 62
     0
370
    -2
100
AcDbLine
 10
-117.0625
 20
7.99999999999999
 30
0.0
 11
-129.2916595898687
 21
7.999999999999943
 31
0.0
  0
LINE
  5
102
330
FE
100
AcDbEntity
  8
치수문자_일반주서
 62
     0
370
    -2
100
AcDbLine
 10
-117.0625
 20
-7.999999999999999
 30
0.0
 11
-129.2916595898686
 21
-8.000000000000046
 31
0.0
  0
LINE
  5
103
330
FE
100
AcDbEntity
  8
치수문자_일반주서
 62
     0
370
    -2
100
AcDbLine
 10
-129.2916595898687
 20
7.999999999999943
 30
0.0
 11
-129.2916595898687
 21
22.47899999999994
 31
0.0
  0
LINE
  5
104
330
FE
100
AcDbEntity
  8
치수문자_일반주서
 62
     0
370
    -2
100
AcDbLine
 10
-129.2916595898687
 20
7.999999999999943
 30
0.0
 11
-129.2916595898686
 21
-8.000000000000046
 31
0.0
  0
LINE
  5
105
330
FE
100
AcDbEntity
  8
치수문자_일반주서
 62
     0
370
    -2
100
AcDbLine
 10
-129.2916595898687
 20
11.30199999999994
 30
0.0
 11
-129.2916595898687
 21
14.60399999999994
 31
0.0
  0
LINE
  5
106
330
FE
100
AcDbEntity
  8
치수문자_일반주서
 62
     0
370
    -2
100
AcDbLine
 10
-129.2916595898686
 20
-11.30200000000005
 30
0.0
 11
-129.2916595898686
 21
-14.60400000000005
 31
0.0
  0
SOLID
  5
107
330
FE
100
AcDbEntity
  8
치수문자_일반주서
 62
     0
100
AcDbTrace
 10
-129.841992923202
 20
11.30199999999994
 30
0.0
 11
-128.7413262565353
 21
11.30199999999994
 31
0.0
 12
-129.2916595898687
 22
7.999999999999943
 32
0.0
 13
-129.2916595898687
 23
7.999999999999943
 33
0.0
  0
SOLID
  5
108
330
FE
100
AcDbEntity
  8
치수문자_일반주서
 62
     0
100
AcDbTrace
 10
-128.7413262565353
 20
-11.30200000000004
 30
0.0
 11
-129.8419929232019
 21
-11.30200000000005
 31
0.0
 12
-129.2916595898686
 22
-8.000000000000046
 32
0.0
 13
-129.2916595898686
 23
-8.000000000000046
 33
0.0
  0
MTEXT
  5
109
330
FE
100
AcDbEntity
  8
치수문자_일반주서
 62
     0
100
AcDbMText
 10
-133.6666595898687
 20
18.54149999999992
 30
0.0
 40
3.5
 41
0.0
 71
     2
 72
     1
  1
\A1;%%c16
  7
SLDTEXTSTYLE0
 11
-3.552713678800503E-15
 21
1.0
 31
0.0
 73
     1
 44
1.0
  0
POINT
  5
13C
330
FE
100
AcDbEntity
  8
Defpoints
 62
     0
100
AcDbPoint
 10
-117.0
 20
7.99999999999999
 30
0.0
  0
POINT
  5
13D
330
FE
100
AcDbEntity
  8
Defpoints
 62
     0
100
AcDbPoint
 10
-117.0
 20
-7.999999999999999
 30
0.0
  0
POINT
  5
13E
330
FE
100
AcDbEntity
  8
Defpoints
 62
     0
100
AcDbPoint
 10
-129.2916595898686
 20
-8.000000000000044
 30
0.0
  0
ENDBLK
  5
100
330
FE
100
AcDbEntity
  8
0
100
AcDbBlockEnd
  0
BLOCK
  5
10B
330
10A
100
AcDbEntity
  8
0
100
AcDbBlockBegin
  2
SW_DOWELSYMBOL_0
 70
     0
 10
0.0
 20
0.0
 30
0.0
  3
SW_DOWELSYMBOL_0
  1

  0
CIRCLE
  5
10D
330
10A
100
AcDbEntity
  8
외형선
 62
     0
100
AcDbCircle
 10
0.0
 20
0.0
 30
0.0
 40
3.000000000000004
  0
HATCH
  5
10E
330
10A
100
AcDbEntity
  8
0
  6
Continuous
 62
     0
370
    30
100
AcDbHatch
 10
0.0
 20
0.0
 30
0.0
210
0.0
220
0.0
230
1.0
  2
SOLID
 70
     1
 71
     0
 91
        1
 92
        0
 93
        3
 72
     2
 10
0.0000000000000104
 20
0.0
 40
3.000000000000004
 50
0.0
 51
90.0
 73
     1
 72
     1
 10
0.0000000000000104
 20
3.000000000000004
 11
0.0000000000000104
 21
0.0
 72
     1
 10
0.0000000000000104
 20
0.0
 11
3.000000000000015
 21
0.0
 97
        0
 75
     0
 76
     1
 98
        1
 10
0.0
 20
0.0
  0
HATCH
  5
10F
330
10A
100
AcDbEntity
  8
0
  6
Continuous
 62
     0
370
    30
100
AcDbHatch
 10
0.0
 20
0.0
 30
0.0
210
0.0
220
0.0
230
1.0
  2
SOLID
 70
     1
 71
     0
 91
        1
 92
        0
 93
        3
 72
     2
 10
0.0000000000000104
 20
0.0
 40
3.000000000000004
 50
180.0
 51
270.0000000000008
 73
     1
 72
     1
 10
0.0000000000000104
 20
-3.000000000000004
 11
0.0000000000000104
 21
0.0
 72
     1
 10
0.0000000000000104
 20
0.0
 11
-2.999999999999994
 21
0.0
 97
        0
 75
     0
 76
     1
 98
        1
 10
0.0
 20
0.0
  0
ENDBLK
  5
10C
330
10A
100
AcDbEntity
  8
0
100
AcDbBlockEnd
  0
ENDSEC
  0
SECTION
  2
ENTITIES
  0
LINE
  5
95
330
1F
100
AcDbEntity
  8
0
  6
Continuous
 62
     1
370
    15
100
AcDbLine
 10
59.13086135712189
 20
3.121020228753741
 30
0.0
 11
59.05509624780669
 21
3.159979934507684
 31
0.0
  0
SPLINE
  5
96
330
1F
100
AcDbEntity
  8
0
  6
Continuous
 62
     1
370
    15
100
AcDbSpline
210
0.0
220
0.0
230
1.0
 70
     8
 71
     3
 72
     9
 73
     5
 74
     0
 42
0.000000001
 43
0.00000001
 40
0.0
 40
0.0
 40
0.0
 40
0.0
 40
0.4545615287387412
 40
1.0
 40
1.0
 40
1.0
 40
1.0
 10
61.273344419259
 20
2.049967171518947
 30
0.0
 10
60.94830665620275
 20
2.204569161656618
 30
0.0
 10
60.23324886422874
 20
2.544681512489828
 30
0.0
 10
59.5199318816334
 20
2.917610443004644
 30
0.0
 10
59.13086135712189
 20
3.121020228753741
 30
0.0
  0
SPLINE
  5
97
330
1F
100
AcDbEntity
  8
0
  6
Continuous
 62
     1
370
    15
100
AcDbSpline
210
0.0
220
0.0
230
1.0
 70
     8
 71
     3
 72
     9
 73
     5
 74
     0
 42
0.000000001
 43
0.00000001
 40
0.0
 40
0.0
 40
0.0
 40
0.0
 40
0.4378284431427678
 40
1.0
 40
1.0
 40
1.0
 40
1.0
 10
17.74224425117085
 20
2.049927651057295
 30
0.0
 10
17.41836662485591
 20
2.204042191197518
 30
0.0
 10
16.67863024777148
 20
2.556039743101586
 30
0.0
 10
15.93965097680852
 20
2.942538876365007
 30
0.0
 10
15.52421784956604
 20
3.159817695835675
 30
0.0
  0
LINE
  5
98
330
1F
100
AcDbEntity
  8
0
  6
Continuous
 62
     1
370
    15
100
AcDbLine
 10
42.91459635205611
 20
8.00000000000001
 30
0.0
 11
39.03926060571081
 21
8.00000000000001
 31
0.0
  0
LINE
  5
99
330
1F
100
AcDbEntity
  8
0
  6
Continuous
 62
     1
370
    15
100
AcDbLine
 10
39.03926060571082
 20
-8.000000000000004
 30
0.0
 11
42.91459635205609
 21
-8.000000000000004
 31
0.0
  0
SPLINE
  5
9A
330
1F
100
AcDbEntity
  8
0
  6
Continuous
 62
     1
370
    15
100
AcDbSpline
210
0.0
220
0.0
230
1.0
 70
     8
 71
     3
 72
    25
 73
    21
 74
     0
 42
0.000000001
 43
0.00000001
 40
0.0
 40
0.0
 40
0.0
 40
0.0
 40
0.0743067132472912
 40
0.1350866177910307
 40
0.2081293163498489
 40
0.251723811068324
 40
0.2960649722437919
 40
0.3411419287409328
 40
0.3842013487826318
 40
0.426895467951264
 40
0.4731168446833169
 40
0.5230507070872036
 40
0.5820602937929573
 40
0.6421783883168862
 40
0.7005635493673544
 40
0.7565316786543095
 40
0.8081639616562889
 40
0.8544139884083931
 40
0.91373787058459
 40
0.9999999999999999
 40
0.9999999999999999
 40
0.9999999999999999
 40
0.9999999999999999
 10
46.59734006455218
 20
-6.657095568065794
 30
0.0
 10
46.89668861769633
 20
-6.627942587288443
 30
0.0
 10
47.44089225445663
 20
-6.574943640091939
 30
0.0
 10
48.27772374752624
 20
-6.503840858768785
 30
0.0
 10
48.99014995636855
 20
-6.449675411656307
 30
0.0
 10
49.62944215733746
 20
-6.406547574835582
 30
0.0
 10
50.16195504209854
 20
-6.374146355021105
 30
0.0
 10
50.69371272349487
 20
-6.345462609290018
 30
0.0
 10
51.21855961497901
 20
-6.320695021348664
 30
0.0
 10
51.74804688815109
 20
-6.299200997869514
 30
0.0
 10
52.30481156717983
 20
-6.280410420579904
 30
0.0
 10
52.92717872618975
 20
-6.264216099539811
 30
0.0
 10
53.60544500734032
 20
-6.252451216483875
 30
0.0
 10
54.31712914721497
 20
-6.246829306270747
 30
0.0
 10
55.01892300066557
 20
-6.24795834283637
 30
0.0
 10
55.69060392883715
 20
-6.255129091469999
 30
0.0
 10
56.31214573986192
 20
-6.26698176706634
 30
0.0
 10
56.9424289296545
 20
-6.284245140208548
 30
0.0
 10
57.70547823442016
 20
-6.311197515857968
 30
0.0
 10
58.28524815215465
 20
-6.340021766353339
 30
0.0
 10
58.62877145585686
 20
-6.357100613416675
 30
0.0
  0
SPLINE
  5
9B
330
1F
100
AcDbEntity
  8
0
  6
Continuous
 62
     1
370
    15
100
AcDbSpline
210
0.0
220
0.0
230
1.0
 70
     8
 71
     3
 72
     9
 73
     5
 74
     0
 42
0.000000001
 43
0.00000001
 40
0.0
 40
0.0
 40
0.0
 40
0.0
 40
0.4843627434062846
 40
0.9999999999999999
 40
0.9999999999999999
 40
0.9999999999999999
 40
0.9999999999999999
 10
15.09764491923207
 20
6.357103716356218
 30
0.0
 10
14.59733360648017
 20
6.332752453312033
 30
0.0
 10
13.56440669465071
 20
6.282477605843511
 30
0.0
 10
12.53222918130127
 20
6.263634480678398
 30
0.0
 10
12.00000000000003
 20
6.253918263312608
 30
0.0
  0
SPLINE
  5
9C
330
1F
100
AcDbEntity
  8
0
  6
Continuous
 62
     1
370
    15
100
AcDbSpline
210
0.0
220
0.0
230
1.0
 70
     8
 71
     3
 72
     9
 73
     5
 74
     0
 42
0.000000001
 43
0.00000001
 40
0.0
 40
0.0
 40
0.0
 40
0.0
 40
0.5156372565937154
 40
0.9999999999999999
 40
0.9999999999999999
 40
0.9999999999999999
 40
0.9999999999999999
 10
12.00000000000003
 20
-6.253918263312597
 30
0.0
 10
12.53222918130127
 20
-6.263634480678387
 30
0.0
 10
13.56440669465071
 20
-6.282477605843498
 30
0.0
 10
14.59733360648017
 20
-6.33275245331202
 30
0.0
 10
15.09764491923207
 20
-6.357103716356208
 30
0.0
  0
SPLINE
  5
9D
330
1F
100
AcDbEntity
  8
0
  6
Continuous
 62
     1
370
    15
100
AcDbSpline
210
0.0
220
0.0
230
1.0
 70
     8
 71
     3
 72
    15
 73
    11
 74
     0
 42
0.000000001
 43
0.00000001
 40
0.0
 40
0.0
 40
0.0
 40
0.0
 40
0.1771804226067243
 40
0.2910978829832905
 40
0.3921929773429889
 40
0.5059347537806297
 40
0.626742668831455
 40
0.752783941944073
 40
0.8769832815542901
 40
0.9999999999999999
 40
0.9999999999999999
 40
0.9999999999999999
 40
0.9999999999999999
 10
58.62877145585686
 20
6.357100613416693
 30
0.0
 10
58.24509859899004
 20
6.338172658040648
 30
0.0
 10
57.61474477801525
 20
6.307075047717198
 30
0.0
 10
56.76590606704518
 20
6.27864567407771
 30
0.0
 10
56.04669358141292
 20
6.260994605209064
 30
0.0
 10
55.30732410469405
 20
6.250064673550023
 30
0.0
 10
54.51684272972689
 20
6.246049501773411
 30
0.0
 10
53.70774742800334
 20
6.251193092210808
 30
0.0
 10
52.89332908777521
 20
6.263346723975274
 30
0.0
 10
52.35411630151177
 20
6.281594834787936
 30
0.0
 10
52.08579963943195
 20
6.290675242944509
 30
0.0
  0
SPLINE
  5
9E
330
1F
100
AcDbEntity
  8
0
  6
Continuous
 62
     1
370
    15
100
AcDbSpline
210
0.0
220
0.0
230
1.0
 70
     8
 71
     3
 72
    17
 73
    13
 74
     0
 42
0.000000001
 43
0.00000001
 40
0.0
 40
0.0
 40
0.0
 40
0.0
 40
0.1671783541692474
 40
0.3008646737442486
 40
0.4243249925278861
 40
0.4972081606060093
 40
0.563028493819245
 40
0.628677624708052
 40
0.698127587993495
 40
0.7765146759046933
 40
0.9861615255721283
 40
1.0
 40
1.0
 40
1.0
 40
1.0
 10
65.05305996301044
 20
-6.017025941749599
 30
0.0
 10
65.38799392455881
 20
-5.965586083834019
 30
0.0
 10
65.99076213320562
 20
-5.873011682404313
 30
0.0
 10
66.83799108683971
 20
-5.758230640862733
 30
0.0
 10
67.49626255056602
 20
-5.67660034921427
 30
0.0
 10
68.01102835966859
 20
-5.61779088730455
 30
0.0
 10
68.41414619810615
 20
-5.5742244540872
 30
0.0
 10
68.8131352876642
 20
-5.533783239467233
 30
0.0
 10
69.23861880719127
 20
-5.493546796531403
 30
0.0
 10
69.95042317430664
 20
-5.43266126387249
 30
0.0
 10
70.55134878609276
 20
-5.384706406658816
 30
0.0
 10
70.99604201300099
 20
-5.36281999181357
 30
0.0
 10
71.02357794124919
 20
-5.361464759234518
 30
0.0
  0
SPLINE
  5
9F
330
1F
100
AcDbEntity
  8
0
  6
Continuous
 62
     1
370
    15
100
AcDbSpline
210
0.0
220
0.0
230
1.0
 70
     8
 71
     3
 72
    24
 73
    20
 74
     0
 42
0.000000001
 43
0.00000001
 40
0.0
 40
0.0
 40
0.0
 40
0.0
 40
0.0708591772172011
 40
0.1275323802558147
 40
0.1798167696032627
 40
0.210869150455314
 40
0.2390112065906342
 40
0.2671216076644395
 40
0.2967829538747965
 40
0.3303277025873726
 40
0.4203150886210436
 40
0.5058362840374505
 40
0.5996065944033703
 40
0.6868829668773032
 40
0.7176548192402485
 40
0.7496466119454255
 40
0.7889794864807809
 40
0.8772823486052591
 40
0.9999999999999999
 40
0.9999999999999999
 40
0.9999999999999999
 40
0.9999999999999999
 10
35.49696775458771
 20
5.471643252663794
 30
0.0
 10
35.1641743104704
 20
5.444633973459521
 30
0.0
 10
34.56521251429101
 20
5.396022660130883
 30
0.0
 10
33.7242566632578
 20
5.345085401345321
 30
0.0
 10
33.07086106136877
 20
5.313682317919335
 30
0.0
 10
32.55927507088997
 20
5.294751265306786
 30
0.0
 10
32.15624743956791
 20
5.282762063962459
 30
0.0
 10
31.75687767270425
 20
5.273740837211625
 30
0.0
 10
31.33082067124981
 20
5.267269733688812
 30
0.0
 10
30.61693693019075
 20
5.262199941030309
 30
0.0
 10
29.64299538263108
 20
5.270886761322648
 30
0.0
 10
28.3898532094987
 20
5.30993456710735
 30
0.0
 10
27.14167035450674
 20
5.377933283805063
 30
0.0
 10
26.17335717921479
 20
5.451752645886241
 30
0.0
 10
25.47664498012983
 20
5.514704879760565
 30
0.0
 10
24.997319896655
 20
5.561898378178429
 30
0.0
 10
24.2481725609769
 20
5.642357111832475
 30
0.0
 10
23.08008566897931
 20
5.782409905475668
 30
0.0
 10
22.09469691336404
 20
5.93077850747297
 30
0.0
 10
21.52165028494287
 20
6.017061334076801
 30
0.0
  0
SPLINE
  5
A0
330
1F
100
AcDbEntity
  8
0
  6
Continuous
 62
     1
370
    15
100
AcDbSpline
210
0.0
220
0.0
230
1.0
 70
     8
 71
     3
 72
    15
 73
    11
 74
     0
 42
0.000000001
 43
0.00000001
 40
0.0
 40
0.0
 40
0.0
 40
0.0
 40
0.2144487593462748
 40
0.3621264778594777
 40
0.4468858384455086
 40
0.5211862932083248
 40
0.599399116194384
 40
0.6844858534147874
 40
0.8436213784543796
 40
1.0
 40
1.0
 40
1.0
 40
1.0
 10
21.52165028494287
 20
-6.017061334076788
 30
0.0
 10
21.95051233829263
 20
-5.951673577028216
 30
0.0
 10
22.67470540586063
 20
-5.841257278853709
 30
0.0
 10
23.56651051880449
 20
-5.725298486514499
 30
0.0
 10
24.17256129304454
 20
-5.652582515438434
 30
0.0
 10
24.64179229851433
 20
-5.599880782657214
 30
0.0
 10
25.11369285713623
 20
-5.550221355852653
 30
0.0
 10
25.75588789225971
 20
-5.488376570023855
 30
0.0
 10
26.55343504839163
 20
-5.420508812818088
 30
0.0
 10
27.18114072570165
 20
-5.380911198167095
 30
0.0
 10
27.49225117706009
 20
-5.361285389110243
 30
0.0
  0
SPLINE
  5
A1
330
1F
100
AcDbEntity
  8
0
  6
Continuous
 62
     1
370
    15
100
AcDbSpline
210
0.0
220
0.0
230
1.0
 70
     8
 71
     3
 72
    24
 73
    20
 74
     0
 42
0.000000001
 43
0.00000001
 40
0.0
 40
0.0
 40
0.0
 40
0.0
 40
0.090812281783188
 40
0.1534153001383217
 40
0.1894940623506071
 40
0.2213143341831843
 40
0.2551532552256552
 40
0.2919340530280675
 40
0.3600386462099216
 40
0.4323930701830353
 40
0.4935512882987138
 40
0.5804818690055478
 40
0.6637706853422389
 40
0.695495681375187
 40
0.7308670096396531
 40
0.7721236151340085
 40
0.830179051698102
 40
0.9063281983013868
 40
0.9999999999999999
 40
0.9999999999999999
 40
0.9999999999999999
 40
0.9999999999999999
 10
79.02796434461672
 20
5.47162703905905
 30
0.0
 10
78.60247882754197
 20
5.437661117753664
 30
0.0
 10
77.88367750436437
 20
5.380280200666027
 30
0.0
 10
76.99858074539989
 20
5.331939025903601
 30
0.0
 10
76.39578671954239
 20
5.305672259089987
 30
0.0
 10
75.9250689664535
 20
5.289334750167912
 30
0.0
 10
75.4486736383483
 20
5.27675779010648
 30
0.0
 10
74.8019351324388
 20
5.265546384369768
 30
0.0
 10
73.9763508889901
 20
5.262311866982869
 30
0.0
 10
73.0376808584808
 20
5.275691023258011
 30
0.0
 10
72.01074951400274
 20
5.307731783558356
 30
0.0
 10
70.93300525217656
 20
5.36187190692239
 30
0.0
 10
69.99244120797151
 20
5.42903046954802
 30
0.0
 10
69.29222221047065
 20
5.488748108499328
 30
0.0
 10
68.7876661895819
 20
5.535890691813593
 30
0.0
 10
68.16074617667606
 20
5.600405478874609
 30
0.0
 10
67.34432393836059
 20
5.693845883451585
 30
0.0
 10
66.28277056222873
 20
5.829800146016717
 30
0.0
 10
65.49022268341332
 20
5.950467079652943
 30
0.0
 10
65.05305996301045
 20
6.017025941749615
 30
0.0
  0
LINE
  5
A2
330
1F
100
AcDbEntity
  8
0
  6
Continuous
 62
   131
370
    15
100
AcDbLine
 10
8.949890148750221
 20
8.000000000000004
 30
0.0
 11
-117.0
 21
7.999999999999997
 31
0.0
  0
LINE
  5
A3
330
1F
100
AcDbEntity
  8
0
  6
Continuous
 62
   131
370
    15
100
AcDbLine
 10
-117.0
 20
-8.000000000000004
 30
0.0
 11
8.949890148750224
 21
-7.999999999999996
 31
0.0
  0
LINE
  5
A4
330
1F
100
AcDbEntity
  8
0
  6
Continuous
 62
   131
370
    15
100
AcDbLine
 10
-117.0
 20
7.99999999999999
 30
0.0
 11
-118.0
 21
6.999999999999991
 31
0.0
  0
LINE
  5
A5
330
1F
100
AcDbEntity
  8
0
  6
Continuous
 62
   131
370
    15
100
AcDbLine
 10
-118.0
 20
-6.999999999999998
 30
0.0
 11
-117.0
 21
-7.999999999999999
 31
0.0
  0
SPLINE
  5
A6
330
1F
100
AcDbEntity
  8
0
  6
Continuous
 62
   131
370
    15
100
AcDbSpline
210
0.0
220
0.0
230
1.0
 70
     8
 71
     3
 72
     9
 73
     5
 74
     0
 42
0.000000001
 43
0.00000001
 40
0.0
 40
0.0
 40
0.0
 40
0.0
 40
0.43665243754634
 40
1.0
 40
1.0
 40
1.0
 40
1.0
 10
12.00000000000005
 20
6.253918263312606
 30
0.0
 10
11.55329816698818
 20
6.250116270551961
 30
0.0
 10
10.53028353429312
 20
6.241409133172837
 30
0.0
 10
9.50761315668676
 20
6.26393080663046
 30
0.0
 10
8.931494292268653
 20
6.27661833647519
 30
0.0
  0
SPLINE
  5
A7
330
1F
100
AcDbEntity
  8
0
  6
Continuous
 62
   131
370
    15
100
AcDbSpline
210
0.0
220
0.0
230
1.0
 70
     8
 71
     3
 72
     9
 73
     5
 74
     0
 42
0.000000001
 43
0.00000001
 40
0.0
 40
0.0
 40
0.0
 40
0.0
 40
0.4382059616127896
 40
1.0
 40
1.0
 40
1.0
 40
1.0
 10
8.931494292268653
 20
-6.276618336475181
 30
0.0
 10
9.379629973121213
 20
-6.266183588568743
 30
0.0
 10
10.40228990956577
 20
-6.24237116057704
 30
0.0
 10
11.42528657312338
 20
-6.24976464681898
 30
0.0
 10
12.00000000000005
 20
-6.253918263312597
 30
0.0
  0
SPLINE
  5
A8
330
1F
100
AcDbEntity
  8
0
  6
Continuous
 62
     1
370
    15
100
AcDbSpline
210
0.0
220
0.0
230
1.0
 70
     8
 71
     3
 72
    20
 73
    16
 74
     0
 42
0.000000001
 43
0.00000001
 40
0.0
 40
0.0
 40
0.0
 40
0.0
 40
0.0778510705776918
 40
0.1557201572690814
 40
0.2336016797234201
 40
0.3114900248704021
 40
0.3893795616572036
 40
0.4672646558879186
 40
0.5451396850809168
 40
0.6229990532594484
 40
0.7008450491928323
 40
0.7787071951050122
 40
0.8565841416508875
 40
0.9344702878083625
 40
1.0
 40
1.0
 40
1.0
 40
1.0
 10
82.00000000000004
 20
-7.591526953855189
 30
0.0
 10
80.98578915405157
 20
-7.371377052051288
 30
0.0
 10
78.95713275583937
 20
-6.931026301865199
 30
0.0
 10
75.91367874967713
 20
-5.839761302860794
 30
0.0
 10
72.86965516136465
 20
-4.493978424762775
 30
0.0
 10
69.8253082555774
 20
-2.925140464001239
 30
0.0
 10
66.78090651768825
 20
-1.217588566911249
 30
0.0
 10
63.73671248096285
 20
0.5489611745606634
 30
0.0
 10
60.69299117215365
 20
2.28884727847357
 30
0.0
 10
57.64989802078769
 20
3.918908915295808
 30
0.0
 10
54.60715171918373
 20
5.360052164138183
 30
0.0
 10
51.5639680733624
 20
6.54629026081107
 30
0.0
 10
48.52015905115955
 20
7.40744172666434
 30
0.0
 10
45.63695235537482
 20
7.92337535013301
 30
0.0
 10
43.76838427835177
 20
7.958322585024589
 30
0.0
 10
42.91459635205611
 20
7.974290709266222
 30
0.0
  0
SPLINE
  5
A9
330
1F
100
AcDbEntity
  8
0
  6
Continuous
 62
     1
370
    15
100
AcDbSpline
210
0.0
220
0.0
230
1.0
 70
     8
 71
     3
 72
    14
 73
    10
 74
     0
 42
0.000000001
 43
0.00000001
 40
0.0
 40
0.0
 40
0.0
 40
0.0
 40
0.1463986584327409
 40
0.2928327110813262
 40
0.4392911953607578
 40
0.5857630838558008
 40
0.7322373135206861
 40
0.8787028150819394
 40
1.0
 40
1.0
 40
1.0
 40
1.0
 10
82.00000000000004
 20
-6.311778114945716
 30
0.0
 10
80.98578679420181
 20
-6.097121188455515
 30
0.0
 10
78.95711518035075
 20
-5.667755438731859
 30
0.0
 10
75.91366834330478
 20
-4.670105989401372
 30
0.0
 10
72.8696491707153
 20
-3.46992862726086
 30
0.0
 10
69.82530685084603
 20
-2.096390530696723
 30
0.0
 10
66.78091187858162
 20
-0.6263133225423859
 30
0.0
 10
63.9109524914489
 20
0.797732256040826
 30
0.0
 10
62.05586423573378
 20
1.673910322549457
 30
0.0
 10
61.21550448975334
 20
2.070821237777584
 30
0.0
  0
LINE
  5
AA
330
1F
100
AcDbEntity
  8
0
  6
Continuous
 62
     1
370
    15
100
AcDbLine
 10
82.00000000000004
 20
-7.591526953855196
 30
0.0
 11
82.00000000000004
 21
-6.311778114945716
 31
0.0
  0
SPLINE
  5
AB
330
1F
100
AcDbEntity
  8
0
  6
Continuous
 62
     1
370
    15
100
AcDbSpline
210
0.0
220
0.0
230
1.0
 70
     8
 71
     3
 72
    21
 73
    17
 74
     0
 42
0.000000001
 43
0.00000001
 40
0.0
 40
0.0
 40
0.0
 40
0.0
 40
0.0131673921248565
 40
0.0890896851121808
 40
0.1650209468076816
 40
0.2409556931465409
 40
0.3168884308744909
 40
0.392813672034955
 40
0.4687259484259913
 40
0.5446203717026787
 40
0.62052049892879
 40
0.6964048053340093
 40
0.7723003243960421
 40
0.8482016465311074
 40
0.9241033469815688
 40
1.0
 40
1.0
 40
1.0
 40
1.0
 10
52.09203107112349
 20
-6.288270151747671
 30
0.0
 10
51.91606914016241
 20
-6.357335947035901
 30
0.0
 10
50.72552260882152
 20
-6.824630449691103
 30
0.0
 10
48.52015085721852
 20
-7.397374154312818
 30
0.0
 10
45.4759172438517
 20
-7.931861883877982
 30
0.0
 10
42.43150435304422
 20
-8.058480015760358
 30
0.0
 10
39.38718999259201
 20
-7.804934773629054
 30
0.0
 10
36.34323990163979
 20
-7.174384669610031
 30
0.0
 10
33.29988823993536
 20
-6.199657183090254
 30
0.0
 10
30.25708572821988
 20
-4.926787444038909
 30
0.0
 10
27.2145743774891
 20
-3.417397662900836
 30
0.0
 10
24.17189124300845
 20
-1.744435324869067
 30
0.0
 10
21.12910832829359
 20
0.0133738632498157
 30
0.0
 10
18.08604631059111
 20
1.766061552669056
 30
0.0
 10
15.0429605488066
 20
3.450856357120391
 30
0.0
 10
13.01429769798164
 20
4.421532833599714
 30
0.0
 10
12.00000000000301
 20
4.906854933905644
 30
0.0
  0
SPLINE
  5
AC
330
1F
100
AcDbEntity
  8
0
  6
Continuous
 62
     1
370
    15
100
AcDbSpline
210
0.0
220
0.0
230
1.0
 70
     8
 71
     3
 72
    18
 73
    14
 74
     0
 42
0.000000001
 43
0.00000001
 40
0.0
 40
0.0
 40
0.0
 40
0.0
 40
0.0391727430891232
 40
0.1444306809680215
 40
0.2496857100342718
 40
0.3549298828571792
 40
0.4601552808578386
 40
0.5653548255574635
 40
0.6705626301497287
 40
0.775794658736146
 40
0.8810430249651205
 40
0.9862997991180096
 40
1.0
 40
1.0
 40
1.0
 40
1.0
 10
46.60898009642881
 20
-6.618631120289228
 30
0.0
 10
46.23130621924396
 20
-6.666317953477668
 30
0.0
 10
44.83881514090574
 20
-6.842140253563845
 30
0.0
 10
42.43150515416399
 20
-6.810843394346529
 30
0.0
 10
39.38719715005233
 20
-6.521286035058522
 30
0.0
 10
36.3432507886869
 20
-5.897587459887688
 30
0.0
 10
33.29990692017454
 20
-4.996169176453422
 30
0.0
 10
30.25707913006922
 20
-3.852847085688924
 30
0.0
 10
27.21412395396227
 20
-2.525656883670821
 30
0.0
 10
24.17057373695584
 20
-1.073979671812816
 30
0.0
 10
21.12648830832489
 20
0.4180408381823276
 30
0.0
 10
18.96484824585318
 20
1.493262187504235
 30
0.0
 10
17.81794845165357
 20
2.010348165938643
 30
0.0
 10
17.68586071516362
 20
2.069900636701579
 30
0.0
  0
SPLINE
  5
AD
330
1F
100
AcDbEntity
  8
0
  6
Continuous
 62
     1
370
    15
100
AcDbSpline
210
0.0
220
0.0
230
1.0
 70
     8
 71
     3
 72
    31
 73
    27
 74
     0
 42
0.000000001
 43
0.00000001
 40
0.0
 40
0.0
 40
0.0
 40
0.0
 40
0.0198998549856221
 40
0.062397064779962
 40
0.1046019027868393
 40
0.1470991188902783
 40
0.1893040385159167
 40
0.2318019865546695
 40
0.2740068209049928
 40
0.316504131049946
 40
0.3587064618126425
 40
0.401201031236126
 40
0.4434030540786874
 40
0.4858982373730117
 40
0.5281001150776315
 40
0.5705945335578863
 40
0.612796391336261
 40
0.6552904931767131
 40
0.6974924195892893
 40
0.7399870563450867
 40
0.7821889529372046
 40
0.8246835488184568
 40
0.8677174110125245
 40
0.9110612860091031
 40
0.9553614106997359
 40
1.0
 40
1.0
 40
1.0
 40
1.0
 10
27.49747190637236
 20
5.363523131902787
 30
0.0
 10
27.85897367082384
 20
5.5218618633002
 30
0.0
 10
28.99248188135336
 20
6.018341465152557
 30
0.0
 10
30.89277362940535
 20
6.683078305312104
 30
0.0
 10
33.20372115488755
 20
7.336478487204555
 30
0.0
 10
35.50965939300552
 20
7.777351626129328
 30
0.0
 10
37.82057801845248
 20
8.006114234947566
 30
0.0
 10
40.12607810125479
 20
8.012355312650078
 30
0.0
 10
42.43677774012538
 20
7.796592396348422
 30
0.0
 10
44.74218069157786
 20
7.365586002331288
 30
0.0
 10
47.05290918642899
 20
6.729508631668082
 30
0.0
 10
49.35857455810803
 20
5.909081104953382
 30
0.0
 10
51.66957004064689
 20
4.923242735270364
 30
0.0
 10
53.97496766613429
 20
3.803081901593467
 30
0.0
 10
56.28554811595656
 20
2.574834157786665
 30
0.0
 10
58.59080445909377
 20
1.278063566421062
 30
0.0
 10
60.90140024469878
 20
-0.0569296630937483
 30
0.0
 10
63.20683916307398
 20
-1.387144363917281
 30
0.0
 10
65.5179181856745
 20
-2.681322026395167
 30
0.0
 10
67.8234306200284
 20
-3.898977779438951
 30
0.0
 10
70.13406777539538
 20
-5.011635102017535
 30
0.0
 10
72.45443299642966
 20
-5.989351144755513
 30
0.0
 10
74.7955932524777
 20
-6.807185646859781
 30
0.0
 10
77.1696326130505
 20
-7.434196089189875
 30
0.0
 10
79.57297947356318
 20
-7.864601775497196
 30
0.0
 10
81.18894325732258
 20
-7.950250957727729
 30
0.0
 10
81.99999999999957
 20
-7.999999999999734
 30
0.0
  0
LINE
  5
AE
330
1F
100
AcDbEntity
  8
0
  6
Continuous
 62
     1
370
    15
100
AcDbLine
 10
81.99999999999957
 20
-7.999999999999734
 30
0.0
 11
82.00000000000004
 21
-7.591526953855204
 31
0.0
  0
SPLINE
  5
AF
330
1F
100
AcDbEntity
  8
0
  6
Continuous
 62
     1
370
    15
100
AcDbSpline
210
0.0
220
0.0
230
1.0
 70
     8
 71
     3
 72
    19
 73
    15
 74
     0
 42
0.000000001
 43
0.00000001
 40
0.0
 40
0.0
 40
0.0
 40
0.0
 40
0.0929706092542993
 40
0.186711681001849
 40
0.2717848471267302
 40
0.3574478979213072
 40
0.442521069926666
 40
0.5281844977642817
 40
0.613257578954625
 40
0.6989200185455589
 40
0.7839931187256747
 40
0.8696555710339813
 40
0.9547288357345971
 40
1.0
 40
1.0
 40
1.0
 40
1.0
 10
12.00000000000003
 20
2.970972642010478
 30
0.0
 10
12.83797072701413
 20
2.512332487482829
 30
0.0
 10
14.52085658014636
 20
1.591251353201191
 30
0.0
 10
16.97057971844114
 20
0.1735736567559694
 30
0.0
 10
19.354550670568
 20
-1.202359472880571
 30
0.0
 10
21.66031428665056
 20
-2.502022835239232
 30
0.0
 10
23.97112968652817
 20
-3.735185612785776
 30
0.0
 10
26.27657531523622
 20
-4.862468657554798
 30
0.0
 10
28.58727415196784
 20
-5.857650214641929
 30
0.0
 10
30.89277223415674
 20
-6.687666805490124
 30
0.0
 10
33.20372237780765
 20
-7.336957791029215
 30
0.0
 10
35.50965588445176
 20
-7.770781726524712
 30
0.0
 10
37.45653001775848
 20
-7.990654102577404
 30
0.0
 10
38.63125551278809
 20
-7.976925900213884
 30
0.0
 10
39.03926060571084
 20
-7.972157827583567
 30
0.0
  0
SPLINE
  5
B0
330
1F
100
AcDbEntity
  8
0
  6
Continuous
 62
     1
370
    15
100
AcDbSpline
210
0.0
220
0.0
230
1.0
 70
     8
 71
     3
 72
    12
 73
     8
 74
     0
 42
0.000000001
 43
0.00000001
 40
0.0
 40
0.0
 40
0.0
 40
0.0
 40
0.1294332424674459
 40
0.3431259656654426
 40
0.5583581156454434
 40
0.7783387030363916
 40
1.0
 40
1.0
 40
1.0
 40
1.0
 10
71.02410446789517
 20
5.361685635424485
 30
0.0
 10
71.49761708983718
 20
5.565666390903187
 30
0.0
 10
72.75289334314967
 20
6.106416915007536
 30
0.0
 10
74.79559278588492
 20
6.80304048844346
 30
0.0
 10
77.1696327408977
 20
7.435331869338993
 30
0.0
 10
79.57297944102385
 20
7.864312700121588
 30
0.0
 10
81.18894324644869
 20
7.950154355111501
 30
0.0
 10
82.00000000000006
 20
8.00000000000026
 30
0.0
  0
LINE
  5
B1
330
1F
100
AcDbEntity
  8
0
  6
Continuous
 62
   131
370
    15
100
AcDbLine
 10
12.00000000000003
 20
2.970972642010477
 30
0.0
 11
12.00000000000003
 21
4.906854933903332
 31
0.0
  0
SPLINE
  5
B2
330
1F
100
AcDbEntity
  8
0
  6
Continuous
 62
     1
370
    15
100
AcDbSpline
210
0.0
220
0.0
230
1.0
 70
    24
 71
     3
 72
    10
 73
     6
 74
     0
 42
0.000000001
 43
0.00000001
 40
0.0
 40
0.0
 40
0.0
 40
0.0
 40
0.5
 40
0.5
 40
1.0
 40
1.0
 40
1.0
 40
1.0
 10
82.00000000000004
 20
5.600000000000013
 30
0.0
 10
82.00000000000006
 20
5.939458054458521
 30
0.0
 10
82.00000000000003
 20
6.333939750936949
 30
0.0
 10
82.00000000000003
 20
7.161561287686859
 30
0.0
 10
82.00000000000004
 20
7.592587486411796
 30
0.0
 10
82.00000000000006
 20
8.00000000000026
 30
0.0
  0
LINE
  5
B3
330
1F
100
AcDbEntity
  8
0
  6
Continuous
 62
     1
370
    15
100
AcDbLine
 10
82.00000000000004
 20
5.600000000000013
 30
0.0
 11
79.02713764197902
 21
5.468556938879773
 31
0.0
  0
SPLINE
  5
B4
330
1F
100
AcDbEntity
  8
0
  6
Continuous
 62
     1
370
    15
100
AcDbSpline
210
0.0
220
0.0
230
1.0
 70
     8
 71
     3
 72
    10
 73
     6
 74
     0
 42
0.000000001
 43
0.00000001
 40
0.0
 40
0.0
 40
0.0
 40
0.0
 40
0.0764628240620025
 40
0.5382480299134942
 40
0.9999999999999999
 40
0.9999999999999999
 40
0.9999999999999999
 40
0.9999999999999999
 10
18.585768981127
 20
-0.7550149851684735
 30
0.0
 10
18.41791288037383
 20
-0.6889544385855668
 30
0.0
 10
17.23631624635339
 20
-0.2239316057324974
 30
0.0
 10
15.04104632987885
 20
0.6821557749453657
 30
0.0
 10
13.01365778976592
 20
1.470191393062788
 30
0.0
 10
12.00000000000002
 20
1.864195022418025
 30
0.0
  0
SPLINE
  5
B5
330
1F
100
AcDbEntity
  8
0
  6
Continuous
 62
   131
370
    15
100
AcDbSpline
210
0.0
220
0.0
230
1.0
 70
    24
 71
     3
 72
    10
 73
     6
 74
     0
 42
0.000000001
 43
0.00000001
 40
0.0
 40
0.0
 40
0.0
 40
0.0
 40
0.5
 40
0.5
 40
1.0
 40
1.0
 40
1.0
 40
1.0
 10
12.00000000000003
 20
2.970972642010475
 30
0.0
 10
12.00000000000003
 20
2.934267962925388
 30
0.0
 10
12.00000000000003
 20
2.813712509268581
 30
0.0
 10
12.00000000000003
 20
2.42679077124335
 30
0.0
 10
12.00000000000003
 20
2.162006002983188
 30
0.0
 10
12.00000000000003
 20
1.864195022418022
 30
0.0
  0
SPLINE
  5
B6
330
1F
100
AcDbEntity
  8
0
  6
Continuous
 62
     1
370
    15
100
AcDbSpline
210
0.0
220
0.0
230
1.0
 70
     8
 71
     3
 72
    17
 73
    13
 74
     0
 42
0.000000001
 43
0.00000001
 40
0.0
 40
0.0
 40
0.0
 40
0.0
 40
0.0533604674666481
 40
0.1676524068543498
 40
0.2819229940653936
 40
0.39621936274626
 40
0.5105393626210938
 40
0.6248740518299379
 40
0.7392144492108443
 40
0.8535515583118525
 40
0.9678763914902458
 40
1.0
 40
1.0
 40
1.0
 40
1.0
 10
62.11359941931302
 20
-0.7527507030890424
 30
0.0
 10
61.64000907732326
 20
-0.5641525559541924
 30
0.0
 10
60.15204308925942
 20
0.0284009728392198
 30
0.0
 10
57.64995735712878
 20
1.047932284725693
 30
0.0
 10
54.60715021160232
 20
2.229988833787362
 30
0.0
 10
51.56398024828002
 20
3.306684688626516
 30
0.0
 10
48.5201829225683
 20
4.224386042546716
 30
0.0
 10
45.47595308412974
 20
4.937830763174541
 30
0.0
 10
42.43155478480098
 20
5.419239939691662
 30
0.0
 10
39.38725808643142
 20
5.620377102734505
 30
0.0
 10
37.07268243710438
 20
5.624163129898284
 30
0.0
 10
35.77292999510644
 20
5.476849596437485
 30
0.0
 10
35.48782802935628
 20
5.444536229203708
 30
0.0
  0
SPLINE
  5
B7
330
1F
100
AcDbEntity
  8
0
  6
Continuous
 62
     1
370
    15
100
AcDbSpline
210
0.0
220
0.0
230
1.0
 70
     8
 71
     3
 72
     8
 73
     4
 74
     0
 42
0.000000001
 43
0.00000001
 40
0.0
 40
0.0
 40
0.0
 40
0.0
 40
1.0
 40
1.0
 40
1.0
 40
1.0
 10
77.05015961782934
 20
2.237560614295323
 30
0.0
 10
77.03334167603639
 20
2.257479982395578
 30
0.0
 10
77.01662136476901
 20
2.27736702115203
 30
0.0
 10
77.00000000000823
 20
2.297221294791127
 30
0.0
  0
LINE
  5
B8
330
1F
100
AcDbEntity
  8
0
  6
Continuous
 62
     1
370
    15
100
AcDbLine
 10
77.00000000000004
 20
2.937719435296604
 30
0.0
 11
82.00000000000004
 21
0.0000000000000135
 31
0.0
  0
LINE
  5
B9
330
1F
100
AcDbEntity
  8
0
  6
Continuous
 62
     1
370
    15
100
AcDbLine
 10
82.00000000000004
 20
0.0000000000000135
 30
0.0
 11
82.00000000000004
 21
-2.137943568237145
 31
0.0
  0
SPLINE
  5
BA
330
1F
100
AcDbEntity
  8
0
  6
Continuous
 62
     1
370
    15
100
AcDbSpline
210
0.0
220
0.0
230
1.0
 70
     8
 71
     3
 72
    12
 73
     8
 74
     0
 42
0.000000001
 43
0.00000001
 40
0.0
 40
0.0
 40
0.0
 40
0.0
 40
0.5000000000000023
 40
0.5000000000000023
 40
0.7500000000000011
 40
0.7500000000000011
 40
1.0
 40
1.0
 40
1.0
 40
1.0
 10
82.00000000000004
 20
-2.137943568237145
 30
0.0
 10
81.14316304501946
 20
-1.46432744054617
 30
0.0
 10
80.30064017802378
 20
-0.7630972272402687
 30
0.0
 10
79.05889110091633
 20
0.3312574405560028
 30
0.0
 10
78.64870036019444
 20
0.7032296227316419
 30
0.0
 10
77.83670336351734
 20
1.463348952643236
 30
0.0
 10
77.43709642869206
 20
1.84953990983968
 30
0.0
 10
77.05015961782931
 20
2.237560614295338
 30
0.0
  0
SPLINE
  5
BB
330
1F
100
AcDbEntity
  8
0
  6
Continuous
 62
     1
370
    15
100
AcDbSpline
210
0.0
220
0.0
230
1.0
 70
     8
 71
     3
 72
    24
 73
    20
 74
     0
 42
0.000000001
 43
0.00000001
 40
0.0
 40
0.0
 40
0.0
 40
0.0
 40
0.0267030312700208
 40
0.0876102480266374
 40
0.1485044900640236
 40
0.2093876521161269
 40
0.2702841930943995
 40
0.3311929967642264
 40
0.3921094229101565
 40
0.4530288110163287
 40
0.5139464926694114
 40
0.574857804006608
 40
0.6357580981376886
 40
0.6966432202896246
 40
0.7575331851474741
 40
0.8184373663936074
 40
0.879351136106745
 40
0.9402698408495419
 40
1.0
 40
1.0
 40
1.0
 40
1.0
 10
65.07109768493335
 20
-5.978384351523203
 30
0.0
 10
64.62626847265683
 20
-6.056829200105925
 30
0.0
 10
63.16682376681203
 20
-6.3141997050216
 30
0.0
 10
60.69303192638115
 20
-6.437626507301873
 30
0.0
 10
57.64994110087639
 20
-6.342626459155495
 30
0.0
 10
54.60715636815407
 20
-5.926048748153246
 30
0.0
 10
51.56398198454708
 20
-5.229249104006496
 30
0.0
 10
48.52018165403246
 20
-4.279920451537198
 30
0.0
 10
45.47594758982
 20
-3.125177439380475
 30
0.0
 10
42.43154690779393
 20
-1.820123581634622
 30
0.0
 10
39.38724167225669
 20
-0.4276325255340959
 30
0.0
 10
36.34330013394771
 20
0.9853747927389586
 30
0.0
 10
33.29996157245087
 20
2.350882902626254
 30
0.0
 10
30.2571286321885
 20
3.60368489566065
 30
0.0
 10
27.21417341660153
 20
4.682783596149755
 30
0.0
 10
24.17062852815521
 20
5.538498474075863
 30
0.0
 10
21.12654703826469
 20
6.121955954416843
 30
0.0
 10
18.10198558729757
 20
6.432123852843588
 30
0.0
 10
16.09216362097675
 20
6.380066146451349
 30
0.0
 10
15.09715229605751
 20
6.354293710744311
 30
0.0
  0
SPLINE
  5
BC
330
1F
100
AcDbEntity
  8
0
  6
Continuous
 62
   131
370
    15
100
AcDbSpline
210
0.0
220
0.0
230
1.0
 70
    24
 71
     3
 72
    12
 73
     8
 74
     0
 42
0.000000001
 43
0.00000001
 40
0.0
 40
0.0
 40
0.0
 40
0.0
 40
0.0069610430571824
 40
0.2644772450451877
 40
0.529461434336232
 40
0.7620071651372995
 40
0.9999999999999999
 40
0.9999999999999999
 40
0.9999999999999999
 40
0.9999999999999999
 10
12.00000000000003
 20
6.25174640867624
 30
0.0
 10
12.00000000000003
 20
6.252471158921816
 30
0.0
 10
12.00000000000004
 20
6.280007254693863
 30
0.0
 10
12.00000000000003
 20
6.153983220103242
 30
0.0
 10
12.00000000000003
 20
5.803816813515865
 30
0.0
 10
12.00000000000003
 20
5.24506403458794
 30
0.0
 10
12.00000000000003
 20
4.741594400747212
 30
0.0
 10
12.00000000000003
 20
4.486945421537585
 30
0.0
  0
SPLINE
  5
BD
330
1F
100
AcDbEntity
  8
0
  6
Continuous
 62
     1
370
    15
100
AcDbSpline
210
0.0
220
0.0
230
1.0
 70
     8
 71
     3
 72
    14
 73
    10
 74
     0
 42
0.000000001
 43
0.00000001
 40
0.0
 40
0.0
 40
0.0
 40
0.0
 40
0.1134768044226125
 40
0.2269181921782452
 40
0.3921275228924066
 40
0.5573395316291929
 40
0.7225415588252813
 40
0.8877209715281573
 40
1.0
 40
1.0
 40
1.0
 40
1.0
 10
77.05015961691103
 20
2.237560614692848
 30
0.0
 10
76.35328087590344
 20
2.534230695901914
 30
0.0
 10
74.95974089315982
 20
3.127478266133277
 30
0.0
 10
72.55203022957946
 20
4.055809181534877
 30
0.0
 10
69.82523698890195
 20
4.966691610777682
 30
0.0
 10
66.78094827028869
 20
5.746718694771293
 30
0.0
 10
63.73673911430366
 20
6.239335406295651
 30
0.0
 10
61.0177416990817
 20
6.450072685521959
 30
0.0
 10
59.31354267861863
 20
6.359906253031879
 30
0.0
 10
58.62390494573823
 20
6.323418628442426
 30
0.0
  0
SPLINE
  5
BE
330
1F
100
AcDbEntity
  8
0
  6
Continuous
 62
     1
370
    15
100
AcDbSpline
210
0.0
220
0.0
230
1.0
 70
     8
 71
     3
 72
    11
 73
     7
 74
     0
 42
0.000000001
 43
0.00000001
 40
0.0
 40
0.0
 40
0.0
 40
0.0
 40
0.0423286043681115
 40
0.3617850417218045
 40
0.6809037054757255
 40
1.0
 40
1.0
 40
1.0
 40
1.0
 10
21.53001227736467
 20
-5.999384201723251
 30
0.0
 10
21.39554928028529
 20
-6.025841141032392
 30
0.0
 10
20.24628622910262
 20
-6.251970139015619
 30
0.0
 10
18.08325849194287
 20
-6.398713216008217
 30
0.0
 10
15.04103794318327
 20
-6.422627243503951
 30
0.0
 10
13.01365562802775
 20
-6.164189940124738
 30
0.0
 10
12.00000000000003
 20
-6.034975817507438
 30
0.0
  0
SPLINE
  5
BF
330
1F
100
AcDbEntity
  8
0
  6
Continuous
 62
     1
370
    15
100
AcDbSpline
210
0.0
220
0.0
230
1.0
 70
    24
 71
     3
 72
    10
 73
     6
 74
     0
 42
0.000000001
 43
0.00000001
 40
0.0
 40
0.0
 40
0.0
 40
0.0
 40
0.5
 40
0.5
 40
1.0
 40
1.0
 40
1.0
 40
1.0
 10
82.00000000000004
 20
-6.311778114945715
 30
0.0
 10
82.00000000000006
 20
-5.827931112030427
 30
0.0
 10
82.00000000000004
 20
-5.216571871251736
 30
0.0
 10
82.00000000000006
 20
-3.795220473205428
 30
0.0
 10
82.00000000000004
 20
-2.986459544410466
 30
0.0
 10
82.00000000000004
 20
-2.137943568237402
 30
0.0
  0
SPLINE
  5
C0
330
1F
100
AcDbEntity
  8
0
  6
Continuous
 62
   131
370
    15
100
AcDbSpline
210
0.0
220
0.0
230
1.0
 70
    24
 71
     3
 72
     9
 73
     5
 74
     0
 42
0.000000001
 43
0.00000001
 40
0.0
 40
0.0
 40
0.0
 40
0.0
 40
0.5067833566668372
 40
1.0
 40
1.0
 40
1.0
 40
1.0
 10
12.00000000000003
 20
-6.034975817507437
 30
0.0
 10
12.00000000000003
 20
-6.099482204974592
 30
0.0
 10
12.00000000000003
 20
-6.226768128276057
 30
0.0
 10
12.00000000000003
 20
-6.243495962453164
 30
0.0
 10
12.00000000000003
 20
-6.25174640867623
 30
0.0
  0
SPLINE
  5
C1
330
1F
100
AcDbEntity
  8
0
  6
Continuous
 62
     1
370
    15
100
AcDbSpline
210
0.0
220
0.0
230
1.0
 70
    24
 71
     3
 72
     8
 73
     4
 74
     0
 42
0.000000001
 43
0.00000001
 40
0.0
 40
0.0
 40
0.0
 40
0.0
 40
1.0
 40
1.0
 40
1.0
 40
1.0
 10
77.00000000000007
 20
2.297221294800901
 30
0.0
 10
77.00000000000007
 20
2.873887513832472
 30
0.0
 10
77.00000000000007
 20
3.404182854907321
 30
0.0
 10
77.00000000000007
 20
3.849725336690629
 30
0.0
  0
SPLINE
  5
C2
330
1F
100
AcDbEntity
  8
0
  6
Continuous
 62
     1
370
    15
100
AcDbSpline
210
0.0
220
0.0
230
1.0
 70
     8
 71
     3
 72
    10
 73
     6
 74
     0
 42
0.000000001
 43
0.00000001
 40
0.0
 40
0.0
 40
0.0
 40
0.0
 40
0.5
 40
0.5
 40
1.0
 40
1.0
 40
1.0
 40
1.0
 10
82.00000000000004
 20
5.600000000000013
 30
0.0
 10
81.15469777286495
 20
5.370775138897779
 30
0.0
 10
80.31414799209607
 20
5.112419133122749
 30
0.0
 10
78.6455241648009
 20
4.532984028997614
 30
0.0
 10
77.8174492170052
 20
4.212395125810848
 30
0.0
 10
77.00000000000006
 20
3.849725336688062
 30
0.0
  0
SPLINE
  5
C3
330
1F
100
AcDbEntity
  8
0
  6
Continuous
 62
   131
370
    15
100
AcDbSpline
210
0.0
220
0.0
230
1.0
 70
    24
 71
     3
 72
    14
 73
    10
 74
     0
 42
0.000000001
 43
0.00000001
 40
0.0
 40
0.0
 40
0.0
 40
0.0
 40
0.25
 40
0.25
 40
0.5
 40
0.5
 40
0.75
 40
0.75
 40
1.0
 40
1.0
 40
1.0
 40
1.0
 10
12.00000000000001
 20
1.864195022418034
 30
0.0
 10
12.00000000000001
 20
1.161033100998826
 30
0.0
 10
12.00000000000001
 20
0.4244757154312851
 30
0.0
 10
12.00000000000001
 20
-1.051004185680851
 30
0.0
 10
12.00000000000001
 20
-1.789214012450037
 30
0.0
 10
12.00000000000001
 20
-3.193124412568865
 30
0.0
 10
12.00000000000001
 20
-3.858076923762326
 30
0.0
 10
12.00000000000001
 20
-5.054422782618909
 30
0.0
 10
12.00000000000001
 20
-5.585495500330341
 30
0.0
 10
12.00000000000001
 20
-6.03497581750743
 30
0.0
  0
LINE
  5
C4
330
1F
100
AcDbEntity
  8
0
  6
Continuous
 62
     1
370
    15
100
AcDbLine
 10
82.00000000000004
 20
0.0000000000000135
 30
0.0
 11
82.00000000000004
 21
5.600000000000014
 31
0.0
  0
LINE
  5
C5
330
1F
100
AcDbEntity
  8
0
  6
Continuous
 62
   131
370
    15
100
AcDbLine
 10
8.949890148750224
 20
6.168348675443906
 30
0.0
 11
8.949890148750221
 21
8.000000000000004
 31
0.0
  0
SPLINE
  5
C6
330
1F
100
AcDbEntity
  8
0
  6
Continuous
 62
   131
370
    15
100
AcDbSpline
210
0.0
220
0.0
230
1.0
 70
     8
 71
     3
 72
    10
 73
     6
 74
     0
 42
0.000000001
 43
0.00000001
 40
0.0
 40
0.0
 40
0.0
 40
0.0
 40
0.5000000000000001
 40
0.5000000000000001
 40
1.0
 40
1.0
 40
1.0
 40
1.0
 10
12.00000000000551
 20
4.906854933904503
 30
0.0
 10
11.49116829627084
 20
5.138740051560069
 30
0.0
 10
10.98614779177083
 20
5.360156774276715
 30
0.0
 10
9.968263527859298
 20
5.781612602142175
 30
0.0
 10
9.457577212696703
 20
5.98128899395129
 30
0.0
 10
8.94977517555529
 20
6.168130344169973
 30
0.0
  0
SPLINE
  5
C7
330
1F
100
AcDbEntity
  8
0
  6
Continuous
 62
   131
370
    15
100
AcDbSpline
210
0.0
220
0.0
230
1.0
 70
     8
 71
     3
 72
    10
 73
     6
 74
     0
 42
0.000000001
 43
0.00000001
 40
0.0
 40
0.0
 40
0.0
 40
0.0
 40
0.5
 40
0.5
 40
1.0
 40
1.0
 40
1.0
 40
1.0
 10
8.949890148750228
 20
4.521161065372531
 30
0.0
 10
9.457673458229143
 20
4.279118003571948
 30
0.0
 10
9.96834048038026
 20
4.027469452473472
 30
0.0
 10
10.98618607050786
 20
3.509485919608701
 30
0.0
 10
11.49118749731228
 20
3.243563128280798
 30
0.0
 10
12.00000000000003
 20
2.970972642010476
 30
0.0
  0
LINE
  5
C8
330
1F
100
AcDbEntity
  8
0
  6
Continuous
 62
   131
370
    15
100
AcDbLine
 10
8.949890148750224
 20
-7.999999999999996
 30
0.0
 11
8.949890148750228
 21
4.52116035304086
 31
0.0
  0
LINE
  5
C9
330
1F
100
AcDbEntity
  8
0
  6
Continuous
 62
   131
370
    15
100
AcDbLine
 10
-117.0
 20
7.99999999999999
 30
0.0
 11
-117.0
 21
-8.000000000000004
 31
0.0
  0
LINE
  5
CA
330
1F
100
AcDbEntity
  8
0
  6
Continuous
 62
   131
370
    15
100
AcDbLine
 10
-118.0
 20
6.999999999999992
 30
0.0
 11
-118.0
 21
-7.000000000000001
 31
0.0
  0
SPLINE
  5
CB
330
1F
100
AcDbEntity
  8
0
  6
Continuous
 62
   131
370
    15
100
AcDbSpline
210
0.0
220
0.0
230
1.0
 70
    24
 71
     3
 72
    10
 73
     6
 74
     0
 42
0.000000001
 43
0.00000001
 40
0.0
 40
0.0
 40
0.0
 40
0.0
 40
0.5
 40
0.5
 40
1.0
 40
1.0
 40
1.0
 40
1.0
 10
12.00000000000003
 20
2.970972642010475
 30
0.0
 10
12.00000000000003
 20
2.934267962925388
 30
0.0
 10
12.00000000000003
 20
2.813712509268581
 30
0.0
 10
12.00000000000003
 20
2.42679077124335
 30
0.0
 10
12.00000000000003
 20
2.162006002983188
 30
0.0
 10
12.00000000000003
 20
1.864195022418022
 30
0.0
  0
SPLINE
  5
CC
330
1F
100
AcDbEntity
  8
0
  6
Continuous
 62
   131
370
    15
100
AcDbSpline
210
0.0
220
0.0
230
1.0
 70
     8
 71
     3
 72
    10
 73
     6
 74
     0
 42
0.000000001
 43
0.00000001
 40
0.0
 40
0.0
 40
0.0
 40
0.0
 40
0.5
 40
0.5
 40
1.0
 40
1.0
 40
1.0
 40
1.0
 10
12.00000000000002
 20
1.864195022418023
 30
0.0
 10
11.49118286989059
 20
2.0579860502529
 30
0.0
 10
10.98617684539362
 20
2.247536477830964
 30
0.0
 10
9.968321934945173
 20
2.617780912935905
 30
0.0
 10
9.457650263206771
 20
2.79818313194041
 30
0.0
 10
8.94986244038329
 20
2.972242327502002
 30
0.0
  0
SPLINE
  5
CD
330
1F
100
AcDbEntity
  8
0
  6
Continuous
 62
   131
370
    15
100
AcDbSpline
210
0.0
220
0.0
230
1.0
 70
     8
 71
     3
 72
    10
 73
     6
 74
     0
 42
0.000000001
 43
0.00000001
 40
0.0
 40
0.0
 40
0.0
 40
0.0
 40
0.5
 40
0.5
 40
1.0
 40
1.0
 40
1.0
 40
1.0
 10
12.00000000000003
 20
-6.034975817507437
 30
0.0
 10
11.49118048381126
 20
-5.95678866325895
 30
0.0
 10
10.98617208856403
 20
-5.866633552818334
 30
0.0
 10
9.968312372194312
 20
-5.662559831159655
 30
0.0
 10
9.45763830294769
 20
-5.548724607303964
 30
0.0
 10
8.949848152869416
 20
-5.424148144829361
 30
0.0
  0
SPLINE
  5
CE
330
1F
100
AcDbEntity
  8
0
  6
Continuous
 62
   131
370
    15
100
AcDbSpline
210
0.0
220
0.0
230
1.0
 70
    24
 71
     3
 72
    14
 73
    10
 74
     0
 42
0.000000001
 43
0.00000001
 40
0.0
 40
0.0
 40
0.0
 40
0.0
 40
0.25
 40
0.25
 40
0.5
 40
0.5
 40
0.75
 40
0.75
 40
1.0
 40
1.0
 40
1.0
 40
1.0
 10
12.00000000000001
 20
1.864195022418034
 30
0.0
 10
12.00000000000001
 20
1.161033100998826
 30
0.0
 10
12.00000000000001
 20
0.4244757154312851
 30
0.0
 10
12.00000000000001
 20
-1.051004185680851
 30
0.0
 10
12.00000000000001
 20
-1.789214012450037
 30
0.0
 10
12.00000000000001
 20
-3.193124412568865
 30
0.0
 10
12.00000000000001
 20
-3.858076923762326
 30
0.0
 10
12.00000000000001
 20
-5.054422782618909
 30
0.0
 10
12.00000000000001
 20
-5.585495500330341
 30
0.0
 10
12.00000000000001
 20
-6.03497581750743
 30
0.0
  0
SPLINE
  5
CF
330
1F
100
AcDbEntity
  8
0
  6
Continuous
 62
   131
370
    15
100
AcDbSpline
210
0.0
220
0.0
230
1.0
 70
    24
 71
     3
 72
    12
 73
     8
 74
     0
 42
0.000000001
 43
0.00000001
 40
0.0
 40
0.0
 40
0.0
 40
0.0
 40
0.0057225938604096
 40
0.2635599521648701
 40
0.5288746113273032
 40
0.7617103570079584
 40
1.0
 40
1.0
 40
1.0
 40
1.0
 10
12.00000000000004
 20
6.25212424261112
 30
0.0
 10
12.00000000000004
 20
6.252716316140978
 30
0.0
 10
12.00000000000004
 20
6.279984872151453
 30
0.0
 10
12.00000000000003
 20
6.153853679235331
 30
0.0
 10
12.00000000000004
 20
5.8038470083653
 30
0.0
 10
12.00000000000004
 20
5.245056704309092
 30
0.0
 10
12.00000000000004
 20
4.741591938536162
 30
0.0
 10
12.00000000000004
 20
4.486945421537585
 30
0.0
  0
SPLINE
  5
D0
330
1F
100
AcDbEntity
  8
0
  6
Continuous
 62
   131
370
    15
100
AcDbSpline
210
0.0
220
0.0
230
1.0
 70
    24
 71
     3
 72
     9
 73
     5
 74
     0
 42
0.000000001
 43
0.00000001
 40
0.0
 40
0.0
 40
0.0
 40
0.0
 40
0.50496151960163
 40
1.0
 40
1.0
 40
1.0
 40
1.0
 10
12.00000000000003
 20
-6.034975817507437
 30
0.0
 10
12.00000000000003
 20
-6.099448179738577
 30
0.0
 10
12.00000000000004
 20
-6.227125952654825
 30
0.0
 10
12.00000000000004
 20
-6.243846756894897
 30
0.0
 10
12.00000000000004
 20
-6.25212419841694
 30
0.0
  0
LINE
  5
D1
330
1F
100
AcDbEntity
  8
중심선
100
AcDbLine
 10
-121.0
 20
-0.0000000000000004
 30
0.0
 11
89.00000000000003
 21
0.000000000000014
 31
0.0
  0
CIRCLE
  5
D2
330
1F
100
AcDbEntity
  8
외형선
100
AcDbCircle
 10
0.0000000000000104
 20
0.0
 30
0.0
 40
3.000000000000005
  0
INSERT
  5
D3
330
1F
100
AcDbEntity
  8
0
  6
Continuous
 62
     7
100
AcDbBlockReference
 66
     1
  2
블럭10
 10
-22.93944368806589
 20
-52.04609937292004
 30
0.0
  0
ATTRIB
  5
D4
330
D3
100
AcDbEntity
  8
FORMAT
 62
     2
100
AcDbText
 10
-43.79769121965843
 20
-49.97073246008785
 30
0.0
 40
4.233333333333333
  1
SEME7016070200E [ 2 FLUTE ]
 41
0.75
  7
SLDTEXTSTYLE0
 11
-43.79769121965843
 21
-52.08739912675452
 31
0.0
100
AcDbAttribute
  2
AUTOATTR0
 70
     0
 74
     1
  0
SEQEND
  5
D5
330
D3
100
AcDbEntity
  8
0
  6
Continuous
 62
     7
  0
HATCH
  5
D6
330
1F
100
AcDbEntity
  8
중심선
100
AcDbHatch
 10
0.0
 20
0.0
 30
0.0
210
0.0
220
0.0
230
1.0
  2
SOLID
 70
     1
 71
     0
 91
        1
 92
        0
 93
        4
 72
     1
 10
-17.22453438368504
 20
-35.7989250712761
 11
-20.67080962752232
 21
-35.7989250712761
 72
     1
 10
-20.67080962752232
 20
-35.7989250712761
 11
-22.79903948672635
 21
-38.3352506518487
 72
     1
 10
-22.79903948672635
 20
-38.3352506518487
 11
-19.35273115777591
 21
-38.33521122254621
 72
     1
 10
-19.35273115777591
 20
-38.33521122254621
 11
-17.22453438368504
 21
-35.7989250712761
 97
        0
 75
     0
 76
     1
 98
        1
 10
0.0
 20
0.0
  0
HATCH
  5
D7
330
1F
100
AcDbEntity
  8
중심선
100
AcDbHatch
 10
0.0
 20
0.0
 30
0.0
210
0.0
220
0.0
230
1.0
  2
SOLID
 70
     1
 71
     0
 91
        1
 92
        0
 93
        4
 72
     1
 10
-12.21177039264909
 20
-35.7989250712761
 11
-15.65804563648637
 21
-35.7989250712761
 72
     1
 10
-15.65804563648637
 20
-35.7989250712761
 11
-20.18918364484376
 21
-41.19892507127612
 72
     1
 10
-20.18918364484376
 20
-41.19892507127612
 11
-16.74290840100648
 21
-41.19892507127612
 72
     1
 10
-16.74290840100648
 20
-41.19892507127612
 11
-12.21177039264909
 21
-35.7989250712761
 97
        0
 75
     0
 76
     1
 98
        1
 10
0.0
 20
0.0
  0
HATCH
  5
D8
330
1F
100
AcDbEntity
  8
중심선
100
AcDbHatch
 10
0.0
 20
0.0
 30
0.0
210
0.0
220
0.0
230
1.0
  2
SOLID
 70
     1
 71
     0
 91
        1
 92
        0
 93
        4
 72
     1
 10
-7.199006401613195
 20
-35.79892507127613
 11
-10.64528164545031
 21
-35.7989250712761
 72
     1
 10
-10.64528164545031
 20
-35.7989250712761
 11
-17.69371854733956
 21
-44.19892507127612
 72
     1
 10
-17.69371854733956
 20
-44.19892507127612
 11
-14.24744330350228
 21
-44.19892507127612
 72
     1
 10
-14.24744330350228
 20
-44.19892507127612
 11
-7.199006401613195
 21
-35.79892507127613
 97
        0
 75
     0
 76
     1
 98
        1
 10
0.0
 20
0.0
  0
HATCH
  5
D9
330
1F
100
AcDbEntity
  8
중심선
100
AcDbHatch
 10
0.0
 20
0.0
 30
0.0
210
0.0
220
0.0
230
1.0
  2
SOLID
 70
     1
 71
     0
 91
        1
 92
        0
 93
        6
 72
     3
 10
-2.399115970600996
 20
-39.99892507132738
 11
3.960054785062284
 21
1.540850780301639E-10
 40
0.3939339440162633
 50
17.09539180608433
 51
320.0019657685079
 73
     0
 72
     1
 10
-0.7161163149004002
 20
-38.58681907591441
 11
1.589185558800638
 21
-36.65249236586649
 72
     3
 10
-2.399115970653842
 20
-39.99892507127625
 11
6.600054785286829
 21
-1.249000902703301E-13
 40
0.6363583540795982
 50
39.99873849337408
 51
368.4976242363725
 73
     1
 72
     1
 10
4.026216521246767
 20
-39.03892507120613
 11
-3.71904866381792
 21
-39.0389250712061
 72
     1
 10
-3.71904866381792
 20
-39.0389250712061
 11
-3.719073708263854
 21
-40.95892507120602
 72
     1
 10
-3.719073708263854
 20
-40.95892507120602
 11
0.7223060612081831
 21
-40.95892507120599
 97
        0
 75
     0
 76
     1
 98
        1
 10
0.0
 20
0.0
  0
DIMENSION
  5
DA
330
1F
100
AcDbEntity
  8
치수문자_일반주서
100
AcDbDimension
  2
_D
 10
98.25519736911026
 20
8.000000000000316
 30
0.0
 11
98.25519736911022
 21
18.54150000000033
 31
0.0
 70
   160
  1
%%c<>
 71
     2
 42
15.99999999999999
 52
-270.0
  3
SLDDIMSTYLE0
100
AcDbAlignedDimension
 13
81.99999999999957
 23
-7.999999999999734
 33
0.0
 14
81.99999999999957
 24
8.000000000000256
 34
0.0
 50
90.0000000000002
100
AcDbRotatedDimension
  0
DIMENSION
  5
E8
330
1F
100
AcDbEntity
  8
치수문자_일반주서
100
AcDbDimension
  2
_D_1
 10
82.00000000000006
 20
28.78841044024269
 30
0.0
 11
-17.99999999999996
 21
28.78841044024269
 31
0.0
 70
   160
  1
<>
 71
     2
 42
200.0
  3
SLDDIMSTYLE1
100
AcDbAlignedDimension
 13
-118.0
 23
6.999999999999992
 33
0.0
 14
82.00000000000006
 24
8.00000000000026
 34
0.0
 50
-0.0000000000000041
100
AcDbRotatedDimension
  0
DIMENSION
  5
F3
330
1F
100
AcDbEntity
  8
치수문자_일반주서
100
AcDbDimension
  2
_D_2
 10
82.00000000000006
 20
19.60091606987428
 30
0.0
 11
47.00000000000003
 21
19.60091606987428
 31
0.0
 70
   160
  1
<>
 71
     2
 42
70.00000000000003
  3
SLDDIMSTYLE1
100
AcDbAlignedDimension
 13
12.00000000000003
 23
6.253918263706757
 33
0.0
 14
82.00000000000006
 24
8.00000000000026
 34
0.0
 50
-0.0000000000000058
100
AcDbRotatedDimension
  0
DIMENSION
  5
FD
330
1F
100
AcDbEntity
  8
치수문자_일반주서
100
AcDbDimension
  2
_D_3
 10
-129.2916595898686
 20
-8.000000000000046
 30
0.0
 11
-129.2916595898687
 21
18.54149999999994
 31
0.0
 70
   160
  1
%%c<>
 71
     2
 42
15.99999999999999
 52
-270.0
  3
SLDDIMSTYLE0
100
AcDbAlignedDimension
 13
-117.0
 23
7.99999999999999
 33
0.0
 14
-117.0
 24
-7.999999999999999
 34
0.0
 50
90.0000000000002
100
AcDbRotatedDimension
  0
INSERT
  5
110
330
1F
100
AcDbEntity
  8
외형선
100
AcDbBlockReference
  2
SW_DOWELSYMBOL_0
 10
0.0000000000000104
 20
0.0
 30
0.0
  0
ENDSEC
  0
SECTION
  2
OBJECTS
  0
DICTIONARY
  5
C
330
0
100
AcDbDictionary
281
     1
  3
ACAD_GROUP
350
D
  3
ACAD_IMAGE_VARS
350
134
  3
ACAD_LAYOUT
350
1A
  3
ACAD_MLINESTYLE
350
17
  3
ACAD_PLOTSETTINGS
350
19
  3
ACAD_PLOTSTYLENAME
350
E
  3
ACAD_SCALELIST
350
47
  3
APPDATA
350
132
  3
DWGPROPS
350
142
  0
DICTIONARY
  5
D
102
{ACAD_REACTORS
330
C
102
}
330
C
100
AcDbDictionary
281
     1
  0
RASTERVARIABLES
  5
134
102
{ACAD_REACTORS
330
C
102
}
330
C
100
AcDbRasterVariables
 90
        0
 70
     1
 71
     1
 72
     1
  0
DICTIONARY
  5
1A
102
{ACAD_REACTORS
330
C
102
}
330
C
100
AcDbDictionary
281
     1
  3
Layout1
350
1E
  3
Layout2
350
26
  3
Model
350
22
  0
DICTIONARY
  5
17
102
{ACAD_REACTORS
330
C
102
}
330
C
100
AcDbDictionary
281
     1
  3
Standard
350
18
  0
DICTIONARY
  5
19
102
{ACAD_REACTORS
330
C
102
}
330
C
100
AcDbDictionary
281
     1
  0
ACDBDICTIONARYWDFLT
  5
E
102
{ACAD_REACTORS
330
C
102
}
330
C
100
AcDbDictionary
281
     1
  3
Normal
350
F
100
AcDbDictionaryWithDefault
340
F
  0
DICTIONARY
  5
47
102
{ACAD_REACTORS
330
C
102
}
330
C
100
AcDbDictionary
281
     1
  3
A0
350
48
  3
A1
350
49
  3
A2
350
4A
  3
A3
350
4B
  3
A4
350
4C
  3
A5
350
4D
  3
A6
350
4E
  3
A7
350
4F
  3
A8
350
50
  3
A9
350
51
  3
B0
350
52
  3
B1
350
53
  3
B2
350
54
  3
B3
350
55
  3
B4
350
56
  3
B5
350
57
  3
B6
350
58
  3
B7
350
59
  3
B8
350
5A
  3
B9
350
5B
  3
C0
350
5C
  3
C1
350
5D
  3
C2
350
5E
  3
C3
350
5F
  3
C4
350
60
  3
C5
350
61
  3
C6
350
62
  3
C7
350
63
  3
C8
350
64
  3
C9
350
65
  3
D0
350
66
  3
D1
350
67
  3
D2
350
68
  0
DICTIONARY
  5
132
102
{ACAD_REACTORS
330
C
102
}
330
C
100
AcDbDictionary
281
     1
  0
XRECORD
  5
142
102
{ACAD_REACTORS
330
C
102
}
330
C
100
AcDbXrecord
280
     1
  1
DWGPROPS COOKIE
  2

  3

  4

  6

  7

  8
12014102
  9

300
=
301
=
302
=
303
=
304
=
305
=
306
=
307
=
308
=
309
=
 40
0.0
 41
2458262.176303981
 42
2458266.316646805
  1

 90
        0
  0
LAYOUT
  5
1E
102
{ACAD_REACTORS
330
1A
102
}
330
1A
100
AcDbPlotSettings
  1

  2
none_device
  4

  6

 40
0.0
 41
0.0
 42
0.0
 43
0.0
 44
0.0
 45
0.0
 46
0.0
 47
0.0
 48
0.0
 49
0.0
140
0.0
141
0.0
142
1.0
143
1.0
 70
   688
 72
     1
 73
     0
 74
     5
  7

 75
    16
147
1.0
148
0.0
149
0.0
100
AcDbLayout
  1
Layout1
 70
     1
 71
     1
 10
0.0
 20
0.0
 11
420.0
 21
297.0
 12
0.0
 22
0.0
 32
0.0
 14
1.000000000000000E+20
 24
1.000000000000000E+20
 34
1.000000000000000E+20
 15
-1.000000000000000E+20
 25
-1.000000000000000E+20
 35
-1.000000000000000E+20
146
0.0
 13
0.0
 23
0.0
 33
0.0
 16
1.0
 26
0.0
 36
0.0
 17
0.0
 27
1.0
 37
0.0
 76
     0
330
1B
  0
LAYOUT
  5
26
102
{ACAD_REACTORS
330
1A
102
}
330
1A
100
AcDbPlotSettings
  1

  2
none_device
  4

  6

 40
0.0
 41
0.0
 42
0.0
 43
0.0
 44
0.0
 45
0.0
 46
0.0
 47
0.0
 48
0.0
 49
0.0
140
0.0
141
0.0
142
1.0
143
1.0
 70
   688
 72
     1
 73
     0
 74
     5
  7

 75
    16
147
1.0
148
0.0
149
0.0
100
AcDbLayout
  1
Layout2
 70
     1
 71
     2
 10
0.0
 20
0.0
 11
0.0
 21
0.0
 12
0.0
 22
0.0
 32
0.0
 14
0.0
 24
0.0
 34
0.0
 15
0.0
 25
0.0
 35
0.0
146
0.0
 13
0.0
 23
0.0
 33
0.0
 16
1.0
 26
0.0
 36
0.0
 17
0.0
 27
1.0
 37
0.0
 76
     0
330
23
  0
LAYOUT
  5
22
102
{ACAD_REACTORS
330
1A
102
}
330
1A
100
AcDbPlotSettings
  1

  2
none_device
  4
ANSI_A_(11.00_x_8.50_Inches)
  6

 40
6.35
 41
19.05
 42
6.35000508
 43
19.05000254
 44
279.4
 45
215.9
 46
162.8360819353437
 47
100.0465199506625
 48
0.0
 49
0.0
140
0.0
141
0.0
142
0.0504022769828517
143
1.0
 70
  1696
 72
     0
 73
     0
 74
     0
  7

 75
     0
147
0.0235690232323232
148
0.0
149
0.0
100
AcDbLayout
  1
Model
 70
     1
 71
     0
 10
0.0
 20
0.0
 11
420.0
 21
297.0
 12
0.0
 22
0.0
 32
0.0
 14
-133.6666595898687
 24
-49.97073246008785
 34
0.0
 15
98.80553070244366
 25
33.16341044024269
 35
0.0
146
0.0
 13
0.0
 23
0.0
 33
0.0
 16
1.0
 26
0.0
 36
0.0
 17
0.0
 27
1.0
 37
0.0
 76
     0
330
1F
331
29
  0
MLINESTYLE
  5
18
102
{ACAD_REACTORS
330
17
102
}
330
17
100
AcDbMlineStyle
  2
Standard
 70
     0
  3

 62
   256
 51
90.0
 52
90.0
 71
     2
 49
0.5
 62
   256
  6
BYLAYER
 49
-0.5
 62
   256
  6
BYLAYER
  0
ACDBPLACEHOLDER
  5
F
102
{ACAD_REACTORS
330
E
102
}
330
E
  0
SCALE
  5
48
102
{ACAD_REACTORS
330
47
102
}
330
47
100
AcDbScale
 70
     0
300
1:1
140
1.0
141
1.0
290
     1
  0
SCALE
  5
49
102
{ACAD_REACTORS
330
47
102
}
330
47
100
AcDbScale
 70
     0
300
1:2
140
1.0
141
2.0
290
     0
  0
SCALE
  5
4A
102
{ACAD_REACTORS
330
47
102
}
330
47
100
AcDbScale
 70
     0
300
1:4
140
1.0
141
4.0
290
     0
  0
SCALE
  5
4B
102
{ACAD_REACTORS
330
47
102
}
330
47
100
AcDbScale
 70
     0
300
1:5
140
1.0
141
5.0
290
     0
  0
SCALE
  5
4C
102
{ACAD_REACTORS
330
47
102
}
330
47
100
AcDbScale
 70
     0
300
1:8
140
1.0
141
8.0
290
     0
  0
SCALE
  5
4D
102
{ACAD_REACTORS
330
47
102
}
330
47
100
AcDbScale
 70
     0
300
1:10
140
1.0
141
10.0
290
     0
  0
SCALE
  5
4E
102
{ACAD_REACTORS
330
47
102
}
330
47
100
AcDbScale
 70
     0
300
1:16
140
1.0
141
16.0
290
     0
  0
SCALE
  5
4F
102
{ACAD_REACTORS
330
47
102
}
330
47
100
AcDbScale
 70
     0
300
1:20
140
1.0
141
20.0
290
     0
  0
SCALE
  5
50
102
{ACAD_REACTORS
330
47
102
}
330
47
100
AcDbScale
 70
     0
300
1:30
140
1.0
141
30.0
290
     0
  0
SCALE
  5
51
102
{ACAD_REACTORS
330
47
102
}
330
47
100
AcDbScale
 70
     0
300
1:40
140
1.0
141
40.0
290
     0
  0
SCALE
  5
52
102
{ACAD_REACTORS
330
47
102
}
330
47
100
AcDbScale
 70
     0
300
1:50
140
1.0
141
50.0
290
     0
  0
SCALE
  5
53
102
{ACAD_REACTORS
330
47
102
}
330
47
100
AcDbScale
 70
     0
300
1:100
140
1.0
141
100.0
290
     0
  0
SCALE
  5
54
102
{ACAD_REACTORS
330
47
102
}
330
47
100
AcDbScale
 70
     0
300
2:1
140
2.0
141
1.0
290
     0
  0
SCALE
  5
55
102
{ACAD_REACTORS
330
47
102
}
330
47
100
AcDbScale
 70
     0
300
4:1
140
4.0
141
1.0
290
     0
  0
SCALE
  5
56
102
{ACAD_REACTORS
330
47
102
}
330
47
100
AcDbScale
 70
     0
300
8:1
140
8.0
141
1.0
290
     0
  0
SCALE
  5
57
102
{ACAD_REACTORS
330
47
102
}
330
47
100
AcDbScale
 70
     0
300
10:1
140
10.0
141
1.0
290
     0
  0
SCALE
  5
58
102
{ACAD_REACTORS
330
47
102
}
330
47
100
AcDbScale
 70
     0
300
100:1
140
100.0
141
1.0
290
     0
  0
SCALE
  5
59
102
{ACAD_REACTORS
330
47
102
}
330
47
100
AcDbScale
 70
     0
300
1/128" = 1'-0"
140
0.0078125
141
12.0
290
     0
  0
SCALE
  5
5A
102
{ACAD_REACTORS
330
47
102
}
330
47
100
AcDbScale
 70
     0
300
1/64" = 1'-0"
140
0.015625
141
12.0
290
     0
  0
SCALE
  5
5B
102
{ACAD_REACTORS
330
47
102
}
330
47
100
AcDbScale
 70
     0
300
1/32" = 1'-0"
140
0.03125
141
12.0
290
     0
  0
SCALE
  5
5C
102
{ACAD_REACTORS
330
47
102
}
330
47
100
AcDbScale
 70
     0
300
1/16" = 1'-0"
140
0.0625
141
12.0
290
     0
  0
SCALE
  5
5D
102
{ACAD_REACTORS
330
47
102
}
330
47
100
AcDbScale
 70
     0
300
3/32" = 1'-0"
140
0.09375
141
12.0
290
     0
  0
SCALE
  5
5E
102
{ACAD_REACTORS
330
47
102
}
330
47
100
AcDbScale
 70
     0
300
1/8" = 1'-0"
140
0.125
141
12.0
290
     0
  0
SCALE
  5
5F
102
{ACAD_REACTORS
330
47
102
}
330
47
100
AcDbScale
 70
     0
300
3/16" = 1'-0"
140
0.1875
141
12.0
290
     0
  0
SCALE
  5
60
102
{ACAD_REACTORS
330
47
102
}
330
47
100
AcDbScale
 70
     0
300
1/4" = 1'-0"
140
0.25
141
12.0
290
     0
  0
SCALE
  5
61
102
{ACAD_REACTORS
330
47
102
}
330
47
100
AcDbScale
 70
     0
300
3/8" = 1'-0"
140
0.375
141
12.0
290
     0
  0
SCALE
  5
62
102
{ACAD_REACTORS
330
47
102
}
330
47
100
AcDbScale
 70
     0
300
1/2" = 1'-0"
140
0.5
141
12.0
290
     0
  0
SCALE
  5
63
102
{ACAD_REACTORS
330
47
102
}
330
47
100
AcDbScale
 70
     0
300
3/4" = 1'-0"
140
0.75
141
12.0
290
     0
  0
SCALE
  5
64
102
{ACAD_REACTORS
330
47
102
}
330
47
100
AcDbScale
 70
     0
300
1" = 1'-0"
140
1.0
141
12.0
290
     0
  0
SCALE
  5
65
102
{ACAD_REACTORS
330
47
102
}
330
47
100
AcDbScale
 70
     0
300
1-1/2" = 1'-0"
140
1.5
141
12.0
290
     0
  0
SCALE
  5
66
102
{ACAD_REACTORS
330
47
102
}
330
47
100
AcDbScale
 70
     0
300
3" = 1'-0"
140
3.0
141
12.0
290
     0
  0
SCALE
  5
67
102
{ACAD_REACTORS
330
47
102
}
330
47
100
AcDbScale
 70
     0
300
6" = 1'-0"
140
6.0
141
12.0
290
     0
  0
SCALE
  5
68
102
{ACAD_REACTORS
330
47
102
}
330
47
100
AcDbScale
 70
     0
300
1'-0" = 1'-0"
140
12.0
141
12.0
290
     0
  0
ENDSEC
  0
EOF
