  0
SECTION
  2
HEADER
  9
$ACADVER
  1
AC1015
  9
$ACADMAINTVER
 70
     6
  9
$DWGCODEPAGE
  3
ANSI_949
  9
$INSBASE
 10
0.0
 20
0.0
 30
0.0
  9
$EXTMIN
 10
-64.43807109144602
 20
-49.97073246008785
 30
0.0
  9
$EXTMAX
 10
98.89543406921992
 20
33.1634104402427
 30
0.0
  9
$LIMMIN
 10
0.0
 20
0.0
  9
$LIMMAX
 10
420.0
 20
297.0
  9
$ORTHOMODE
 70
     0
  9
$REGENMODE
 70
     1
  9
$FILLMODE
 70
     1
  9
$QTEXTMODE
 70
     0
  9
$MIRRTEXT
 70
     1
  9
$LTSCALE
 40
1.0
  9
$ATTMODE
 70
     1
  9
$TEXTSIZE
 40
3.5
  9
$TRACEWID
 40
1.0
  9
$TEXTSTYLE
  7
Standard
  9
$CLAYER
  8
0
  9
$CELTYPE
  6
ByLayer
  9
$CECOLOR
 62
   256
  9
$CELTSCALE
 40
1.0
  9
$DISPSILH
 70
     0
  9
$DIMSCALE
 40
1.0
  9
$DIMASZ
 40
3.302
  9
$DIMEXO
 40
1.0
  9
$DIMDLI
 40
3.75
  9
$DIMRND
 40
0.0
  9
$DIMDLE
 40
0.0
  9
$DIMEXE
 40
1.0
  9
$DIMTP
 40
0.0
  9
$DIMTM
 40
0.0
  9
$DIMTXT
 40
3.5
  9
$DIMCEN
 40
2.5
  9
$DIMTSZ
 40
0.0
  9
$DIMTOL
 70
     0
  9
$DIMLIM
 70
     0
  9
$DIMTIH
 70
     1
  9
$DIMTOH
 70
     1
  9
$DIMSE1
 70
     0
  9
$DIMSE2
 70
     0
  9
$DIMTAD
 70
     1
  9
$DIMZIN
 70
     0
  9
$DIMBLK
  1

  9
$DIMASO
 70
     1
  9
$DIMSHO
 70
     1
  9
$DIMPOST
  1

  9
$DIMAPOST
  1

  9
$DIMALT
 70
     0
  9
$DIMALTD
 70
     3
  9
$DIMALTF
 40
0.0393700787401575
  9
$DIMLFAC
 40
1.0
  9
$DIMTOFL
 70
     1
  9
$DIMTVP
 40
0.0
  9
$DIMTIX
 70
     0
  9
$DIMSOXD
 70
     0
  9
$DIMSAH
 70
     0
  9
$DIMBLK1
  1

  9
$DIMBLK2
  1

  9
$DIMSTYLE
  2
ISO-25
  9
$DIMCLRD
 70
     0
  9
$DIMCLRE
 70
     0
  9
$DIMCLRT
 70
     0
  9
$DIMTFAC
 40
1.0
  9
$DIMGAP
 40
1.524
  9
$DIMJUST
 70
     0
  9
$DIMSD1
 70
     0
  9
$DIMSD2
 70
     0
  9
$DIMTOLJ
 70
     0
  9
$DIMTZIN
 70
     0
  9
$DIMALTZ
 70
     0
  9
$DIMALTTZ
 70
     0
  9
$DIMUPT
 70
     0
  9
$DIMDEC
 70
     2
  9
$DIMTDEC
 70
     2
  9
$DIMALTU
 70
     2
  9
$DIMALTTD
 70
     3
  9
$DIMTXSTY
  7
Standard
  9
$DIMAUNIT
 70
     0
  9
$DIMADEC
 70
     2
  9
$DIMALTRND
 40
0.0
  9
$DIMAZIN
 70
     0
  9
$DIMDSEP
 70
    44
  9
$DIMATFIT
 70
     3
  9
$DIMFRAC
 70
     0
  9
$DIMLDRBLK
  1

  9
$DIMLUNIT
 70
     2
  9
$DIMLWD
 70
    -2
  9
$DIMLWE
 70
    -2
  9
$DIMTMOVE
 70
     0
  9
$LUNITS
 70
     2
  9
$LUPREC
 70
     2
  9
$SKETCHINC
 40
1.0
  9
$FILLETRAD
 40
10.0
  9
$AUNITS
 70
     0
  9
$AUPREC
 70
     2
  9
$MENU
  1
.
  9
$ELEVATION
 40
0.0
  9
$PELEVATION
 40
0.0
  9
$THICKNESS
 40
0.0
  9
$LIMCHECK
 70
     0
  9
$CHAMFERA
 40
0.0
  9
$CHAMFERB
 40
0.0
  9
$CHAMFERC
 40
0.0
  9
$CHAMFERD
 40
0.0
  9
$SKPOLY
 70
     0
  9
$TDCREATE
 40
2458262.551491898
  9
$TDUCREATE
 40
2458262.176491898
  9
$TDUPDATE
 40
2458266.557380023
  9
$TDUUPDATE
 40
2458266.182380023
  9
$TDINDWG
 40
0.0014711227
  9
$TDUSRTIMER
 40
2458266.180908935
  9
$USRTIMER
 70
     1
  9
$ANGBASE
 50
0.0
  9
$ANGDIR
 70
     0
  9
$PDMODE
 70
     0
  9
$PDSIZE
 40
-1.0
  9
$PLINEWID
 40
0.0
  9
$SPLFRAME
 70
     0
  9
$SPLINETYPE
 70
     6
  9
$SPLINESEGS
 70
     8
  9
$HANDSEED
  5
143
  9
$SURFTAB1
 70
     6
  9
$SURFTAB2
 70
     6
  9
$SURFTYPE
 70
     6
  9
$SURFU
 70
     6
  9
$SURFV
 70
     6
  9
$UCSBASE
  2

  9
$UCSNAME
  2

  9
$UCSORG
 10
0.0
 20
0.0
 30
0.0
  9
$UCSXDIR
 10
1.0
 20
0.0
 30
0.0
  9
$UCSYDIR
 10
0.0
 20
1.0
 30
0.0
  9
$UCSORTHOREF
  2

  9
$UCSORTHOVIEW
 70
     0
  9
$UCSORGTOP
 10
0.0
 20
0.0
 30
0.0
  9
$UCSORGBOTTOM
 10
0.0
 20
0.0
 30
0.0
  9
$UCSORGLEFT
 10
0.0
 20
0.0
 30
0.0
  9
$UCSORGRIGHT
 10
0.0
 20
0.0
 30
0.0
  9
$UCSORGFRONT
 10
0.0
 20
0.0
 30
0.0
  9
$UCSORGBACK
 10
0.0
 20
0.0
 30
0.0
  9
$PUCSBASE
  2

  9
$PUCSNAME
  2

  9
$PUCSORG
 10
0.0
 20
0.0
 30
0.0
  9
$PUCSXDIR
 10
1.0
 20
0.0
 30
0.0
  9
$PUCSYDIR
 10
0.0
 20
1.0
 30
0.0
  9
$PUCSORTHOREF
  2

  9
$PUCSORTHOVIEW
 70
     0
  9
$PUCSORGTOP
 10
0.0
 20
0.0
 30
0.0
  9
$PUCSORGBOTTOM
 10
0.0
 20
0.0
 30
0.0
  9
$PUCSORGLEFT
 10
0.0
 20
0.0
 30
0.0
  9
$PUCSORGRIGHT
 10
0.0
 20
0.0
 30
0.0
  9
$PUCSORGFRONT
 10
0.0
 20
0.0
 30
0.0
  9
$PUCSORGBACK
 10
0.0
 20
0.0
 30
0.0
  9
$USERI1
 70
     0
  9
$USERI2
 70
     0
  9
$USERI3
 70
     0
  9
$USERI4
 70
     0
  9
$USERI5
 70
     0
  9
$USERR1
 40
0.0
  9
$USERR2
 40
0.0
  9
$USERR3
 40
0.0
  9
$USERR4
 40
0.0
  9
$USERR5
 40
0.0
  9
$WORLDVIEW
 70
     1
  9
$SHADEDGE
 70
     3
  9
$SHADEDIF
 70
    70
  9
$TILEMODE
 70
     1
  9
$MAXACTVP
 70
    64
  9
$PINSBASE
 10
0.0
 20
0.0
 30
0.0
  9
$PLIMCHECK
 70
     0
  9
$PEXTMIN
 10
1.000000000000000E+20
 20
1.000000000000000E+20
 30
1.000000000000000E+20
  9
$PEXTMAX
 10
-1.000000000000000E+20
 20
-1.000000000000000E+20
 30
-1.000000000000000E+20
  9
$PLIMMIN
 10
0.0
 20
0.0
  9
$PLIMMAX
 10
0.0
 20
0.0
  9
$UNITMODE
 70
     0
  9
$VISRETAIN
 70
     1
  9
$PLINEGEN
 70
     0
  9
$PSLTSCALE
 70
     1
  9
$TREEDEPTH
 70
  3020
  9
$CMLSTYLE
  2
Standard
  9
$CMLJUST
 70
     0
  9
$CMLSCALE
 40
20.0
  9
$PROXYGRAPHICS
 70
     1
  9
$MEASUREMENT
 70
     1
  9
$CELWEIGHT
370
    -1
  9
$ENDCAPS
280
     0
  9
$JOINSTYLE
280
     0
  9
$LWDISPLAY
290
     1
  9
$INSUNITS
 70
     4
  9
$HYPERLINKBASE
  1

  9
$STYLESHEET
  1

  9
$XEDIT
290
     1
  9
$CEPSNTYPE
380
     0
  9
$PSTYLEMODE
290
     1
  9
$FINGERPRINTGUID
  2
{93E2B554-9D86-401D-85B1-402FB62F29D1}
  9
$VERSIONGUID
  2
{FAEB1C32-E019-11D5-929B-00C0DF256EC4}
  9
$EXTNAMES
290
     1
  9
$PSVPSCALE
 40
0.0
  9
$OLESTARTUP
290
     0
  0
ENDSEC
  0
SECTION
  2
CLASSES
  0
CLASS
  1
ACDBDICTIONARYWDFLT
  2
AcDbDictionaryWithDefault
  3
ObjectDBX Classes
 90
        0
280
     0
281
     0
  0
CLASS
  1
VISUALSTYLE
  2
AcDbVisualStyle
  3
ObjectDBX Classes
 90
     4095
280
     0
281
     0
  0
CLASS
  1
MATERIAL
  2
AcDbMaterial
  3
ObjectDBX Classes
 90
     1153
280
     0
281
     0
  0
CLASS
  1
SCALE
  2
AcDbScale
  3
ObjectDBX Classes
 90
     1153
280
     0
281
     0
  0
CLASS
  1
SUN
  2
AcDbSun
  3
SCENEOE
 90
     1153
280
     0
281
     0
  0
CLASS
  1
ACDBPLACEHOLDER
  2
AcDbPlaceHolder
  3
ObjectDBX Classes
 90
        0
280
     0
281
     0
  0
CLASS
  1
LAYOUT
  2
AcDbLayout
  3
ObjectDBX Classes
 90
        0
280
     0
281
     0
  0
CLASS
  1
TABLESTYLE
  2
AcDbTableStyle
  3
ObjectDBX Classes
 90
     4095
280
     0
281
     0
  0
CLASS
  1
MLEADERSTYLE
  2
AcDbMLeaderStyle
  3
ACDB_MLEADERSTYLE_CLASS
 90
     4095
280
     0
281
     0
  0
CLASS
  1
RASTERVARIABLES
  2
AcDbRasterVariables
  3
ISM
 90
        0
280
     0
281
     0
  0
ENDSEC
  0
SECTION
  2
TABLES
  0
TABLE
  2
VPORT
  5
8
330
0
100
AcDbSymbolTable
 70
     1
  0
VPORT
  5
29
330
8
100
AcDbSymbolTableRecord
100
AcDbViewportTableRecord
  2
*Active
 70
     0
 10
0.0
 20
0.0
 11
1.0
 21
1.0
 12
17.22868148888693
 22
-8.40366100992258
 13
0.0
 23
0.0
 14
10.0
 24
10.0
 15
10.0
 25
10.0
 16
0.0
 26
0.0
 36
1.0
 17
0.0
 27
0.0
 37
0.0
 40
144.5611386258325
 41
1.152454780361757
 42
50.0
 43
0.0
 44
0.0
 50
0.0
 51
0.0
 71
    16
 72
  2000
 73
     1
 74
     3
 75
     0
 76
     0
 77
     0
 78
     0
281
     0
 65
     1
110
0.0
120
0.0
130
0.0
111
1.0
121
0.0
131
0.0
112
0.0
122
1.0
132
0.0
 79
     0
146
0.0
  0
ENDTAB
  0
TABLE
  2
LTYPE
  5
5
330
0
100
AcDbSymbolTable
 70
     6
  0
LTYPE
  5
14
330
5
100
AcDbSymbolTableRecord
100
AcDbLinetypeTableRecord
  2
ByBlock
 70
     0
  3

 72
    65
 73
     0
 40
0.0
  0
LTYPE
  5
15
330
5
100
AcDbSymbolTableRecord
100
AcDbLinetypeTableRecord
  2
ByLayer
 70
     0
  3

 72
    65
 73
     0
 40
0.0
  0
LTYPE
  5
16
330
5
100
AcDbSymbolTableRecord
100
AcDbLinetypeTableRecord
  2
Continuous
 70
     0
  3
Solid line
 72
    65
 73
     0
 40
0.0
  0
LTYPE
  5
6A
330
5
100
AcDbSymbolTableRecord
100
AcDbLinetypeTableRecord
  2
HIDDEN
 70
     0
  3
Hidden __ __ __ __ __ __ __ __ __ __ __ __ __ __
 72
    65
 73
     2
 40
1.905
 49
1.27
 74
     0
 49
-0.635
 74
     0
  0
LTYPE
  5
6B
330
5
100
AcDbSymbolTableRecord
100
AcDbLinetypeTableRecord
  2
PHANTOM
 70
     0
  3
Phantom ______  __  __  ______  __  __  ______
 72
    65
 73
     6
 40
12.7
 49
6.35
 74
     0
 49
-1.27
 74
     0
 49
1.27
 74
     0
 49
-1.27
 74
     0
 49
1.27
 74
     0
 49
-1.27
 74
     0
  0
LTYPE
  5
6C
330
5
100
AcDbSymbolTableRecord
100
AcDbLinetypeTableRecord
  2
CENTER
 70
     0
  3
Center ____ _ ____ _ ____ _ ____ _ ____ _ ____
 72
    65
 73
     4
 40
10.16
 49
6.35
 74
     0
 49
-1.27
 74
     0
 49
1.27
 74
     0
 49
-1.27
 74
     0
  0
LTYPE
  5
6D
330
5
100
AcDbSymbolTableRecord
100
AcDbLinetypeTableRecord
  2
CENTERX2
 70
     0
  3
Center (2x) ________  __  ________  __  _____
 72
    65
 73
     4
 40
20.32
 49
12.7
 74
     0
 49
-2.54
 74
     0
 49
2.54
 74
     0
 49
-2.54
 74
     0
  0
LTYPE
  5
6E
330
5
100
AcDbSymbolTableRecord
100
AcDbLinetypeTableRecord
  2
DOT2
 70
     0
  3
Dot (.5x) ........................................
 72
    65
 73
     2
 40
0.635
 49
0.0
 74
     0
 49
-0.635
 74
     0
  0
ENDTAB
  0
TABLE
  2
LAYER
  5
2
330
0
100
AcDbSymbolTable
 70
    17
  0
LAYER
  5
10
330
2
100
AcDbSymbolTableRecord
100
AcDbLayerTableRecord
  2
0
 70
     0
 62
     7
  6
Continuous
370
    -3
390
F
  0
LAYER
  5
6F
330
2
100
AcDbSymbolTableRecord
100
AcDbLayerTableRecord
  2
FORMAT
 70
     0
 62
     2
  6
Continuous
370
    -3
390
F
  0
LAYER
  5
70
330
2
100
AcDbSymbolTableRecord
100
AcDbLayerTableRecord
  2
외형선
 70
     0
 62
   100
  6
Continuous
370
    30
390
F
  0
LAYER
  5
71
330
2
100
AcDbSymbolTableRecord
100
AcDbLayerTableRecord
  2
숨은선
 70
     0
 62
     2
  6
HIDDEN
370
    15
390
F
  0
LAYER
  5
72
330
2
100
AcDbSymbolTableRecord
100
AcDbLayerTableRecord
  2
중심선
 70
     0
 62
     1
  6
CENTERX2
370
    -3
390
F
  0
LAYER
  5
73
330
2
100
AcDbSymbolTableRecord
100
AcDbLayerTableRecord
  2
파단선
 70
     0
 62
     4
  6
Continuous
370
    -3
390
F
  0
LAYER
  5
74
330
2
100
AcDbSymbolTableRecord
100
AcDbLayerTableRecord
  2
해칭선
 70
     0
 62
     4
  6
Continuous
370
    -3
390
F
  0
LAYER
  5
75
330
2
100
AcDbSymbolTableRecord
100
AcDbLayerTableRecord
  2
가는실선
 70
     0
 62
     4
  6
Continuous
370
    -3
390
F
  0
LAYER
  5
76
330
2
100
AcDbSymbolTableRecord
100
AcDbLayerTableRecord
  2
치수_보조선
 70
     0
 62
     4
  6
Continuous
370
    -3
390
F
  0
LAYER
  5
77
330
2
100
AcDbSymbolTableRecord
100
AcDbLayerTableRecord
  2
치수문자_일반주서
 70
     0
 62
     7
  6
Continuous
370
    15
390
F
  0
LAYER
  5
78
330
2
100
AcDbSymbolTableRecord
100
AcDbLayerTableRecord
  2
개별주서
 70
     0
 62
   100
  6
Continuous
370
    30
390
F
  0
LAYER
  5
79
330
2
100
AcDbSymbolTableRecord
100
AcDbLayerTableRecord
  2
중간선
 70
     0
 62
     2
  6
Continuous
370
    15
390
F
  0
LAYER
  5
7A
330
2
100
AcDbSymbolTableRecord
100
AcDbLayerTableRecord
  2
윤곽선
 70
     0
 62
     3
  6
Continuous
370
    40
390
F
  0
LAYER
  5
7B
330
2
100
AcDbSymbolTableRecord
100
AcDbLayerTableRecord
  2
중심마크
 70
     0
 62
   100
  6
Continuous
370
    30
390
F
  0
LAYER
  5
7C
330
2
100
AcDbSymbolTableRecord
100
AcDbLayerTableRecord
  2
가상선
 70
     0
 62
     4
  6
PHANTOM
370
    -3
390
F
  0
LAYER
  5
7D
330
2
100
AcDbSymbolTableRecord
100
AcDbLayerTableRecord
  2
특수지정선
 70
     0
 62
     5
  6
CENTERX2
370
    60
390
F
  0
LAYER
  5
135
330
2
100
AcDbSymbolTableRecord
100
AcDbLayerTableRecord
  2
Defpoints
 70
     0
 62
     7
  6
Continuous
290
     0
370
    -3
390
F
  0
ENDTAB
  0
TABLE
  2
STYLE
  5
3
330
0
100
AcDbSymbolTable
 70
     2
  0
STYLE
  5
11
330
3
100
AcDbSymbolTableRecord
100
AcDbTextStyleTableRecord
  2
Standard
 70
     0
 40
0.0
 41
1.0
 50
0.0
 71
     0
 42
3.5
  3
txt
  4

  0
STYLE
  5
93
330
3
100
AcDbSymbolTableRecord
100
AcDbTextStyleTableRecord
  2
SLDTEXTSTYLE0
 70
     0
 40
0.0
 41
0.75
 50
0.0
 71
     0
 42
3.5
  3
TXT
  4

  0
ENDTAB
  0
TABLE
  2
VIEW
  5
6
330
0
100
AcDbSymbolTable
 70
     0
  0
ENDTAB
  0
TABLE
  2
UCS
  5
7
330
0
100
AcDbSymbolTable
 70
     0
  0
ENDTAB
  0
TABLE
  2
APPID
  5
9
330
0
100
AcDbSymbolTable
 70
     1
  0
APPID
  5
12
330
9
100
AcDbSymbolTableRecord
100
AcDbRegAppTableRecord
  2
ACAD
 70
     0
  0
ENDTAB
  0
TABLE
  2
DIMSTYLE
  5
A
330
0
100
AcDbSymbolTable
 70
     3
100
AcDbDimStyleTable
  0
DIMSTYLE
105
27
330
A
100
AcDbSymbolTableRecord
100
AcDbDimStyleTableRecord
  2
ISO-25
 70
     0
 41
2.5
 42
0.625
 43
3.75
 44
1.25
 73
     0
 74
     0
 77
     1
 78
     8
140
2.5
141
2.5
143
0.03937007874016
147
0.625
171
     3
172
     1
178
     0
271
     2
272
     2
274
     3
278
    44
283
     0
284
     8
340
11
  0
DIMSTYLE
105
DB
102
{ACAD_REACTORS
330
DA
330
FD
102
}
330
A
100
AcDbSymbolTableRecord
100
AcDbDimStyleTableRecord
  2
SLDDIMSTYLE0
 70
     0
 41
3.302
 44
0.0
 45
0.000000001
 73
     0
 74
     0
 77
     1
 78
    12
 79
     3
140
3.5
147
0.875
172
     1
173
     1
178
     0
271
     2
272
     2
276
     2
284
    12
289
     0
340
93
  0
DIMSTYLE
105
E9
102
{ACAD_REACTORS
330
E8
330
F3
102
}
330
A
100
AcDbSymbolTableRecord
100
AcDbDimStyleTableRecord
  2
SLDDIMSTYLE1
 70
     0
 41
3.302
 44
0.0
 45
0.000000001
 73
     0
 74
     0
 77
     1
 78
    12
 79
     3
140
3.5
147
0.875
173
     1
178
     0
271
     2
272
     2
276
     2
284
    12
340
93
  0
ENDTAB
  0
TABLE
  2
BLOCK_RECORD
  5
1
330
0
100
AcDbSymbolTable
 70
     7
  0
BLOCK_RECORD
  5
1F
330
1
100
AcDbSymbolTableRecord
100
AcDbBlockTableRecord
  2
*Model_Space
340
22
  0
BLOCK_RECORD
  5
1B
330
1
100
AcDbSymbolTableRecord
100
AcDbBlockTableRecord
  2
*Paper_Space
340
1E
  0
BLOCK_RECORD
  5
23
330
1
100
AcDbSymbolTableRecord
100
AcDbBlockTableRecord
  2
*Paper_Space0
340
26
  0
BLOCK_RECORD
  5
7E
330
1
100
AcDbSymbolTableRecord
100
AcDbBlockTableRecord
  2
블럭10
340
0
102
{BLKREFS
331
D3
102
}
  0
BLOCK_RECORD
  5
DC
330
1
100
AcDbSymbolTableRecord
100
AcDbBlockTableRecord
  2
_D
340
0
  0
BLOCK_RECORD
  5
EA
330
1
100
AcDbSymbolTableRecord
100
AcDbBlockTableRecord
  2
_D_1
340
0
  0
BLOCK_RECORD
  5
F4
330
1
100
AcDbSymbolTableRecord
100
AcDbBlockTableRecord
  2
_D_2
340
0
  0
BLOCK_RECORD
  5
FE
330
1
100
AcDbSymbolTableRecord
100
AcDbBlockTableRecord
  2
_D_3
340
0
  0
BLOCK_RECORD
  5
10A
330
1
100
AcDbSymbolTableRecord
100
AcDbBlockTableRecord
  2
SW_DOWELSYMBOL_0
340
0
102
{BLKREFS
331
110
102
}
  0
ENDTAB
  0
ENDSEC
  0
SECTION
  2
BLOCKS
  0
BLOCK
  5
20
330
1F
100
AcDbEntity
  8
0
100
AcDbBlockBegin
  2
*Model_Space
 70
     0
 10
0.0
 20
0.0
 30
0.0
  3
*Model_Space
  1

  0
ENDBLK
  5
21
330
1F
100
AcDbEntity
  8
0
100
AcDbBlockEnd
  0
BLOCK
  5
1C
330
1B
100
AcDbEntity
 67
     1
  8
0
100
AcDbBlockBegin
  2
*Paper_Space
 70
     0
 10
0.0
 20
0.0
 30
0.0
  3
*Paper_Space
  1

  0
ENDBLK
  5
1D
330
1B
100
AcDbEntity
 67
     1
  8
0
100
AcDbBlockEnd
  0
BLOCK
  5
24
330
23
100
AcDbEntity
  8
0
100
AcDbBlockBegin
  2
*Paper_Space0
 70
     0
 10
0.0
 20
0.0
 30
0.0
  3
*Paper_Space0
  1

  0
ENDBLK
  5
25
330
23
100
AcDbEntity
  8
0
100
AcDbBlockEnd
  0
BLOCK
  5
7F
330
7E
100
AcDbEntity
  8
0
100
AcDbBlockBegin
  2
블럭10
 70
     2
 10
0.0
 20
0.0
 30
0.0
  3
블럭10
  1

  0
ELLIPSE
  5
81
330
7E
100
AcDbEntity
  8
중심선
100
AcDbEllipse
 10
20.54032771741204
 20
12.0471743016438
 30
0.0
 11
6.600054785286829
 21
-1.261213355974178E-13
 31
0.0
210
0.0
220
0.0
230
1.0
 40
0.636358354079598
 41
0.9219305317359503
 42
6.513795318482858
  0
ELLIPSE
  5
82
330
7E
100
AcDbEntity
  8
중심선
100
AcDbEllipse
 10
20.54032771746488
 20
12.04717430159265
 30
0.0
 11
3.960054785062283
 21
1.540847449632565E-10
 31
0.0
210
0.0
220
0.0
230
1.0
 40
0.3939339440162632
 41
1.131841032648279
 42
5.62031148352944
  0
LINE
  5
83
330
7E
100
AcDbEntity
  8
중심선
100
AcDbLine
 10
2.268634060543552
 20
16.24717430164393
 30
0.0
 11
5.714909304380834
 21
16.24717430164393
 31
0.0
  0
LINE
  5
84
330
7E
100
AcDbEntity
  8
중심선
100
AcDbLine
 10
5.245725140726316
 20
7.84717430164391
 30
0.0
 11
8.692000384563599
 21
7.84717430164391
 31
0.0
  0
LINE
  5
85
330
7E
100
AcDbEntity
  8
중심선
100
AcDbLine
 10
15.74043728645272
 20
16.24717430164393
 30
0.0
 11
8.692000384563599
 21
7.84717430164391
 31
0.0
  0
LINE
  5
86
330
7E
100
AcDbEntity
  8
중심선
100
AcDbLine
 10
0.1404042013395286
 20
13.71084872107135
 30
0.0
 11
3.58671253028996
 21
13.71088815037384
 31
0.0
  0
LINE
  5
87
330
7E
100
AcDbEntity
  8
중심선
100
AcDbLine
 10
2.750260043222114
 20
10.84717430164391
 30
0.0
 11
6.196535287059397
 21
10.84717430164391
 31
0.0
  0
LINE
  5
88
330
7E
100
AcDbEntity
  8
중심선
100
AcDbLine
 10
12.29416204261559
 20
16.24717430164393
 30
0.0
 11
5.245725140726316
 21
7.84717430164391
 31
0.0
  0
LINE
  5
89
330
7E
100
AcDbEntity
  8
중심선
100
AcDbLine
 10
10.72767329541681
 20
16.24717430164393
 30
0.0
 11
6.196535287059397
 21
10.84717430164391
 31
0.0
  0
LINE
  5
8A
330
7E
100
AcDbEntity
  8
중심선
100
AcDbLine
 10
7.28139805157953
 20
16.24717430164393
 30
0.0
 11
2.750260043222114
 21
10.84717430164391
 31
0.0
  0
LINE
  5
8B
330
7E
100
AcDbEntity
  8
중심선
100
AcDbLine
 10
5.714909304380834
 20
16.24717430164393
 30
0.0
 11
3.58671253028996
 21
13.71088815037384
 31
0.0
  0
LINE
  5
8C
330
7E
100
AcDbEntity
  8
중심선
100
AcDbLine
 10
2.268634060543552
 20
16.24717430164393
 30
0.0
 11
0.1404042013395286
 21
13.71084872107135
 31
0.0
  0
LINE
  5
8D
330
7E
100
AcDbEntity
  8
중심선
100
AcDbLine
 10
7.28139805157953
 20
16.24717430164393
 30
0.0
 11
10.72767329541681
 21
16.24717430164393
 31
0.0
  0
LINE
  5
8E
330
7E
100
AcDbEntity
  8
중심선
100
AcDbLine
 10
12.29416204261559
 20
16.24717430164393
 30
0.0
 11
15.74043728645272
 21
16.24717430164393
 31
0.0
  0
LINE
  5
8F
330
7E
100
AcDbEntity
  8
중심선
100
AcDbLine
 10
19.22036997980202
 20
11.08717430171403
 30
0.0
 11
23.66174974927406
 21
11.08717430171406
 31
0.0
  0
LINE
  5
90
330
7E
100
AcDbEntity
  8
중심선
100
AcDbLine
 10
19.22039502424796
 20
13.00717430171391
 30
0.0
 11
19.22036997980202
 21
11.08717430171403
 31
0.0
  0
LINE
  5
91
330
7E
100
AcDbEntity
  8
중심선
100
AcDbLine
 10
19.22039502424796
 20
13.00717430171391
 30
0.0
 11
26.96566020931264
 21
13.00717430171391
 31
0.0
  0
LINE
  5
92
330
7E
100
AcDbEntity
  8
중심선
100
AcDbLine
 10
22.22332737316547
 20
13.45928029700563
 30
0.0
 11
24.52862924686651
 21
15.39360700705356
 31
0.0
  0
ATTDEF
  5
94
330
7E
100
AcDbEntity
  8
FORMAT
 62
     2
100
AcDbText
 10
-16.11926103943555
 20
2.075366912832191
 30
0.0
 40
4.233333333333333
  1
SEME7016070E [ 2 FLUTE ]
 41
0.75
  7
SLDTEXTSTYLE0
 11
-16.11926103943555
 21
-0.0412997538344756
 31
0.0
100
AcDbAttributeDefinition
  3

  2
AUTOATTR0
 70
     0
 74
     1
  0
ENDBLK
  5
80
330
7E
100
AcDbEntity
  8
0
100
AcDbBlockEnd
  0
BLOCK
  5
DD
330
DC
100
AcDbEntity
  8
0
100
AcDbBlockBegin
  2
_D
 70
     0
 10
0.0
 20
0.0
 30
0.0
  3
_D
  1

  0
LINE
  5
DF
330
DC
100
AcDbEntity
  8
치수문자_일반주서
 62
     0
370
    -2
100
AcDbLine
 10
82.06249999999957
 20
-7.999999999999734
 30
0.0
 11
98.34510073588656
 21
-7.999999999999677
 31
0.0
  0
LINE
  5
E0
330
DC
100
AcDbEntity
  8
치수문자_일반주서
 62
     0
370
    -2
100
AcDbLine
 10
82.06250000000003
 20
8.000000000000261
 30
0.0
 11
98.3451007358865
 21
8.00000000000032
 31
0.0
  0
LINE
  5
E1
330
DC
100
AcDbEntity
  8
치수문자_일반주서
 62
     0
370
    -2
100
AcDbLine
 10
98.34510073588656
 20
-7.999999999999677
 30
0.0
 11
98.34510073588645
 21
22.47900000000033
 31
0.0
  0
LINE
  5
E2
330
DC
100
AcDbEntity
  8
치수문자_일반주서
 62
     0
370
    -2
100
AcDbLine
 10
98.34510073588656
 20
-7.999999999999677
 30
0.0
 11
98.3451007358865
 21
8.00000000000032
 31
0.0
  0
LINE
  5
E3
330
DC
100
AcDbEntity
  8
치수문자_일반주서
 62
     0
370
    -2
100
AcDbLine
 10
98.34510073588658
 20
-11.30199999999968
 30
0.0
 11
98.34510073588659
 21
-14.60399999999968
 31
0.0
  0
LINE
  5
E4
330
DC
100
AcDbEntity
  8
치수문자_일반주서
 62
     0
370
    -2
100
AcDbLine
 10
98.34510073588649
 20
11.30200000000032
 30
0.0
 11
98.34510073588648
 21
14.60400000000032
 31
0.0
  0
SOLID
  5
E5
330
DC
100
AcDbEntity
  8
치수문자_일반주서
 62
     0
100
AcDbTrace
 10
98.8954340692199
 20
-11.30199999999967
 30
0.0
 11
97.79476740255325
 21
-11.30199999999968
 31
0.0
 12
98.34510073588656
 22
-7.999999999999677
 32
0.0
 13
98.34510073588656
 23
-7.999999999999677
 33
0.0
  0
SOLID
  5
E6
330
DC
100
AcDbEntity
  8
치수문자_일반주서
 62
     0
100
AcDbTrace
 10
97.79476740255316
 20
11.30200000000032
 30
0.0
 11
98.89543406921982
 21
11.30200000000032
 31
0.0
 12
98.3451007358865
 22
8.00000000000032
 32
0.0
 13
98.3451007358865
 23
8.00000000000032
 33
0.0
  0
MTEXT
  5
E7
330
DC
100
AcDbEntity
  8
치수문자_일반주서
 62
     0
100
AcDbMText
 10
93.97010073588646
 20
18.54150000000031
 30
0.0
 40
3.5
 41
0.0
 71
     2
 72
     1
  1
\A1;%%c16
  7
SLDTEXTSTYLE0
 11
-3.552713678800502E-15
 21
1.0
 31
0.0
 73
     1
 44
1.0
  0
POINT
  5
13F
330
DC
100
AcDbEntity
  8
Defpoints
 62
     0
100
AcDbPoint
 10
81.99999999999957
 20
-7.999999999999734
 30
0.0
  0
POINT
  5
140
330
DC
100
AcDbEntity
  8
Defpoints
 62
     0
100
AcDbPoint
 10
82.00000000000003
 20
8.000000000000261
 30
0.0
  0
POINT
  5
141
330
DC
100
AcDbEntity
  8
Defpoints
 62
     0
100
AcDbPoint
 10
98.3451007358865
 20
8.000000000000322
 30
0.0
  0
ENDBLK
  5
DE
330
DC
100
AcDbEntity
  8
0
100
AcDbBlockEnd
  0
BLOCK
  5
EB
330
EA
100
AcDbEntity
  8
0
100
AcDbBlockBegin
  2
_D_1
 70
     0
 10
0.0
 20
0.0
 30
0.0
  3
_D_1
  1

  0
LINE
  5
ED
330
EA
100
AcDbEntity
  8
치수문자_일반주서
 62
     0
370
    -2
100
AcDbLine
 10
-47.99999999999998
 20
7.062499999999999
 30
0.0
 11
-47.99999999999997
 21
28.7884104402427
 31
0.0
  0
LINE
  5
EE
330
EA
100
AcDbEntity
  8
치수문자_일반주서
 62
     0
370
    -2
100
AcDbLine
 10
82.00000000000003
 20
8.062500000000261
 30
0.0
 11
82.00000000000003
 21
28.7884104402427
 31
0.0
  0
LINE
  5
EF
330
EA
100
AcDbEntity
  8
치수문자_일반주서
 62
     0
370
    -2
100
AcDbLine
 10
-44.69799999999997
 20
28.7884104402427
 30
0.0
 11
78.69800000000004
 21
28.7884104402427
 31
0.0
  0
SOLID
  5
F0
330
EA
100
AcDbEntity
  8
치수문자_일반주서
 62
     0
100
AcDbTrace
 10
-44.69799999999997
 20
29.33874377357603
 30
0.0
 11
-44.69799999999997
 21
28.23807710690936
 31
0.0
 12
-47.99999999999997
 22
28.7884104402427
 32
0.0
 13
-47.99999999999997
 23
28.7884104402427
 33
0.0
  0
SOLID
  5
F1
330
EA
100
AcDbEntity
  8
치수문자_일반주서
 62
     0
100
AcDbTrace
 10
78.69800000000004
 20
28.23807710690936
 30
0.0
 11
78.69800000000004
 21
29.33874377357603
 31
0.0
 12
82.00000000000003
 22
28.7884104402427
 32
0.0
 13
82.00000000000003
 23
28.7884104402427
 33
0.0
  0
MTEXT
  5
F2
330
EA
100
AcDbEntity
  8
치수문자_일반주서
 62
     0
100
AcDbMText
 10
17.00000000000003
 20
33.1634104402427
 30
0.0
 40
3.5
 41
0.0
 71
     2
 72
     1
  1
\A1;130
  7
SLDTEXTSTYLE0
 73
     1
 44
1.0
  0
POINT
  5
136
330
EA
100
AcDbEntity
  8
Defpoints
 62
     0
100
AcDbPoint
 10
-47.99999999999998
 20
6.999999999999999
 30
0.0
  0
POINT
  5
137
330
EA
100
AcDbEntity
  8
Defpoints
 62
     0
100
AcDbPoint
 10
82.00000000000003
 20
8.000000000000261
 30
0.0
  0
POINT
  5
138
330
EA
100
AcDbEntity
  8
Defpoints
 62
     0
100
AcDbPoint
 10
82.00000000000003
 20
28.7884104402427
 30
0.0
  0
ENDBLK
  5
EC
330
EA
100
AcDbEntity
  8
0
100
AcDbBlockEnd
  0
BLOCK
  5
F5
330
F4
100
AcDbEntity
  8
0
100
AcDbBlockBegin
  2
_D_2
 70
     0
 10
0.0
 20
0.0
 30
0.0
  3
_D_2
  1

  0
LINE
  5
F7
330
F4
100
AcDbEntity
  8
치수문자_일반주서
 62
     0
370
    -2
100
AcDbLine
 10
12.00000000000002
 20
6.316418263706757
 30
0.0
 11
12.00000000000003
 21
19.60091606987428
 31
0.0
  0
LINE
  5
F8
330
F4
100
AcDbEntity
  8
치수문자_일반주서
 62
     0
370
    -2
100
AcDbLine
 10
82.00000000000003
 20
8.06250000000026
 30
0.0
 11
82.00000000000003
 21
19.60091606987428
 31
0.0
  0
LINE
  5
F9
330
F4
100
AcDbEntity
  8
치수문자_일반주서
 62
     0
370
    -2
100
AcDbLine
 10
15.30200000000003
 20
19.60091606987428
 30
0.0
 11
78.69800000000004
 21
19.60091606987428
 31
0.0
  0
SOLID
  5
FA
330
F4
100
AcDbEntity
  8
치수문자_일반주서
 62
     0
100
AcDbTrace
 10
15.30200000000003
 20
20.15124940320761
 30
0.0
 11
15.30200000000003
 21
19.05058273654094
 31
0.0
 12
12.00000000000003
 22
19.60091606987428
 32
0.0
 13
12.00000000000003
 23
19.60091606987428
 33
0.0
  0
SOLID
  5
FB
330
F4
100
AcDbEntity
  8
치수문자_일반주서
 62
     0
100
AcDbTrace
 10
78.69800000000004
 20
19.05058273654094
 30
0.0
 11
78.69800000000004
 21
20.15124940320761
 31
0.0
 12
82.00000000000003
 22
19.60091606987428
 32
0.0
 13
82.00000000000003
 23
19.60091606987428
 33
0.0
  0
MTEXT
  5
FC
330
F4
100
AcDbEntity
  8
치수문자_일반주서
 62
     0
100
AcDbMText
 10
47.00000000000002
 20
23.97591606987428
 30
0.0
 40
3.5
 41
0.0
 71
     2
 72
     1
  1
\A1;70
  7
SLDTEXTSTYLE0
 73
     1
 44
1.0
  0
POINT
  5
139
330
F4
100
AcDbEntity
  8
Defpoints
 62
     0
100
AcDbPoint
 10
12.00000000000002
 20
6.253918263706757
 30
0.0
  0
POINT
  5
13A
330
F4
100
AcDbEntity
  8
Defpoints
 62
     0
100
AcDbPoint
 10
82.00000000000003
 20
8.00000000000026
 30
0.0
  0
POINT
  5
13B
330
F4
100
AcDbEntity
  8
Defpoints
 62
     0
100
AcDbPoint
 10
82.00000000000003
 20
19.60091606987428
 30
0.0
  0
ENDBLK
  5
F6
330
F4
100
AcDbEntity
  8
0
100
AcDbBlockEnd
  0
BLOCK
  5
FF
330
FE
100
AcDbEntity
  8
0
100
AcDbBlockBegin
  2
_D_3
 70
     0
 10
0.0
 20
0.0
 30
0.0
  3
_D_3
  1

  0
LINE
  5
101
330
FE
100
AcDbEntity
  8
치수문자_일반주서
 62
     0
370
    -2
100
AcDbLine
 10
-47.06249999999997
 20
8.0
 30
0.0
 11
-60.06307109144597
 21
7.99999999999995
 31
0.0
  0
LINE
  5
102
330
FE
100
AcDbEntity
  8
치수문자_일반주서
 62
     0
370
    -2
100
AcDbLine
 10
-47.06249999999997
 20
-7.999999999999996
 30
0.0
 11
-60.06307109144591
 21
-8.000000000000046
 31
0.0
  0
LINE
  5
103
330
FE
100
AcDbEntity
  8
치수문자_일반주서
 62
     0
370
    -2
100
AcDbLine
 10
-60.06307109144597
 20
7.99999999999995
 30
0.0
 11
-60.06307109144602
 21
22.47899999999996
 31
0.0
  0
LINE
  5
104
330
FE
100
AcDbEntity
  8
치수문자_일반주서
 62
     0
370
    -2
100
AcDbLine
 10
-60.06307109144597
 20
7.99999999999995
 30
0.0
 11
-60.06307109144591
 21
-8.000000000000046
 31
0.0
  0
LINE
  5
105
330
FE
100
AcDbEntity
  8
치수문자_일반주서
 62
     0
370
    -2
100
AcDbLine
 10
-60.06307109144598
 20
11.30199999999995
 30
0.0
 11
-60.063071091446
 21
14.60399999999995
 31
0.0
  0
LINE
  5
106
330
FE
100
AcDbEntity
  8
치수문자_일반주서
 62
     0
370
    -2
100
AcDbLine
 10
-60.0630710914459
 20
-11.30200000000005
 30
0.0
 11
-60.06307109144588
 21
-14.60400000000005
 31
0.0
  0
SOLID
  5
107
330
FE
100
AcDbEntity
  8
치수문자_일반주서
 62
     0
100
AcDbTrace
 10
-60.61340442477932
 20
11.30199999999995
 30
0.0
 11
-59.51273775811265
 21
11.30199999999995
 31
0.0
 12
-60.06307109144597
 22
7.99999999999995
 32
0.0
 13
-60.06307109144597
 23
7.99999999999995
 33
0.0
  0
SOLID
  5
108
330
FE
100
AcDbEntity
  8
치수문자_일반주서
 62
     0
100
AcDbTrace
 10
-59.51273775811256
 20
-11.30200000000004
 30
0.0
 11
-60.61340442477923
 21
-11.30200000000005
 31
0.0
 12
-60.06307109144591
 22
-8.000000000000046
 32
0.0
 13
-60.06307109144591
 23
-8.000000000000046
 33
0.0
  0
MTEXT
  5
109
330
FE
100
AcDbEntity
  8
치수문자_일반주서
 62
     0
100
AcDbMText
 10
-64.438071091446
 20
18.54149999999994
 30
0.0
 40
3.5
 41
0.0
 71
     2
 72
     1
  1
\A1;%%c16
  7
SLDTEXTSTYLE0
 11
-3.552713678800503E-15
 21
1.0
 31
0.0
 73
     1
 44
1.0
  0
POINT
  5
13C
330
FE
100
AcDbEntity
  8
Defpoints
 62
     0
100
AcDbPoint
 10
-46.99999999999997
 20
8.0
 30
0.0
  0
POINT
  5
13D
330
FE
100
AcDbEntity
  8
Defpoints
 62
     0
100
AcDbPoint
 10
-46.99999999999997
 20
-7.999999999999996
 30
0.0
  0
POINT
  5
13E
330
FE
100
AcDbEntity
  8
Defpoints
 62
     0
100
AcDbPoint
 10
-60.06307109144591
 20
-8.000000000000044
 30
0.0
  0
ENDBLK
  5
100
330
FE
100
AcDbEntity
  8
0
100
AcDbBlockEnd
  0
BLOCK
  5
10B
330
10A
100
AcDbEntity
  8
0
100
AcDbBlockBegin
  2
SW_DOWELSYMBOL_0
 70
     0
 10
0.0
 20
0.0
 30
0.0
  3
SW_DOWELSYMBOL_0
  1

  0
CIRCLE
  5
10D
330
10A
100
AcDbEntity
  8
외형선
 62
     0
100
AcDbCircle
 10
0.0
 20
0.0
 30
0.0
 40
3.000000000000004
  0
HATCH
  5
10E
330
10A
100
AcDbEntity
  8
0
  6
Continuous
 62
     0
370
    30
100
AcDbHatch
 10
0.0
 20
0.0
 30
0.0
210
0.0
220
0.0
230
1.0
  2
SOLID
 70
     1
 71
     0
 91
        1
 92
        0
 93
        3
 72
     2
 10
0.0000000000000104
 20
0.0
 40
3.000000000000004
 50
0.0
 51
90.0
 73
     1
 72
     1
 10
0.0000000000000104
 20
3.000000000000004
 11
0.0000000000000104
 21
0.0
 72
     1
 10
0.0000000000000104
 20
0.0
 11
3.000000000000015
 21
0.0
 97
        0
 75
     0
 76
     1
 98
        1
 10
0.0
 20
0.0
  0
HATCH
  5
10F
330
10A
100
AcDbEntity
  8
0
  6
Continuous
 62
     0
370
    30
100
AcDbHatch
 10
0.0
 20
0.0
 30
0.0
210
0.0
220
0.0
230
1.0
  2
SOLID
 70
     1
 71
     0
 91
        1
 92
        0
 93
        3
 72
     2
 10
0.0000000000000104
 20
0.0
 40
3.000000000000004
 50
180.0
 51
270.0000000000008
 73
     1
 72
     1
 10
0.0000000000000104
 20
-3.000000000000004
 11
0.0000000000000104
 21
0.0
 72
     1
 10
0.0000000000000104
 20
0.0
 11
-2.999999999999994
 21
0.0
 97
        0
 75
     0
 76
     1
 98
        1
 10
0.0
 20
0.0
  0
ENDBLK
  5
10C
330
10A
100
AcDbEntity
  8
0
100
AcDbBlockEnd
  0
ENDSEC
  0
SECTION
  2
ENTITIES
  0
SPLINE
  5
95
330
1F
100
AcDbEntity
  8
0
  6
Continuous
 62
     1
370
    15
100
AcDbSpline
210
0.0
220
0.0
230
1.0
 70
     8
 71
     3
 72
     9
 73
     5
 74
     0
 42
0.000000001
 43
0.00000001
 40
0.0
 40
0.0
 40
0.0
 40
0.0
 40
0.5240453758544678
 40
0.9999999999999999
 40
0.9999999999999999
 40
0.9999999999999999
 40
0.9999999999999999
 10
61.27329151941392
 20
2.049991891111327
 30
0.0
 10
60.88593518713968
 20
2.235009319353371
 30
0.0
 10
60.14676955354804
 20
2.5880654415267
 30
0.0
 10
59.40711742849598
 20
2.975560354955403
 30
0.0
 10
59.05507657931838
 20
3.159990350834665
 30
0.0
  0
SPLINE
  5
96
330
1F
100
AcDbEntity
  8
0
  6
Continuous
 62
     1
370
    15
100
AcDbSpline
210
0.0
220
0.0
230
1.0
 70
     8
 71
     3
 72
     9
 73
     5
 74
     0
 42
0.000000001
 43
0.00000001
 40
0.0
 40
0.0
 40
0.0
 40
0.0
 40
0.5241364270980865
 40
1.0
 40
1.0
 40
1.0
 40
1.0
 10
17.74203618440004
 20
2.050024878686483
 30
0.0
 10
17.35463037862443
 20
2.235067364559499
 30
0.0
 10
16.61549875993403
 20
2.588109962452406
 30
0.0
 10
15.87588719547015
 20
2.975583847435614
 30
0.0
 10
15.52393299384479
 20
3.159968554749908
 30
0.0
  0
LINE
  5
97
330
1F
100
AcDbEntity
  8
0
  6
Continuous
 62
     1
370
    15
100
AcDbLine
 10
42.91616396046854
 20
8.00000000000001
 30
0.0
 11
39.0392606057108
 21
8.00000000000001
 31
0.0
  0
LINE
  5
98
330
1F
100
AcDbEntity
  8
0
  6
Continuous
 62
     1
370
    15
100
AcDbLine
 10
39.03926060571082
 20
-8.000000000000004
 30
0.0
 11
42.91616396046861
 21
-8.000000000000004
 31
0.0
  0
LINE
  5
99
330
1F
100
AcDbEntity
  8
0
  6
Continuous
 62
     1
370
    15
100
AcDbLine
 10
13.31487875360784
 20
2.254845326411943
 30
0.0
 11
13.21090182056528
 21
2.312206402134753
 31
0.0
  0
SPLINE
  5
9A
330
1F
100
AcDbEntity
  8
0
  6
Continuous
 62
     1
370
    15
100
AcDbSpline
210
0.0
220
0.0
230
1.0
 70
     8
 71
     3
 72
    24
 73
    20
 74
     0
 42
0.000000001
 43
0.00000001
 40
0.0
 40
0.0
 40
0.0
 40
0.0
 40
0.0743072944765992
 40
0.135087674442549
 40
0.1867342881905926
 40
0.2210295124136645
 40
0.2482664432948297
 40
0.2763163952238378
 40
0.3051739548287763
 40
0.3340592329335239
 40
0.3620856707370934
 40
0.4376600968256752
 40
0.5230569258893575
 40
0.6564509247359245
 40
0.7819931585991516
 40
0.8254079552478584
 40
0.8662241642848735
 40
0.9226492079616275
 40
1.0
 40
1.0
 40
1.0
 40
1.0
 10
46.59734006455218
 20
-6.657095568065794
 30
0.0
 10
46.89668307420541
 20
-6.627940734952683
 30
0.0
 10
47.44087663312208
 20
-6.574938420284223
 30
0.0
 10
48.19174069804023
 20
-6.511166008956216
 30
0.0
 10
48.78085517261953
 20
-6.465462347885836
 30
0.0
 10
49.23251766824189
 20
-6.433319551422716
 30
0.0
 10
49.58870376941522
 20
-6.409518720343056
 30
0.0
 10
49.92498564088
 20
-6.388471609261641
 30
0.0
 10
50.26878929324858
 20
-6.36845156038004
 30
0.0
 10
50.61301737664748
 20
-6.349934053536788
 30
0.0
 10
51.14453647323211
 20
-6.323665420991158
 30
0.0
 10
51.90268495374541
 20
-6.292186842917107
 30
0.0
 10
53.08367487160616
 20
-6.258060436015478
 30
0.0
 10
54.46189853374976
 20
-6.242257434117729
 30
0.0
 10
55.68584217853105
 20
-6.253492562738415
 30
0.0
 10
56.53129437571148
 20
-6.27258384318042
 30
0.0
 10
57.09345336223302
 20
-6.289337877544484
 30
0.0
 10
57.78799641855071
 20
-6.315006010706518
 30
0.0
 10
58.32073539354805
 20
-6.341678348140061
 30
0.0
 10
58.62877145585685
 20
-6.357100613416675
 30
0.0
  0
SPLINE
  5
9B
330
1F
100
AcDbEntity
  8
0
  6
Continuous
 62
     1
370
    15
100
AcDbSpline
210
0.0
220
0.0
230
1.0
 70
     8
 71
     3
 72
     9
 73
     5
 74
     0
 42
0.000000001
 43
0.00000001
 40
0.0
 40
0.0
 40
0.0
 40
0.0
 40
0.4843627434062846
 40
0.9999999999999999
 40
0.9999999999999999
 40
0.9999999999999999
 40
0.9999999999999999
 10
15.09764491923207
 20
6.357103716356218
 30
0.0
 10
14.59733360648016
 20
6.332752453312033
 30
0.0
 10
13.5644066946507
 20
6.282477605843511
 30
0.0
 10
12.53222918130126
 20
6.263634480678398
 30
0.0
 10
12.00000000000002
 20
6.253918263312608
 30
0.0
  0
SPLINE
  5
9C
330
1F
100
AcDbEntity
  8
0
  6
Continuous
 62
     1
370
    15
100
AcDbSpline
210
0.0
220
0.0
230
1.0
 70
     8
 71
     3
 72
     9
 73
     5
 74
     0
 42
0.000000001
 43
0.00000001
 40
0.0
 40
0.0
 40
0.0
 40
0.0
 40
0.5156372565937154
 40
0.9999999999999999
 40
0.9999999999999999
 40
0.9999999999999999
 40
0.9999999999999999
 10
12.00000000000002
 20
-6.253918263312597
 30
0.0
 10
12.53222918130126
 20
-6.263634480678387
 30
0.0
 10
13.5644066946507
 20
-6.282477605843498
 30
0.0
 10
14.59733360648016
 20
-6.33275245331202
 30
0.0
 10
15.09764491923207
 20
-6.357103716356208
 30
0.0
  0
SPLINE
  5
9D
330
1F
100
AcDbEntity
  8
0
  6
Continuous
 62
     1
370
    15
100
AcDbSpline
210
0.0
220
0.0
230
1.0
 70
     8
 71
     3
 72
    15
 73
    11
 74
     0
 42
0.000000001
 43
0.00000001
 40
0.0
 40
0.0
 40
0.0
 40
0.0
 40
0.1439432454694231
 40
0.248156703497505
 40
0.3240302248920046
 40
0.4055266042600217
 40
0.4947581559636788
 40
0.6820492948169884
 40
0.8738756917499272
 40
0.9999999999999999
 40
0.9999999999999999
 40
0.9999999999999999
 40
0.9999999999999999
 10
58.62877145585685
 20
6.357100613416693
 30
0.0
 10
58.31590912553745
 20
6.341451801270228
 30
0.0
 10
57.77653762333587
 20
6.314473406950618
 30
0.0
 10
57.073063848807
 20
6.288634121581148
 30
0.0
 10
56.50215406670282
 20
6.2718044851403
 30
0.0
 10
55.95982008832551
 20
6.259809890563048
 30
0.0
 10
55.16849130732171
 20
6.248132191641328
 30
0.0
 10
54.13994963187855
 20
6.245839432856267
 30
0.0
 10
53.03471951605219
 20
6.25872096373279
 30
0.0
 10
52.33865277640068
 20
6.28211108613145
 30
0.0
 10
52.06253784850988
 20
6.291389452114998
 30
0.0
  0
SPLINE
  5
9E
330
1F
100
AcDbEntity
  8
0
  6
Continuous
 62
     1
370
    15
100
AcDbSpline
210
0.0
220
0.0
230
1.0
 70
     8
 71
     3
 72
    18
 73
    14
 74
     0
 42
0.000000001
 43
0.00000001
 40
0.0
 40
0.0
 40
0.0
 40
0.0
 40
0.1671781687090033
 40
0.3008643399783367
 40
0.410268054769885
 40
0.4783298975776027
 40
0.5348699581148747
 40
0.5911607067140858
 40
0.6476248740912958
 40
0.7087782715186676
 40
0.77651492382939
 40
0.9861615409239175
 40
1.0
 40
1.0
 40
1.0
 40
1.0
 10
65.05305996301043
 20
-6.017025941749599
 30
0.0
 10
65.38798545479618
 20
-5.965586161461941
 30
0.0
 10
65.99073842072585
 20
-5.873011899736322
 30
0.0
 10
66.8099929181243
 20
-5.762032336184213
 30
0.0
 10
67.43040622060599
 20
-5.684679577882441
 30
0.0
 10
67.89126845144851
 20
-5.631291792498091
 30
0.0
 10
68.24712843167
 20
-5.592100291169634
 30
0.0
 10
68.58216855673106
 20
-5.556961222627855
 30
0.0
 10
68.92829859906765
 20
-5.522750238258509
 30
0.0
 10
69.29750471336547
 20
-5.488409238560267
 30
0.0
 10
69.9716713535414
 20
-5.431043652840479
 30
0.0
 10
70.5513479661156
 20
-5.384705108543197
 30
0.0
 10
70.99604196518767
 20
-5.36281991611977
 30
0.0
 10
71.02357794124917
 20
-5.361464759234518
 30
0.0
  0
SPLINE
  5
9F
330
1F
100
AcDbEntity
  8
0
  6
Continuous
 62
     1
370
    15
100
AcDbSpline
210
0.0
220
0.0
230
1.0
 70
     8
 71
     3
 72
    27
 73
    23
 74
     0
 42
0.000000001
 43
0.00000001
 40
0.0
 40
0.0
 40
0.0
 40
0.0
 40
0.0708585343272988
 40
0.1275312231822681
 40
0.1738543869567762
 40
0.2028239561102967
 40
0.2269512134395323
 40
0.2510617361827172
 40
0.27520851012297
 40
0.3013349795383492
 40
0.3303252105473773
 40
0.4203117801450679
 40
0.5058321996462705
 40
0.5706916350436536
 40
0.6283251597481085
 40
0.6868819701662067
 40
0.7176535433428286
 40
0.7496450457934289
 40
0.7889775634701689
 40
0.8439465665201878
 40
0.9144372194187881
 40
1.0
 40
1.0
 40
1.0
 40
1.0
 10
35.4969677545877
 20
5.471643252663794
 30
0.0
 10
35.16418170754157
 20
5.444633256811693
 30
0.0
 10
34.56523322461431
 20
5.396020653659961
 30
0.0
 10
33.75207465107603
 20
5.346779666413545
 30
0.0
 10
33.13635346581039
 20
5.316734498891761
 30
0.0
 10
32.67868403315877
 20
5.298966623636202
 30
0.0
 10
32.32344626995968
 20
5.287519618645735
 30
0.0
 10
31.98809408480092
 20
5.278742600152682
 30
0.0
 10
31.64155216429209
 20
5.271807960177893
 30
0.0
 10
31.27194821396324
 20
5.266793856342397
 30
0.0
 10
30.59564876856635
 20
5.262390327284931
 30
0.0
 10
29.64339049384824
 20
5.270844493858172
 30
0.0
 10
28.52322413394878
 20
5.305874169615726
 30
0.0
 10
27.55439307774249
 20
5.354767146058817
 30
0.0
 10
26.71031378344454
 20
5.41050884948876
 30
0.0
 10
26.04054076039521
 20
5.463743615938932
 30
0.0
 10
25.47653368867552
 20
5.514712346445655
 30
0.0
 10
24.99736873025966
 20
5.5619154667002
 30
0.0
 10
24.40452766948817
 20
5.625440428500513
 30
0.0
 10
23.63495134701375
 20
5.716066908278575
 30
0.0
 10
22.64979740519424
 20
5.844756597643355
 30
0.0
 10
21.92115743262548
 20
5.956043606380617
 30
0.0
 10
21.52165028494287
 20
6.017061334076802
 30
0.0
  0
SPLINE
  5
A0
330
1F
100
AcDbEntity
  8
0
  6
Continuous
 62
     1
370
    15
100
AcDbSpline
210
0.0
220
0.0
230
1.0
 70
     8
 71
     3
 72
    17
 73
    13
 74
     0
 42
0.000000001
 43
0.00000001
 40
0.0
 40
0.0
 40
0.0
 40
0.0
 40
0.1670682279237876
 40
0.29672109666084
 40
0.3884769514587798
 40
0.4468915272323209
 40
0.5022521886227137
 40
0.559784699392944
 40
0.6196307365161408
 40
0.6844894102377095
 40
0.8436231413264145
 40
1.0
 40
1.0
 40
1.0
 40
1.0
 10
21.52165028494287
 20
-6.017061334076789
 30
0.0
 10
21.85592001328448
 20
-5.965720699555421
 30
0.0
 10
22.44959890487655
 20
-5.874537297613829
 30
0.0
 10
23.22450366127634
 20
-5.769415426736318
 30
0.0
 10
23.78171228775922
 20
-5.699250847268836
 30
0.0
 10
24.18712321285893
 20
-5.651199435210439
 30
0.0
 10
24.52594515145915
 20
-5.612821509912818
 30
0.0
 10
24.86847042769775
 20
-5.575843809770316
 30
0.0
 10
25.23090296020747
 20
-5.538832790737649
 30
0.0
 10
25.79611802364968
 20
-5.484974233583462
 30
0.0
 10
26.55344806622787
 20
-5.420500848111843
 30
0.0
 10
27.18114503962934
 20
-5.380908558775547
 30
0.0
 10
27.49225117706008
 20
-5.361285389110243
 30
0.0
  0
SPLINE
  5
A1
330
1F
100
AcDbEntity
  8
0
  6
Continuous
 62
     1
370
    15
100
AcDbSpline
210
0.0
220
0.0
230
1.0
 70
     8
 71
     3
 72
    26
 73
    22
 74
     0
 42
0.000000001
 43
0.00000001
 40
0.0
 40
0.0
 40
0.0
 40
0.0
 40
0.0707217804800404
 40
0.1256782188633151
 40
0.1646154546312224
 40
0.1894969414281995
 40
0.2131719135720821
 40
0.2379862561795554
 40
0.2639277511996554
 40
0.2919368743116008
 40
0.3600411961312066
 40
0.4323953318086527
 40
0.493553306239863
 40
0.5804835405724406
 40
0.6637720250454585
 40
0.6954968946703944
 40
0.7308680819980644
 40
0.7721245231057801
 40
0.8301797283484156
 40
0.9063285715359884
 40
0.9999999999999999
 40
0.9999999999999999
 40
0.9999999999999999
 40
0.9999999999999999
 10
79.0279643446167
 20
5.47162703905905
 30
0.0
 10
78.6964437522086
 20
5.444716493811407
 30
0.0
 10
78.10730533844762
 20
5.39689431834569
 30
0.0
 10
77.33853122139305
 20
5.350148552249004
 30
0.0
 10
76.78518828943824
 20
5.322383493498776
 30
0.0
 10
76.38173082194369
 20
5.305476679886512
 30
0.0
 10
76.04225381477261
 20
5.293322585085749
 30
0.0
 10
75.69675388754008
 20
5.283092453903214
 30
0.0
 10
75.33002139557206
 20
5.274611426078355
 30
0.0
 10
74.7611080342043
 20
5.26538665934773
 30
0.0
 10
73.97633906338054
 20
5.262311732812498
 30
0.0
 10
73.03768351971267
 20
5.275691053451674
 30
0.0
 10
72.01074853061803
 20
5.307731772401122
 30
0.0
 10
70.93300554859492
 20
5.361871910285482
 30
0.0
 10
69.99244118141847
 20
5.429030469246752
 30
0.0
 10
69.292222215228
 20
5.488748108553305
 30
0.0
 10
68.78766618801829
 20
5.535890691795853
 30
0.0
 10
68.16074617732136
 20
5.60040547888193
 30
0.0
 10
67.34432393809776
 20
5.693845883448603
 30
0.0
 10
66.2827705623213
 20
5.829800146017768
 30
0.0
 10
65.49022268344623
 20
5.950467079653316
 30
0.0
 10
65.05305996301044
 20
6.017025941749615
 30
0.0
  0
LINE
  5
A2
330
1F
100
AcDbEntity
  8
0
  6
Continuous
 62
   131
370
    15
100
AcDbLine
 10
8.949890148750212
 20
8.000000000000004
 30
0.0
 11
-46.99999999999997
 21
8.0
 31
0.0
  0
LINE
  5
A3
330
1F
100
AcDbEntity
  8
0
  6
Continuous
 62
   131
370
    15
100
AcDbLine
 10
-46.99999999999997
 20
-7.999999999999999
 30
0.0
 11
8.949890148750216
 21
-7.999999999999996
 31
0.0
  0
LINE
  5
A4
330
1F
100
AcDbEntity
  8
0
  6
Continuous
 62
   131
370
    15
100
AcDbLine
 10
-46.99999999999997
 20
8.0
 30
0.0
 11
-47.99999999999998
 21
6.999999999999998
 31
0.0
  0
LINE
  5
A5
330
1F
100
AcDbEntity
  8
0
  6
Continuous
 62
   131
370
    15
100
AcDbLine
 10
-47.99999999999998
 20
-6.999999999999996
 30
0.0
 11
-46.99999999999997
 21
-7.999999999999996
 31
0.0
  0
SPLINE
  5
A6
330
1F
100
AcDbEntity
  8
0
  6
Continuous
 62
   131
370
    15
100
AcDbSpline
210
0.0
220
0.0
230
1.0
 70
     8
 71
     3
 72
     9
 73
     5
 74
     0
 42
0.000000001
 43
0.00000001
 40
0.0
 40
0.0
 40
0.0
 40
0.0
 40
0.43665243754634
 40
1.0
 40
1.0
 40
1.0
 40
1.0
 10
12.00000000000004
 20
6.253918263312606
 30
0.0
 10
11.55329816698817
 20
6.250116270551961
 30
0.0
 10
10.53028353429311
 20
6.241409133172837
 30
0.0
 10
9.507613156686752
 20
6.26393080663046
 30
0.0
 10
8.931494292268644
 20
6.27661833647519
 30
0.0
  0
SPLINE
  5
A7
330
1F
100
AcDbEntity
  8
0
  6
Continuous
 62
   131
370
    15
100
AcDbSpline
210
0.0
220
0.0
230
1.0
 70
     8
 71
     3
 72
     9
 73
     5
 74
     0
 42
0.000000001
 43
0.00000001
 40
0.0
 40
0.0
 40
0.0
 40
0.0
 40
0.4382059616127896
 40
1.0
 40
1.0
 40
1.0
 40
1.0
 10
8.931494292268644
 20
-6.276618336475181
 30
0.0
 10
9.379629973121205
 20
-6.266183588568743
 30
0.0
 10
10.40228990956576
 20
-6.24237116057704
 30
0.0
 10
11.42528657312337
 20
-6.24976464681898
 30
0.0
 10
12.00000000000004
 20
-6.253918263312597
 30
0.0
  0
SPLINE
  5
A8
330
1F
100
AcDbEntity
  8
0
  6
Continuous
 62
     1
370
    15
100
AcDbSpline
210
0.0
220
0.0
230
1.0
 70
     8
 71
     3
 72
    22
 73
    18
 74
     0
 42
0.000000001
 43
0.00000001
 40
0.0
 40
0.0
 40
0.0
 40
0.0
 40
0.0667611488525862
 40
0.1335197044596061
 40
0.2002758964252953
 40
0.2670299550863912
 40
0.3337821114415094
 40
0.400532597080079
 40
0.467281644110889
 40
0.5340294850902872
 40
0.6007763529500839
 40
0.6675224809252018
 40
0.7342681024811293
 40
0.8010134512412157
 40
0.8677587609138633
 40
0.9345042652196616
 40
0.9999999999999999
 40
0.9999999999999999
 40
0.9999999999999999
 40
0.9999999999999999
 10
82.00000000000003
 20
-7.591526953855189
 30
0.0
 10
81.13020897583688
 20
-7.40716062478542
 30
0.0
 10
79.39066071335394
 20
-7.038435128103913
 30
0.0
 10
76.78141214088741
 20
-6.164639814638981
 30
0.0
 10
74.17227281157838
 20
-5.092218091963882
 30
0.0
 10
71.56323393400905
 20
-3.834655407667813
 30
0.0
 10
68.95428414368531
 20
-2.442951500310401
 30
0.0
 10
66.34541272789072
 20
-0.9645442273834132
 30
0.0
 10
63.73660876599438
 20
0.5478400400186628
 30
0.0
 10
61.12786136452107
 20
2.040884929368822
 30
0.0
 10
58.51915959763974
 20
3.461752564184118
 30
0.0
 10
55.91049253135115
 20
4.760376141749821
 30
0.0
 10
53.30184920752394
 20
5.890340717128701
 30
0.0
 10
50.69321870490185
 20
6.813649094603319
 30
0.0
 10
48.0845899324247
 20
7.490447591051698
 30
0.0
 10
45.4922397012197
 20
7.921068722035304
 30
0.0
 10
43.76942862914014
 20
7.972117847214009
 30
0.0
 10
42.91616396046854
 20
7.997401185351022
 30
0.0
  0
SPLINE
  5
A9
330
1F
100
AcDbEntity
  8
0
  6
Continuous
 62
     1
370
    15
100
AcDbSpline
210
0.0
220
0.0
230
1.0
 70
     8
 71
     3
 72
    14
 73
    10
 74
     0
 42
0.000000001
 43
0.00000001
 40
0.0
 40
0.0
 40
0.0
 40
0.0
 40
0.1463843638561581
 40
0.2928041184722184
 40
0.439248302333585
 40
0.5857058891017561
 40
0.7321658168111744
 40
0.8786170172691853
 40
1.0
 40
1.0
 40
1.0
 40
1.0
 10
82.00000000000003
 20
-6.311778114945716
 30
0.0
 10
80.98578679419914
 20
-6.097121186227505
 30
0.0
 10
78.95711518034274
 20
-5.667755432047295
 30
0.0
 10
75.91366834333681
 20
-4.670106016149034
 30
0.0
 10
72.86964917059508
 20
-3.469928526935365
 30
0.0
 10
69.82530685129483
 20
-2.096390905283636
 30
0.0
 10
66.78091187690673
 20
-0.6263119245457257
 30
0.0
 10
63.91027594154735
 20
0.7980631166889732
 30
0.0
 10
62.05451115279874
 20
1.674557964269084
 30
0.0
 10
61.21347487198047
 20
2.071787166609017
 30
0.0
  0
LINE
  5
AA
330
1F
100
AcDbEntity
  8
0
  6
Continuous
 62
     1
370
    15
100
AcDbLine
 10
82.00000000000003
 20
-7.591526953855196
 30
0.0
 11
82.00000000000003
 21
-6.311778114945716
 31
0.0
  0
SPLINE
  5
AB
330
1F
100
AcDbEntity
  8
0
  6
Continuous
 62
     1
370
    15
100
AcDbSpline
210
0.0
220
0.0
230
1.0
 70
     8
 71
     3
 72
    23
 73
    19
 74
     0
 42
0.000000001
 43
0.00000001
 40
0.0
 40
0.0
 40
0.0
 40
0.0
 40
0.0342937296201154
 40
0.0994007913356627
 40
0.1645080429071357
 40
0.229615712259312
 40
0.2947240271867271
 40
0.359833215282717
 40
0.4249435038685943
 40
0.4900551199230053
 40
0.5551682900115146
 40
0.6202832402164659
 40
0.6835696902484761
 40
0.7468626768608638
 40
0.8101558213115578
 40
0.8734424071645348
 40
0.9367234572339938
 40
1.0
 40
1.0
 40
1.0
 40
1.0
 10
52.06725541014784
 20
-6.289731714631452
 30
0.0
 10
51.60924299847586
 20
-6.45680028270064
 30
0.0
 10
50.28168846690206
 20
-6.941050554028738
 30
0.0
 10
48.08459003508676
 20
-7.487020376787381
 30
0.0
 10
45.4759521677251
 20
-7.912345013629154
 30
0.0
 10
42.86729427173433
 20
-8.04685099850961
 30
0.0
 10
40.25860534022684
 20
-7.899950334455986
 30
0.0
 10
37.64987436411882
 20
-7.47303425573612
 30
0.0
 10
35.0410907416202
 20
-6.782203698529748
 30
0.0
 10
32.43224232594904
 20
-5.851594690828422
 30
0.0
 10
29.82332284650773
 20
-4.714171087947046
 30
0.0
 10
27.23875233698189
 20
-3.422306573345094
 30
0.0
 10
24.67852566851195
 20
-2.026063787104551
 30
0.0
 10
22.14254328029224
 20
-0.5757631178553207
 30
0.0
 10
19.60656190995451
 20
0.8945991345380057
 30
0.0
 10
17.07080840533393
 20
2.331967691979741
 30
0.0
 10
14.5353148398532
 20
3.703178687188625
 30
0.0
 10
12.84508488097437
 20
4.505639044779616
 30
0.0
 10
12.000000000003
 20
4.906854933905644
 30
0.0
  0
SPLINE
  5
AC
330
1F
100
AcDbEntity
  8
0
  6
Continuous
 62
     1
370
    15
100
AcDbSpline
210
0.0
220
0.0
230
1.0
 70
     8
 71
     3
 72
    18
 73
    14
 74
     0
 42
0.000000001
 43
0.00000001
 40
0.0
 40
0.0
 40
0.0
 40
0.0
 40
0.03917072342698
 40
0.1444232344336288
 40
0.2496728367776017
 40
0.3549115834379562
 40
0.460131556244052
 40
0.5653256770820537
 40
0.6705280573868336
 40
0.7757546604368286
 40
0.8809976002870472
 40
0.986248947627686
 40
1.0
 40
1.0
 40
1.0
 40
1.0
 10
46.60898009642881
 20
-6.618631120289229
 30
0.0
 10
46.23130621924397
 20
-6.66631795346822
 30
0.0
 10
44.83881514090574
 20
-6.842140253519565
 30
0.0
 10
42.43150515416401
 20
-6.810843394908128
 30
0.0
 10
39.38719715005212
 20
-6.521286033016917
 30
0.0
 10
36.34325078868759
 20
-5.897587467491109
 30
0.0
 10
33.29990692017191
 20
-4.996169148089441
 30
0.0
 10
30.25707913007896
 20
-3.85284719151892
 30
0.0
 10
27.21412395392585
 20
-2.525656488631807
 30
0.0
 10
24.17057373709174
 20
-1.073981146590141
 30
0.0
 10
21.12648830781759
 20
0.4180463432203437
 30
0.0
 10
18.96435113469389
 20
1.493496458952786
 30
0.0
 10
17.81695423088802
 20
2.010799855990065
 30
0.0
 10
17.68436938424524
 20
2.07057567666422
 30
0.0
  0
SPLINE
  5
AD
330
1F
100
AcDbEntity
  8
0
  6
Continuous
 62
     1
370
    15
100
AcDbSpline
210
0.0
220
0.0
230
1.0
 70
     8
 71
     3
 72
    31
 73
    27
 74
     0
 42
0.000000001
 43
0.00000001
 40
0.0
 40
0.0
 40
0.0
 40
0.0
 40
0.0200102942424186
 40
0.062502715382977
 40
0.1047027976809949
 40
0.1471952251299416
 40
0.1893953890375237
 40
0.2318885483393086
 40
0.2740886269811844
 40
0.3165811484610486
 40
0.358778723797406
 40
0.4012685048646293
 40
0.4434657723155485
 40
0.4859561671844407
 40
0.5281532895137728
 40
0.5706429196547759
 40
0.612840022060108
 40
0.6553293355969879
 40
0.697526506628788
 40
0.7400163550207379
 40
0.7822134962354399
 40
0.8247033037574506
 40
0.8677323168268835
 40
0.9110713077660872
 40
0.9553664406475957
 40
1.0
 40
1.0
 40
1.0
 40
1.0
 10
27.49133024493068
 20
5.360890653219593
 30
0.0
 10
27.85487921315648
 20
5.52013856762982
 30
0.0
 10
28.99043461346756
 20
6.017553895417224
 30
0.0
 10
30.89277361651349
 20
6.683102759947928
 30
0.0
 10
33.20372115835915
 20
7.336471901910218
 30
0.0
 10
35.5096593920799
 20
7.777353381877955
 30
0.0
 10
37.82057801870174
 20
8.006113762140082
 30
0.0
 10
40.1260781011883
 20
8.01235543870657
 30
0.0
 10
42.43677774014326
 20
7.796592362403248
 30
0.0
 10
44.74218069157307
 20
7.365586011381007
 30
0.0
 10
47.05290918643026
 20
6.729508629231189
 30
0.0
 10
49.35857455810768
 20
5.909081105603092
 30
0.0
 10
51.66957004064698
 20
4.923242735095402
 30
0.0
 10
53.97496766613425
 20
3.803081901640113
 30
0.0
 10
56.28554811595655
 20
2.574834157774102
 30
0.0
 10
58.59080445909375
 20
1.278063566424415
 30
0.0
 10
60.90140024469874
 20
-0.0569296630946532
 30
0.0
 10
63.20683916307398
 20
-1.387144363917042
 30
0.0
 10
65.51791818567449
 20
-2.681322026395228
 30
0.0
 10
67.82343062002839
 20
-3.898977779438938
 30
0.0
 10
70.13406777539537
 20
-5.011635102017536
 30
0.0
 10
72.45443299642963
 20
-5.989351144755514
 30
0.0
 10
74.79559325247769
 20
-6.807185646859783
 30
0.0
 10
77.16963261305048
 20
-7.434196089189875
 30
0.0
 10
79.57297947356317
 20
-7.864601775497196
 30
0.0
 10
81.18894325732256
 20
-7.950250957727729
 30
0.0
 10
81.99999999999957
 20
-7.999999999999734
 30
0.0
  0
LINE
  5
AE
330
1F
100
AcDbEntity
  8
0
  6
Continuous
 62
     1
370
    15
100
AcDbLine
 10
81.99999999999957
 20
-7.999999999999734
 30
0.0
 11
82.00000000000003
 21
-7.591526953855204
 31
0.0
  0
SPLINE
  5
AF
330
1F
100
AcDbEntity
  8
0
  6
Continuous
 62
     1
370
    15
100
AcDbSpline
210
0.0
220
0.0
230
1.0
 70
     8
 71
     3
 72
    19
 73
    15
 74
     0
 42
0.000000001
 43
0.00000001
 40
0.0
 40
0.0
 40
0.0
 40
0.0
 40
0.0929706092542993
 40
0.186711681001849
 40
0.2717848471267302
 40
0.3574478979213072
 40
0.442521069926666
 40
0.5281844977642817
 40
0.613257578954625
 40
0.6989200185455589
 40
0.7839931187256747
 40
0.8696555710339813
 40
0.9547288357345971
 40
1.0
 40
1.0
 40
1.0
 40
1.0
 10
12.00000000000002
 20
2.970972642010478
 30
0.0
 10
12.83797072701413
 20
2.512332487482829
 30
0.0
 10
14.52085658014636
 20
1.591251353201191
 30
0.0
 10
16.97057971844113
 20
0.1735736567559694
 30
0.0
 10
19.35455067056799
 20
-1.202359472880571
 30
0.0
 10
21.66031428665055
 20
-2.502022835239232
 30
0.0
 10
23.97112968652816
 20
-3.735185612785776
 30
0.0
 10
26.27657531523621
 20
-4.862468657554798
 30
0.0
 10
28.58727415196783
 20
-5.857650214641929
 30
0.0
 10
30.89277223415673
 20
-6.687666805490124
 30
0.0
 10
33.20372237780764
 20
-7.336957791029215
 30
0.0
 10
35.50965588445175
 20
-7.770781726524712
 30
0.0
 10
37.45653001775847
 20
-7.990654102577404
 30
0.0
 10
38.63125551278808
 20
-7.976925900213884
 30
0.0
 10
39.03926060571082
 20
-7.972157827583567
 30
0.0
  0
SPLINE
  5
B0
330
1F
100
AcDbEntity
  8
0
  6
Continuous
 62
     1
370
    15
100
AcDbSpline
210
0.0
220
0.0
230
1.0
 70
     8
 71
     3
 72
    12
 73
     8
 74
     0
 42
0.000000001
 43
0.00000001
 40
0.0
 40
0.0
 40
0.0
 40
0.0
 40
0.1294332424674459
 40
0.3431259656654426
 40
0.5583581156454434
 40
0.7783387030363916
 40
1.0
 40
1.0
 40
1.0
 40
1.0
 10
71.02410446789516
 20
5.361685635424485
 30
0.0
 10
71.49761708983716
 20
5.565666390903187
 30
0.0
 10
72.75289334314965
 20
6.106416915007536
 30
0.0
 10
74.7955927858849
 20
6.80304048844346
 30
0.0
 10
77.16963274089768
 20
7.435331869338993
 30
0.0
 10
79.57297944102383
 20
7.864312700121588
 30
0.0
 10
81.18894324644867
 20
7.950154355111501
 30
0.0
 10
82.00000000000003
 20
8.000000000000261
 30
0.0
  0
LINE
  5
B1
330
1F
100
AcDbEntity
  8
0
  6
Continuous
 62
   131
370
    15
100
AcDbLine
 10
12.00000000000002
 20
2.970972642010477
 30
0.0
 11
12.00000000000002
 21
4.906854933903332
 31
0.0
  0
SPLINE
  5
B2
330
1F
100
AcDbEntity
  8
0
  6
Continuous
 62
     1
370
    15
100
AcDbSpline
210
0.0
220
0.0
230
1.0
 70
    24
 71
     3
 72
    10
 73
     6
 74
     0
 42
0.000000001
 43
0.00000001
 40
0.0
 40
0.0
 40
0.0
 40
0.0
 40
0.5
 40
0.5
 40
1.0
 40
1.0
 40
1.0
 40
1.0
 10
82.00000000000003
 20
5.600000000000013
 30
0.0
 10
82.00000000000004
 20
5.939458054458521
 30
0.0
 10
82.00000000000001
 20
6.333939750936949
 30
0.0
 10
82.00000000000001
 20
7.161561287686859
 30
0.0
 10
82.00000000000003
 20
7.592587486411796
 30
0.0
 10
82.00000000000003
 20
8.000000000000261
 30
0.0
  0
LINE
  5
B3
330
1F
100
AcDbEntity
  8
0
  6
Continuous
 62
     1
370
    15
100
AcDbLine
 10
82.00000000000003
 20
5.600000000000013
 30
0.0
 11
79.02711444596798
 21
5.468555913284126
 31
0.0
  0
SPLINE
  5
B4
330
1F
100
AcDbEntity
  8
0
  6
Continuous
 62
     1
370
    15
100
AcDbSpline
210
0.0
220
0.0
230
1.0
 70
     8
 71
     3
 72
    10
 73
     6
 74
     0
 42
0.000000001
 43
0.00000001
 40
0.0
 40
0.0
 40
0.0
 40
0.0
 40
0.0764628240620025
 40
0.5382480299134942
 40
0.9999999999999999
 40
0.9999999999999999
 40
0.9999999999999999
 40
0.9999999999999999
 10
18.585768981127
 20
-0.7550149851684735
 30
0.0
 10
18.41791288037382
 20
-0.6889544385855668
 30
0.0
 10
17.23631624635338
 20
-0.2239316057324974
 30
0.0
 10
15.04104632987884
 20
0.6821557749453657
 30
0.0
 10
13.01365778976591
 20
1.470191393062788
 30
0.0
 10
12.00000000000001
 20
1.864195022418025
 30
0.0
  0
SPLINE
  5
B5
330
1F
100
AcDbEntity
  8
0
  6
Continuous
 62
   131
370
    15
100
AcDbSpline
210
0.0
220
0.0
230
1.0
 70
    24
 71
     3
 72
    10
 73
     6
 74
     0
 42
0.000000001
 43
0.00000001
 40
0.0
 40
0.0
 40
0.0
 40
0.0
 40
0.5
 40
0.5
 40
1.0
 40
1.0
 40
1.0
 40
1.0
 10
12.00000000000002
 20
2.970972642010475
 30
0.0
 10
12.00000000000002
 20
2.934267962925388
 30
0.0
 10
12.00000000000002
 20
2.813712509268581
 30
0.0
 10
12.00000000000002
 20
2.42679077124335
 30
0.0
 10
12.00000000000002
 20
2.162006002983188
 30
0.0
 10
12.00000000000002
 20
1.864195022418022
 30
0.0
  0
SPLINE
  5
B6
330
1F
100
AcDbEntity
  8
0
  6
Continuous
 62
     1
370
    15
100
AcDbSpline
210
0.0
220
0.0
230
1.0
 70
     8
 71
     3
 72
    17
 73
    13
 74
     0
 42
0.000000001
 43
0.00000001
 40
0.0
 40
0.0
 40
0.0
 40
0.0
 40
0.0533604674666481
 40
0.1676524068543498
 40
0.2819229940653936
 40
0.39621936274626
 40
0.5105393626210938
 40
0.6248740518299379
 40
0.7392144492108443
 40
0.8535515583118525
 40
0.9678763914902458
 40
1.0
 40
1.0
 40
1.0
 40
1.0
 10
62.113599419313
 20
-0.7527507030890424
 30
0.0
 10
61.64000907732324
 20
-0.5641525559541924
 30
0.0
 10
60.15204308925941
 20
0.0284009728392198
 30
0.0
 10
57.64995735712877
 20
1.047932284725693
 30
0.0
 10
54.60715021160231
 20
2.229988833787362
 30
0.0
 10
51.56398024828
 20
3.306684688626516
 30
0.0
 10
48.52018292256828
 20
4.224386042546716
 30
0.0
 10
45.47595308412973
 20
4.937830763174541
 30
0.0
 10
42.43155478480097
 20
5.419239939691662
 30
0.0
 10
39.38725808643141
 20
5.620377102734505
 30
0.0
 10
37.07268243710437
 20
5.624163129898284
 30
0.0
 10
35.77292999510643
 20
5.476849596437485
 30
0.0
 10
35.48782802935627
 20
5.444536229203708
 30
0.0
  0
SPLINE
  5
B7
330
1F
100
AcDbEntity
  8
0
  6
Continuous
 62
     1
370
    15
100
AcDbSpline
210
0.0
220
0.0
230
1.0
 70
     8
 71
     3
 72
     8
 73
     4
 74
     0
 42
0.000000001
 43
0.00000001
 40
0.0
 40
0.0
 40
0.0
 40
0.0
 40
1.0
 40
1.0
 40
1.0
 40
1.0
 10
77.05015961782932
 20
2.237560614295323
 30
0.0
 10
77.03334167603637
 20
2.257479982395578
 30
0.0
 10
77.016621364769
 20
2.27736702115203
 30
0.0
 10
77.00000000000821
 20
2.297221294791127
 30
0.0
  0
LINE
  5
B8
330
1F
100
AcDbEntity
  8
0
  6
Continuous
 62
     1
370
    15
100
AcDbLine
 10
77.00000000000003
 20
2.937719435296604
 30
0.0
 11
82.00000000000003
 21
0.0000000000000135
 31
0.0
  0
LINE
  5
B9
330
1F
100
AcDbEntity
  8
0
  6
Continuous
 62
     1
370
    15
100
AcDbLine
 10
82.00000000000003
 20
0.0000000000000135
 30
0.0
 11
82.00000000000003
 21
-2.137943568237145
 31
0.0
  0
SPLINE
  5
BA
330
1F
100
AcDbEntity
  8
0
  6
Continuous
 62
     1
370
    15
100
AcDbSpline
210
0.0
220
0.0
230
1.0
 70
     8
 71
     3
 72
    12
 73
     8
 74
     0
 42
0.000000001
 43
0.00000001
 40
0.0
 40
0.0
 40
0.0
 40
0.0
 40
0.5000000000000023
 40
0.5000000000000023
 40
0.7500000000000011
 40
0.7500000000000011
 40
1.0
 40
1.0
 40
1.0
 40
1.0
 10
82.00000000000003
 20
-2.137943568237145
 30
0.0
 10
81.14316304501945
 20
-1.46432744054617
 30
0.0
 10
80.30064017802377
 20
-0.7630972272402687
 30
0.0
 10
79.05889110091631
 20
0.3312574405560029
 30
0.0
 10
78.64870036019443
 20
0.7032296227316419
 30
0.0
 10
77.83670336351733
 20
1.463348952643236
 30
0.0
 10
77.43709642869204
 20
1.84953990983968
 30
0.0
 10
77.0501596178293
 20
2.237560614295338
 30
0.0
  0
SPLINE
  5
BB
330
1F
100
AcDbEntity
  8
0
  6
Continuous
 62
     1
370
    15
100
AcDbSpline
210
0.0
220
0.0
230
1.0
 70
     8
 71
     3
 72
    24
 73
    20
 74
     0
 42
0.000000001
 43
0.00000001
 40
0.0
 40
0.0
 40
0.0
 40
0.0
 40
0.0267030312700208
 40
0.0876102480266374
 40
0.1485044900640236
 40
0.2093876521161269
 40
0.2702841930943995
 40
0.3311929967642264
 40
0.3921094229101565
 40
0.4530288110163287
 40
0.5139464926694114
 40
0.574857804006608
 40
0.6357580981376886
 40
0.6966432202896246
 40
0.7575331851474741
 40
0.8184373663936074
 40
0.879351136106745
 40
0.9402698408495419
 40
1.0
 40
1.0
 40
1.0
 40
1.0
 10
65.07109768493333
 20
-5.978384351523203
 30
0.0
 10
64.62626847265682
 20
-6.056829200105925
 30
0.0
 10
63.16682376681202
 20
-6.3141997050216
 30
0.0
 10
60.69303192638115
 20
-6.437626507301873
 30
0.0
 10
57.64994110087638
 20
-6.342626459155495
 30
0.0
 10
54.60715636815405
 20
-5.926048748153246
 30
0.0
 10
51.56398198454708
 20
-5.229249104006496
 30
0.0
 10
48.52018165403244
 20
-4.279920451537198
 30
0.0
 10
45.47594758981999
 20
-3.125177439380475
 30
0.0
 10
42.43154690779392
 20
-1.820123581634622
 30
0.0
 10
39.38724167225669
 20
-0.4276325255340959
 30
0.0
 10
36.34330013394769
 20
0.9853747927389586
 30
0.0
 10
33.29996157245085
 20
2.350882902626254
 30
0.0
 10
30.25712863218849
 20
3.60368489566065
 30
0.0
 10
27.21417341660153
 20
4.682783596149755
 30
0.0
 10
24.1706285281552
 20
5.538498474075863
 30
0.0
 10
21.12654703826468
 20
6.121955954416843
 30
0.0
 10
18.10198558729756
 20
6.432123852843588
 30
0.0
 10
16.09216362097674
 20
6.380066146451349
 30
0.0
 10
15.0971522960575
 20
6.354293710744311
 30
0.0
  0
SPLINE
  5
BC
330
1F
100
AcDbEntity
  8
0
  6
Continuous
 62
   131
370
    15
100
AcDbSpline
210
0.0
220
0.0
230
1.0
 70
    24
 71
     3
 72
    12
 73
     8
 74
     0
 42
0.000000001
 43
0.00000001
 40
0.0
 40
0.0
 40
0.0
 40
0.0
 40
0.0079042251481939
 40
0.3172046426949254
 40
0.6354747933040109
 40
0.9147834002196653
 40
1.0
 40
1.0
 40
1.0
 40
1.0
 10
12.00000000000002
 20
6.251861730347835
 30
0.0
 10
12.00000000000002
 20
6.252545644544665
 30
0.0
 10
12.00000000000002
 20
6.279991821035349
 30
0.0
 10
12.00000000000002
 20
6.155916273246561
 30
0.0
 10
12.00000000000002
 20
5.797057493969908
 30
0.0
 10
12.00000000000002
 20
5.387388770870968
 30
0.0
 10
12.00000000000002
 20
5.070913438636635
 30
0.0
 10
12.00000000000002
 20
4.99692966129568
 30
0.0
  0
SPLINE
  5
BD
330
1F
100
AcDbEntity
  8
0
  6
Continuous
 62
     1
370
    15
100
AcDbSpline
210
0.0
220
0.0
230
1.0
 70
     8
 71
     3
 72
    14
 73
    10
 74
     0
 42
0.000000001
 43
0.00000001
 40
0.0
 40
0.0
 40
0.0
 40
0.0
 40
0.1134762308610414
 40
0.2269170452341144
 40
0.392125540907813
 40
0.5573367145906006
 40
0.7225379067831413
 40
0.8877164845967733
 40
1.0
 40
1.0
 40
1.0
 40
1.0
 10
77.050159616911
 20
2.237560614692847
 30
0.0
 10
76.35328087590332
 20
2.534230696275105
 30
0.0
 10
74.9597408931595
 20
3.127478267252736
 30
0.0
 10
72.55203022958091
 20
4.055809176207579
 30
0.0
 10
69.82523698889354
 20
4.966691641173639
 30
0.0
 10
66.78094827031968
 20
5.746718582682111
 30
0.0
 10
63.73673911418794
 20
6.239335824204137
 30
0.0
 10
61.01771065291565
 20
6.450073743522029
 30
0.0
 10
59.31348058724391
 20
6.359904912339603
 30
0.0
 10
58.62381180903019
 20
6.323415339196184
 30
0.0
  0
SPLINE
  5
BE
330
1F
100
AcDbEntity
  8
0
  6
Continuous
 62
     1
370
    15
100
AcDbSpline
210
0.0
220
0.0
230
1.0
 70
     8
 71
     3
 72
    11
 73
     7
 74
     0
 42
0.000000001
 43
0.00000001
 40
0.0
 40
0.0
 40
0.0
 40
0.0
 40
0.0423435492596919
 40
0.3617950013524253
 40
0.680908685116495
 40
1.0
 40
1.0
 40
1.0
 40
1.0
 10
21.53016099874832
 20
-5.999355687056446
 30
0.0
 10
21.3956484279372
 20
-6.025822596757166
 30
0.0
 10
20.24633580324288
 20
-6.251963196644996
 30
0.0
 10
18.08325849214582
 20
-6.398714720360519
 30
0.0
 10
15.04103794313255
 20
-6.422626867612411
 30
0.0
 10
13.01365562801084
 20
-6.164189814830486
 30
0.0
 10
12.00000000000002
 20
-6.034975817507438
 30
0.0
  0
SPLINE
  5
BF
330
1F
100
AcDbEntity
  8
0
  6
Continuous
 62
     1
370
    15
100
AcDbSpline
210
0.0
220
0.0
230
1.0
 70
    24
 71
     3
 72
    10
 73
     6
 74
     0
 42
0.000000001
 43
0.00000001
 40
0.0
 40
0.0
 40
0.0
 40
0.0
 40
0.5
 40
0.5
 40
1.0
 40
1.0
 40
1.0
 40
1.0
 10
82.00000000000003
 20
-6.311778114945715
 30
0.0
 10
82.00000000000004
 20
-5.827931112030427
 30
0.0
 10
82.00000000000003
 20
-5.216571871251736
 30
0.0
 10
82.00000000000004
 20
-3.795220473205428
 30
0.0
 10
82.00000000000003
 20
-2.986459544410466
 30
0.0
 10
82.00000000000003
 20
-2.137943568237402
 30
0.0
  0
SPLINE
  5
C0
330
1F
100
AcDbEntity
  8
0
  6
Continuous
 62
   131
370
    15
100
AcDbSpline
210
0.0
220
0.0
230
1.0
 70
    24
 71
     3
 72
     9
 73
     5
 74
     0
 42
0.000000001
 43
0.00000001
 40
0.0
 40
0.0
 40
0.0
 40
0.0
 40
0.5062258419581993
 40
1.0
 40
1.0
 40
1.0
 40
1.0
 10
12.00000000000002
 20
-6.034975817507437
 30
0.0
 10
12.00000000000002
 20
-6.099471792644144
 30
0.0
 10
12.00000000000002
 20
-6.226877329444127
 30
0.0
 10
12.00000000000002
 20
-6.243603017707774
 30
0.0
 10
12.00000000000002
 20
-6.251861730347825
 30
0.0
  0
SPLINE
  5
C1
330
1F
100
AcDbEntity
  8
0
  6
Continuous
 62
     1
370
    15
100
AcDbSpline
210
0.0
220
0.0
230
1.0
 70
    24
 71
     3
 72
     8
 73
     4
 74
     0
 42
0.000000001
 43
0.00000001
 40
0.0
 40
0.0
 40
0.0
 40
0.0
 40
1.0
 40
1.0
 40
1.0
 40
1.0
 10
77.00000000000006
 20
2.297221294800901
 30
0.0
 10
77.00000000000006
 20
2.873887513832472
 30
0.0
 10
77.00000000000006
 20
3.404182854907321
 30
0.0
 10
77.00000000000006
 20
3.849725336690629
 30
0.0
  0
SPLINE
  5
C2
330
1F
100
AcDbEntity
  8
0
  6
Continuous
 62
     1
370
    15
100
AcDbSpline
210
0.0
220
0.0
230
1.0
 70
     8
 71
     3
 72
    10
 73
     6
 74
     0
 42
0.000000001
 43
0.00000001
 40
0.0
 40
0.0
 40
0.0
 40
0.0
 40
0.5
 40
0.5
 40
1.0
 40
1.0
 40
1.0
 40
1.0
 10
82.00000000000003
 20
5.600000000000013
 30
0.0
 10
81.15469777286494
 20
5.370775138897779
 30
0.0
 10
80.31414799209605
 20
5.112419133122749
 30
0.0
 10
78.64552416480089
 20
4.532984028997614
 30
0.0
 10
77.81744921700519
 20
4.212395125810848
 30
0.0
 10
77.00000000000004
 20
3.849725336688062
 30
0.0
  0
SPLINE
  5
C3
330
1F
100
AcDbEntity
  8
0
  6
Continuous
 62
   131
370
    15
100
AcDbSpline
210
0.0
220
0.0
230
1.0
 70
    24
 71
     3
 72
    14
 73
    10
 74
     0
 42
0.000000001
 43
0.00000001
 40
0.0
 40
0.0
 40
0.0
 40
0.0
 40
0.25
 40
0.25
 40
0.5
 40
0.5
 40
0.75
 40
0.75
 40
1.0
 40
1.0
 40
1.0
 40
1.0
 10
12.0
 20
1.864195022418034
 30
0.0
 10
12.0
 20
1.161033100998826
 30
0.0
 10
12.0
 20
0.4244757154312851
 30
0.0
 10
12.0
 20
-1.051004185680851
 30
0.0
 10
12.0
 20
-1.789214012450037
 30
0.0
 10
12.0
 20
-3.193124412568865
 30
0.0
 10
12.0
 20
-3.858076923762326
 30
0.0
 10
12.0
 20
-5.054422782618909
 30
0.0
 10
12.0
 20
-5.585495500330341
 30
0.0
 10
12.0
 20
-6.03497581750743
 30
0.0
  0
LINE
  5
C4
330
1F
100
AcDbEntity
  8
0
  6
Continuous
 62
     1
370
    15
100
AcDbLine
 10
82.00000000000003
 20
0.0000000000000135
 30
0.0
 11
82.00000000000003
 21
5.600000000000014
 31
0.0
  0
LINE
  5
C5
330
1F
100
AcDbEntity
  8
0
  6
Continuous
 62
   131
370
    15
100
AcDbLine
 10
8.949890148750216
 20
6.168348675443906
 30
0.0
 11
8.949890148750212
 21
8.000000000000004
 31
0.0
  0
SPLINE
  5
C6
330
1F
100
AcDbEntity
  8
0
  6
Continuous
 62
   131
370
    15
100
AcDbSpline
210
0.0
220
0.0
230
1.0
 70
     8
 71
     3
 72
    10
 73
     6
 74
     0
 42
0.000000001
 43
0.00000001
 40
0.0
 40
0.0
 40
0.0
 40
0.0
 40
0.5000000000000001
 40
0.5000000000000001
 40
1.0
 40
1.0
 40
1.0
 40
1.0
 10
12.0000000000055
 20
4.906854933904503
 30
0.0
 10
11.49116829627083
 20
5.138740051560069
 30
0.0
 10
10.98614779177082
 20
5.360156774276715
 30
0.0
 10
9.968263527859289
 20
5.781612602142175
 30
0.0
 10
9.457577212696695
 20
5.98128899395129
 30
0.0
 10
8.949775175555281
 20
6.168130344169973
 30
0.0
  0
SPLINE
  5
C7
330
1F
100
AcDbEntity
  8
0
  6
Continuous
 62
   131
370
    15
100
AcDbSpline
210
0.0
220
0.0
230
1.0
 70
     8
 71
     3
 72
    10
 73
     6
 74
     0
 42
0.000000001
 43
0.00000001
 40
0.0
 40
0.0
 40
0.0
 40
0.0
 40
0.5
 40
0.5
 40
1.0
 40
1.0
 40
1.0
 40
1.0
 10
8.94989014875022
 20
4.521161065372531
 30
0.0
 10
9.457673458229134
 20
4.279118003571948
 30
0.0
 10
9.96834048038025
 20
4.027469452473472
 30
0.0
 10
10.98618607050785
 20
3.509485919608701
 30
0.0
 10
11.49118749731227
 20
3.243563128280798
 30
0.0
 10
12.00000000000002
 20
2.970972642010476
 30
0.0
  0
LINE
  5
C8
330
1F
100
AcDbEntity
  8
0
  6
Continuous
 62
   131
370
    15
100
AcDbLine
 10
8.949890148750216
 20
-7.999999999999996
 30
0.0
 11
8.94989014875022
 21
4.52116035304086
 31
0.0
  0
LINE
  5
C9
330
1F
100
AcDbEntity
  8
0
  6
Continuous
 62
   131
370
    15
100
AcDbLine
 10
-46.99999999999997
 20
8.0
 30
0.0
 11
-46.99999999999997
 21
-7.999999999999999
 31
0.0
  0
LINE
  5
CA
330
1F
100
AcDbEntity
  8
0
  6
Continuous
 62
   131
370
    15
100
AcDbLine
 10
-47.99999999999998
 20
6.999999999999999
 30
0.0
 11
-47.99999999999998
 21
-6.999999999999996
 31
0.0
  0
SPLINE
  5
CB
330
1F
100
AcDbEntity
  8
0
  6
Continuous
 62
   131
370
    15
100
AcDbSpline
210
0.0
220
0.0
230
1.0
 70
    24
 71
     3
 72
    10
 73
     6
 74
     0
 42
0.000000001
 43
0.00000001
 40
0.0
 40
0.0
 40
0.0
 40
0.0
 40
0.5
 40
0.5
 40
1.0
 40
1.0
 40
1.0
 40
1.0
 10
12.00000000000002
 20
2.970972642010475
 30
0.0
 10
12.00000000000002
 20
2.934267962925388
 30
0.0
 10
12.00000000000002
 20
2.813712509268581
 30
0.0
 10
12.00000000000002
 20
2.42679077124335
 30
0.0
 10
12.00000000000002
 20
2.162006002983188
 30
0.0
 10
12.00000000000002
 20
1.864195022418022
 30
0.0
  0
SPLINE
  5
CC
330
1F
100
AcDbEntity
  8
0
  6
Continuous
 62
   131
370
    15
100
AcDbSpline
210
0.0
220
0.0
230
1.0
 70
     8
 71
     3
 72
    10
 73
     6
 74
     0
 42
0.000000001
 43
0.00000001
 40
0.0
 40
0.0
 40
0.0
 40
0.0
 40
0.5
 40
0.5
 40
1.0
 40
1.0
 40
1.0
 40
1.0
 10
12.00000000000001
 20
1.864195022418023
 30
0.0
 10
11.49118286989058
 20
2.0579860502529
 30
0.0
 10
10.98617684539361
 20
2.247536477830964
 30
0.0
 10
9.968321934945164
 20
2.617780912935905
 30
0.0
 10
9.457650263206762
 20
2.79818313194041
 30
0.0
 10
8.949862440383281
 20
2.972242327502002
 30
0.0
  0
SPLINE
  5
CD
330
1F
100
AcDbEntity
  8
0
  6
Continuous
 62
   131
370
    15
100
AcDbSpline
210
0.0
220
0.0
230
1.0
 70
     8
 71
     3
 72
    10
 73
     6
 74
     0
 42
0.000000001
 43
0.00000001
 40
0.0
 40
0.0
 40
0.0
 40
0.0
 40
0.5
 40
0.5
 40
1.0
 40
1.0
 40
1.0
 40
1.0
 10
12.00000000000002
 20
-6.034975817507437
 30
0.0
 10
11.49118048381125
 20
-5.95678866325895
 30
0.0
 10
10.98617208856402
 20
-5.866633552818334
 30
0.0
 10
9.968312372194303
 20
-5.662559831159655
 30
0.0
 10
9.45763830294768
 20
-5.548724607303964
 30
0.0
 10
8.949848152869407
 20
-5.424148144829361
 30
0.0
  0
SPLINE
  5
CE
330
1F
100
AcDbEntity
  8
0
  6
Continuous
 62
   131
370
    15
100
AcDbSpline
210
0.0
220
0.0
230
1.0
 70
    24
 71
     3
 72
    14
 73
    10
 74
     0
 42
0.000000001
 43
0.00000001
 40
0.0
 40
0.0
 40
0.0
 40
0.0
 40
0.25
 40
0.25
 40
0.5
 40
0.5
 40
0.75
 40
0.75
 40
1.0
 40
1.0
 40
1.0
 40
1.0
 10
12.0
 20
1.864195022418034
 30
0.0
 10
12.0
 20
1.161033100998826
 30
0.0
 10
12.0
 20
0.4244757154312851
 30
0.0
 10
12.0
 20
-1.051004185680851
 30
0.0
 10
12.0
 20
-1.789214012450037
 30
0.0
 10
12.0
 20
-3.193124412568865
 30
0.0
 10
12.0
 20
-3.858076923762326
 30
0.0
 10
12.0
 20
-5.054422782618909
 30
0.0
 10
12.0
 20
-5.585495500330341
 30
0.0
 10
12.0
 20
-6.03497581750743
 30
0.0
  0
SPLINE
  5
CF
330
1F
100
AcDbEntity
  8
0
  6
Continuous
 62
   131
370
    15
100
AcDbSpline
210
0.0
220
0.0
230
1.0
 70
    24
 71
     3
 72
    12
 73
     8
 74
     0
 42
0.000000001
 43
0.00000001
 40
0.0
 40
0.0
 40
0.0
 40
0.0
 40
0.0068719381399266
 40
0.3164941863110584
 40
0.6350955006544539
 40
0.9146947313722905
 40
1.0
 40
1.0
 40
1.0
 40
1.0
 10
12.00000000000003
 20
6.25212424261112
 30
0.0
 10
12.00000000000003
 20
6.25271615991028
 30
0.0
 10
12.00000000000002
 20
6.279977520555062
 30
0.0
 10
12.00000000000003
 20
6.155826847746257
 30
0.0
 10
12.00000000000003
 20
5.797079196942032
 30
0.0
 10
12.00000000000002
 20
5.387387491563861
 30
0.0
 10
12.00000000000003
 20
5.070913196234884
 30
0.0
 10
12.00000000000003
 20
4.99692966129568
 30
0.0
  0
SPLINE
  5
D0
330
1F
100
AcDbEntity
  8
0
  6
Continuous
 62
   131
370
    15
100
AcDbSpline
210
0.0
220
0.0
230
1.0
 70
    24
 71
     3
 72
     9
 73
     5
 74
     0
 42
0.000000001
 43
0.00000001
 40
0.0
 40
0.0
 40
0.0
 40
0.0
 40
0.50496151960163
 40
1.0
 40
1.0
 40
1.0
 40
1.0
 10
12.00000000000002
 20
-6.034975817507437
 30
0.0
 10
12.00000000000002
 20
-6.099448179738577
 30
0.0
 10
12.00000000000003
 20
-6.227125952654825
 30
0.0
 10
12.00000000000003
 20
-6.243846756894897
 30
0.0
 10
12.00000000000003
 20
-6.25212419841694
 30
0.0
  0
LINE
  5
D1
330
1F
100
AcDbEntity
  8
0
  6
Continuous
 62
     1
370
    15
100
AcDbLine
 10
-50.99999999999998
 20
-0.0000000000000004
 30
0.0
 11
89.00000000000003
 21
0.0000000000000143
 31
0.0
  0
CIRCLE
  5
D2
330
1F
100
AcDbEntity
  8
외형선
100
AcDbCircle
 10
0.0000000000000104
 20
0.0
 30
0.0
 40
3.000000000000005
  0
INSERT
  5
D3
330
1F
100
AcDbEntity
  8
0
  6
Continuous
 62
     7
100
AcDbBlockReference
 66
     1
  2
블럭10
 10
-22.93944368806589
 20
-52.04609937292004
 30
0.0
  0
ATTRIB
  5
D4
330
D3
100
AcDbEntity
  8
FORMAT
 62
     2
100
AcDbText
 10
-39.05870472750145
 20
-49.97073246008785
 30
0.0
 40
4.233333333333333
  1
SEME7016070E [ 2 FLUTE ]
 41
0.75
  7
SLDTEXTSTYLE0
 11
-39.05870472750145
 21
-52.08739912675452
 31
0.0
100
AcDbAttribute
  2
AUTOATTR0
 70
     0
 74
     1
  0
SEQEND
  5
D5
330
D3
100
AcDbEntity
  8
0
  6
Continuous
 62
     7
  0
HATCH
  5
D6
330
1F
100
AcDbEntity
  8
중심선
100
AcDbHatch
 10
0.0
 20
0.0
 30
0.0
210
0.0
220
0.0
230
1.0
  2
SOLID
 70
     1
 71
     0
 91
        1
 92
        0
 93
        4
 72
     1
 10
-17.22453438368504
 20
-35.7989250712761
 11
-20.67080962752232
 21
-35.7989250712761
 72
     1
 10
-20.67080962752232
 20
-35.7989250712761
 11
-22.79903948672635
 21
-38.3352506518487
 72
     1
 10
-22.79903948672635
 20
-38.3352506518487
 11
-19.35273115777591
 21
-38.33521122254621
 72
     1
 10
-19.35273115777591
 20
-38.33521122254621
 11
-17.22453438368504
 21
-35.7989250712761
 97
        0
 75
     0
 76
     1
 98
        1
 10
0.0
 20
0.0
  0
HATCH
  5
D7
330
1F
100
AcDbEntity
  8
중심선
100
AcDbHatch
 10
0.0
 20
0.0
 30
0.0
210
0.0
220
0.0
230
1.0
  2
SOLID
 70
     1
 71
     0
 91
        1
 92
        0
 93
        4
 72
     1
 10
-12.21177039264909
 20
-35.7989250712761
 11
-15.65804563648637
 21
-35.7989250712761
 72
     1
 10
-15.65804563648637
 20
-35.7989250712761
 11
-20.18918364484376
 21
-41.19892507127612
 72
     1
 10
-20.18918364484376
 20
-41.19892507127612
 11
-16.74290840100648
 21
-41.19892507127612
 72
     1
 10
-16.74290840100648
 20
-41.19892507127612
 11
-12.21177039264909
 21
-35.7989250712761
 97
        0
 75
     0
 76
     1
 98
        1
 10
0.0
 20
0.0
  0
HATCH
  5
D8
330
1F
100
AcDbEntity
  8
중심선
100
AcDbHatch
 10
0.0
 20
0.0
 30
0.0
210
0.0
220
0.0
230
1.0
  2
SOLID
 70
     1
 71
     0
 91
        1
 92
        0
 93
        4
 72
     1
 10
-7.199006401613195
 20
-35.79892507127613
 11
-10.64528164545031
 21
-35.7989250712761
 72
     1
 10
-10.64528164545031
 20
-35.7989250712761
 11
-17.69371854733956
 21
-44.19892507127612
 72
     1
 10
-17.69371854733956
 20
-44.19892507127612
 11
-14.24744330350228
 21
-44.19892507127612
 72
     1
 10
-14.24744330350228
 20
-44.19892507127612
 11
-7.199006401613195
 21
-35.79892507127613
 97
        0
 75
     0
 76
     1
 98
        1
 10
0.0
 20
0.0
  0
HATCH
  5
D9
330
1F
100
AcDbEntity
  8
중심선
100
AcDbHatch
 10
0.0
 20
0.0
 30
0.0
210
0.0
220
0.0
230
1.0
  2
SOLID
 70
     1
 71
     0
 91
        1
 92
        0
 93
        6
 72
     3
 10
-2.399115970600996
 20
-39.99892507132738
 11
3.960054785062284
 21
1.540850780301639E-10
 40
0.3939339440162633
 50
17.09539180608433
 51
320.0019657685079
 73
     0
 72
     1
 10
-0.7161163149004002
 20
-38.58681907591441
 11
1.589185558800638
 21
-36.65249236586649
 72
     3
 10
-2.399115970653842
 20
-39.99892507127625
 11
6.600054785286829
 21
-1.249000902703301E-13
 40
0.6363583540795982
 50
39.99873849337408
 51
368.4976242363725
 73
     1
 72
     1
 10
4.026216521246767
 20
-39.03892507120613
 11
-3.71904866381792
 21
-39.0389250712061
 72
     1
 10
-3.71904866381792
 20
-39.0389250712061
 11
-3.719073708263854
 21
-40.95892507120602
 72
     1
 10
-3.719073708263854
 20
-40.95892507120602
 11
0.7223060612081831
 21
-40.95892507120599
 97
        0
 75
     0
 76
     1
 98
        1
 10
0.0
 20
0.0
  0
DIMENSION
  5
DA
330
1F
100
AcDbEntity
  8
치수문자_일반주서
100
AcDbDimension
  2
_D
 10
98.3451007358865
 20
8.00000000000032
 30
0.0
 11
98.34510073588646
 21
18.54150000000033
 31
0.0
 70
   160
  1
%%c<>
 71
     2
 42
15.99999999999999
 52
-270.0
  3
SLDDIMSTYLE0
100
AcDbAlignedDimension
 13
81.99999999999957
 23
-7.999999999999734
 33
0.0
 14
82.00000000000003
 24
8.000000000000261
 34
0.0
 50
90.0000000000002
100
AcDbRotatedDimension
  0
DIMENSION
  5
E8
330
1F
100
AcDbEntity
  8
치수문자_일반주서
100
AcDbDimension
  2
_D_1
 10
82.00000000000003
 20
28.7884104402427
 30
0.0
 11
17.00000000000003
 21
28.7884104402427
 31
0.0
 70
   160
  1
<>
 71
     2
 42
130.0
  3
SLDDIMSTYLE1
100
AcDbAlignedDimension
 13
-47.99999999999998
 23
6.999999999999999
 33
0.0
 14
82.00000000000003
 24
8.000000000000261
 34
0.0
 50
-0.0000000000000031
100
AcDbRotatedDimension
  0
DIMENSION
  5
F3
330
1F
100
AcDbEntity
  8
치수문자_일반주서
100
AcDbDimension
  2
_D_2
 10
82.00000000000003
 20
19.60091606987428
 30
0.0
 11
47.00000000000002
 21
19.60091606987428
 31
0.0
 70
   160
  1
<>
 71
     2
 42
70.0
  3
SLDDIMSTYLE1
100
AcDbAlignedDimension
 13
12.00000000000002
 23
6.253918263706757
 33
0.0
 14
82.00000000000003
 24
8.00000000000026
 34
0.0
 50
-0.0000000000000058
100
AcDbRotatedDimension
  0
DIMENSION
  5
FD
330
1F
100
AcDbEntity
  8
치수문자_일반주서
100
AcDbDimension
  2
_D_3
 10
-60.06307109144591
 20
-8.000000000000046
 30
0.0
 11
-60.06307109144601
 21
18.54149999999996
 31
0.0
 70
   160
  1
%%c<>
 71
     2
 42
16.0
 52
-270.0
  3
SLDDIMSTYLE0
100
AcDbAlignedDimension
 13
-46.99999999999997
 23
8.0
 33
0.0
 14
-46.99999999999997
 24
-7.999999999999996
 34
0.0
 50
90.0000000000002
100
AcDbRotatedDimension
  0
INSERT
  5
110
330
1F
100
AcDbEntity
  8
외형선
100
AcDbBlockReference
  2
SW_DOWELSYMBOL_0
 10
0.0000000000000104
 20
0.0
 30
0.0
  0
ENDSEC
  0
SECTION
  2
OBJECTS
  0
DICTIONARY
  5
C
330
0
100
AcDbDictionary
281
     1
  3
ACAD_GROUP
350
D
  3
ACAD_IMAGE_VARS
350
134
  3
ACAD_LAYOUT
350
1A
  3
ACAD_MLINESTYLE
350
17
  3
ACAD_PLOTSETTINGS
350
19
  3
ACAD_PLOTSTYLENAME
350
E
  3
ACAD_SCALELIST
350
47
  3
APPDATA
350
132
  3
DWGPROPS
350
142
  0
DICTIONARY
  5
D
102
{ACAD_REACTORS
330
C
102
}
330
C
100
AcDbDictionary
281
     1
  0
RASTERVARIABLES
  5
134
102
{ACAD_REACTORS
330
C
102
}
330
C
100
AcDbRasterVariables
 90
        0
 70
     1
 71
     1
 72
     1
  0
DICTIONARY
  5
1A
102
{ACAD_REACTORS
330
C
102
}
330
C
100
AcDbDictionary
281
     1
  3
Layout1
350
1E
  3
Layout2
350
26
  3
Model
350
22
  0
DICTIONARY
  5
17
102
{ACAD_REACTORS
330
C
102
}
330
C
100
AcDbDictionary
281
     1
  3
Standard
350
18
  0
DICTIONARY
  5
19
102
{ACAD_REACTORS
330
C
102
}
330
C
100
AcDbDictionary
281
     1
  0
ACDBDICTIONARYWDFLT
  5
E
102
{ACAD_REACTORS
330
C
102
}
330
C
100
AcDbDictionary
281
     1
  3
Normal
350
F
100
AcDbDictionaryWithDefault
340
F
  0
DICTIONARY
  5
47
102
{ACAD_REACTORS
330
C
102
}
330
C
100
AcDbDictionary
281
     1
  3
A0
350
48
  3
A1
350
49
  3
A2
350
4A
  3
A3
350
4B
  3
A4
350
4C
  3
A5
350
4D
  3
A6
350
4E
  3
A7
350
4F
  3
A8
350
50
  3
A9
350
51
  3
B0
350
52
  3
B1
350
53
  3
B2
350
54
  3
B3
350
55
  3
B4
350
56
  3
B5
350
57
  3
B6
350
58
  3
B7
350
59
  3
B8
350
5A
  3
B9
350
5B
  3
C0
350
5C
  3
C1
350
5D
  3
C2
350
5E
  3
C3
350
5F
  3
C4
350
60
  3
C5
350
61
  3
C6
350
62
  3
C7
350
63
  3
C8
350
64
  3
C9
350
65
  3
D0
350
66
  3
D1
350
67
  3
D2
350
68
  0
DICTIONARY
  5
132
102
{ACAD_REACTORS
330
C
102
}
330
C
100
AcDbDictionary
281
     1
  0
XRECORD
  5
142
102
{ACAD_REACTORS
330
C
102
}
330
C
100
AcDbXrecord
280
     1
  1
DWGPROPS COOKIE
  2

  3

  4

  6

  7

  8
12014102
  9

300
=
301
=
302
=
303
=
304
=
305
=
306
=
307
=
308
=
309
=
 40
0.0
 41
2458262.176491898
 42
2458266.182380023
  1

 90
        0
  0
LAYOUT
  5
1E
102
{ACAD_REACTORS
330
1A
102
}
330
1A
100
AcDbPlotSettings
  1

  2
none_device
  4

  6

 40
0.0
 41
0.0
 42
0.0
 43
0.0
 44
0.0
 45
0.0
 46
0.0
 47
0.0
 48
0.0
 49
0.0
140
0.0
141
0.0
142
1.0
143
1.0
 70
   688
 72
     1
 73
     0
 74
     5
  7

 75
    16
147
1.0
148
0.0
149
0.0
100
AcDbLayout
  1
Layout1
 70
     1
 71
     1
 10
0.0
 20
0.0
 11
420.0
 21
297.0
 12
0.0
 22
0.0
 32
0.0
 14
1.000000000000000E+20
 24
1.000000000000000E+20
 34
1.000000000000000E+20
 15
-1.000000000000000E+20
 25
-1.000000000000000E+20
 35
-1.000000000000000E+20
146
0.0
 13
0.0
 23
0.0
 33
0.0
 16
1.0
 26
0.0
 36
0.0
 17
0.0
 27
1.0
 37
0.0
 76
     0
330
1B
  0
LAYOUT
  5
26
102
{ACAD_REACTORS
330
1A
102
}
330
1A
100
AcDbPlotSettings
  1

  2
none_device
  4

  6

 40
0.0
 41
0.0
 42
0.0
 43
0.0
 44
0.0
 45
0.0
 46
0.0
 47
0.0
 48
0.0
 49
0.0
140
0.0
141
0.0
142
1.0
143
1.0
 70
   688
 72
     1
 73
     0
 74
     5
  7

 75
    16
147
1.0
148
0.0
149
0.0
100
AcDbLayout
  1
Layout2
 70
     1
 71
     2
 10
0.0
 20
0.0
 11
0.0
 21
0.0
 12
0.0
 22
0.0
 32
0.0
 14
0.0
 24
0.0
 34
0.0
 15
0.0
 25
0.0
 35
0.0
146
0.0
 13
0.0
 23
0.0
 33
0.0
 16
1.0
 26
0.0
 36
0.0
 17
0.0
 27
1.0
 37
0.0
 76
     0
330
23
  0
LAYOUT
  5
22
102
{ACAD_REACTORS
330
1A
102
}
330
1A
100
AcDbPlotSettings
  1

  2
none_device
  4
ANSI_A_(11.00_x_8.50_Inches)
  6

 40
6.35
 41
19.05
 42
6.35000508
 43
19.05000254
 44
279.4
 45
215.9
 46
110.6856154359161
 47
105.388486121093
 48
0.0
 49
0.0
140
0.0
141
0.0
142
0.0745575495764173
143
1.0
 70
  1696
 72
     0
 73
     0
 74
     0
  7

 75
     0
147
0.0235690232323232
148
0.0
149
0.0
100
AcDbLayout
  1
Model
 70
     1
 71
     0
 10
0.0
 20
0.0
 11
420.0
 21
297.0
 12
0.0
 22
0.0
 32
0.0
 14
-64.43807109144602
 24
-49.97073246008785
 34
0.0
 15
98.89543406921992
 25
33.1634104402427
 35
0.0
146
0.0
 13
0.0
 23
0.0
 33
0.0
 16
1.0
 26
0.0
 36
0.0
 17
0.0
 27
1.0
 37
0.0
 76
     0
330
1F
331
29
  0
MLINESTYLE
  5
18
102
{ACAD_REACTORS
330
17
102
}
330
17
100
AcDbMlineStyle
  2
Standard
 70
     0
  3

 62
   256
 51
90.0
 52
90.0
 71
     2
 49
0.5
 62
   256
  6
BYLAYER
 49
-0.5
 62
   256
  6
BYLAYER
  0
ACDBPLACEHOLDER
  5
F
102
{ACAD_REACTORS
330
E
102
}
330
E
  0
SCALE
  5
48
102
{ACAD_REACTORS
330
47
102
}
330
47
100
AcDbScale
 70
     0
300
1:1
140
1.0
141
1.0
290
     1
  0
SCALE
  5
49
102
{ACAD_REACTORS
330
47
102
}
330
47
100
AcDbScale
 70
     0
300
1:2
140
1.0
141
2.0
290
     0
  0
SCALE
  5
4A
102
{ACAD_REACTORS
330
47
102
}
330
47
100
AcDbScale
 70
     0
300
1:4
140
1.0
141
4.0
290
     0
  0
SCALE
  5
4B
102
{ACAD_REACTORS
330
47
102
}
330
47
100
AcDbScale
 70
     0
300
1:5
140
1.0
141
5.0
290
     0
  0
SCALE
  5
4C
102
{ACAD_REACTORS
330
47
102
}
330
47
100
AcDbScale
 70
     0
300
1:8
140
1.0
141
8.0
290
     0
  0
SCALE
  5
4D
102
{ACAD_REACTORS
330
47
102
}
330
47
100
AcDbScale
 70
     0
300
1:10
140
1.0
141
10.0
290
     0
  0
SCALE
  5
4E
102
{ACAD_REACTORS
330
47
102
}
330
47
100
AcDbScale
 70
     0
300
1:16
140
1.0
141
16.0
290
     0
  0
SCALE
  5
4F
102
{ACAD_REACTORS
330
47
102
}
330
47
100
AcDbScale
 70
     0
300
1:20
140
1.0
141
20.0
290
     0
  0
SCALE
  5
50
102
{ACAD_REACTORS
330
47
102
}
330
47
100
AcDbScale
 70
     0
300
1:30
140
1.0
141
30.0
290
     0
  0
SCALE
  5
51
102
{ACAD_REACTORS
330
47
102
}
330
47
100
AcDbScale
 70
     0
300
1:40
140
1.0
141
40.0
290
     0
  0
SCALE
  5
52
102
{ACAD_REACTORS
330
47
102
}
330
47
100
AcDbScale
 70
     0
300
1:50
140
1.0
141
50.0
290
     0
  0
SCALE
  5
53
102
{ACAD_REACTORS
330
47
102
}
330
47
100
AcDbScale
 70
     0
300
1:100
140
1.0
141
100.0
290
     0
  0
SCALE
  5
54
102
{ACAD_REACTORS
330
47
102
}
330
47
100
AcDbScale
 70
     0
300
2:1
140
2.0
141
1.0
290
     0
  0
SCALE
  5
55
102
{ACAD_REACTORS
330
47
102
}
330
47
100
AcDbScale
 70
     0
300
4:1
140
4.0
141
1.0
290
     0
  0
SCALE
  5
56
102
{ACAD_REACTORS
330
47
102
}
330
47
100
AcDbScale
 70
     0
300
8:1
140
8.0
141
1.0
290
     0
  0
SCALE
  5
57
102
{ACAD_REACTORS
330
47
102
}
330
47
100
AcDbScale
 70
     0
300
10:1
140
10.0
141
1.0
290
     0
  0
SCALE
  5
58
102
{ACAD_REACTORS
330
47
102
}
330
47
100
AcDbScale
 70
     0
300
100:1
140
100.0
141
1.0
290
     0
  0
SCALE
  5
59
102
{ACAD_REACTORS
330
47
102
}
330
47
100
AcDbScale
 70
     0
300
1/128" = 1'-0"
140
0.0078125
141
12.0
290
     0
  0
SCALE
  5
5A
102
{ACAD_REACTORS
330
47
102
}
330
47
100
AcDbScale
 70
     0
300
1/64" = 1'-0"
140
0.015625
141
12.0
290
     0
  0
SCALE
  5
5B
102
{ACAD_REACTORS
330
47
102
}
330
47
100
AcDbScale
 70
     0
300
1/32" = 1'-0"
140
0.03125
141
12.0
290
     0
  0
SCALE
  5
5C
102
{ACAD_REACTORS
330
47
102
}
330
47
100
AcDbScale
 70
     0
300
1/16" = 1'-0"
140
0.0625
141
12.0
290
     0
  0
SCALE
  5
5D
102
{ACAD_REACTORS
330
47
102
}
330
47
100
AcDbScale
 70
     0
300
3/32" = 1'-0"
140
0.09375
141
12.0
290
     0
  0
SCALE
  5
5E
102
{ACAD_REACTORS
330
47
102
}
330
47
100
AcDbScale
 70
     0
300
1/8" = 1'-0"
140
0.125
141
12.0
290
     0
  0
SCALE
  5
5F
102
{ACAD_REACTORS
330
47
102
}
330
47
100
AcDbScale
 70
     0
300
3/16" = 1'-0"
140
0.1875
141
12.0
290
     0
  0
SCALE
  5
60
102
{ACAD_REACTORS
330
47
102
}
330
47
100
AcDbScale
 70
     0
300
1/4" = 1'-0"
140
0.25
141
12.0
290
     0
  0
SCALE
  5
61
102
{ACAD_REACTORS
330
47
102
}
330
47
100
AcDbScale
 70
     0
300
3/8" = 1'-0"
140
0.375
141
12.0
290
     0
  0
SCALE
  5
62
102
{ACAD_REACTORS
330
47
102
}
330
47
100
AcDbScale
 70
     0
300
1/2" = 1'-0"
140
0.5
141
12.0
290
     0
  0
SCALE
  5
63
102
{ACAD_REACTORS
330
47
102
}
330
47
100
AcDbScale
 70
     0
300
3/4" = 1'-0"
140
0.75
141
12.0
290
     0
  0
SCALE
  5
64
102
{ACAD_REACTORS
330
47
102
}
330
47
100
AcDbScale
 70
     0
300
1" = 1'-0"
140
1.0
141
12.0
290
     0
  0
SCALE
  5
65
102
{ACAD_REACTORS
330
47
102
}
330
47
100
AcDbScale
 70
     0
300
1-1/2" = 1'-0"
140
1.5
141
12.0
290
     0
  0
SCALE
  5
66
102
{ACAD_REACTORS
330
47
102
}
330
47
100
AcDbScale
 70
     0
300
3" = 1'-0"
140
3.0
141
12.0
290
     0
  0
SCALE
  5
67
102
{ACAD_REACTORS
330
47
102
}
330
47
100
AcDbScale
 70
     0
300
6" = 1'-0"
140
6.0
141
12.0
290
     0
  0
SCALE
  5
68
102
{ACAD_REACTORS
330
47
102
}
330
47
100
AcDbScale
 70
     0
300
1'-0" = 1'-0"
140
12.0
141
12.0
290
     0
  0
ENDSEC
  0
EOF
