  0
SECTION
  2
HEADER
  9
$ACADVER
  1
AC1015
  9
$ACADMAINTVER
 70
     6
  9
$DWGCODEPAGE
  3
ANSI_949
  9
$INSBASE
 10
0.0
 20
0.0
 30
0.0
  9
$EXTMIN
 10
-73.61076682024819
 20
-49.97073246008785
 30
0.0
  9
$EXTMAX
 10
107.7432417802571
 20
33.1634104402427
 30
0.0
  9
$LIMMIN
 10
0.0
 20
0.0
  9
$LIMMAX
 10
420.0
 20
297.0
  9
$ORTHOMODE
 70
     0
  9
$REGENMODE
 70
     1
  9
$FILLMODE
 70
     1
  9
$QTEXTMODE
 70
     0
  9
$MIRRTEXT
 70
     1
  9
$LTSCALE
 40
1.0
  9
$ATTMODE
 70
     1
  9
$TEXTSIZE
 40
3.5
  9
$TRACEWID
 40
1.0
  9
$TEXTSTYLE
  7
Standard
  9
$CLAYER
  8
0
  9
$CELTYPE
  6
ByLayer
  9
$CECOLOR
 62
   256
  9
$CELTSCALE
 40
1.0
  9
$DISPSILH
 70
     0
  9
$DIMSCALE
 40
1.0
  9
$DIMASZ
 40
3.302
  9
$DIMEXO
 40
1.0
  9
$DIMDLI
 40
3.75
  9
$DIMRND
 40
0.0
  9
$DIMDLE
 40
0.0
  9
$DIMEXE
 40
1.0
  9
$DIMTP
 40
0.0
  9
$DIMTM
 40
0.0
  9
$DIMTXT
 40
3.5
  9
$DIMCEN
 40
2.5
  9
$DIMTSZ
 40
0.0
  9
$DIMTOL
 70
     0
  9
$DIMLIM
 70
     0
  9
$DIMTIH
 70
     1
  9
$DIMTOH
 70
     1
  9
$DIMSE1
 70
     0
  9
$DIMSE2
 70
     0
  9
$DIMTAD
 70
     1
  9
$DIMZIN
 70
     0
  9
$DIMBLK
  1

  9
$DIMASO
 70
     1
  9
$DIMSHO
 70
     1
  9
$DIMPOST
  1

  9
$DIMAPOST
  1

  9
$DIMALT
 70
     0
  9
$DIMALTD
 70
     3
  9
$DIMALTF
 40
0.0393700787401575
  9
$DIMLFAC
 40
1.0
  9
$DIMTOFL
 70
     1
  9
$DIMTVP
 40
0.0
  9
$DIMTIX
 70
     0
  9
$DIMSOXD
 70
     0
  9
$DIMSAH
 70
     0
  9
$DIMBLK1
  1

  9
$DIMBLK2
  1

  9
$DIMSTYLE
  2
ISO-25
  9
$DIMCLRD
 70
     0
  9
$DIMCLRE
 70
     0
  9
$DIMCLRT
 70
     0
  9
$DIMTFAC
 40
1.0
  9
$DIMGAP
 40
1.524
  9
$DIMJUST
 70
     0
  9
$DIMSD1
 70
     0
  9
$DIMSD2
 70
     0
  9
$DIMTOLJ
 70
     0
  9
$DIMTZIN
 70
     0
  9
$DIMALTZ
 70
     0
  9
$DIMALTTZ
 70
     0
  9
$DIMUPT
 70
     0
  9
$DIMDEC
 70
     2
  9
$DIMTDEC
 70
     2
  9
$DIMALTU
 70
     2
  9
$DIMALTTD
 70
     3
  9
$DIMTXSTY
  7
Standard
  9
$DIMAUNIT
 70
     0
  9
$DIMADEC
 70
     2
  9
$DIMALTRND
 40
0.0
  9
$DIMAZIN
 70
     0
  9
$DIMDSEP
 70
    44
  9
$DIMATFIT
 70
     3
  9
$DIMFRAC
 70
     0
  9
$DIMLDRBLK
  1

  9
$DIMLUNIT
 70
     2
  9
$DIMLWD
 70
    -2
  9
$DIMLWE
 70
    -2
  9
$DIMTMOVE
 70
     0
  9
$LUNITS
 70
     2
  9
$LUPREC
 70
     2
  9
$SKETCHINC
 40
1.0
  9
$FILLETRAD
 40
10.0
  9
$AUNITS
 70
     0
  9
$AUPREC
 70
     2
  9
$MENU
  1
.
  9
$ELEVATION
 40
0.0
  9
$PELEVATION
 40
0.0
  9
$THICKNESS
 40
0.0
  9
$LIMCHECK
 70
     0
  9
$CHAMFERA
 40
0.0
  9
$CHAMFERB
 40
0.0
  9
$CHAMFERC
 40
0.0
  9
$CHAMFERD
 40
0.0
  9
$SKPOLY
 70
     0
  9
$TDCREATE
 40
2458262.551679097
  9
$TDUCREATE
 40
2458262.176679097
  9
$TDUPDATE
 40
2458266.558717708
  9
$TDUUPDATE
 40
2458266.183717708
  9
$TDINDWG
 40
0.0012489931
  9
$TDUSRTIMER
 40
2458266.18246875
  9
$USRTIMER
 70
     1
  9
$ANGBASE
 50
0.0
  9
$ANGDIR
 70
     0
  9
$PDMODE
 70
     0
  9
$PDSIZE
 40
-1.0
  9
$PLINEWID
 40
0.0
  9
$SPLFRAME
 70
     0
  9
$SPLINETYPE
 70
     6
  9
$SPLINESEGS
 70
     8
  9
$HANDSEED
  5
147
  9
$SURFTAB1
 70
     6
  9
$SURFTAB2
 70
     6
  9
$SURFTYPE
 70
     6
  9
$SURFU
 70
     6
  9
$SURFV
 70
     6
  9
$UCSBASE
  2

  9
$UCSNAME
  2

  9
$UCSORG
 10
0.0
 20
0.0
 30
0.0
  9
$UCSXDIR
 10
1.0
 20
0.0
 30
0.0
  9
$UCSYDIR
 10
0.0
 20
1.0
 30
0.0
  9
$UCSORTHOREF
  2

  9
$UCSORTHOVIEW
 70
     0
  9
$UCSORGTOP
 10
0.0
 20
0.0
 30
0.0
  9
$UCSORGBOTTOM
 10
0.0
 20
0.0
 30
0.0
  9
$UCSORGLEFT
 10
0.0
 20
0.0
 30
0.0
  9
$UCSORGRIGHT
 10
0.0
 20
0.0
 30
0.0
  9
$UCSORGFRONT
 10
0.0
 20
0.0
 30
0.0
  9
$UCSORGBACK
 10
0.0
 20
0.0
 30
0.0
  9
$PUCSBASE
  2

  9
$PUCSNAME
  2

  9
$PUCSORG
 10
0.0
 20
0.0
 30
0.0
  9
$PUCSXDIR
 10
1.0
 20
0.0
 30
0.0
  9
$PUCSYDIR
 10
0.0
 20
1.0
 30
0.0
  9
$PUCSORTHOREF
  2

  9
$PUCSORTHOVIEW
 70
     0
  9
$PUCSORGTOP
 10
0.0
 20
0.0
 30
0.0
  9
$PUCSORGBOTTOM
 10
0.0
 20
0.0
 30
0.0
  9
$PUCSORGLEFT
 10
0.0
 20
0.0
 30
0.0
  9
$PUCSORGRIGHT
 10
0.0
 20
0.0
 30
0.0
  9
$PUCSORGFRONT
 10
0.0
 20
0.0
 30
0.0
  9
$PUCSORGBACK
 10
0.0
 20
0.0
 30
0.0
  9
$USERI1
 70
     0
  9
$USERI2
 70
     0
  9
$USERI3
 70
     0
  9
$USERI4
 70
     0
  9
$USERI5
 70
     0
  9
$USERR1
 40
0.0
  9
$USERR2
 40
0.0
  9
$USERR3
 40
0.0
  9
$USERR4
 40
0.0
  9
$USERR5
 40
0.0
  9
$WORLDVIEW
 70
     1
  9
$SHADEDGE
 70
     3
  9
$SHADEDIF
 70
    70
  9
$TILEMODE
 70
     1
  9
$MAXACTVP
 70
    64
  9
$PINSBASE
 10
0.0
 20
0.0
 30
0.0
  9
$PLIMCHECK
 70
     0
  9
$PEXTMIN
 10
1.000000000000000E+20
 20
1.000000000000000E+20
 30
1.000000000000000E+20
  9
$PEXTMAX
 10
-1.000000000000000E+20
 20
-1.000000000000000E+20
 30
-1.000000000000000E+20
  9
$PLIMMIN
 10
0.0
 20
0.0
  9
$PLIMMAX
 10
0.0
 20
0.0
  9
$UNITMODE
 70
     0
  9
$VISRETAIN
 70
     1
  9
$PLINEGEN
 70
     0
  9
$PSLTSCALE
 70
     1
  9
$TREEDEPTH
 70
  3020
  9
$CMLSTYLE
  2
Standard
  9
$CMLJUST
 70
     0
  9
$CMLSCALE
 40
20.0
  9
$PROXYGRAPHICS
 70
     1
  9
$MEASUREMENT
 70
     1
  9
$CELWEIGHT
370
    -1
  9
$ENDCAPS
280
     0
  9
$JOINSTYLE
280
     0
  9
$LWDISPLAY
290
     1
  9
$INSUNITS
 70
     4
  9
$HYPERLINKBASE
  1

  9
$STYLESHEET
  1

  9
$XEDIT
290
     1
  9
$CEPSNTYPE
380
     0
  9
$PSTYLEMODE
290
     1
  9
$FINGERPRINTGUID
  2
{A4D1DB30-9AA8-48AF-BAB7-F5353A8C141C}
  9
$VERSIONGUID
  2
{FAEB1C32-E019-11D5-929B-00C0DF256EC4}
  9
$EXTNAMES
290
     1
  9
$PSVPSCALE
 40
0.0
  9
$OLESTARTUP
290
     0
  0
ENDSEC
  0
SECTION
  2
CLASSES
  0
CLASS
  1
ACDBDICTIONARYWDFLT
  2
AcDbDictionaryWithDefault
  3
ObjectDBX Classes
 90
        0
280
     0
281
     0
  0
CLASS
  1
VISUALSTYLE
  2
AcDbVisualStyle
  3
ObjectDBX Classes
 90
     4095
280
     0
281
     0
  0
CLASS
  1
MATERIAL
  2
AcDbMaterial
  3
ObjectDBX Classes
 90
     1153
280
     0
281
     0
  0
CLASS
  1
SCALE
  2
AcDbScale
  3
ObjectDBX Classes
 90
     1153
280
     0
281
     0
  0
CLASS
  1
SUN
  2
AcDbSun
  3
SCENEOE
 90
     1153
280
     0
281
     0
  0
CLASS
  1
ACDBPLACEHOLDER
  2
AcDbPlaceHolder
  3
ObjectDBX Classes
 90
        0
280
     0
281
     0
  0
CLASS
  1
LAYOUT
  2
AcDbLayout
  3
ObjectDBX Classes
 90
        0
280
     0
281
     0
  0
CLASS
  1
TABLESTYLE
  2
AcDbTableStyle
  3
ObjectDBX Classes
 90
     4095
280
     0
281
     0
  0
CLASS
  1
MLEADERSTYLE
  2
AcDbMLeaderStyle
  3
ACDB_MLEADERSTYLE_CLASS
 90
     4095
280
     0
281
     0
  0
CLASS
  1
RASTERVARIABLES
  2
AcDbRasterVariables
  3
ISM
 90
        0
280
     0
281
     0
  0
ENDSEC
  0
SECTION
  2
TABLES
  0
TABLE
  2
VPORT
  5
8
330
0
100
AcDbSymbolTable
 70
     1
  0
VPORT
  5
29
330
8
100
AcDbSymbolTableRecord
100
AcDbViewportTableRecord
  2
*Active
 70
     0
 10
0.0
 20
0.0
 11
1.0
 21
1.0
 12
17.06623748000447
 22
-8.40366100992258
 13
0.0
 23
0.0
 14
10.0
 24
10.0
 15
10.0
 25
10.0
 16
0.0
 26
0.0
 36
1.0
 17
0.0
 27
0.0
 37
0.0
 40
160.5104963115773
 41
1.152454780361757
 42
50.0
 43
0.0
 44
0.0
 50
0.0
 51
0.0
 71
    16
 72
  2000
 73
     1
 74
     3
 75
     0
 76
     0
 77
     0
 78
     0
281
     0
 65
     1
110
0.0
120
0.0
130
0.0
111
1.0
121
0.0
131
0.0
112
0.0
122
1.0
132
0.0
 79
     0
146
0.0
  0
ENDTAB
  0
TABLE
  2
LTYPE
  5
5
330
0
100
AcDbSymbolTable
 70
     6
  0
LTYPE
  5
14
330
5
100
AcDbSymbolTableRecord
100
AcDbLinetypeTableRecord
  2
ByBlock
 70
     0
  3

 72
    65
 73
     0
 40
0.0
  0
LTYPE
  5
15
330
5
100
AcDbSymbolTableRecord
100
AcDbLinetypeTableRecord
  2
ByLayer
 70
     0
  3

 72
    65
 73
     0
 40
0.0
  0
LTYPE
  5
16
330
5
100
AcDbSymbolTableRecord
100
AcDbLinetypeTableRecord
  2
Continuous
 70
     0
  3
Solid line
 72
    65
 73
     0
 40
0.0
  0
LTYPE
  5
6A
330
5
100
AcDbSymbolTableRecord
100
AcDbLinetypeTableRecord
  2
HIDDEN
 70
     0
  3
Hidden __ __ __ __ __ __ __ __ __ __ __ __ __ __
 72
    65
 73
     2
 40
1.905
 49
1.27
 74
     0
 49
-0.635
 74
     0
  0
LTYPE
  5
6B
330
5
100
AcDbSymbolTableRecord
100
AcDbLinetypeTableRecord
  2
PHANTOM
 70
     0
  3
Phantom ______  __  __  ______  __  __  ______
 72
    65
 73
     6
 40
12.7
 49
6.35
 74
     0
 49
-1.27
 74
     0
 49
1.27
 74
     0
 49
-1.27
 74
     0
 49
1.27
 74
     0
 49
-1.27
 74
     0
  0
LTYPE
  5
6C
330
5
100
AcDbSymbolTableRecord
100
AcDbLinetypeTableRecord
  2
CENTER
 70
     0
  3
Center ____ _ ____ _ ____ _ ____ _ ____ _ ____
 72
    65
 73
     4
 40
10.16
 49
6.35
 74
     0
 49
-1.27
 74
     0
 49
1.27
 74
     0
 49
-1.27
 74
     0
  0
LTYPE
  5
6D
330
5
100
AcDbSymbolTableRecord
100
AcDbLinetypeTableRecord
  2
CENTERX2
 70
     0
  3
Center (2x) ________  __  ________  __  _____
 72
    65
 73
     4
 40
20.32
 49
12.7
 74
     0
 49
-2.54
 74
     0
 49
2.54
 74
     0
 49
-2.54
 74
     0
  0
LTYPE
  5
6E
330
5
100
AcDbSymbolTableRecord
100
AcDbLinetypeTableRecord
  2
DOT2
 70
     0
  3
Dot (.5x) ........................................
 72
    65
 73
     2
 40
0.635
 49
0.0
 74
     0
 49
-0.635
 74
     0
  0
ENDTAB
  0
TABLE
  2
LAYER
  5
2
330
0
100
AcDbSymbolTable
 70
    17
  0
LAYER
  5
10
330
2
100
AcDbSymbolTableRecord
100
AcDbLayerTableRecord
  2
0
 70
     0
 62
     7
  6
Continuous
370
    -3
390
F
  0
LAYER
  5
6F
330
2
100
AcDbSymbolTableRecord
100
AcDbLayerTableRecord
  2
FORMAT
 70
     0
 62
     2
  6
Continuous
370
    -3
390
F
  0
LAYER
  5
70
330
2
100
AcDbSymbolTableRecord
100
AcDbLayerTableRecord
  2
외형선
 70
     0
 62
   100
  6
Continuous
370
    30
390
F
  0
LAYER
  5
71
330
2
100
AcDbSymbolTableRecord
100
AcDbLayerTableRecord
  2
숨은선
 70
     0
 62
     2
  6
HIDDEN
370
    15
390
F
  0
LAYER
  5
72
330
2
100
AcDbSymbolTableRecord
100
AcDbLayerTableRecord
  2
중심선
 70
     0
 62
     1
  6
CENTERX2
370
    -3
390
F
  0
LAYER
  5
73
330
2
100
AcDbSymbolTableRecord
100
AcDbLayerTableRecord
  2
파단선
 70
     0
 62
     4
  6
Continuous
370
    -3
390
F
  0
LAYER
  5
74
330
2
100
AcDbSymbolTableRecord
100
AcDbLayerTableRecord
  2
해칭선
 70
     0
 62
     4
  6
Continuous
370
    -3
390
F
  0
LAYER
  5
75
330
2
100
AcDbSymbolTableRecord
100
AcDbLayerTableRecord
  2
가는실선
 70
     0
 62
     4
  6
Continuous
370
    -3
390
F
  0
LAYER
  5
76
330
2
100
AcDbSymbolTableRecord
100
AcDbLayerTableRecord
  2
치수_보조선
 70
     0
 62
     4
  6
Continuous
370
    -3
390
F
  0
LAYER
  5
77
330
2
100
AcDbSymbolTableRecord
100
AcDbLayerTableRecord
  2
치수문자_일반주서
 70
     0
 62
     7
  6
Continuous
370
    15
390
F
  0
LAYER
  5
78
330
2
100
AcDbSymbolTableRecord
100
AcDbLayerTableRecord
  2
개별주서
 70
     0
 62
   100
  6
Continuous
370
    30
390
F
  0
LAYER
  5
79
330
2
100
AcDbSymbolTableRecord
100
AcDbLayerTableRecord
  2
중간선
 70
     0
 62
     2
  6
Continuous
370
    15
390
F
  0
LAYER
  5
7A
330
2
100
AcDbSymbolTableRecord
100
AcDbLayerTableRecord
  2
윤곽선
 70
     0
 62
     3
  6
Continuous
370
    40
390
F
  0
LAYER
  5
7B
330
2
100
AcDbSymbolTableRecord
100
AcDbLayerTableRecord
  2
중심마크
 70
     0
 62
   100
  6
Continuous
370
    30
390
F
  0
LAYER
  5
7C
330
2
100
AcDbSymbolTableRecord
100
AcDbLayerTableRecord
  2
가상선
 70
     0
 62
     4
  6
PHANTOM
370
    -3
390
F
  0
LAYER
  5
7D
330
2
100
AcDbSymbolTableRecord
100
AcDbLayerTableRecord
  2
특수지정선
 70
     0
 62
     5
  6
CENTERX2
370
    60
390
F
  0
LAYER
  5
138
330
2
100
AcDbSymbolTableRecord
100
AcDbLayerTableRecord
  2
Defpoints
 70
     0
 62
     7
  6
Continuous
290
     0
370
    -3
390
F
  0
ENDTAB
  0
TABLE
  2
STYLE
  5
3
330
0
100
AcDbSymbolTable
 70
     2
  0
STYLE
  5
11
330
3
100
AcDbSymbolTableRecord
100
AcDbTextStyleTableRecord
  2
Standard
 70
     0
 40
0.0
 41
1.0
 50
0.0
 71
     0
 42
3.5
  3
txt
  4

  0
STYLE
  5
93
330
3
100
AcDbSymbolTableRecord
100
AcDbTextStyleTableRecord
  2
SLDTEXTSTYLE0
 70
     0
 40
0.0
 41
0.75
 50
0.0
 71
     0
 42
3.5
  3
TXT
  4

  0
ENDTAB
  0
TABLE
  2
VIEW
  5
6
330
0
100
AcDbSymbolTable
 70
     0
  0
ENDTAB
  0
TABLE
  2
UCS
  5
7
330
0
100
AcDbSymbolTable
 70
     0
  0
ENDTAB
  0
TABLE
  2
APPID
  5
9
330
0
100
AcDbSymbolTable
 70
     1
  0
APPID
  5
12
330
9
100
AcDbSymbolTableRecord
100
AcDbRegAppTableRecord
  2
ACAD
 70
     0
  0
ENDTAB
  0
TABLE
  2
DIMSTYLE
  5
A
330
0
100
AcDbSymbolTable
 70
     3
100
AcDbDimStyleTable
  0
DIMSTYLE
105
27
330
A
100
AcDbSymbolTableRecord
100
AcDbDimStyleTableRecord
  2
ISO-25
 70
     0
 41
2.5
 42
0.625
 43
3.75
 44
1.25
 73
     0
 74
     0
 77
     1
 78
     8
140
2.5
141
2.5
143
0.03937007874016
147
0.625
171
     3
172
     1
178
     0
271
     2
272
     2
274
     3
278
    44
283
     0
284
     8
340
11
  0
DIMSTYLE
105
DE
102
{ACAD_REACTORS
330
DD
330
100
102
}
330
A
100
AcDbSymbolTableRecord
100
AcDbDimStyleTableRecord
  2
SLDDIMSTYLE0
 70
     0
 41
3.302
 44
0.0
 45
0.000000001
 73
     0
 74
     0
 77
     1
 78
    12
 79
     3
140
3.5
147
0.875
172
     1
173
     1
178
     0
271
     2
272
     2
276
     2
284
    12
289
     0
340
93
  0
DIMSTYLE
105
EC
102
{ACAD_REACTORS
330
EB
330
F6
102
}
330
A
100
AcDbSymbolTableRecord
100
AcDbDimStyleTableRecord
  2
SLDDIMSTYLE1
 70
     0
 41
3.302
 44
0.0
 45
0.000000001
 73
     0
 74
     0
 77
     1
 78
    12
 79
     3
140
3.5
147
0.875
173
     1
178
     0
271
     2
272
     2
276
     2
284
    12
340
93
  0
ENDTAB
  0
TABLE
  2
BLOCK_RECORD
  5
1
330
0
100
AcDbSymbolTable
 70
     7
  0
BLOCK_RECORD
  5
1F
330
1
100
AcDbSymbolTableRecord
100
AcDbBlockTableRecord
  2
*Model_Space
340
22
  0
BLOCK_RECORD
  5
1B
330
1
100
AcDbSymbolTableRecord
100
AcDbBlockTableRecord
  2
*Paper_Space
340
1E
  0
BLOCK_RECORD
  5
23
330
1
100
AcDbSymbolTableRecord
100
AcDbBlockTableRecord
  2
*Paper_Space0
340
26
  0
BLOCK_RECORD
  5
7E
330
1
100
AcDbSymbolTableRecord
100
AcDbBlockTableRecord
  2
블럭10
340
0
102
{BLKREFS
331
D6
102
}
  0
BLOCK_RECORD
  5
DF
330
1
100
AcDbSymbolTableRecord
100
AcDbBlockTableRecord
  2
_D
340
0
  0
BLOCK_RECORD
  5
ED
330
1
100
AcDbSymbolTableRecord
100
AcDbBlockTableRecord
  2
_D_1
340
0
  0
BLOCK_RECORD
  5
F7
330
1
100
AcDbSymbolTableRecord
100
AcDbBlockTableRecord
  2
_D_2
340
0
  0
BLOCK_RECORD
  5
101
330
1
100
AcDbSymbolTableRecord
100
AcDbBlockTableRecord
  2
_D_3
340
0
  0
BLOCK_RECORD
  5
10D
330
1
100
AcDbSymbolTableRecord
100
AcDbBlockTableRecord
  2
SW_DOWELSYMBOL_0
340
0
102
{BLKREFS
331
113
102
}
  0
ENDTAB
  0
ENDSEC
  0
SECTION
  2
BLOCKS
  0
BLOCK
  5
20
330
1F
100
AcDbEntity
  8
0
100
AcDbBlockBegin
  2
*Model_Space
 70
     0
 10
0.0
 20
0.0
 30
0.0
  3
*Model_Space
  1

  0
ENDBLK
  5
21
330
1F
100
AcDbEntity
  8
0
100
AcDbBlockEnd
  0
BLOCK
  5
1C
330
1B
100
AcDbEntity
 67
     1
  8
0
100
AcDbBlockBegin
  2
*Paper_Space
 70
     0
 10
0.0
 20
0.0
 30
0.0
  3
*Paper_Space
  1

  0
ENDBLK
  5
1D
330
1B
100
AcDbEntity
 67
     1
  8
0
100
AcDbBlockEnd
  0
BLOCK
  5
24
330
23
100
AcDbEntity
  8
0
100
AcDbBlockBegin
  2
*Paper_Space0
 70
     0
 10
0.0
 20
0.0
 30
0.0
  3
*Paper_Space0
  1

  0
ENDBLK
  5
25
330
23
100
AcDbEntity
  8
0
100
AcDbBlockEnd
  0
BLOCK
  5
7F
330
7E
100
AcDbEntity
  8
0
100
AcDbBlockBegin
  2
블럭10
 70
     2
 10
0.0
 20
0.0
 30
0.0
  3
블럭10
  1

  0
ELLIPSE
  5
81
330
7E
100
AcDbEntity
  8
중심선
100
AcDbEllipse
 10
20.54032771741204
 20
12.0471743016438
 30
0.0
 11
6.600054785286829
 21
-1.261213355974178E-13
 31
0.0
210
0.0
220
0.0
230
1.0
 40
0.636358354079598
 41
0.9219305317359503
 42
6.513795318482858
  0
ELLIPSE
  5
82
330
7E
100
AcDbEntity
  8
중심선
100
AcDbEllipse
 10
20.54032771746488
 20
12.04717430159265
 30
0.0
 11
3.960054785062283
 21
1.540847449632565E-10
 31
0.0
210
0.0
220
0.0
230
1.0
 40
0.3939339440162632
 41
1.131841032648279
 42
5.62031148352944
  0
LINE
  5
83
330
7E
100
AcDbEntity
  8
중심선
100
AcDbLine
 10
2.268634060543552
 20
16.24717430164393
 30
0.0
 11
5.714909304380834
 21
16.24717430164393
 31
0.0
  0
LINE
  5
84
330
7E
100
AcDbEntity
  8
중심선
100
AcDbLine
 10
5.245725140726316
 20
7.84717430164391
 30
0.0
 11
8.692000384563599
 21
7.84717430164391
 31
0.0
  0
LINE
  5
85
330
7E
100
AcDbEntity
  8
중심선
100
AcDbLine
 10
15.74043728645272
 20
16.24717430164393
 30
0.0
 11
8.692000384563599
 21
7.84717430164391
 31
0.0
  0
LINE
  5
86
330
7E
100
AcDbEntity
  8
중심선
100
AcDbLine
 10
0.1404042013395286
 20
13.71084872107135
 30
0.0
 11
3.58671253028996
 21
13.71088815037384
 31
0.0
  0
LINE
  5
87
330
7E
100
AcDbEntity
  8
중심선
100
AcDbLine
 10
2.750260043222114
 20
10.84717430164391
 30
0.0
 11
6.196535287059397
 21
10.84717430164391
 31
0.0
  0
LINE
  5
88
330
7E
100
AcDbEntity
  8
중심선
100
AcDbLine
 10
12.29416204261559
 20
16.24717430164393
 30
0.0
 11
5.245725140726316
 21
7.84717430164391
 31
0.0
  0
LINE
  5
89
330
7E
100
AcDbEntity
  8
중심선
100
AcDbLine
 10
10.72767329541681
 20
16.24717430164393
 30
0.0
 11
6.196535287059397
 21
10.84717430164391
 31
0.0
  0
LINE
  5
8A
330
7E
100
AcDbEntity
  8
중심선
100
AcDbLine
 10
7.28139805157953
 20
16.24717430164393
 30
0.0
 11
2.750260043222114
 21
10.84717430164391
 31
0.0
  0
LINE
  5
8B
330
7E
100
AcDbEntity
  8
중심선
100
AcDbLine
 10
5.714909304380834
 20
16.24717430164393
 30
0.0
 11
3.58671253028996
 21
13.71088815037384
 31
0.0
  0
LINE
  5
8C
330
7E
100
AcDbEntity
  8
중심선
100
AcDbLine
 10
2.268634060543552
 20
16.24717430164393
 30
0.0
 11
0.1404042013395286
 21
13.71084872107135
 31
0.0
  0
LINE
  5
8D
330
7E
100
AcDbEntity
  8
중심선
100
AcDbLine
 10
7.28139805157953
 20
16.24717430164393
 30
0.0
 11
10.72767329541681
 21
16.24717430164393
 31
0.0
  0
LINE
  5
8E
330
7E
100
AcDbEntity
  8
중심선
100
AcDbLine
 10
12.29416204261559
 20
16.24717430164393
 30
0.0
 11
15.74043728645272
 21
16.24717430164393
 31
0.0
  0
LINE
  5
8F
330
7E
100
AcDbEntity
  8
중심선
100
AcDbLine
 10
19.22036997980202
 20
11.08717430171403
 30
0.0
 11
23.66174974927406
 21
11.08717430171406
 31
0.0
  0
LINE
  5
90
330
7E
100
AcDbEntity
  8
중심선
100
AcDbLine
 10
19.22039502424796
 20
13.00717430171391
 30
0.0
 11
19.22036997980202
 21
11.08717430171403
 31
0.0
  0
LINE
  5
91
330
7E
100
AcDbEntity
  8
중심선
100
AcDbLine
 10
19.22039502424796
 20
13.00717430171391
 30
0.0
 11
26.96566020931264
 21
13.00717430171391
 31
0.0
  0
LINE
  5
92
330
7E
100
AcDbEntity
  8
중심선
100
AcDbLine
 10
22.22332737316547
 20
13.45928029700563
 30
0.0
 11
24.52862924686651
 21
15.39360700705356
 31
0.0
  0
ATTDEF
  5
94
330
7E
100
AcDbEntity
  8
FORMAT
 62
     2
100
AcDbText
 10
-16.11926103943555
 20
2.075366912832191
 30
0.0
 40
4.233333333333333
  1
SEME7016080E [ 2 FLUTE ]
 41
0.75
  7
SLDTEXTSTYLE0
 11
-16.11926103943555
 21
-0.0412997538344756
 31
0.0
100
AcDbAttributeDefinition
  3

  2
AUTOATTR0
 70
     0
 74
     1
  0
ENDBLK
  5
80
330
7E
100
AcDbEntity
  8
0
100
AcDbBlockEnd
  0
BLOCK
  5
E0
330
DF
100
AcDbEntity
  8
0
100
AcDbBlockBegin
  2
_D
 70
     0
 10
0.0
 20
0.0
 30
0.0
  3
_D
  1

  0
LINE
  5
E2
330
DF
100
AcDbEntity
  8
치수문자_일반주서
 62
     0
370
    -2
100
AcDbLine
 10
92.0625
 20
-7.999999999999694
 30
0.0
 11
107.1929084469238
 21
-7.999999999999638
 31
0.0
  0
LINE
  5
E3
330
DF
100
AcDbEntity
  8
치수문자_일반주서
 62
     0
370
    -2
100
AcDbLine
 10
92.06250000000003
 20
8.000000000000298
 30
0.0
 11
107.1929084469237
 21
8.000000000000355
 31
0.0
  0
LINE
  5
E4
330
DF
100
AcDbEntity
  8
치수문자_일반주서
 62
     0
370
    -2
100
AcDbLine
 10
107.1929084469238
 20
-7.999999999999638
 30
0.0
 11
107.1929084469237
 21
22.47900000000036
 31
0.0
  0
LINE
  5
E5
330
DF
100
AcDbEntity
  8
치수문자_일반주서
 62
     0
370
    -2
100
AcDbLine
 10
107.1929084469238
 20
-7.999999999999638
 30
0.0
 11
107.1929084469237
 21
8.000000000000355
 31
0.0
  0
LINE
  5
E6
330
DF
100
AcDbEntity
  8
치수문자_일반주서
 62
     0
370
    -2
100
AcDbLine
 10
107.1929084469238
 20
-11.30199999999964
 30
0.0
 11
107.1929084469238
 21
-14.60399999999964
 31
0.0
  0
LINE
  5
E7
330
DF
100
AcDbEntity
  8
치수문자_일반주서
 62
     0
370
    -2
100
AcDbLine
 10
107.1929084469237
 20
11.30200000000035
 30
0.0
 11
107.1929084469237
 21
14.60400000000035
 31
0.0
  0
SOLID
  5
E8
330
DF
100
AcDbEntity
  8
치수문자_일반주서
 62
     0
100
AcDbTrace
 10
107.7432417802571
 20
-11.30199999999964
 30
0.0
 11
106.6425751135905
 21
-11.30199999999964
 31
0.0
 12
107.1929084469238
 22
-7.999999999999638
 32
0.0
 13
107.1929084469238
 23
-7.999999999999638
 33
0.0
  0
SOLID
  5
E9
330
DF
100
AcDbEntity
  8
치수문자_일반주서
 62
     0
100
AcDbTrace
 10
106.6425751135904
 20
11.30200000000035
 30
0.0
 11
107.7432417802571
 21
11.30200000000036
 31
0.0
 12
107.1929084469237
 22
8.000000000000355
 32
0.0
 13
107.1929084469237
 23
8.000000000000355
 33
0.0
  0
MTEXT
  5
EA
330
DF
100
AcDbEntity
  8
치수문자_일반주서
 62
     0
100
AcDbMText
 10
102.8179084469237
 20
18.54150000000034
 30
0.0
 40
3.5
 41
0.0
 71
     2
 72
     1
  1
\A1;%%c16
  7
SLDTEXTSTYLE0
 11
-3.552713678800503E-15
 21
1.0
 31
0.0
 73
     1
 44
1.0
  0
POINT
  5
142
330
DF
100
AcDbEntity
  8
Defpoints
 62
     0
100
AcDbPoint
 10
92.0
 20
-7.999999999999694
 30
0.0
  0
POINT
  5
143
330
DF
100
AcDbEntity
  8
Defpoints
 62
     0
100
AcDbPoint
 10
92.00000000000003
 20
8.000000000000298
 30
0.0
  0
POINT
  5
144
330
DF
100
AcDbEntity
  8
Defpoints
 62
     0
100
AcDbPoint
 10
107.1929084469237
 20
8.000000000000355
 30
0.0
  0
ENDBLK
  5
E1
330
DF
100
AcDbEntity
  8
0
100
AcDbBlockEnd
  0
BLOCK
  5
EE
330
ED
100
AcDbEntity
  8
0
100
AcDbBlockBegin
  2
_D_1
 70
     0
 10
0.0
 20
0.0
 30
0.0
  3
_D_1
  1

  0
LINE
  5
F0
330
ED
100
AcDbEntity
  8
치수문자_일반주서
 62
     0
370
    -2
100
AcDbLine
 10
-57.99999999999998
 20
7.062499999999997
 30
0.0
 11
-57.99999999999998
 21
28.7884104402427
 31
0.0
  0
LINE
  5
F1
330
ED
100
AcDbEntity
  8
치수문자_일반주서
 62
     0
370
    -2
100
AcDbLine
 10
92.00000000000003
 20
8.062500000000298
 30
0.0
 11
92.00000000000003
 21
28.7884104402427
 31
0.0
  0
LINE
  5
F2
330
ED
100
AcDbEntity
  8
치수문자_일반주서
 62
     0
370
    -2
100
AcDbLine
 10
-54.69799999999998
 20
28.7884104402427
 30
0.0
 11
88.69800000000004
 21
28.7884104402427
 31
0.0
  0
SOLID
  5
F3
330
ED
100
AcDbEntity
  8
치수문자_일반주서
 62
     0
100
AcDbTrace
 10
-54.69799999999998
 20
29.33874377357603
 30
0.0
 11
-54.69799999999998
 21
28.23807710690936
 31
0.0
 12
-57.99999999999998
 22
28.7884104402427
 32
0.0
 13
-57.99999999999998
 23
28.7884104402427
 33
0.0
  0
SOLID
  5
F4
330
ED
100
AcDbEntity
  8
치수문자_일반주서
 62
     0
100
AcDbTrace
 10
88.69800000000004
 20
28.23807710690936
 30
0.0
 11
88.69800000000004
 21
29.33874377357603
 31
0.0
 12
92.00000000000003
 22
28.7884104402427
 32
0.0
 13
92.00000000000003
 23
28.7884104402427
 33
0.0
  0
MTEXT
  5
F5
330
ED
100
AcDbEntity
  8
치수문자_일반주서
 62
     0
100
AcDbMText
 10
17.00000000000001
 20
33.1634104402427
 30
0.0
 40
3.5
 41
0.0
 71
     2
 72
     1
  1
\A1;150
  7
SLDTEXTSTYLE0
 73
     1
 44
1.0
  0
POINT
  5
139
330
ED
100
AcDbEntity
  8
Defpoints
 62
     0
100
AcDbPoint
 10
-57.99999999999998
 20
6.999999999999997
 30
0.0
  0
POINT
  5
13A
330
ED
100
AcDbEntity
  8
Defpoints
 62
     0
100
AcDbPoint
 10
92.00000000000003
 20
8.000000000000298
 30
0.0
  0
POINT
  5
13B
330
ED
100
AcDbEntity
  8
Defpoints
 62
     0
100
AcDbPoint
 10
92.00000000000003
 20
28.7884104402427
 30
0.0
  0
ENDBLK
  5
EF
330
ED
100
AcDbEntity
  8
0
100
AcDbBlockEnd
  0
BLOCK
  5
F8
330
F7
100
AcDbEntity
  8
0
100
AcDbBlockBegin
  2
_D_2
 70
     0
 10
0.0
 20
0.0
 30
0.0
  3
_D_2
  1

  0
LINE
  5
FA
330
F7
100
AcDbEntity
  8
치수문자_일반주서
 62
     0
370
    -2
100
AcDbLine
 10
12.0
 20
7.920463649302969
 30
0.0
 11
12.0
 21
21.20496145547049
 31
0.0
  0
LINE
  5
FB
330
F7
100
AcDbEntity
  8
치수문자_일반주서
 62
     0
370
    -2
100
AcDbLine
 10
92.00000000000003
 20
8.062500000000298
 30
0.0
 11
92.00000000000003
 21
21.20496145547049
 31
0.0
  0
LINE
  5
FC
330
F7
100
AcDbEntity
  8
치수문자_일반주서
 62
     0
370
    -2
100
AcDbLine
 10
15.302
 20
21.20496145547049
 30
0.0
 11
88.69800000000004
 21
21.20496145547049
 31
0.0
  0
SOLID
  5
FD
330
F7
100
AcDbEntity
  8
치수문자_일반주서
 62
     0
100
AcDbTrace
 10
15.302
 20
21.75529478880383
 30
0.0
 11
15.302
 21
20.65462812213716
 31
0.0
 12
12.0
 22
21.20496145547049
 32
0.0
 13
12.0
 23
21.20496145547049
 33
0.0
  0
SOLID
  5
FE
330
F7
100
AcDbEntity
  8
치수문자_일반주서
 62
     0
100
AcDbTrace
 10
88.69800000000004
 20
20.65462812213716
 30
0.0
 11
88.69800000000004
 21
21.75529478880383
 31
0.0
 12
92.00000000000003
 22
21.20496145547049
 32
0.0
 13
92.00000000000003
 23
21.20496145547049
 33
0.0
  0
MTEXT
  5
FF
330
F7
100
AcDbEntity
  8
치수문자_일반주서
 62
     0
100
AcDbMText
 10
51.99999999999999
 20
25.57996145547049
 30
0.0
 40
3.5
 41
0.0
 71
     2
 72
     1
  1
\A1;80
  7
SLDTEXTSTYLE0
 73
     1
 44
1.0
  0
POINT
  5
13C
330
F7
100
AcDbEntity
  8
Defpoints
 62
     0
100
AcDbPoint
 10
12.0
 20
7.857963649302969
 30
0.0
  0
POINT
  5
13D
330
F7
100
AcDbEntity
  8
Defpoints
 62
     0
100
AcDbPoint
 10
92.00000000000003
 20
8.000000000000298
 30
0.0
  0
POINT
  5
13E
330
F7
100
AcDbEntity
  8
Defpoints
 62
     0
100
AcDbPoint
 10
92.00000000000003
 20
21.20496145547049
 30
0.0
  0
ENDBLK
  5
F9
330
F7
100
AcDbEntity
  8
0
100
AcDbBlockEnd
  0
BLOCK
  5
102
330
101
100
AcDbEntity
  8
0
100
AcDbBlockBegin
  2
_D_3
 70
     0
 10
0.0
 20
0.0
 30
0.0
  3
_D_3
  1

  0
LINE
  5
104
330
101
100
AcDbEntity
  8
치수문자_일반주서
 62
     0
370
    -2
100
AcDbLine
 10
-57.06249999999998
 20
7.999999999999994
 30
0.0
 11
-69.23576682024813
 21
7.999999999999945
 31
0.0
  0
LINE
  5
105
330
101
100
AcDbEntity
  8
치수문자_일반주서
 62
     0
370
    -2
100
AcDbLine
 10
-57.06249999999998
 20
-7.999999999999993
 30
0.0
 11
-69.23576682024807
 21
-8.000000000000039
 31
0.0
  0
LINE
  5
106
330
101
100
AcDbEntity
  8
치수문자_일반주서
 62
     0
370
    -2
100
AcDbLine
 10
-69.23576682024813
 20
7.999999999999945
 30
0.0
 11
-69.23576682024819
 21
22.47899999999995
 31
0.0
  0
LINE
  5
107
330
101
100
AcDbEntity
  8
치수문자_일반주서
 62
     0
370
    -2
100
AcDbLine
 10
-69.23576682024813
 20
7.999999999999945
 30
0.0
 11
-69.23576682024807
 21
-8.000000000000039
 31
0.0
  0
LINE
  5
108
330
101
100
AcDbEntity
  8
치수문자_일반주서
 62
     0
370
    -2
100
AcDbLine
 10
-69.23576682024814
 20
11.30199999999994
 30
0.0
 11
-69.23576682024816
 21
14.60399999999994
 31
0.0
  0
LINE
  5
109
330
101
100
AcDbEntity
  8
치수문자_일반주서
 62
     0
370
    -2
100
AcDbLine
 10
-69.23576682024806
 20
-11.30200000000004
 30
0.0
 11
-69.23576682024805
 21
-14.60400000000004
 31
0.0
  0
SOLID
  5
10A
330
101
100
AcDbEntity
  8
치수문자_일반주서
 62
     0
100
AcDbTrace
 10
-69.78610015358147
 20
11.30199999999994
 30
0.0
 11
-68.68543348691482
 21
11.30199999999995
 31
0.0
 12
-69.23576682024813
 22
7.999999999999945
 32
0.0
 13
-69.23576682024813
 23
7.999999999999945
 33
0.0
  0
SOLID
  5
10B
330
101
100
AcDbEntity
  8
치수문자_일반주서
 62
     0
100
AcDbTrace
 10
-68.68543348691473
 20
-11.30200000000004
 30
0.0
 11
-69.78610015358139
 21
-11.30200000000004
 31
0.0
 12
-69.23576682024807
 22
-8.000000000000039
 32
0.0
 13
-69.23576682024807
 23
-8.000000000000039
 33
0.0
  0
MTEXT
  5
10C
330
101
100
AcDbEntity
  8
치수문자_일반주서
 62
     0
100
AcDbMText
 10
-73.61076682024817
 20
18.54149999999993
 30
0.0
 40
3.5
 41
0.0
 71
     2
 72
     1
  1
\A1;%%c16
  7
SLDTEXTSTYLE0
 11
-3.552713678800504E-15
 21
1.0
 31
0.0
 73
     1
 44
1.0
  0
POINT
  5
13F
330
101
100
AcDbEntity
  8
Defpoints
 62
     0
100
AcDbPoint
 10
-56.99999999999998
 20
7.999999999999994
 30
0.0
  0
POINT
  5
140
330
101
100
AcDbEntity
  8
Defpoints
 62
     0
100
AcDbPoint
 10
-56.99999999999998
 20
-7.999999999999993
 30
0.0
  0
POINT
  5
141
330
101
100
AcDbEntity
  8
Defpoints
 62
     0
100
AcDbPoint
 10
-69.23576682024809
 20
-8.000000000000039
 30
0.0
  0
ENDBLK
  5
103
330
101
100
AcDbEntity
  8
0
100
AcDbBlockEnd
  0
BLOCK
  5
10E
330
10D
100
AcDbEntity
  8
0
100
AcDbBlockBegin
  2
SW_DOWELSYMBOL_0
 70
     0
 10
0.0
 20
0.0
 30
0.0
  3
SW_DOWELSYMBOL_0
  1

  0
CIRCLE
  5
110
330
10D
100
AcDbEntity
  8
외형선
 62
     0
100
AcDbCircle
 10
0.0
 20
0.0
 30
0.0
 40
3.000000000000004
  0
HATCH
  5
111
330
10D
100
AcDbEntity
  8
0
  6
Continuous
 62
     0
370
    30
100
AcDbHatch
 10
0.0
 20
0.0
 30
0.0
210
0.0
220
0.0
230
1.0
  2
SOLID
 70
     1
 71
     0
 91
        1
 92
        0
 93
        3
 72
     2
 10
0.0000000000000104
 20
0.0
 40
3.000000000000004
 50
0.0
 51
90.0
 73
     1
 72
     1
 10
0.0000000000000104
 20
3.000000000000004
 11
0.0000000000000104
 21
0.0
 72
     1
 10
0.0000000000000104
 20
0.0
 11
3.000000000000015
 21
0.0
 97
        0
 75
     0
 76
     1
 98
        1
 10
0.0
 20
0.0
  0
HATCH
  5
112
330
10D
100
AcDbEntity
  8
0
  6
Continuous
 62
     0
370
    30
100
AcDbHatch
 10
0.0
 20
0.0
 30
0.0
210
0.0
220
0.0
230
1.0
  2
SOLID
 70
     1
 71
     0
 91
        1
 92
        0
 93
        3
 72
     2
 10
0.0000000000000104
 20
0.0
 40
3.000000000000004
 50
180.0
 51
270.0000000000008
 73
     1
 72
     1
 10
0.0000000000000104
 20
-3.000000000000004
 11
0.0000000000000104
 21
0.0
 72
     1
 10
0.0000000000000104
 20
0.0
 11
-2.999999999999994
 21
0.0
 97
        0
 75
     0
 76
     1
 98
        1
 10
0.0
 20
0.0
  0
ENDBLK
  5
10F
330
10D
100
AcDbEntity
  8
0
100
AcDbBlockEnd
  0
ENDSEC
  0
SECTION
  2
ENTITIES
  0
SPLINE
  5
95
330
1F
100
AcDbEntity
  8
0
  6
Continuous
 62
     1
370
    15
100
AcDbSpline
210
0.0
220
0.0
230
1.0
 70
     8
 71
     3
 72
     9
 73
     5
 74
     0
 42
0.000000001
 43
0.00000001
 40
0.0
 40
0.0
 40
0.0
 40
0.0
 40
0.5257132727234526
 40
1.0
 40
1.0
 40
1.0
 40
1.0
 10
71.27322310682987
 20
2.050023859617506
 30
0.0
 10
70.88464976971349
 20
2.235636382149736
 30
0.0
 10
70.1455142803176
 20
2.588704360766037
 30
0.0
 10
69.4059178197052
 20
2.976182564649846
 30
0.0
 10
69.05513703489602
 20
3.159958333860893
 30
0.0
  0
LINE
  5
96
330
1F
100
AcDbEntity
  8
0
  6
Continuous
 62
     1
370
    15
100
AcDbLine
 10
25.59400625394443
 20
3.123460423439639
 30
0.0
 11
25.52383862899893
 21
3.160018529845922
 31
0.0
  0
SPLINE
  5
97
330
1F
100
AcDbEntity
  8
0
  6
Continuous
 62
     1
370
    15
100
AcDbSpline
210
0.0
220
0.0
230
1.0
 70
     8
 71
     3
 72
    10
 73
     6
 74
     0
 42
0.000000001
 43
0.00000001
 40
0.0
 40
0.0
 40
0.0
 40
0.0
 40
0.5152142100763394
 40
0.7087845417491944
 40
1.0
 40
1.0
 40
1.0
 40
1.0
 10
27.74212839224347
 20
2.049981790888225
 30
0.0
 10
27.37322201433489
 20
2.226147241302942
 30
0.0
 10
26.86571439342602
 20
2.468499539826959
 30
0.0
 10
26.15006359254163
 20
2.831912622149426
 30
0.0
 10
25.80268181091582
 20
3.014049224998298
 30
0.0
 10
25.59400625394443
 20
3.123460423439639
 30
0.0
  0
LINE
  5
98
330
1F
100
AcDbEntity
  8
0
  6
Continuous
 62
     1
370
    15
100
AcDbLine
 10
52.9177043943881
 20
8.00000000000001
 30
0.0
 11
49.03933731758924
 21
8.00000000000001
 31
0.0
  0
LINE
  5
99
330
1F
100
AcDbEntity
  8
0
  6
Continuous
 62
     1
370
    15
100
AcDbLine
 10
49.03933731758923
 20
-8.000000000000004
 30
0.0
 11
52.91770439438802
 21
-8.000000000000004
 31
0.0
  0
LINE
  5
9A
330
1F
100
AcDbEntity
  8
0
  6
Continuous
 62
     1
370
    15
100
AcDbLine
 10
23.33157848295888
 20
2.245689743813703
 30
0.0
 11
23.23299145610989
 21
2.300002520385229
 31
0.0
  0
LINE
  5
9B
330
1F
100
AcDbEntity
  8
0
  6
Continuous
 62
     1
370
    15
100
AcDbLine
 10
66.9171935687881
 20
2.215869691468205
 30
0.0
 11
66.76426475832972
 21
2.299953579755276
 31
0.0
  0
SPLINE
  5
9C
330
1F
100
AcDbEntity
  8
0
  6
Continuous
 62
     1
370
    15
100
AcDbSpline
210
0.0
220
0.0
230
1.0
 70
     8
 71
     3
 72
    19
 73
    15
 74
     0
 42
0.000000001
 43
0.00000001
 40
0.0
 40
0.0
 40
0.0
 40
0.0
 40
0.1046909530388087
 40
0.1819930159095935
 40
0.2320437312016803
 40
0.2744646716882865
 40
0.3187981981926463
 40
0.4966831722034056
 40
0.6071715049075609
 40
0.7106528346507969
 40
0.7524664175933834
 40
0.8091611763860368
 40
0.8917206513236379
 40
1.0
 40
1.0
 40
1.0
 40
1.0
 10
13.13400675972096
 20
-6.6502036214488
 30
0.0
 10
13.55224634807202
 20
-6.610288474547043
 30
0.0
 10
14.27930710974624
 20
-6.540900645376811
 30
0.0
 10
15.20444431241907
 20
-6.468317760677251
 30
0.0
 10
15.87751273280651
 20
-6.420947613595628
 30
0.0
 10
16.42020965074598
 20
-6.386558457737748
 30
0.0
 10
17.47521215242865
 20
-6.326666603627427
 30
0.0
 10
18.8035739951402
 20
-6.273553348070436
 30
0.0
 10
20.3669753209915
 20
-6.246869675838478
 30
0.0
 10
21.38284867944959
 20
-6.246628374996456
 30
0.0
 10
22.19115915159276
 20
-6.255835976090333
 30
0.0
 10
22.91467107279816
 20
-6.269848805575656
 30
0.0
 10
23.9025143624435
 20
-6.298848129782273
 30
0.0
 10
24.66504877072094
 20
-6.336017359623396
 30
0.0
 10
25.09770040579188
 20
-6.357106674270082
 30
0.0
  0
SPLINE
  5
9D
330
1F
100
AcDbEntity
  8
0
  6
Continuous
 62
     1
370
    15
100
AcDbSpline
210
0.0
220
0.0
230
1.0
 70
     8
 71
     3
 72
    10
 73
     6
 74
     0
 42
0.000000001
 43
0.00000001
 40
0.0
 40
0.0
 40
0.0
 40
0.0
 40
0.3836881123187516
 40
0.9204715364784903
 40
1.0
 40
1.0
 40
1.0
 40
1.0
 10
68.62911293732033
 20
6.357118816376327
 30
0.0
 10
67.7942565881787
 20
6.321520627167041
 30
0.0
 10
65.79142803613111
 20
6.236120222866523
 30
0.0
 10
63.61690035359805
 20
6.228446043172625
 30
0.0
 10
62.27647013220921
 20
6.286224246080304
 30
0.0
 10
62.10350193526931
 20
6.293679905778138
 30
0.0
  0
SPLINE
  5
9E
330
1F
100
AcDbEntity
  8
0
  6
Continuous
 62
     1
370
    15
100
AcDbSpline
210
0.0
220
0.0
230
1.0
 70
     8
 71
     3
 72
    12
 73
     8
 74
     0
 42
0.000000001
 43
0.00000001
 40
0.0
 40
0.0
 40
0.0
 40
0.0
 40
0.208711505028973
 40
0.500761853300163
 40
0.6984325980056855
 40
0.7919051706286683
 40
1.0
 40
1.0
 40
1.0
 40
1.0
 10
56.59737836056249
 20
-6.657091723917353
 30
0.0
 10
57.43472734300696
 20
-6.580274634525981
 30
0.0
 10
59.44378011779141
 20
-6.3959672670744
 30
0.0
 10
62.2436321242162
 20
-6.264244348302451
 30
0.0
 10
64.58294053321345
 20
-6.241011379973016
 30
0.0
 10
66.58409423337235
 20
-6.265913392974518
 30
0.0
 10
67.79413284252509
 20
-6.319879688474523
 30
0.0
 10
68.62911293732033
 20
-6.357118816376309
 30
0.0
  0
SPLINE
  5
9F
330
1F
100
AcDbEntity
  8
0
  6
Continuous
 62
     1
370
    15
100
AcDbSpline
210
0.0
220
0.0
230
1.0
 70
     8
 71
     3
 72
    15
 73
    11
 74
     0
 42
0.000000001
 43
0.00000001
 40
0.0
 40
0.0
 40
0.0
 40
0.0
 40
0.200985512701079
 40
0.3532699954946191
 40
0.4565301132951493
 40
0.5341390480259837
 40
0.6101884472222594
 40
0.7593551020155062
 40
0.919585254424491
 40
1.0
 40
1.0
 40
1.0
 40
1.0
 10
25.09770040579188
 20
6.357106674270094
 30
0.0
 10
24.65814695632245
 20
6.335711678913015
 30
0.0
 10
23.88554875744304
 20
6.298105934042018
 30
0.0
 10
22.88842274622966
 20
6.269185616701177
 30
0.0
 10
22.15962224409757
 20
6.255339677349315
 30
0.0
 10
21.59709936851893
 20
6.249193074691475
 30
0.0
 10
20.93638730857706
 20
6.246285150299369
 30
0.0
 10
20.09850576742912
 20
6.251677953765161
 30
0.0
 10
19.24659520124753
 20
6.265113730985196
 30
0.0
 10
18.72109945143831
 20
6.284628631170826
 30
0.0
 10
18.54549794325821
 20
6.29114979886024
 30
0.0
  0
SPLINE
  5
A0
330
1F
100
AcDbEntity
  8
0
  6
Continuous
 62
     1
370
    15
100
AcDbSpline
210
0.0
220
0.0
230
1.0
 70
     8
 71
     3
 72
    15
 73
    11
 74
     0
 42
0.000000001
 43
0.00000001
 40
0.0
 40
0.0
 40
0.0
 40
0.0
 40
0.1528575775738165
 40
0.2709588995770177
 40
0.357549514582135
 40
0.4476028704029317
 40
0.5500994531835861
 40
0.6616467058265728
 40
0.9274047821806153
 40
1.0
 40
1.0
 40
1.0
 40
1.0
 10
75.05323010338414
 20
-6.016999170164691
 30
0.0
 10
75.3550059600804
 20
-5.970505565304724
 30
0.0
 10
75.88994086711723
 20
-5.888089919249218
 30
0.0
 10
76.60054427677757
 20
-5.789944512305826
 30
0.0
 10
77.19736711073116
 20
-5.713317495402014
 30
0.0
 10
77.76039149201806
 20
-5.645793035398149
 30
0.0
 10
78.36998521732075
 20
-5.578036189003496
 30
0.0
 10
79.32792190948467
 20
-5.483010417286827
 30
0.0
 10
80.2277008703468
 20
-5.40501028343362
 30
0.0
 10
80.90362681531929
 20
-5.370457402224563
 30
0.0
 10
81.0486497604185
 20
-5.363043926485286
 30
0.0
  0
SPLINE
  5
A1
330
1F
100
AcDbEntity
  8
0
  6
Continuous
 62
     1
370
    15
100
AcDbSpline
210
0.0
220
0.0
230
1.0
 70
     8
 71
     3
 72
    24
 73
    20
 74
     0
 42
0.000000001
 43
0.00000001
 40
0.0
 40
0.0
 40
0.0
 40
0.0
 40
0.0740269764599042
 40
0.1298910190233616
 40
0.1677198447947825
 40
0.2010095772468368
 40
0.2363369834039752
 40
0.2737702343154209
 40
0.3733040489461211
 40
0.4811049943033044
 40
0.5589578614509242
 40
0.6248012307524791
 40
0.6898445692066747
 40
0.7397024604416533
 40
0.787658049996314
 40
0.8203235879827652
 40
0.8667110210129108
 40
0.9266782580631112
 40
0.9999999999999999
 40
0.9999999999999999
 40
0.9999999999999999
 40
0.9999999999999999
 10
45.4969185311079
 20
5.471639011020314
 30
0.0
 10
45.15226322108188
 20
5.44373516739885
 30
0.0
 10
44.54751571453826
 20
5.394773844702879
 30
0.0
 10
43.76751697489773
 20
5.347993773436139
 30
0.0
 10
43.17490366396834
 20
5.318678968242133
 30
0.0
 10
42.67773177840466
 20
5.298670765070843
 30
0.0
 10
42.18308961586802
 20
5.283148126398465
 30
0.0
 10
41.38021644529805
 20
5.265446409513715
 30
0.0
 10
40.24007191495044
 20
5.260296363466215
 30
0.0
 10
38.91180970801924
 20
5.289782223836606
 30
0.0
 10
37.74034603948144
 20
5.343432729306381
 30
0.0
 10
36.76815868683331
 20
5.405721977472405
 30
0.0
 10
35.92570661271755
 20
5.473000905726671
 30
0.0
 10
35.16696126514591
 20
5.54425816065624
 30
0.0
 10
34.56664414610424
 20
5.607757030123857
 30
0.0
 10
33.97788490538117
 20
5.67518367516845
 30
0.0
 10
33.32968195413986
 20
5.755365177064564
 30
0.0
 10
32.48997591423574
 20
5.868451196962678
 30
0.0
 10
31.86538765573553
 20
5.964307148626331
 30
0.0
 10
31.52180411676193
 20
6.017037129787627
 30
0.0
  0
SPLINE
  5
A2
330
1F
100
AcDbEntity
  8
0
  6
Continuous
 62
     1
370
    15
100
AcDbSpline
210
0.0
220
0.0
230
1.0
 70
     8
 71
     3
 72
    17
 73
    13
 74
     0
 42
0.000000001
 43
0.00000001
 40
0.0
 40
0.0
 40
0.0
 40
0.0
 40
0.1710599968809022
 40
0.3109638659350897
 40
0.4300213516862524
 40
0.5090063562941531
 40
0.5711102516687434
 40
0.6347507032089736
 40
0.7000195444248205
 40
0.7655223117857427
 40
0.8293520249964439
 40
1.0
 40
1.0
 40
1.0
 40
1.0
 10
31.52180411676191
 20
-6.017037129787616
 30
0.0
 10
31.86539436831723
 20
-5.964306992623062
 30
0.0
 10
32.48999482938027
 20
-5.868450757366646
 30
0.0
 10
33.35133093811352
 20
-5.752443369352228
 30
0.0
 10
34.02687778495819
 20
-5.669224894637418
 30
0.0
 10
34.5429090490694
 20
-5.610742401225314
 30
0.0
 10
34.94701041361716
 20
-5.567577970982818
 30
0.0
 10
35.32642996725311
 20
-5.529476371612561
 30
0.0
 10
35.71404386018644
 20
-5.493150933919701
 30
0.0
 10
36.10294854206356
 20
-5.459432660947967
 30
0.0
 10
36.70209261303017
 20
-5.411097113972373
 30
0.0
 10
37.17029936086279
 20
-5.381355966912806
 30
0.0
 10
37.51105047457911
 20
-5.359710979883761
 30
0.0
  0
SPLINE
  5
A3
330
1F
100
AcDbEntity
  8
0
  6
Continuous
 62
     1
370
    15
100
AcDbSpline
210
0.0
220
0.0
230
1.0
 70
     8
 71
     3
 72
    23
 73
    19
 74
     0
 42
0.000000001
 43
0.00000001
 40
0.0
 40
0.0
 40
0.0
 40
0.0
 40
0.0705790790994809
 40
0.1239200014790964
 40
0.161343618951546
 40
0.1990336911161557
 40
0.2414692184167063
 40
0.2875638855310905
 40
0.3999137207363887
 40
0.5043994138471141
 40
0.5838858518076537
 40
0.6588642964366316
 40
0.7295769709584902
 40
0.75884003411676
 40
0.7916990527954727
 40
0.8427036932830111
 40
0.9122917722572033
 40
1.0
 40
1.0
 40
1.0
 40
1.0
 10
89.07233027516654
 20
5.475422653507843
 30
0.0
 10
88.7440833324835
 20
5.448481253260169
 30
0.0
 10
88.16776011968753
 20
5.401178590755388
 30
0.0
 10
87.41541313064936
 20
5.354497222191309
 30
0.0
 10
86.80836890049285
 20
5.323255612056074
 30
0.0
 10
86.25496766794143
 20
5.300069602095676
 30
0.0
 10
85.66385777796184
 20
5.281437365987101
 30
0.0
 10
84.7253406803551
 20
5.262552968224583
 30
0.0
 10
83.50214764123206
 20
5.262796273352223
 30
0.0
 10
82.09791183128283
 20
5.302000028040601
 30
0.0
 10
80.88623152523273
 20
5.365319134241775
 30
0.0
 10
79.85814036005159
 20
5.438677713493663
 30
0.0
 10
79.03629971098266
 20
5.511303547461742
 30
0.0
 10
78.41660126773694
 20
5.573874846468841
 30
0.0
 10
77.88884528632472
 20
5.631019975346514
 30
0.0
 10
77.17289904240191
 20
5.715386588060742
 30
0.0
 10
76.19989206378189
 20
5.842020542871297
 30
0.0
 10
75.46371919326293
 20
5.954359246676716
 30
0.0
 10
75.05323010338417
 20
6.01699917016471
 30
0.0
  0
LINE
  5
A4
330
1F
100
AcDbEntity
  8
0
  6
Continuous
 62
   131
370
    15
100
AcDbLine
 10
9.383523277162617
 20
8.000000000000004
 30
0.0
 11
-56.99999999999998
 21
8.0
 31
0.0
  0
LINE
  5
A5
330
1F
100
AcDbEntity
  8
0
  6
Continuous
 62
   131
370
    15
100
AcDbLine
 10
-56.99999999999998
 20
-7.999999999999999
 30
0.0
 11
9.383523277162636
 21
-7.999999999999996
 31
0.0
  0
LINE
  5
A6
330
1F
100
AcDbEntity
  8
0
  6
Continuous
 62
   131
370
    15
100
AcDbLine
 10
-56.99999999999998
 20
7.999999999999994
 30
0.0
 11
-57.99999999999998
 21
6.999999999999996
 31
0.0
  0
LINE
  5
A7
330
1F
100
AcDbEntity
  8
0
  6
Continuous
 62
   131
370
    15
100
AcDbLine
 10
-57.99999999999998
 20
-6.999999999999996
 30
0.0
 11
-56.99999999999998
 21
-7.999999999999993
 31
0.0
  0
SPLINE
  5
A8
330
1F
100
AcDbEntity
  8
0
  6
Continuous
 62
     1
370
    15
100
AcDbSpline
210
0.0
220
0.0
230
1.0
 70
     8
 71
     3
 72
    21
 73
    17
 74
     0
 42
0.000000001
 43
0.00000001
 40
0.0
 40
0.0
 40
0.0
 40
0.0
 40
0.0758736463456881
 40
0.1517584606012678
 40
0.227652002947952
 40
0.3035518203564707
 40
0.3794554502828734
 40
0.4553604243954621
 40
0.531264272320687
 40
0.6071645253957484
 40
0.6830587204155802
 40
0.7589444033619481
 40
0.8348191331024823
 40
0.9106917830539952
 40
0.986575709612227
 40
1.0
 40
1.0
 40
1.0
 40
1.0
 10
92.00000000000003
 20
-7.591526953855188
 30
0.0
 10
91.01161145684785
 20
-7.377879569334315
 30
0.0
 10
89.03468888874944
 20
-6.950553353342886
 30
0.0
 10
86.06900294321066
 20
-5.899526425211775
 30
0.0
 10
83.10291550114303
 20
-4.604049587966707
 30
0.0
 10
80.13653186469725
 20
-3.091699056367808
 30
0.0
 10
77.1699700617516
 20
-1.439966029547345
 30
0.0
 10
74.20334506889812
 20
0.2779807277832754
 30
0.0
 10
71.23677302088177
 20
1.983144703100667
 30
0.0
 10
68.27036906430368
 20
3.597611104384481
 30
0.0
 10
65.30425064321018
 20
5.04843543100472
 30
0.0
 10
62.33852541664869
 20
6.266395153234474
 30
0.0
 10
59.37318803540199
 20
7.207217515784172
 30
0.0
 10
56.4078972405135
 20
7.786052115462646
 30
0.0
 10
54.25605535536521
 20
8.037674618722217
 30
0.0
 10
53.09258975839988
 20
7.981774415430601
 30
0.0
 10
52.91770439438809
 20
7.973371822843003
 30
0.0
  0
SPLINE
  5
A9
330
1F
100
AcDbEntity
  8
0
  6
Continuous
 62
     1
370
    15
100
AcDbSpline
210
0.0
220
0.0
230
1.0
 70
     8
 71
     3
 72
    10
 73
     6
 74
     0
 42
0.000000001
 43
0.00000001
 40
0.0
 40
0.0
 40
0.0
 40
0.0
 40
0.0967828998984828
 40
0.5483782952638512
 40
1.0
 40
1.0
 40
1.0
 40
1.0
 10
18.53778041111179
 20
-6.294086927498033
 30
0.0
 10
18.32686995789798
 20
-6.375847257589546
 30
0.0
 10
17.13183741694263
 20
-6.839106681339223
 30
0.0
 10
14.9525737262593
 20
-7.421811786485563
 30
0.0
 10
12.98421035391893
 20
-7.712576871845666
 30
0.0
 10
12.0
 20
-7.857963649302961
 30
0.0
  0
SPLINE
  5
AA
330
1F
100
AcDbEntity
  8
0
  6
Continuous
 62
   131
370
    15
100
AcDbSpline
210
0.0
220
0.0
230
1.0
 70
    24
 71
     3
 72
     8
 73
     4
 74
     0
 42
0.000000001
 43
0.00000001
 40
0.0
 40
0.0
 40
0.0
 40
0.0
 40
1.0
 40
1.0
 40
1.0
 40
1.0
 10
12.00000000000002
 20
-6.744013973993212
 30
0.0
 10
12.00000000000002
 20
-7.130082482539912
 30
0.0
 10
12.00000000000002
 20
-7.503850963037504
 30
0.0
 10
12.00000000000002
 20
-7.857963649301146
 30
0.0
  0
SPLINE
  5
AB
330
1F
100
AcDbEntity
  8
0
  6
Continuous
 62
     1
370
    15
100
AcDbSpline
210
0.0
220
0.0
230
1.0
 70
     8
 71
     3
 72
    15
 73
    11
 74
     0
 42
0.000000001
 43
0.00000001
 40
0.0
 40
0.0
 40
0.0
 40
0.0
 40
0.1251276016591435
 40
0.2502488524347294
 40
0.3753643901149313
 40
0.5004748547401451
 40
0.6255808883531625
 40
0.7506831347476662
 40
0.8757822392152597
 40
1.0
 40
1.0
 40
1.0
 40
1.0
 10
92.00000000000001
 20
-6.311778114945716
 30
0.0
 10
91.13472145218938
 20
-6.132434648826662
 30
0.0
 10
89.40420827400308
 20
-5.773756819212236
 30
0.0
 10
86.80852527655703
 20
-4.974594342423488
 30
0.0
 10
84.2129768276668
 20
-4.017252907338375
 30
0.0
 10
81.61754965167063
 20
-2.915254899046792
 30
0.0
 10
79.02222789494819
 20
-1.712059965670879
 30
0.0
 10
76.42699650554421
 20
-0.4500928146091832
 30
0.0
 10
73.83791671329261
 20
0.8297590894512983
 30
0.0
 10
72.11391560493948
 20
1.649780243731977
 30
0.0
 10
71.25496225233219
 20
2.058341419398012
 30
0.0
  0
LINE
  5
AC
330
1F
100
AcDbEntity
  8
0
  6
Continuous
 62
     1
370
    15
100
AcDbLine
 10
13.14164215605048
 20
-6.623747805916217
 30
0.0
 11
12.0
 21
-6.744013973993213
 31
0.0
  0
LINE
  5
AD
330
1F
100
AcDbEntity
  8
0
  6
Continuous
 62
     1
370
    15
100
AcDbLine
 10
92.00000000000001
 20
-7.591526953855195
 30
0.0
 11
92.00000000000001
 21
-6.311778114945716
 31
0.0
  0
SPLINE
  5
AE
330
1F
100
AcDbEntity
  8
0
  6
Continuous
 62
     1
370
    15
100
AcDbSpline
210
0.0
220
0.0
230
1.0
 70
     8
 71
     3
 72
    24
 73
    20
 74
     0
 42
0.000000001
 43
0.00000001
 40
0.0
 40
0.0
 40
0.0
 40
0.0
 40
0.0542268870463876
 40
0.113426701379576
 40
0.1726353143117917
 40
0.2318509058256721
 40
0.2910715627334452
 40
0.3502953641678712
 40
0.4095203844884259
 40
0.4687446962031259
 40
0.5279663728964268
 40
0.5871834921535907
 40
0.6463941384719385
 40
0.7053208365174156
 40
0.7642438387226271
 40
0.8231745105271913
 40
0.8821118321922917
 40
0.9410541991426487
 40
1.0
 40
1.0
 40
1.0
 40
1.0
 10
62.08923918368865
 20
-6.298136946984239
 30
0.0
 10
61.18387829029981
 20
-6.600838902201824
 30
0.0
 10
59.29012953781628
 20
-7.234002377953399
 30
0.0
 10
56.40790189505339
 20
-7.802487316598758
 30
0.0
 10
53.44225296747705
 20
-8.056670683012749
 30
0.0
 10
50.47619787566174
 20
-7.936313918626293
 30
0.0
 10
47.50983533086696
 20
-7.455507288066527
 30
0.0
 10
44.54328470947088
 20
-6.633860230145038
 30
0.0
 10
41.57666060613106
 20
-5.509497866293127
 30
0.0
 10
38.61007923006414
 20
-4.133594100424256
 30
0.0
 10
35.64365580344936
 20
-2.569031722035034
 30
0.0
 10
32.67750748124291
 20
-0.8872397504571401
 30
0.0
 10
29.71634417979058
 20
0.832271013673856
 30
0.0
 10
26.76019289836928
 20
2.511287757940053
 30
0.0
 10
23.80877505534703
 20
4.073711389998516
 30
0.0
 10
20.85706449513456
 20
5.45367684079967
 30
0.0
 10
17.9049725226666
 20
6.580272133709273
 30
0.0
 10
14.9525763872414
 20
7.434839641452208
 30
0.0
 10
12.98421124093019
 20
7.716919574496409
 30
0.0
 10
12.0
 20
7.857963649302969
 30
0.0
  0
SPLINE
  5
AF
330
1F
100
AcDbEntity
  8
0
  6
Continuous
 62
     1
370
    15
100
AcDbSpline
210
0.0
220
0.0
230
1.0
 70
     8
 71
     3
 72
    19
 73
    15
 74
     0
 42
0.000000001
 43
0.00000001
 40
0.0
 40
0.0
 40
0.0
 40
0.0
 40
0.0324558630366938
 40
0.1222263266323764
 40
0.2119987212383684
 40
0.3017735105612772
 40
0.3915511573600104
 40
0.4813321232635938
 40
0.5711168685899409
 40
0.6609058521657166
 40
0.750699073206797
 40
0.8404898594620689
 40
0.9302762264336575
 40
1.0
 40
1.0
 40
1.0
 40
1.0
 10
56.60479712841628
 20
-6.629562068772192
 30
0.0
 10
56.29205028310624
 20
-6.668059994687376
 30
0.0
 10
55.11426930637197
 20
-6.813040273358703
 30
0.0
 10
53.07142951951317
 20
-6.821992944991042
 30
0.0
 10
50.47625217179729
 20
-6.652174530276402
 30
0.0
 10
47.88099497016272
 20
-6.234284766599008
 30
0.0
 10
45.28564296182743
 20
-5.602439876229984
 30
0.0
 10
42.69018088749543
 20
-4.773517601485826
 30
0.0
 10
40.09459281038964
 20
-3.777853612395111
 30
0.0
 10
37.49887049328321
 20
-2.65008681085338
 30
0.0
 10
34.90306222083041
 20
-1.429079473540137
 30
0.0
 10
32.30729725827774
 20
-0.1602200796858884
 30
0.0
 10
29.90494649671439
 20
1.026814869724012
 30
0.0
 10
28.367863529516
 20
1.749796394624134
 30
0.0
 10
27.69598634104258
 20
2.065820190758888
 30
0.0
  0
SPLINE
  5
B0
330
1F
100
AcDbEntity
  8
0
  6
Continuous
 62
     1
370
    15
100
AcDbSpline
210
0.0
220
0.0
230
1.0
 70
     8
 71
     3
 72
    26
 73
    22
 74
     0
 42
0.000000001
 43
0.00000001
 40
0.0
 40
0.0
 40
0.0
 40
0.0
 40
0.0201344695913289
 40
0.0745791146421821
 40
0.1290244110375892
 40
0.183468586854934
 40
0.2379098718737221
 40
0.2923465002615734
 40
0.3467767132458305
 40
0.4011988377494264
 40
0.4556224544605113
 40
0.5100539276382229
 40
0.5644915063127648
 40
0.6189334302716766
 40
0.6733779327130562
 40
0.7278232429203425
 40
0.7822675889499351
 40
0.8367092003228338
 40
0.8911463107114767
 40
0.9455771606129717
 40
1.0
 40
1.0
 40
1.0
 40
1.0
 10
37.51296163469828
 20
5.360545240931921
 30
0.0
 10
37.87865729985979
 20
5.523904120502626
 30
0.0
 10
39.23321291964007
 20
6.128993842487105
 30
0.0
 10
41.57667186265333
 20
6.910573417314442
 30
0.0
 10
44.54329355229581
 20
7.643433099026574
 30
0.0
 10
47.50984411529416
 20
8.011573317374877
 30
0.0
 10
50.47620581780378
 20
8.018219984309177
 30
0.0
 10
53.44226082849015
 20
7.657732152055804
 30
0.0
 10
56.4079074011781
 20
6.948064119236547
 30
0.0
 10
59.37319347308805
 20
5.921155808556061
 30
0.0
 10
62.33853139707401
 20
4.624032554607005
 30
0.0
 10
65.30425576090248
 20
3.115874706999173
 30
0.0
 10
68.27037369270064
 20
1.465422666847426
 30
0.0
 10
71.2367770552563
 20
-0.2519843530809769
 30
0.0
 10
74.20334853368709
 20
-1.957885446644025
 30
0.0
 10
77.16997294780703
 20
-3.574553040730996
 30
0.0
 10
80.13653417290419
 20
-5.027525483219209
 30
0.0
 10
83.1029172307304
 20
-6.252849544929483
 30
0.0
 10
86.0690040948965
 20
-7.185693677360484
 30
0.0
 10
89.03468946384208
 20
-7.816722013159724
 30
0.0
 10
91.01161164834251
 20
-7.934402572305172
 30
0.0
 10
92.0
 20
-7.999999999999694
 30
0.0
  0
LINE
  5
B1
330
1F
100
AcDbEntity
  8
0
  6
Continuous
 62
     1
370
    15
100
AcDbLine
 10
92.0
 20
-7.999999999999694
 30
0.0
 11
92.00000000000001
 21
-7.591526953855205
 31
0.0
  0
SPLINE
  5
B2
330
1F
100
AcDbEntity
  8
0
  6
Continuous
 62
     1
370
    15
100
AcDbSpline
210
0.0
220
0.0
230
1.0
 70
     8
 71
     3
 72
    20
 73
    16
 74
     0
 42
0.000000001
 43
0.00000001
 40
0.0
 40
0.0
 40
0.0
 40
0.0
 40
0.0797144665873219
 40
0.1594242892855019
 40
0.2391272889160684
 40
0.3188212955008267
 40
0.3985049302309362
 40
0.4781935637610326
 40
0.5582661203974979
 40
0.6383474304469441
 40
0.7184349035276438
 40
0.7985259399107221
 40
0.8786179344570931
 40
0.9587082805721393
 40
1.0
 40
1.0
 40
1.0
 40
1.0
 10
12.0
 20
7.137840987776644
 30
0.0
 10
12.98421191393635
 20
6.84996876634512
 30
0.0
 10
14.95257840502671
 20
6.274241093922131
 30
0.0
 10
17.90497655426299
 20
5.040413165243441
 30
0.0
 10
20.85707053353295
 20
3.601866983541687
 30
0.0
 10
23.80878309473756
 20
1.994321754124987
 30
0.0
 10
26.7602029429314
 20
0.2981726703193879
 30
0.0
 10
29.71635539113046
 20
-1.414524769113702
 30
0.0
 10
32.67751898888604
 20
-3.065535274873823
 30
0.0
 10
35.6436667834109
 20
-4.579641558693464
 30
0.0
 10
38.6100895197664
 20
-5.883402623794835
 30
0.0
 10
41.57667078173775
 20
-6.923589559202671
 30
0.0
 10
44.54329259509964
 20
-7.629138026305991
 30
0.0
 10
47.03086101089963
 20
-7.98685601121022
 30
0.0
 10
48.52952290497054
 20
-7.962537229418114
 30
0.0
 10
49.03933731758923
 20
-7.954264472564819
 30
0.0
  0
SPLINE
  5
B3
330
1F
100
AcDbEntity
  8
0
  6
Continuous
 62
     1
370
    15
100
AcDbSpline
210
0.0
220
0.0
230
1.0
 70
     8
 71
     3
 72
    11
 73
     7
 74
     0
 42
0.000000001
 43
0.00000001
 40
0.0
 40
0.0
 40
0.0
 40
0.0
 40
0.1879966061225558
 40
0.4586984366962978
 40
0.7293691354682393
 40
1.0
 40
1.0
 40
1.0
 40
1.0
 10
81.04305172688173
 20
5.36075193908427
 30
0.0
 10
81.7296998609868
 20
5.653203845785514
 30
0.0
 10
83.40507279548066
 20
6.366765835969854
 30
0.0
 10
86.06900323459654
 20
7.179911539641592
 30
0.0
 10
89.03468967886982
 20
7.818167230137115
 30
0.0
 10
91.01161172001493
 20
7.934884287663039
 30
0.0
 10
92.00000000000003
 20
8.000000000000298
 30
0.0
  0
LINE
  5
B4
330
1F
100
AcDbEntity
  8
0
  6
Continuous
 62
   131
370
    15
100
AcDbLine
 10
12.0
 20
7.137840987776642
 30
0.0
 11
12.0
 21
7.857963649302962
 31
0.0
  0
SPLINE
  5
B5
330
1F
100
AcDbEntity
  8
0
  6
Continuous
 62
     1
370
    15
100
AcDbSpline
210
0.0
220
0.0
230
1.0
 70
    24
 71
     3
 72
    10
 73
     6
 74
     0
 42
0.000000001
 43
0.00000001
 40
0.0
 40
0.0
 40
0.0
 40
0.0
 40
0.5
 40
0.5
 40
1.0
 40
1.0
 40
1.0
 40
1.0
 10
92.00000000000001
 20
5.600000000000014
 30
0.0
 10
92.00000000000001
 20
5.939458054458522
 30
0.0
 10
92.00000000000003
 20
6.333939750936953
 30
0.0
 10
91.99999999999999
 20
7.16156128768686
 30
0.0
 10
92.00000000000001
 20
7.592587486411799
 30
0.0
 10
92.00000000000003
 20
8.000000000000298
 30
0.0
  0
LINE
  5
B6
330
1F
100
AcDbEntity
  8
0
  6
Continuous
 62
     1
370
    15
100
AcDbLine
 10
92.00000000000001
 20
5.600000000000014
 30
0.0
 11
89.06482862125566
 21
5.447425689127703
 31
0.0
  0
SPLINE
  5
B7
330
1F
100
AcDbEntity
  8
0
  6
Continuous
 62
     1
370
    15
100
AcDbSpline
210
0.0
220
0.0
230
1.0
 70
     8
 71
     3
 72
    13
 73
     9
 74
     0
 42
0.000000001
 43
0.00000001
 40
0.0
 40
0.0
 40
0.0
 40
0.0
 40
0.0660541300357432
 40
0.2528639901019197
 40
0.4396160360351598
 40
0.6263571560824247
 40
0.8131592159474349
 40
1.0
 40
1.0
 40
1.0
 40
1.0
 10
28.58174514347953
 20
-0.7514433219240617
 30
0.0
 10
28.21661760738554
 20
-0.6069295757838146
 30
0.0
 10
26.81886086419856
 20
-0.0537117458945258
 30
0.0
 10
24.38903557830873
 20
0.9401284525803953
 30
0.0
 10
21.29217393550879
 20
2.149718942382771
 30
0.0
 10
18.19541785495375
 20
3.250874983625804
 30
0.0
 10
15.09801440976895
 20
4.2067248386826
 30
0.0
 10
13.03274281788337
 20
4.661103352279825
 30
0.0
 10
12.0
 20
4.88831615487768
 30
0.0
  0
SPLINE
  5
B8
330
1F
100
AcDbEntity
  8
0
  6
Continuous
 62
   131
370
    15
100
AcDbSpline
210
0.0
220
0.0
230
1.0
 70
    24
 71
     3
 72
    10
 73
     6
 74
     0
 42
0.000000001
 43
0.00000001
 40
0.0
 40
0.0
 40
0.0
 40
0.0
 40
0.5
 40
0.5
 40
1.0
 40
1.0
 40
1.0
 40
1.0
 10
12.0
 20
7.137840987776642
 30
0.0
 10
12.0
 20
6.838122141393175
 30
0.0
 10
12.0
 20
6.473736970092079
 30
0.0
 10
12.0
 20
5.693651500203008
 30
0.0
 10
12.0
 20
5.28025044026751
 30
0.0
 10
12.0
 20
4.888316154877679
 30
0.0
  0
SPLINE
  5
B9
330
1F
100
AcDbEntity
  8
0
  6
Continuous
 62
     1
370
    15
100
AcDbSpline
210
0.0
220
0.0
230
1.0
 70
     8
 71
     3
 72
    16
 73
    12
 74
     0
 42
0.000000001
 43
0.00000001
 40
0.0
 40
0.0
 40
0.0
 40
0.0
 40
0.060837563509647
 40
0.1953437661008572
 40
0.3187441606954808
 40
0.4421610401469102
 40
0.565546385503469
 40
0.6888594827496293
 40
0.8122107454727372
 40
0.9356177042525027
 40
1.0
 40
1.0
 40
1.0
 40
1.0
 10
72.1151052877228
 20
-0.7512931134265342
 30
0.0
 10
71.57503617248103
 20
-0.5366186212259061
 30
0.0
 10
69.84092440271309
 20
0.1526812351960247
 30
0.0
 10
67.01168799516746
 20
1.306760175031466
 30
0.0
 10
63.62676934331004
 20
2.594164739974045
 30
0.0
 10
60.34053652523364
 20
3.701991607122151
 30
0.0
 10
57.05513317323378
 20
4.600718804017004
 30
0.0
 10
53.7706446707328
 20
5.246648777453665
 30
0.0
 10
50.48577042030617
 20
5.583323215927763
 30
0.0
 10
47.7238292260535
 20
5.652063543884758
 30
0.0
 10
46.05686345342885
 20
5.488448504341828
 30
0.0
 10
45.48535533575593
 20
5.432354177266997
 30
0.0
  0
SPLINE
  5
BA
330
1F
100
AcDbEntity
  8
0
  6
Continuous
 62
     1
370
    15
100
AcDbSpline
210
0.0
220
0.0
230
1.0
 70
     8
 71
     3
 72
     8
 73
     4
 74
     0
 42
0.000000001
 43
0.00000001
 40
0.0
 40
0.0
 40
0.0
 40
0.0
 40
1.0
 40
1.0
 40
1.0
 40
1.0
 10
87.05015961782928
 20
2.23756061429533
 30
0.0
 10
87.03334167603357
 20
2.257479982398853
 30
0.0
 10
87.01662136476352
 20
2.277367021158566
 30
0.0
 10
87.00000000000004
 20
2.297221294800909
 30
0.0
  0
LINE
  5
BB
330
1F
100
AcDbEntity
  8
0
  6
Continuous
 62
     1
370
    15
100
AcDbLine
 10
87.0
 20
2.937719435296605
 30
0.0
 11
92.00000000000001
 21
0.0000000000000148
 31
0.0
  0
LINE
  5
BC
330
1F
100
AcDbEntity
  8
0
  6
Continuous
 62
     1
370
    15
100
AcDbLine
 10
92.00000000000001
 20
0.0000000000000148
 30
0.0
 11
92.00000000000001
 21
-2.137943568237144
 31
0.0
  0
SPLINE
  5
BD
330
1F
100
AcDbEntity
  8
0
  6
Continuous
 62
     1
370
    15
100
AcDbSpline
210
0.0
220
0.0
230
1.0
 70
     8
 71
     3
 72
    12
 73
     8
 74
     0
 42
0.000000001
 43
0.00000001
 40
0.0
 40
0.0
 40
0.0
 40
0.0
 40
0.4999999999999977
 40
0.4999999999999977
 40
0.7499999999999988
 40
0.7499999999999988
 40
1.0
 40
1.0
 40
1.0
 40
1.0
 10
92.00000000000001
 20
-2.137943568237144
 30
0.0
 10
91.1431630450194
 20
-1.46432744054617
 30
0.0
 10
90.30064017802371
 20
-0.7630972272402733
 30
0.0
 10
89.05889110091626
 20
0.3312574405559963
 30
0.0
 10
88.64870036019443
 20
0.7032296227316452
 30
0.0
 10
87.83670336351733
 20
1.463348952643238
 30
0.0
 10
87.43709642869207
 20
1.849539909839677
 30
0.0
 10
87.05015961782928
 20
2.237560614295334
 30
0.0
  0
SPLINE
  5
BE
330
1F
100
AcDbEntity
  8
0
  6
Continuous
 62
   131
370
    15
100
AcDbSpline
210
0.0
220
0.0
230
1.0
 70
    24
 71
     3
 72
    14
 73
    10
 74
     0
 42
0.000000001
 43
0.00000001
 40
0.0
 40
0.0
 40
0.0
 40
0.0
 40
0.25
 40
0.25
 40
0.5
 40
0.5
 40
0.75
 40
0.75
 40
1.0
 40
1.0
 40
1.0
 40
1.0
 10
12.0
 20
-3.122398904026936
 30
0.0
 10
12.0
 20
-3.622565628685502
 30
0.0
 10
12.0
 20
-4.096194818213641
 30
0.0
 10
12.0
 20
-4.949509368459652
 30
0.0
 10
12.0
 20
-5.328863360803887
 30
0.0
 10
12.0
 20
-5.961830324390244
 30
0.0
 10
12.0
 20
-6.215260513987692
 30
0.0
 10
12.0
 20
-6.582610978559399
 30
0.0
 10
12.0
 20
-6.696582553585923
 30
0.0
 10
12.0
 20
-6.74401397399321
 30
0.0
  0
SPLINE
  5
BF
330
1F
100
AcDbEntity
  8
0
  6
Continuous
 62
     1
370
    15
100
AcDbSpline
210
0.0
220
0.0
230
1.0
 70
     8
 71
     3
 72
    13
 73
     9
 74
     0
 42
0.000000001
 43
0.00000001
 40
0.0
 40
0.0
 40
0.0
 40
0.0
 40
0.1716211005973469
 40
0.3432244103130835
 40
0.5148972831284158
 40
0.686608801959307
 40
0.8583265512719926
 40
1.0
 40
1.0
 40
1.0
 40
1.0
 10
87.05015961782959
 20
2.237560614295199
 30
0.0
 10
85.99623123131401
 20
2.682471370712405
 30
0.0
 10
83.88848371241936
 20
3.572246762443018
 30
0.0
 10
80.72662436089901
 20
4.690356813221826
 30
0.0
 10
77.56393250902708
 20
5.575424945426832
 30
0.0
 10
74.40049261966766
 20
6.161048998532999
 30
0.0
 10
71.42118877298678
 20
6.44064767205012
 30
0.0
 10
69.49668209863779
 20
6.372405458694177
 30
0.0
 10
68.6266784120005
 20
6.341555486597279
 30
0.0
  0
SPLINE
  5
C0
330
1F
100
AcDbEntity
  8
0
  6
Continuous
 62
     1
370
    15
100
AcDbSpline
210
0.0
220
0.0
230
1.0
 70
     8
 71
     3
 72
    14
 73
    10
 74
     0
 42
0.000000001
 43
0.00000001
 40
0.0
 40
0.0
 40
0.0
 40
0.0
 40
0.093479504696193
 40
0.2445455818512616
 40
0.3956016214258554
 40
0.546678488990249
 40
0.6977734159782608
 40
0.8488820450071844
 40
1.0
 40
1.0
 40
1.0
 40
1.0
 10
31.5380384696965
 20
-5.981468715745099
 30
0.0
 10
30.92923275864779
 20
-6.080409031403342
 30
0.0
 10
29.33657619369661
 20
-6.339240281524178
 30
0.0
 10
26.76020731284535
 20
-6.441270030836583
 30
0.0
 10
23.80876646850793
 20
-6.310200841157539
 30
0.0
 10
20.85705897249489
 20
-5.882884672777669
 30
0.0
 10
17.90496750477838
 20
-5.189941561273526
 30
0.0
 10
14.95257235881187
 20
-4.271575658769947
 30
0.0
 10
12.98421103252252
 20
-3.505465702359911
 30
0.0
 10
12.0
 20
-3.122398904026936
 30
0.0
  0
SPLINE
  5
C1
330
1F
100
AcDbEntity
  8
0
  6
Continuous
 62
     1
370
    15
100
AcDbSpline
210
0.0
220
0.0
230
1.0
 70
    24
 71
     3
 72
    10
 73
     6
 74
     0
 42
0.000000001
 43
0.00000001
 40
0.0
 40
0.0
 40
0.0
 40
0.0
 40
0.5
 40
0.5
 40
1.0
 40
1.0
 40
1.0
 40
1.0
 10
92.00000000000001
 20
-6.311778114945714
 30
0.0
 10
92.00000000000003
 20
-5.827931112030424
 30
0.0
 10
92.00000000000001
 20
-5.216571871251736
 30
0.0
 10
91.99999999999999
 20
-3.795220473205427
 30
0.0
 10
92.00000000000001
 20
-2.986459544410464
 30
0.0
 10
92.00000000000001
 20
-2.1379435682374
 30
0.0
  0
SPLINE
  5
C2
330
1F
100
AcDbEntity
  8
0
  6
Continuous
 62
     1
370
    15
100
AcDbSpline
210
0.0
220
0.0
230
1.0
 70
     8
 71
     3
 72
    25
 73
    21
 74
     0
 42
0.000000001
 43
0.00000001
 40
0.0
 40
0.0
 40
0.0
 40
0.0
 40
0.013291620898014
 40
0.0765975466617094
 40
0.135958710913757
 40
0.1953148560994764
 40
0.2546639491946132
 40
0.3140039679756716
 40
0.3733422634443916
 40
0.4326899011445747
 40
0.4920449488233949
 40
0.5514053751389387
 40
0.6107691404994693
 40
0.6701342001853962
 40
0.7294985074880859
 40
0.7888600168552128
 40
0.8482166870323069
 40
0.9075664841901819
 40
0.9666311802092736
 40
1.0
 40
1.0
 40
1.0
 40
1.0
 10
75.06477222546792
 20
-5.989565302291307
 30
0.0
 10
74.84335293350566
 20
-6.032374116302321
 30
0.0
 10
73.56734794675381
 20
-6.279074661999572
 30
0.0
 10
71.30238254008623
 20
-6.417837127853603
 30
0.0
 10
68.27039412740845
 20
-6.388456334480236
 30
0.0
 10
65.30425944582758
 20
-6.044203751653819
 30
0.0
 10
62.33854407357109
 20
-5.430502708183626
 30
0.0
 10
59.37319391899484
 20
-4.56722105151346
 30
0.0
 10
56.40789010597804
 20
-3.49591054050215
 30
0.0
 10
53.44224816770686
 20
-2.264977850589588
 30
0.0
 10
50.47619525112781
 20
-0.9306263451779263
 30
0.0
 10
47.50983621012399
 20
0.4462531026285252
 30
0.0
 10
44.54328874540334
 20
1.802807947023683
 30
0.0
 10
41.5766678954763
 20
3.077005752842493
 30
0.0
 10
38.6100897368016
 20
4.2109909052931
 30
0.0
 10
35.64366954549117
 20
5.151757463075159
 30
0.0
 10
32.67752436037621
 20
5.860956392343545
 30
0.0
 10
29.71636426596916
 20
6.288435329961286
 30
0.0
 10
27.1881521212114
 20
6.452196844364471
 30
0.0
 10
25.64852347100359
 20
6.356059990141334
 30
0.0
 10
25.0927121884475
 20
6.321354252339264
 30
0.0
  0
SPLINE
  5
C3
330
1F
100
AcDbEntity
  8
0
  6
Continuous
 62
     1
370
    15
100
AcDbSpline
210
0.0
220
0.0
230
1.0
 70
    24
 71
     3
 72
     8
 73
     4
 74
     0
 42
0.000000001
 43
0.00000001
 40
0.0
 40
0.0
 40
0.0
 40
0.0
 40
1.0
 40
1.0
 40
1.0
 40
1.0
 10
86.99999999999997
 20
2.297221294800908
 30
0.0
 10
86.99999999999997
 20
2.873887513832479
 30
0.0
 10
86.99999999999996
 20
3.404182854907326
 30
0.0
 10
86.99999999999996
 20
3.849725336690632
 30
0.0
  0
SPLINE
  5
C4
330
1F
100
AcDbEntity
  8
0
  6
Continuous
 62
   131
370
    15
100
AcDbSpline
210
0.0
220
0.0
230
1.0
 70
    24
 71
     3
 72
    14
 73
    10
 74
     0
 42
0.000000001
 43
0.00000001
 40
0.0
 40
0.0
 40
0.0
 40
0.0
 40
0.25
 40
0.25
 40
0.5
 40
0.5
 40
0.75
 40
0.75
 40
1.0
 40
1.0
 40
1.0
 40
1.0
 10
12.0
 20
4.888316154877679
 30
0.0
 10
12.0
 20
4.418797187121033
 30
0.0
 10
12.0
 20
3.86913490575255
 30
0.0
 10
12.0
 20
2.640830203077458
 30
0.0
 10
12.0
 20
1.962534099281346
 30
0.0
 10
12.0
 20
0.5387990755062658
 30
0.0
 10
12.0
 20
-0.2058812189282055
 30
0.0
 10
12.0
 20
-1.687131137096411
 30
0.0
 10
12.0
 20
-2.422999168116197
 30
0.0
 10
12.0
 20
-3.122398904026932
 30
0.0
  0
SPLINE
  5
C5
330
1F
100
AcDbEntity
  8
0
  6
Continuous
 62
     1
370
    15
100
AcDbSpline
210
0.0
220
0.0
230
1.0
 70
     8
 71
     3
 72
    10
 73
     6
 74
     0
 42
0.000000001
 43
0.00000001
 40
0.0
 40
0.0
 40
0.0
 40
0.0
 40
0.5
 40
0.5
 40
1.0
 40
1.0
 40
1.0
 40
1.0
 10
92.00000000000001
 20
5.600000000000014
 30
0.0
 10
91.15463271881511
 20
5.370757497863538
 30
0.0
 10
90.31400758335077
 20
5.112373293530007
 30
0.0
 10
88.64544875089675
 20
4.532954923089138
 30
0.0
 10
87.8175540422108
 20
4.212441632596147
 30
0.0
 10
87.00000000000001
 20
3.84972533668807
 30
0.0
  0
LINE
  5
C6
330
1F
100
AcDbEntity
  8
0
  6
Continuous
 62
     1
370
    15
100
AcDbLine
 10
92.00000000000001
 20
0.0000000000000148
 30
0.0
 11
92.00000000000001
 21
5.600000000000015
 31
0.0
  0
SPLINE
  5
C7
330
1F
100
AcDbEntity
  8
0
  6
Continuous
 62
   131
370
    15
100
AcDbSpline
210
0.0
220
0.0
230
1.0
 70
     8
 71
     3
 72
    10
 73
     6
 74
     0
 42
0.000000001
 43
0.00000001
 40
0.0
 40
0.0
 40
0.0
 40
0.0
 40
0.5
 40
0.5
 40
1.0
 40
1.0
 40
1.0
 40
1.0
 10
12.0
 20
-7.857963649302961
 30
0.0
 10
11.49069786162568
 20
-7.913047851972807
 30
0.0
 10
10.98061114538807
 20
-7.952233439685648
 30
0.0
 10
9.96809050226562
 20
-7.99828886109357
 30
0.0
 10
9.459395919785111
 20
-8.005273928547188
 30
0.0
 10
8.949968408623976
 20
-7.996066133092993
 30
0.0
  0
LINE
  5
C8
330
1F
100
AcDbEntity
  8
0
  6
Continuous
 62
   131
370
    15
100
AcDbLine
 10
12.0
 20
7.857963649302969
 30
0.0
 11
9.38352327716262
 21
7.976435187507472
 31
0.0
  0
SPLINE
  5
C9
330
1F
100
AcDbEntity
  8
0
  6
Continuous
 62
   131
370
    15
100
AcDbSpline
210
0.0
220
0.0
230
1.0
 70
     8
 71
     3
 72
    10
 73
     6
 74
     0
 42
0.000000001
 43
0.00000001
 40
0.0
 40
0.0
 40
0.0
 40
0.0
 40
0.5000000000000001
 40
0.5000000000000001
 40
1.0
 40
1.0
 40
1.0
 40
1.0
 10
12.0
 20
7.137840987776636
 30
0.0
 10
11.49070055530398
 20
7.270435931823943
 30
0.0
 10
10.9806165409382
 20
7.388630957008862
 30
0.0
 10
9.968101172257711
 20
7.594257851518864
 30
0.0
 10
9.459409395898339
 20
7.682132074082878
 30
0.0
 10
8.949984574672431
 20
7.754342818019563
 30
0.0
  0
LINE
  5
CA
330
1F
100
AcDbEntity
  8
0
  6
Continuous
 62
   131
370
    15
100
AcDbLine
 10
8.949984574672431
 20
-7.996055374966867
 30
0.0
 11
8.949984574672431
 21
7.754342605691328
 31
0.0
  0
LINE
  5
CB
330
1F
100
AcDbEntity
  8
0
  6
Continuous
 62
   131
370
    15
100
AcDbLine
 10
-56.99999999999998
 20
7.999999999999994
 30
0.0
 11
-56.99999999999998
 21
-7.999999999999999
 31
0.0
  0
LINE
  5
CC
330
1F
100
AcDbEntity
  8
0
  6
Continuous
 62
   131
370
    15
100
AcDbLine
 10
-57.99999999999998
 20
6.999999999999997
 30
0.0
 11
-57.99999999999998
 21
-6.999999999999996
 31
0.0
  0
SPLINE
  5
CD
330
1F
100
AcDbEntity
  8
0
  6
Continuous
 62
   131
370
    15
100
AcDbSpline
210
0.0
220
0.0
230
1.0
 70
    24
 71
     3
 72
    14
 73
    10
 74
     0
 42
0.000000001
 43
0.00000001
 40
0.0
 40
0.0
 40
0.0
 40
0.0
 40
0.25
 40
0.25
 40
0.5
 40
0.5
 40
0.75
 40
0.75
 40
1.0
 40
1.0
 40
1.0
 40
1.0
 10
12.0
 20
-3.122398904026936
 30
0.0
 10
12.0
 20
-3.622565628685502
 30
0.0
 10
12.0
 20
-4.096194818213641
 30
0.0
 10
12.0
 20
-4.949509368459652
 30
0.0
 10
12.0
 20
-5.328863360803887
 30
0.0
 10
12.0
 20
-5.961830324390244
 30
0.0
 10
12.0
 20
-6.215260513987692
 30
0.0
 10
12.0
 20
-6.582610978559399
 30
0.0
 10
12.0
 20
-6.696582553585923
 30
0.0
 10
12.0
 20
-6.74401397399321
 30
0.0
  0
SPLINE
  5
CE
330
1F
100
AcDbEntity
  8
0
  6
Continuous
 62
   131
370
    15
100
AcDbSpline
210
0.0
220
0.0
230
1.0
 70
     8
 71
     3
 72
    10
 73
     6
 74
     0
 42
0.000000001
 43
0.00000001
 40
0.0
 40
0.0
 40
0.0
 40
0.0
 40
0.5
 40
0.5
 40
1.0
 40
1.0
 40
1.0
 40
1.0
 10
12.0
 20
-6.744013973993213
 30
0.0
 10
11.49069786162568
 20
-6.77597473584599
 30
0.0
 10
10.98061114538807
 20
-6.79428297142036
 30
0.0
 10
9.96809050226562
 20
-6.803426199389913
 30
0.0
 10
9.459395919785111
 20
-6.794297448242494
 30
0.0
 10
8.949968408623976
 20
-6.771448448434887
 30
0.0
  0
SPLINE
  5
CF
330
1F
100
AcDbEntity
  8
0
  6
Continuous
 62
   131
370
    15
100
AcDbSpline
210
0.0
220
0.0
230
1.0
 70
     8
 71
     3
 72
    10
 73
     6
 74
     0
 42
0.000000001
 43
0.00000001
 40
0.0
 40
0.0
 40
0.0
 40
0.0
 40
0.5
 40
0.5
 40
1.0
 40
1.0
 40
1.0
 40
1.0
 10
12.0
 20
-3.122398904026936
 30
0.0
 10
11.49069957185635
 20
-2.917351922364492
 30
0.0
 10
10.98061457105151
 20
-2.705873367139834
 30
0.0
 10
9.968097276700133
 20
-2.273949108464388
 30
0.0
 10
9.459404475841106
 20
-2.05262097889567
 30
0.0
 10
8.94997867253401
 20
-1.827482907233545
 30
0.0
  0
SPLINE
  5
D0
330
1F
100
AcDbEntity
  8
0
  6
Continuous
 62
   131
370
    15
100
AcDbSpline
210
0.0
220
0.0
230
1.0
 70
    24
 71
     3
 72
    14
 73
    10
 74
     0
 42
0.000000001
 43
0.00000001
 40
0.0
 40
0.0
 40
0.0
 40
0.0
 40
0.25
 40
0.25
 40
0.5
 40
0.5
 40
0.75
 40
0.75
 40
1.0
 40
1.0
 40
1.0
 40
1.0
 10
12.0
 20
4.888316154877679
 30
0.0
 10
12.0
 20
4.418797187121033
 30
0.0
 10
12.0
 20
3.86913490575255
 30
0.0
 10
12.0
 20
2.640830203077458
 30
0.0
 10
12.0
 20
1.962534099281346
 30
0.0
 10
12.0
 20
0.5387990755062658
 30
0.0
 10
12.0
 20
-0.2058812189282055
 30
0.0
 10
12.0
 20
-1.687131137096411
 30
0.0
 10
12.0
 20
-2.422999168116197
 30
0.0
 10
12.0
 20
-3.122398904026932
 30
0.0
  0
SPLINE
  5
D1
330
1F
100
AcDbEntity
  8
0
  6
Continuous
 62
   131
370
    15
100
AcDbSpline
210
0.0
220
0.0
230
1.0
 70
     8
 71
     3
 72
    10
 73
     6
 74
     0
 42
0.000000001
 43
0.00000001
 40
0.0
 40
0.0
 40
0.0
 40
0.0
 40
0.5
 40
0.5
 40
1.0
 40
1.0
 40
1.0
 40
1.0
 10
12.0
 20
4.88831615487768
 30
0.0
 10
11.49069990647237
 20
4.988592454861806
 30
0.0
 10
10.98061524130138
 20
5.079011780549605
 30
0.0
 10
9.968098602155514
 20
5.238620746759932
 30
0.0
 10
9.4594061498804
 20
5.308152063940044
 30
0.0
 10
8.949980680724378
 20
5.36684679015772
 30
0.0
  0
SPLINE
  5
D2
330
1F
100
AcDbEntity
  8
0
  6
Continuous
 62
   131
370
    15
100
AcDbSpline
210
0.0
220
0.0
230
1.0
 70
    24
 71
     3
 72
    10
 73
     6
 74
     0
 42
0.000000001
 43
0.00000001
 40
0.0
 40
0.0
 40
0.0
 40
0.0
 40
0.5
 40
0.5
 40
1.0
 40
1.0
 40
1.0
 40
1.0
 10
12.0
 20
7.137840987776637
 30
0.0
 10
12.0
 20
6.838122141393169
 30
0.0
 10
12.0
 20
6.473736970092074
 30
0.0
 10
12.0
 20
5.693651500203007
 30
0.0
 10
12.0
 20
5.280250440267507
 30
0.0
 10
12.0
 20
4.888316154877679
 30
0.0
  0
SPLINE
  5
D3
330
1F
100
AcDbEntity
  8
0
  6
Continuous
 62
   131
370
    15
100
AcDbSpline
210
0.0
220
0.0
230
1.0
 70
    24
 71
     3
 72
     8
 73
     4
 74
     0
 42
0.000000001
 43
0.00000001
 40
0.0
 40
0.0
 40
0.0
 40
0.0
 40
1.0
 40
1.0
 40
1.0
 40
1.0
 10
12.00000000000002
 20
-6.744013973993212
 30
0.0
 10
12.00000000000002
 20
-7.130082482535258
 30
0.0
 10
12.00000000000002
 20
-7.503850963028495
 30
0.0
 10
12.00000000000002
 20
-7.857963649288337
 30
0.0
  0
LINE
  5
D4
330
1F
100
AcDbEntity
  8
0
  6
Continuous
 62
     1
370
    15
100
AcDbLine
 10
-60.99999999999998
 20
-0.0000000000000004
 30
0.0
 11
99.00000000000003
 21
0.0000000000000154
 31
0.0
  0
CIRCLE
  5
D5
330
1F
100
AcDbEntity
  8
외형선
100
AcDbCircle
 10
0.0000000000000104
 20
0.0
 30
0.0
 40
3.000000000000005
  0
INSERT
  5
D6
330
1F
100
AcDbEntity
  8
0
  6
Continuous
 62
     7
100
AcDbBlockReference
 66
     1
  2
블럭10
 10
-22.93944368806589
 20
-52.04609937292004
 30
0.0
  0
ATTRIB
  5
D7
330
D6
100
AcDbEntity
  8
FORMAT
 62
     2
100
AcDbText
 10
-39.05870472750145
 20
-49.97073246008785
 30
0.0
 40
4.233333333333333
  1
SEME7016080E [ 2 FLUTE ]
 41
0.75
  7
SLDTEXTSTYLE0
 11
-39.05870472750145
 21
-52.08739912675452
 31
0.0
100
AcDbAttribute
  2
AUTOATTR0
 70
     0
 74
     1
  0
SEQEND
  5
D8
330
D6
100
AcDbEntity
  8
0
  6
Continuous
 62
     7
  0
HATCH
  5
D9
330
1F
100
AcDbEntity
  8
중심선
100
AcDbHatch
 10
0.0
 20
0.0
 30
0.0
210
0.0
220
0.0
230
1.0
  2
SOLID
 70
     1
 71
     0
 91
        1
 92
        0
 93
        4
 72
     1
 10
-17.22453438368504
 20
-35.7989250712761
 11
-20.67080962752232
 21
-35.7989250712761
 72
     1
 10
-20.67080962752232
 20
-35.7989250712761
 11
-22.79903948672635
 21
-38.3352506518487
 72
     1
 10
-22.79903948672635
 20
-38.3352506518487
 11
-19.35273115777591
 21
-38.33521122254621
 72
     1
 10
-19.35273115777591
 20
-38.33521122254621
 11
-17.22453438368504
 21
-35.7989250712761
 97
        0
 75
     0
 76
     1
 98
        1
 10
0.0
 20
0.0
  0
HATCH
  5
DA
330
1F
100
AcDbEntity
  8
중심선
100
AcDbHatch
 10
0.0
 20
0.0
 30
0.0
210
0.0
220
0.0
230
1.0
  2
SOLID
 70
     1
 71
     0
 91
        1
 92
        0
 93
        4
 72
     1
 10
-12.21177039264909
 20
-35.7989250712761
 11
-15.65804563648637
 21
-35.7989250712761
 72
     1
 10
-15.65804563648637
 20
-35.7989250712761
 11
-20.18918364484376
 21
-41.19892507127612
 72
     1
 10
-20.18918364484376
 20
-41.19892507127612
 11
-16.74290840100648
 21
-41.19892507127612
 72
     1
 10
-16.74290840100648
 20
-41.19892507127612
 11
-12.21177039264909
 21
-35.7989250712761
 97
        0
 75
     0
 76
     1
 98
        1
 10
0.0
 20
0.0
  0
HATCH
  5
DB
330
1F
100
AcDbEntity
  8
중심선
100
AcDbHatch
 10
0.0
 20
0.0
 30
0.0
210
0.0
220
0.0
230
1.0
  2
SOLID
 70
     1
 71
     0
 91
        1
 92
        0
 93
        4
 72
     1
 10
-7.199006401613195
 20
-35.79892507127613
 11
-10.64528164545031
 21
-35.7989250712761
 72
     1
 10
-10.64528164545031
 20
-35.7989250712761
 11
-17.69371854733956
 21
-44.19892507127612
 72
     1
 10
-17.69371854733956
 20
-44.19892507127612
 11
-14.24744330350228
 21
-44.19892507127612
 72
     1
 10
-14.24744330350228
 20
-44.19892507127612
 11
-7.199006401613195
 21
-35.79892507127613
 97
        0
 75
     0
 76
     1
 98
        1
 10
0.0
 20
0.0
  0
HATCH
  5
DC
330
1F
100
AcDbEntity
  8
중심선
100
AcDbHatch
 10
0.0
 20
0.0
 30
0.0
210
0.0
220
0.0
230
1.0
  2
SOLID
 70
     1
 71
     0
 91
        1
 92
        0
 93
        6
 72
     3
 10
-2.399115970600996
 20
-39.99892507132738
 11
3.960054785062284
 21
1.540850780301639E-10
 40
0.3939339440162633
 50
17.09539180608433
 51
320.0019657685079
 73
     0
 72
     1
 10
-0.7161163149004002
 20
-38.58681907591441
 11
1.589185558800638
 21
-36.65249236586649
 72
     3
 10
-2.399115970653842
 20
-39.99892507127625
 11
6.600054785286829
 21
-1.249000902703301E-13
 40
0.6363583540795982
 50
39.99873849337408
 51
368.4976242363725
 73
     1
 72
     1
 10
4.026216521246767
 20
-39.03892507120613
 11
-3.71904866381792
 21
-39.0389250712061
 72
     1
 10
-3.71904866381792
 20
-39.0389250712061
 11
-3.719073708263854
 21
-40.95892507120602
 72
     1
 10
-3.719073708263854
 20
-40.95892507120602
 11
0.7223060612081831
 21
-40.95892507120599
 97
        0
 75
     0
 76
     1
 98
        1
 10
0.0
 20
0.0
  0
DIMENSION
  5
DD
330
1F
100
AcDbEntity
  8
치수문자_일반주서
100
AcDbDimension
  2
_D
 10
107.1929084469237
 20
8.000000000000355
 30
0.0
 11
107.1929084469237
 21
18.54150000000036
 31
0.0
 70
   160
  1
%%c<>
 71
     2
 42
15.99999999999999
 52
-270.0
  3
SLDDIMSTYLE0
100
AcDbAlignedDimension
 13
92.0
 23
-7.999999999999694
 33
0.0
 14
92.00000000000003
 24
8.000000000000298
 34
0.0
 50
90.0000000000002
100
AcDbRotatedDimension
  0
DIMENSION
  5
EB
330
1F
100
AcDbEntity
  8
치수문자_일반주서
100
AcDbDimension
  2
_D_1
 10
92.00000000000003
 20
28.7884104402427
 30
0.0
 11
17.00000000000001
 21
28.7884104402427
 31
0.0
 70
   160
  1
<>
 71
     2
 42
150.0
  3
SLDDIMSTYLE1
100
AcDbAlignedDimension
 13
-57.99999999999998
 23
6.999999999999997
 33
0.0
 14
92.00000000000003
 24
8.000000000000298
 34
0.0
 50
-0.0000000000000027
100
AcDbRotatedDimension
  0
DIMENSION
  5
F6
330
1F
100
AcDbEntity
  8
치수문자_일반주서
100
AcDbDimension
  2
_D_2
 10
92.00000000000003
 20
21.20496145547049
 30
0.0
 11
51.99999999999999
 21
21.20496145547049
 31
0.0
 70
   160
  1
<>
 71
     2
 42
80.00000000000003
  3
SLDDIMSTYLE1
100
AcDbAlignedDimension
 13
12.0
 23
7.857963649302969
 33
0.0
 14
92.00000000000003
 24
8.000000000000298
 34
0.0
 50
-0.0000000000000025
100
AcDbRotatedDimension
  0
DIMENSION
  5
100
330
1F
100
AcDbEntity
  8
치수문자_일반주서
100
AcDbDimension
  2
_D_3
 10
-69.23576682024807
 20
-8.000000000000039
 30
0.0
 11
-69.23576682024817
 21
18.54149999999995
 31
0.0
 70
   160
  1
%%c<>
 71
     2
 42
15.99999999999999
 52
-270.0
  3
SLDDIMSTYLE0
100
AcDbAlignedDimension
 13
-56.99999999999998
 23
7.999999999999994
 33
0.0
 14
-56.99999999999998
 24
-7.999999999999993
 34
0.0
 50
90.0000000000002
100
AcDbRotatedDimension
  0
INSERT
  5
113
330
1F
100
AcDbEntity
  8
외형선
100
AcDbBlockReference
  2
SW_DOWELSYMBOL_0
 10
0.0000000000000104
 20
0.0
 30
0.0
  0
ENDSEC
  0
SECTION
  2
OBJECTS
  0
DICTIONARY
  5
C
330
0
100
AcDbDictionary
281
     1
  3
ACAD_GROUP
350
D
  3
ACAD_IMAGE_VARS
350
137
  3
ACAD_LAYOUT
350
1A
  3
ACAD_MLINESTYLE
350
17
  3
ACAD_PLOTSETTINGS
350
19
  3
ACAD_PLOTSTYLENAME
350
E
  3
ACAD_SCALELIST
350
47
  3
APPDATA
350
135
  3
DWGPROPS
350
146
  0
DICTIONARY
  5
D
102
{ACAD_REACTORS
330
C
102
}
330
C
100
AcDbDictionary
281
     1
  0
RASTERVARIABLES
  5
137
102
{ACAD_REACTORS
330
C
102
}
330
C
100
AcDbRasterVariables
 90
        0
 70
     1
 71
     1
 72
     1
  0
DICTIONARY
  5
1A
102
{ACAD_REACTORS
330
C
102
}
330
C
100
AcDbDictionary
281
     1
  3
Layout1
350
1E
  3
Layout2
350
26
  3
Model
350
22
  0
DICTIONARY
  5
17
102
{ACAD_REACTORS
330
C
102
}
330
C
100
AcDbDictionary
281
     1
  3
Standard
350
18
  0
DICTIONARY
  5
19
102
{ACAD_REACTORS
330
C
102
}
330
C
100
AcDbDictionary
281
     1
  0
ACDBDICTIONARYWDFLT
  5
E
102
{ACAD_REACTORS
330
C
102
}
330
C
100
AcDbDictionary
281
     1
  3
Normal
350
F
100
AcDbDictionaryWithDefault
340
F
  0
DICTIONARY
  5
47
102
{ACAD_REACTORS
330
C
102
}
330
C
100
AcDbDictionary
281
     1
  3
A0
350
48
  3
A1
350
49
  3
A2
350
4A
  3
A3
350
4B
  3
A4
350
4C
  3
A5
350
4D
  3
A6
350
4E
  3
A7
350
4F
  3
A8
350
50
  3
A9
350
51
  3
B0
350
52
  3
B1
350
53
  3
B2
350
54
  3
B3
350
55
  3
B4
350
56
  3
B5
350
57
  3
B6
350
58
  3
B7
350
59
  3
B8
350
5A
  3
B9
350
5B
  3
C0
350
5C
  3
C1
350
5D
  3
C2
350
5E
  3
C3
350
5F
  3
C4
350
60
  3
C5
350
61
  3
C6
350
62
  3
C7
350
63
  3
C8
350
64
  3
C9
350
65
  3
D0
350
66
  3
D1
350
67
  3
D2
350
68
  0
DICTIONARY
  5
135
102
{ACAD_REACTORS
330
C
102
}
330
C
100
AcDbDictionary
281
     1
  0
XRECORD
  5
146
102
{ACAD_REACTORS
330
C
102
}
330
C
100
AcDbXrecord
280
     1
  1
DWGPROPS COOKIE
  2

  3

  4

  6

  7

  8
12014102
  9

300
=
301
=
302
=
303
=
304
=
305
=
306
=
307
=
308
=
309
=
 40
0.0
 41
2458262.176679097
 42
2458266.183717708
  1

 90
        0
  0
LAYOUT
  5
1E
102
{ACAD_REACTORS
330
1A
102
}
330
1A
100
AcDbPlotSettings
  1

  2
none_device
  4

  6

 40
0.0
 41
0.0
 42
0.0
 43
0.0
 44
0.0
 45
0.0
 46
0.0
 47
0.0
 48
0.0
 49
0.0
140
0.0
141
0.0
142
1.0
143
1.0
 70
   688
 72
     1
 73
     0
 74
     5
  7

 75
    16
147
1.0
148
0.0
149
0.0
100
AcDbLayout
  1
Layout1
 70
     1
 71
     1
 10
0.0
 20
0.0
 11
420.0
 21
297.0
 12
0.0
 22
0.0
 32
0.0
 14
1.000000000000000E+20
 24
1.000000000000000E+20
 34
1.000000000000000E+20
 15
-1.000000000000000E+20
 25
-1.000000000000000E+20
 35
-1.000000000000000E+20
146
0.0
 13
0.0
 23
0.0
 33
0.0
 16
1.0
 26
0.0
 36
0.0
 17
0.0
 27
1.0
 37
0.0
 76
     0
330
1B
  0
LAYOUT
  5
26
102
{ACAD_REACTORS
330
1A
102
}
330
1A
100
AcDbPlotSettings
  1

  2
none_device
  4

  6

 40
0.0
 41
0.0
 42
0.0
 43
0.0
 44
0.0
 45
0.0
 46
0.0
 47
0.0
 48
0.0
 49
0.0
140
0.0
141
0.0
142
1.0
143
1.0
 70
   688
 72
     1
 73
     0
 74
     5
  7

 75
    16
147
1.0
148
0.0
149
0.0
100
AcDbLayout
  1
Layout2
 70
     1
 71
     2
 10
0.0
 20
0.0
 11
0.0
 21
0.0
 12
0.0
 22
0.0
 32
0.0
 14
0.0
 24
0.0
 34
0.0
 15
0.0
 25
0.0
 35
0.0
146
0.0
 13
0.0
 23
0.0
 33
0.0
 16
1.0
 26
0.0
 36
0.0
 17
0.0
 27
1.0
 37
0.0
 76
     0
330
23
  0
LAYOUT
  5
22
102
{ACAD_REACTORS
330
1A
102
}
330
1A
100
AcDbPlotSettings
  1

  2
none_device
  4
ANSI_A_(11.00_x_8.50_Inches)
  6

 40
6.35
 41
19.05
 42
6.35000508
 43
19.05000254
 44
279.4
 45
215.9
 46
113.4152498415311
 47
103.4026590894338
 48
0.0
 49
0.0
140
0.0
141
0.0
142
0.065578048070227
143
1.0
 70
  1696
 72
     0
 73
     0
 74
     0
  7

 75
     0
147
0.0235690232323232
148
0.0
149
0.0
100
AcDbLayout
  1
Model
 70
     1
 71
     0
 10
0.0
 20
0.0
 11
420.0
 21
297.0
 12
0.0
 22
0.0
 32
0.0
 14
-73.61076682024819
 24
-49.97073246008785
 34
0.0
 15
107.7432417802571
 25
33.1634104402427
 35
0.0
146
0.0
 13
0.0
 23
0.0
 33
0.0
 16
1.0
 26
0.0
 36
0.0
 17
0.0
 27
1.0
 37
0.0
 76
     0
330
1F
331
29
  0
MLINESTYLE
  5
18
102
{ACAD_REACTORS
330
17
102
}
330
17
100
AcDbMlineStyle
  2
Standard
 70
     0
  3

 62
   256
 51
90.0
 52
90.0
 71
     2
 49
0.5
 62
   256
  6
BYLAYER
 49
-0.5
 62
   256
  6
BYLAYER
  0
ACDBPLACEHOLDER
  5
F
102
{ACAD_REACTORS
330
E
102
}
330
E
  0
SCALE
  5
48
102
{ACAD_REACTORS
330
47
102
}
330
47
100
AcDbScale
 70
     0
300
1:1
140
1.0
141
1.0
290
     1
  0
SCALE
  5
49
102
{ACAD_REACTORS
330
47
102
}
330
47
100
AcDbScale
 70
     0
300
1:2
140
1.0
141
2.0
290
     0
  0
SCALE
  5
4A
102
{ACAD_REACTORS
330
47
102
}
330
47
100
AcDbScale
 70
     0
300
1:4
140
1.0
141
4.0
290
     0
  0
SCALE
  5
4B
102
{ACAD_REACTORS
330
47
102
}
330
47
100
AcDbScale
 70
     0
300
1:5
140
1.0
141
5.0
290
     0
  0
SCALE
  5
4C
102
{ACAD_REACTORS
330
47
102
}
330
47
100
AcDbScale
 70
     0
300
1:8
140
1.0
141
8.0
290
     0
  0
SCALE
  5
4D
102
{ACAD_REACTORS
330
47
102
}
330
47
100
AcDbScale
 70
     0
300
1:10
140
1.0
141
10.0
290
     0
  0
SCALE
  5
4E
102
{ACAD_REACTORS
330
47
102
}
330
47
100
AcDbScale
 70
     0
300
1:16
140
1.0
141
16.0
290
     0
  0
SCALE
  5
4F
102
{ACAD_REACTORS
330
47
102
}
330
47
100
AcDbScale
 70
     0
300
1:20
140
1.0
141
20.0
290
     0
  0
SCALE
  5
50
102
{ACAD_REACTORS
330
47
102
}
330
47
100
AcDbScale
 70
     0
300
1:30
140
1.0
141
30.0
290
     0
  0
SCALE
  5
51
102
{ACAD_REACTORS
330
47
102
}
330
47
100
AcDbScale
 70
     0
300
1:40
140
1.0
141
40.0
290
     0
  0
SCALE
  5
52
102
{ACAD_REACTORS
330
47
102
}
330
47
100
AcDbScale
 70
     0
300
1:50
140
1.0
141
50.0
290
     0
  0
SCALE
  5
53
102
{ACAD_REACTORS
330
47
102
}
330
47
100
AcDbScale
 70
     0
300
1:100
140
1.0
141
100.0
290
     0
  0
SCALE
  5
54
102
{ACAD_REACTORS
330
47
102
}
330
47
100
AcDbScale
 70
     0
300
2:1
140
2.0
141
1.0
290
     0
  0
SCALE
  5
55
102
{ACAD_REACTORS
330
47
102
}
330
47
100
AcDbScale
 70
     0
300
4:1
140
4.0
141
1.0
290
     0
  0
SCALE
  5
56
102
{ACAD_REACTORS
330
47
102
}
330
47
100
AcDbScale
 70
     0
300
8:1
140
8.0
141
1.0
290
     0
  0
SCALE
  5
57
102
{ACAD_REACTORS
330
47
102
}
330
47
100
AcDbScale
 70
     0
300
10:1
140
10.0
141
1.0
290
     0
  0
SCALE
  5
58
102
{ACAD_REACTORS
330
47
102
}
330
47
100
AcDbScale
 70
     0
300
100:1
140
100.0
141
1.0
290
     0
  0
SCALE
  5
59
102
{ACAD_REACTORS
330
47
102
}
330
47
100
AcDbScale
 70
     0
300
1/128" = 1'-0"
140
0.0078125
141
12.0
290
     0
  0
SCALE
  5
5A
102
{ACAD_REACTORS
330
47
102
}
330
47
100
AcDbScale
 70
     0
300
1/64" = 1'-0"
140
0.015625
141
12.0
290
     0
  0
SCALE
  5
5B
102
{ACAD_REACTORS
330
47
102
}
330
47
100
AcDbScale
 70
     0
300
1/32" = 1'-0"
140
0.03125
141
12.0
290
     0
  0
SCALE
  5
5C
102
{ACAD_REACTORS
330
47
102
}
330
47
100
AcDbScale
 70
     0
300
1/16" = 1'-0"
140
0.0625
141
12.0
290
     0
  0
SCALE
  5
5D
102
{ACAD_REACTORS
330
47
102
}
330
47
100
AcDbScale
 70
     0
300
3/32" = 1'-0"
140
0.09375
141
12.0
290
     0
  0
SCALE
  5
5E
102
{ACAD_REACTORS
330
47
102
}
330
47
100
AcDbScale
 70
     0
300
1/8" = 1'-0"
140
0.125
141
12.0
290
     0
  0
SCALE
  5
5F
102
{ACAD_REACTORS
330
47
102
}
330
47
100
AcDbScale
 70
     0
300
3/16" = 1'-0"
140
0.1875
141
12.0
290
     0
  0
SCALE
  5
60
102
{ACAD_REACTORS
330
47
102
}
330
47
100
AcDbScale
 70
     0
300
1/4" = 1'-0"
140
0.25
141
12.0
290
     0
  0
SCALE
  5
61
102
{ACAD_REACTORS
330
47
102
}
330
47
100
AcDbScale
 70
     0
300
3/8" = 1'-0"
140
0.375
141
12.0
290
     0
  0
SCALE
  5
62
102
{ACAD_REACTORS
330
47
102
}
330
47
100
AcDbScale
 70
     0
300
1/2" = 1'-0"
140
0.5
141
12.0
290
     0
  0
SCALE
  5
63
102
{ACAD_REACTORS
330
47
102
}
330
47
100
AcDbScale
 70
     0
300
3/4" = 1'-0"
140
0.75
141
12.0
290
     0
  0
SCALE
  5
64
102
{ACAD_REACTORS
330
47
102
}
330
47
100
AcDbScale
 70
     0
300
1" = 1'-0"
140
1.0
141
12.0
290
     0
  0
SCALE
  5
65
102
{ACAD_REACTORS
330
47
102
}
330
47
100
AcDbScale
 70
     0
300
1-1/2" = 1'-0"
140
1.5
141
12.0
290
     0
  0
SCALE
  5
66
102
{ACAD_REACTORS
330
47
102
}
330
47
100
AcDbScale
 70
     0
300
3" = 1'-0"
140
3.0
141
12.0
290
     0
  0
SCALE
  5
67
102
{ACAD_REACTORS
330
47
102
}
330
47
100
AcDbScale
 70
     0
300
6" = 1'-0"
140
6.0
141
12.0
290
     0
  0
SCALE
  5
68
102
{ACAD_REACTORS
330
47
102
}
330
47
100
AcDbScale
 70
     0
300
1'-0" = 1'-0"
140
12.0
141
12.0
290
     0
  0
ENDSEC
  0
EOF
