  0
SECTION
  2
HEADER
  9
$ACADVER
  1
AC1015
  9
$ACADMAINTVER
 70
     6
  9
$DWGCODEPAGE
  3
ANSI_949
  9
$INSBASE
 10
0.0
 20
0.0
 30
0.0
  9
$EXTMIN
 10
-109.1500244777771
 20
-49.97073246008785
 30
0.0
  9
$EXTMAX
 10
119.1220609629581
 20
35.16341044024269
 30
0.0
  9
$LIMMIN
 10
0.0
 20
0.0
  9
$LIMMAX
 10
420.0
 20
297.0
  9
$ORTHOMODE
 70
     0
  9
$REGENMODE
 70
     1
  9
$FILLMODE
 70
     1
  9
$QTEXTMODE
 70
     0
  9
$MIRRTEXT
 70
     1
  9
$LTSCALE
 40
1.0
  9
$ATTMODE
 70
     1
  9
$TEXTSIZE
 40
3.5
  9
$TRACEWID
 40
1.0
  9
$TEXTSTYLE
  7
Standard
  9
$CLAYER
  8
0
  9
$CELTYPE
  6
ByLayer
  9
$CECOLOR
 62
   256
  9
$CELTSCALE
 40
1.0
  9
$DISPSILH
 70
     0
  9
$DIMSCALE
 40
1.0
  9
$DIMASZ
 40
3.302
  9
$DIMEXO
 40
1.0
  9
$DIMDLI
 40
3.75
  9
$DIMRND
 40
0.0
  9
$DIMDLE
 40
0.0
  9
$DIMEXE
 40
1.0
  9
$DIMTP
 40
0.0
  9
$DIMTM
 40
0.0
  9
$DIMTXT
 40
3.5
  9
$DIMCEN
 40
2.5
  9
$DIMTSZ
 40
0.0
  9
$DIMTOL
 70
     0
  9
$DIMLIM
 70
     0
  9
$DIMTIH
 70
     1
  9
$DIMTOH
 70
     1
  9
$DIMSE1
 70
     0
  9
$DIMSE2
 70
     0
  9
$DIMTAD
 70
     1
  9
$DIMZIN
 70
     0
  9
$DIMBLK
  1

  9
$DIMASO
 70
     1
  9
$DIMSHO
 70
     1
  9
$DIMPOST
  1

  9
$DIMAPOST
  1

  9
$DIMALT
 70
     0
  9
$DIMALTD
 70
     3
  9
$DIMALTF
 40
0.0393700787401575
  9
$DIMLFAC
 40
1.0
  9
$DIMTOFL
 70
     1
  9
$DIMTVP
 40
0.0
  9
$DIMTIX
 70
     0
  9
$DIMSOXD
 70
     0
  9
$DIMSAH
 70
     0
  9
$DIMBLK1
  1

  9
$DIMBLK2
  1

  9
$DIMSTYLE
  2
ISO-25
  9
$DIMCLRD
 70
     0
  9
$DIMCLRE
 70
     0
  9
$DIMCLRT
 70
     0
  9
$DIMTFAC
 40
1.0
  9
$DIMGAP
 40
1.524
  9
$DIMJUST
 70
     0
  9
$DIMSD1
 70
     0
  9
$DIMSD2
 70
     0
  9
$DIMTOLJ
 70
     0
  9
$DIMTZIN
 70
     0
  9
$DIMALTZ
 70
     0
  9
$DIMALTTZ
 70
     0
  9
$DIMUPT
 70
     0
  9
$DIMDEC
 70
     2
  9
$DIMTDEC
 70
     2
  9
$DIMALTU
 70
     2
  9
$DIMALTTD
 70
     3
  9
$DIMTXSTY
  7
Standard
  9
$DIMAUNIT
 70
     0
  9
$DIMADEC
 70
     2
  9
$DIMALTRND
 40
0.0
  9
$DIMAZIN
 70
     0
  9
$DIMDSEP
 70
    44
  9
$DIMATFIT
 70
     3
  9
$DIMFRAC
 70
     0
  9
$DIMLDRBLK
  1

  9
$DIMLUNIT
 70
     2
  9
$DIMLWD
 70
    -2
  9
$DIMLWE
 70
    -2
  9
$DIMTMOVE
 70
     0
  9
$LUNITS
 70
     2
  9
$LUPREC
 70
     2
  9
$SKETCHINC
 40
1.0
  9
$FILLETRAD
 40
10.0
  9
$AUNITS
 70
     0
  9
$AUPREC
 70
     2
  9
$MENU
  1
.
  9
$ELEVATION
 40
0.0
  9
$PELEVATION
 40
0.0
  9
$THICKNESS
 40
0.0
  9
$LIMCHECK
 70
     0
  9
$CHAMFERA
 40
0.0
  9
$CHAMFERB
 40
0.0
  9
$CHAMFERC
 40
0.0
  9
$CHAMFERD
 40
0.0
  9
$SKPOLY
 70
     0
  9
$TDCREATE
 40
2458262.552054907
  9
$TDUCREATE
 40
2458262.177054907
  9
$TDUPDATE
 40
2459702.6477475
  9
$TDUUPDATE
 40
2459702.2727475
  9
$TDINDWG
 40
0.0048608796
  9
$TDUSRTIMER
 40
0.0019780556
  9
$USRTIMER
 70
     1
  9
$ANGBASE
 50
0.0
  9
$ANGDIR
 70
     0
  9
$PDMODE
 70
     0
  9
$PDSIZE
 40
-1.0
  9
$PLINEWID
 40
0.0
  9
$SPLFRAME
 70
     0
  9
$SPLINETYPE
 70
     6
  9
$SPLINESEGS
 70
     8
  9
$HANDSEED
  5
17D
  9
$SURFTAB1
 70
     6
  9
$SURFTAB2
 70
     6
  9
$SURFTYPE
 70
     6
  9
$SURFU
 70
     6
  9
$SURFV
 70
     6
  9
$UCSBASE
  2

  9
$UCSNAME
  2

  9
$UCSORG
 10
0.0
 20
0.0
 30
0.0
  9
$UCSXDIR
 10
1.0
 20
0.0
 30
0.0
  9
$UCSYDIR
 10
0.0
 20
1.0
 30
0.0
  9
$UCSORTHOREF
  2

  9
$UCSORTHOVIEW
 70
     0
  9
$UCSORGTOP
 10
0.0
 20
0.0
 30
0.0
  9
$UCSORGBOTTOM
 10
0.0
 20
0.0
 30
0.0
  9
$UCSORGLEFT
 10
0.0
 20
0.0
 30
0.0
  9
$UCSORGRIGHT
 10
0.0
 20
0.0
 30
0.0
  9
$UCSORGFRONT
 10
0.0
 20
0.0
 30
0.0
  9
$UCSORGBACK
 10
0.0
 20
0.0
 30
0.0
  9
$PUCSBASE
  2

  9
$PUCSNAME
  2

  9
$PUCSORG
 10
0.0
 20
0.0
 30
0.0
  9
$PUCSXDIR
 10
1.0
 20
0.0
 30
0.0
  9
$PUCSYDIR
 10
0.0
 20
1.0
 30
0.0
  9
$PUCSORTHOREF
  2

  9
$PUCSORTHOVIEW
 70
     0
  9
$PUCSORGTOP
 10
0.0
 20
0.0
 30
0.0
  9
$PUCSORGBOTTOM
 10
0.0
 20
0.0
 30
0.0
  9
$PUCSORGLEFT
 10
0.0
 20
0.0
 30
0.0
  9
$PUCSORGRIGHT
 10
0.0
 20
0.0
 30
0.0
  9
$PUCSORGFRONT
 10
0.0
 20
0.0
 30
0.0
  9
$PUCSORGBACK
 10
0.0
 20
0.0
 30
0.0
  9
$USERI1
 70
     0
  9
$USERI2
 70
     0
  9
$USERI3
 70
     0
  9
$USERI4
 70
     0
  9
$USERI5
 70
     0
  9
$USERR1
 40
0.0
  9
$USERR2
 40
0.0
  9
$USERR3
 40
0.0
  9
$USERR4
 40
0.0
  9
$USERR5
 40
0.0
  9
$WORLDVIEW
 70
     1
  9
$SHADEDGE
 70
     3
  9
$SHADEDIF
 70
    70
  9
$TILEMODE
 70
     1
  9
$MAXACTVP
 70
    64
  9
$PINSBASE
 10
0.0
 20
0.0
 30
0.0
  9
$PLIMCHECK
 70
     0
  9
$PEXTMIN
 10
1.000000000000000E+20
 20
1.000000000000000E+20
 30
1.000000000000000E+20
  9
$PEXTMAX
 10
-1.000000000000000E+20
 20
-1.000000000000000E+20
 30
-1.000000000000000E+20
  9
$PLIMMIN
 10
0.0
 20
0.0
  9
$PLIMMAX
 10
0.0
 20
0.0
  9
$UNITMODE
 70
     0
  9
$VISRETAIN
 70
     1
  9
$PLINEGEN
 70
     0
  9
$PSLTSCALE
 70
     1
  9
$TREEDEPTH
 70
  3020
  9
$CMLSTYLE
  2
Standard
  9
$CMLJUST
 70
     0
  9
$CMLSCALE
 40
20.0
  9
$PROXYGRAPHICS
 70
     1
  9
$MEASUREMENT
 70
     1
  9
$CELWEIGHT
370
    -1
  9
$ENDCAPS
280
     0
  9
$JOINSTYLE
280
     0
  9
$LWDISPLAY
290
     1
  9
$INSUNITS
 70
     4
  9
$HYPERLINKBASE
  1

  9
$STYLESHEET
  1

  9
$XEDIT
290
     1
  9
$CEPSNTYPE
380
     0
  9
$PSTYLEMODE
290
     1
  9
$FINGERPRINTGUID
  2
{0F872690-7758-4894-B79B-4BC2A482CDCF}
  9
$VERSIONGUID
  2
{FAEB1C32-E019-11D5-929B-00C0DF256EC4}
  9
$EXTNAMES
290
     1
  9
$PSVPSCALE
 40
0.0
  9
$OLESTARTUP
290
     0
  0
ENDSEC
  0
SECTION
  2
CLASSES
  0
CLASS
  1
ACDBDICTIONARYWDFLT
  2
AcDbDictionaryWithDefault
  3
ObjectDBX Classes
 90
        0
280
     0
281
     0
  0
CLASS
  1
VISUALSTYLE
  2
AcDbVisualStyle
  3
ObjectDBX Classes
 90
     4095
280
     0
281
     0
  0
CLASS
  1
MATERIAL
  2
AcDbMaterial
  3
ObjectDBX Classes
 90
     1153
280
     0
281
     0
  0
CLASS
  1
SCALE
  2
AcDbScale
  3
ObjectDBX Classes
 90
     1153
280
     0
281
     0
  0
CLASS
  1
SUN
  2
AcDbSun
  3
SCENEOE
 90
     1153
280
     0
281
     0
  0
CLASS
  1
ACDBPLACEHOLDER
  2
AcDbPlaceHolder
  3
ObjectDBX Classes
 90
        0
280
     0
281
     0
  0
CLASS
  1
LAYOUT
  2
AcDbLayout
  3
ObjectDBX Classes
 90
        0
280
     0
281
     0
  0
CLASS
  1
TABLESTYLE
  2
AcDbTableStyle
  3
ObjectDBX Classes
 90
     4095
280
     0
281
     0
  0
CLASS
  1
MLEADERSTYLE
  2
AcDbMLeaderStyle
  3
ACDB_MLEADERSTYLE_CLASS
 90
     4095
280
     0
281
     0
  0
CLASS
  1
RASTERVARIABLES
  2
AcDbRasterVariables
  3
ISM
 90
        0
280
     0
281
     0
  0
CLASS
  1
SORTENTSTABLE
  2
AcDbSortentsTable
  3
ObjectDBX Classes
 90
        0
280
     0
281
     0
  0
ENDSEC
  0
SECTION
  2
TABLES
  0
TABLE
  2
VPORT
  5
8
330
0
100
AcDbSymbolTable
 70
     1
  0
VPORT
  5
29
330
8
100
AcDbSymbolTableRecord
100
AcDbViewportTableRecord
  2
*Active
 70
     0
 10
0.0
 20
0.0
 11
1.0
 21
1.0
 12
4.98601824259049
 22
-7.40366100992258
 13
0.0
 23
0.0
 14
10.0
 24
10.0
 15
10.0
 25
10.0
 16
0.0
 26
0.0
 36
1.0
 17
0.0
 27
0.0
 37
0.0
 40
111.6344308251267
 41
2.085714285714286
 42
50.0
 43
0.0
 44
0.0
 50
0.0
 51
0.0
 71
    16
 72
  2000
 73
     1
 74
     3
 75
     0
 76
     0
 77
     0
 78
     0
281
     0
 65
     1
110
0.0
120
0.0
130
0.0
111
1.0
121
0.0
131
0.0
112
0.0
122
1.0
132
0.0
 79
     0
146
0.0
  0
ENDTAB
  0
TABLE
  2
LTYPE
  5
5
330
0
100
AcDbSymbolTable
 70
     6
  0
LTYPE
  5
14
330
5
100
AcDbSymbolTableRecord
100
AcDbLinetypeTableRecord
  2
ByBlock
 70
     0
  3

 72
    65
 73
     0
 40
0.0
  0
LTYPE
  5
15
330
5
100
AcDbSymbolTableRecord
100
AcDbLinetypeTableRecord
  2
ByLayer
 70
     0
  3

 72
    65
 73
     0
 40
0.0
  0
LTYPE
  5
16
330
5
100
AcDbSymbolTableRecord
100
AcDbLinetypeTableRecord
  2
Continuous
 70
     0
  3
Solid line
 72
    65
 73
     0
 40
0.0
  0
LTYPE
  5
6A
330
5
100
AcDbSymbolTableRecord
100
AcDbLinetypeTableRecord
  2
HIDDEN
 70
     0
  3
Hidden __ __ __ __ __ __ __ __ __ __ __ __ __ __
 72
    65
 73
     2
 40
1.905
 49
1.27
 74
     0
 49
-0.635
 74
     0
  0
LTYPE
  5
6B
330
5
100
AcDbSymbolTableRecord
100
AcDbLinetypeTableRecord
  2
PHANTOM
 70
     0
  3
Phantom ______  __  __  ______  __  __  ______
 72
    65
 73
     6
 40
12.7
 49
6.35
 74
     0
 49
-1.27
 74
     0
 49
1.27
 74
     0
 49
-1.27
 74
     0
 49
1.27
 74
     0
 49
-1.27
 74
     0
  0
LTYPE
  5
6C
330
5
100
AcDbSymbolTableRecord
100
AcDbLinetypeTableRecord
  2
CENTER
 70
     0
  3
Center ____ _ ____ _ ____ _ ____ _ ____ _ ____
 72
    65
 73
     4
 40
10.16
 49
6.35
 74
     0
 49
-1.27
 74
     0
 49
1.27
 74
     0
 49
-1.27
 74
     0
  0
LTYPE
  5
6D
330
5
100
AcDbSymbolTableRecord
100
AcDbLinetypeTableRecord
  2
CENTERX2
 70
     0
  3
Center (2x) ________  __  ________  __  _____
 72
    65
 73
     4
 40
20.32
 49
12.7
 74
     0
 49
-2.54
 74
     0
 49
2.54
 74
     0
 49
-2.54
 74
     0
  0
LTYPE
  5
6E
330
5
100
AcDbSymbolTableRecord
100
AcDbLinetypeTableRecord
  2
DOT2
 70
     0
  3
Dot (.5x) ........................................
 72
    65
 73
     2
 40
0.635
 49
0.0
 74
     0
 49
-0.635
 74
     0
  0
ENDTAB
  0
TABLE
  2
LAYER
  5
2
330
0
100
AcDbSymbolTable
 70
    17
  0
LAYER
  5
10
330
2
100
AcDbSymbolTableRecord
100
AcDbLayerTableRecord
  2
0
 70
     0
 62
     7
  6
Continuous
370
    -3
390
F
  0
LAYER
  5
6F
330
2
100
AcDbSymbolTableRecord
100
AcDbLayerTableRecord
  2
FORMAT
 70
     0
 62
     2
  6
Continuous
370
    -3
390
F
  0
LAYER
  5
70
330
2
100
AcDbSymbolTableRecord
100
AcDbLayerTableRecord
  2
외형선
 70
     0
 62
   100
  6
Continuous
370
    30
390
F
  0
LAYER
  5
71
330
2
100
AcDbSymbolTableRecord
100
AcDbLayerTableRecord
  2
숨은선
 70
     0
 62
     2
  6
HIDDEN
370
    15
390
F
  0
LAYER
  5
72
330
2
100
AcDbSymbolTableRecord
100
AcDbLayerTableRecord
  2
중심선
 70
     0
 62
     1
  6
CENTERX2
370
    -3
390
F
  0
LAYER
  5
73
330
2
100
AcDbSymbolTableRecord
100
AcDbLayerTableRecord
  2
파단선
 70
     0
 62
     4
  6
Continuous
370
    -3
390
F
  0
LAYER
  5
74
330
2
100
AcDbSymbolTableRecord
100
AcDbLayerTableRecord
  2
해칭선
 70
     0
 62
     4
  6
Continuous
370
    -3
390
F
  0
LAYER
  5
75
330
2
100
AcDbSymbolTableRecord
100
AcDbLayerTableRecord
  2
가는실선
 70
     0
 62
     4
  6
Continuous
370
    -3
390
F
  0
LAYER
  5
76
330
2
100
AcDbSymbolTableRecord
100
AcDbLayerTableRecord
  2
치수_보조선
 70
     0
 62
     4
  6
Continuous
370
    -3
390
F
  0
LAYER
  5
77
330
2
100
AcDbSymbolTableRecord
100
AcDbLayerTableRecord
  2
치수문자_일반주서
 70
     0
 62
     7
  6
Continuous
370
    15
390
F
  0
LAYER
  5
78
330
2
100
AcDbSymbolTableRecord
100
AcDbLayerTableRecord
  2
개별주서
 70
     0
 62
   100
  6
Continuous
370
    30
390
F
  0
LAYER
  5
79
330
2
100
AcDbSymbolTableRecord
100
AcDbLayerTableRecord
  2
중간선
 70
     0
 62
     2
  6
Continuous
370
    15
390
F
  0
LAYER
  5
7A
330
2
100
AcDbSymbolTableRecord
100
AcDbLayerTableRecord
  2
윤곽선
 70
     0
 62
     3
  6
Continuous
370
    40
390
F
  0
LAYER
  5
7B
330
2
100
AcDbSymbolTableRecord
100
AcDbLayerTableRecord
  2
중심마크
 70
     0
 62
   100
  6
Continuous
370
    30
390
F
  0
LAYER
  5
7C
330
2
100
AcDbSymbolTableRecord
100
AcDbLayerTableRecord
  2
가상선
 70
     0
 62
     4
  6
PHANTOM
370
    -3
390
F
  0
LAYER
  5
7D
330
2
100
AcDbSymbolTableRecord
100
AcDbLayerTableRecord
  2
특수지정선
 70
     0
 62
     5
  6
CENTERX2
370
    60
390
F
  0
LAYER
  5
142
330
2
100
AcDbSymbolTableRecord
100
AcDbLayerTableRecord
  2
Defpoints
 70
     0
 62
     7
  6
Continuous
290
     0
370
    -3
390
F
  0
ENDTAB
  0
TABLE
  2
STYLE
  5
3
330
0
100
AcDbSymbolTable
 70
     2
  0
STYLE
  5
11
330
3
100
AcDbSymbolTableRecord
100
AcDbTextStyleTableRecord
  2
Standard
 70
     0
 40
0.0
 41
1.0
 50
0.0
 71
     0
 42
3.5
  3
txt
  4

  0
STYLE
  5
93
330
3
100
AcDbSymbolTableRecord
100
AcDbTextStyleTableRecord
  2
SLDTEXTSTYLE0
 70
     0
 40
0.0
 41
0.75
 50
0.0
 71
     0
 42
3.5
  3
TXT
  4

  0
ENDTAB
  0
TABLE
  2
VIEW
  5
6
330
0
100
AcDbSymbolTable
 70
     0
  0
ENDTAB
  0
TABLE
  2
UCS
  5
7
330
0
100
AcDbSymbolTable
 70
     0
  0
ENDTAB
  0
TABLE
  2
APPID
  5
9
330
0
100
AcDbSymbolTable
 70
     2
  0
APPID
  5
12
330
9
100
AcDbSymbolTableRecord
100
AcDbRegAppTableRecord
  2
ACAD
 70
     0
  0
APPID
  5
17A
330
9
100
AcDbSymbolTableRecord
100
AcDbRegAppTableRecord
  2
PE_URL
 70
     0
  0
ENDTAB
  0
TABLE
  2
DIMSTYLE
  5
A
330
0
100
AcDbSymbolTable
 70
     3
100
AcDbDimStyleTable
  0
DIMSTYLE
105
27
330
A
100
AcDbSymbolTableRecord
100
AcDbDimStyleTableRecord
  2
ISO-25
 70
     0
 41
2.5
 42
0.625
 43
3.75
 44
1.25
 73
     0
 74
     0
 77
     1
 78
     8
140
2.5
141
2.5
143
0.03937007874016
147
0.625
171
     3
172
     1
178
     0
271
     2
272
     2
274
     3
278
    44
283
     0
284
     8
340
11
  0
DIMSTYLE
105
E8
102
{ACAD_REACTORS
330
E7
330
10A
102
}
330
A
100
AcDbSymbolTableRecord
100
AcDbDimStyleTableRecord
  2
SLDDIMSTYLE0
 70
     0
 41
3.302
 44
0.0
 45
0.000000001
 73
     0
 74
     0
 77
     1
 78
    12
 79
     3
140
3.5
147
0.875
172
     1
173
     1
178
     0
271
     2
272
     2
276
     2
284
    12
289
     0
340
93
  0
DIMSTYLE
105
F6
102
{ACAD_REACTORS
330
F5
330
100
102
}
330
A
100
AcDbSymbolTableRecord
100
AcDbDimStyleTableRecord
  2
SLDDIMSTYLE1
 70
     0
 41
3.302
 44
0.0
 45
0.000000001
 73
     0
 74
     0
 77
     1
 78
    12
 79
     3
140
3.5
147
0.875
173
     1
178
     0
271
     2
272
     2
276
     2
284
    12
340
93
  0
ENDTAB
  0
TABLE
  2
BLOCK_RECORD
  5
1
330
0
100
AcDbSymbolTable
 70
     7
  0
BLOCK_RECORD
  5
1F
102
{ACAD_XDICTIONARY
360
177
102
}
330
1
100
AcDbSymbolTableRecord
100
AcDbBlockTableRecord
  2
*Model_Space
340
22
  0
BLOCK_RECORD
  5
1B
330
1
100
AcDbSymbolTableRecord
100
AcDbBlockTableRecord
  2
*Paper_Space
340
1E
  0
BLOCK_RECORD
  5
23
330
1
100
AcDbSymbolTableRecord
100
AcDbBlockTableRecord
  2
*Paper_Space0
340
26
  0
BLOCK_RECORD
  5
7E
330
1
100
AcDbSymbolTableRecord
100
AcDbBlockTableRecord
  2
블럭10
340
0
102
{BLKREFS
331
E0
102
}
  0
BLOCK_RECORD
  5
E9
330
1
100
AcDbSymbolTableRecord
100
AcDbBlockTableRecord
  2
_D
340
0
  0
BLOCK_RECORD
  5
F7
330
1
100
AcDbSymbolTableRecord
100
AcDbBlockTableRecord
  2
_D_1
340
0
  0
BLOCK_RECORD
  5
101
330
1
100
AcDbSymbolTableRecord
100
AcDbBlockTableRecord
  2
_D_2
340
0
  0
BLOCK_RECORD
  5
10B
330
1
100
AcDbSymbolTableRecord
100
AcDbBlockTableRecord
  2
_D_3
340
0
  0
BLOCK_RECORD
  5
117
330
1
100
AcDbSymbolTableRecord
100
AcDbBlockTableRecord
  2
SW_DOWELSYMBOL_0
340
0
102
{BLKREFS
331
11D
102
}
  0
ENDTAB
  0
ENDSEC
  0
SECTION
  2
BLOCKS
  0
BLOCK
  5
20
330
1F
100
AcDbEntity
  8
0
100
AcDbBlockBegin
  2
*Model_Space
 70
     0
 10
0.0
 20
0.0
 30
0.0
  3
*Model_Space
  1

  0
ENDBLK
  5
21
330
1F
100
AcDbEntity
  8
0
100
AcDbBlockEnd
  0
BLOCK
  5
1C
330
1B
100
AcDbEntity
 67
     1
  8
0
100
AcDbBlockBegin
  2
*Paper_Space
 70
     0
 10
0.0
 20
0.0
 30
0.0
  3
*Paper_Space
  1

  0
ENDBLK
  5
1D
330
1B
100
AcDbEntity
 67
     1
  8
0
100
AcDbBlockEnd
  0
BLOCK
  5
24
330
23
100
AcDbEntity
  8
0
100
AcDbBlockBegin
  2
*Paper_Space0
 70
     0
 10
0.0
 20
0.0
 30
0.0
  3
*Paper_Space0
  1

  0
ENDBLK
  5
25
330
23
100
AcDbEntity
  8
0
100
AcDbBlockEnd
  0
BLOCK
  5
7F
330
7E
100
AcDbEntity
  8
0
100
AcDbBlockBegin
  2
블럭10
 70
     2
 10
0.0
 20
0.0
 30
0.0
  3
블럭10
  1

  0
ELLIPSE
  5
81
330
7E
100
AcDbEntity
  8
중심선
100
AcDbEllipse
 10
20.54032771741204
 20
12.0471743016438
 30
0.0
 11
6.600054785286829
 21
-1.261213355974178E-13
 31
0.0
210
0.0
220
0.0
230
1.0
 40
0.636358354079598
 41
0.9219305317359503
 42
6.513795318482858
  0
ELLIPSE
  5
82
330
7E
100
AcDbEntity
  8
중심선
100
AcDbEllipse
 10
20.54032771746488
 20
12.04717430159265
 30
0.0
 11
3.960054785062283
 21
1.540847449632565E-10
 31
0.0
210
0.0
220
0.0
230
1.0
 40
0.3939339440162632
 41
1.131841032648279
 42
5.62031148352944
  0
LINE
  5
83
330
7E
100
AcDbEntity
  8
중심선
100
AcDbLine
 10
2.268634060543552
 20
16.24717430164393
 30
0.0
 11
5.714909304380834
 21
16.24717430164393
 31
0.0
  0
LINE
  5
84
330
7E
100
AcDbEntity
  8
중심선
100
AcDbLine
 10
5.245725140726316
 20
7.84717430164391
 30
0.0
 11
8.692000384563599
 21
7.84717430164391
 31
0.0
  0
LINE
  5
85
330
7E
100
AcDbEntity
  8
중심선
100
AcDbLine
 10
15.74043728645272
 20
16.24717430164393
 30
0.0
 11
8.692000384563599
 21
7.84717430164391
 31
0.0
  0
LINE
  5
86
330
7E
100
AcDbEntity
  8
중심선
100
AcDbLine
 10
0.1404042013395286
 20
13.71084872107135
 30
0.0
 11
3.58671253028996
 21
13.71088815037384
 31
0.0
  0
LINE
  5
87
330
7E
100
AcDbEntity
  8
중심선
100
AcDbLine
 10
2.750260043222114
 20
10.84717430164391
 30
0.0
 11
6.196535287059397
 21
10.84717430164391
 31
0.0
  0
LINE
  5
88
330
7E
100
AcDbEntity
  8
중심선
100
AcDbLine
 10
12.29416204261559
 20
16.24717430164393
 30
0.0
 11
5.245725140726316
 21
7.84717430164391
 31
0.0
  0
LINE
  5
89
330
7E
100
AcDbEntity
  8
중심선
100
AcDbLine
 10
10.72767329541681
 20
16.24717430164393
 30
0.0
 11
6.196535287059397
 21
10.84717430164391
 31
0.0
  0
LINE
  5
8A
330
7E
100
AcDbEntity
  8
중심선
100
AcDbLine
 10
7.28139805157953
 20
16.24717430164393
 30
0.0
 11
2.750260043222114
 21
10.84717430164391
 31
0.0
  0
LINE
  5
8B
330
7E
100
AcDbEntity
  8
중심선
100
AcDbLine
 10
5.714909304380834
 20
16.24717430164393
 30
0.0
 11
3.58671253028996
 21
13.71088815037384
 31
0.0
  0
LINE
  5
8C
330
7E
100
AcDbEntity
  8
중심선
100
AcDbLine
 10
2.268634060543552
 20
16.24717430164393
 30
0.0
 11
0.1404042013395286
 21
13.71084872107135
 31
0.0
  0
LINE
  5
8D
330
7E
100
AcDbEntity
  8
중심선
100
AcDbLine
 10
7.28139805157953
 20
16.24717430164393
 30
0.0
 11
10.72767329541681
 21
16.24717430164393
 31
0.0
  0
LINE
  5
8E
330
7E
100
AcDbEntity
  8
중심선
100
AcDbLine
 10
12.29416204261559
 20
16.24717430164393
 30
0.0
 11
15.74043728645272
 21
16.24717430164393
 31
0.0
  0
LINE
  5
8F
330
7E
100
AcDbEntity
  8
중심선
100
AcDbLine
 10
19.22036997980202
 20
11.08717430171403
 30
0.0
 11
23.66174974927406
 21
11.08717430171406
 31
0.0
  0
LINE
  5
90
330
7E
100
AcDbEntity
  8
중심선
100
AcDbLine
 10
19.22039502424796
 20
13.00717430171391
 30
0.0
 11
19.22036997980202
 21
11.08717430171403
 31
0.0
  0
LINE
  5
91
330
7E
100
AcDbEntity
  8
중심선
100
AcDbLine
 10
19.22039502424796
 20
13.00717430171391
 30
0.0
 11
26.96566020931264
 21
13.00717430171391
 31
0.0
  0
LINE
  5
92
330
7E
100
AcDbEntity
  8
중심선
100
AcDbLine
 10
22.22332737316547
 20
13.45928029700563
 30
0.0
 11
24.52862924686651
 21
15.39360700705356
 31
0.0
  0
ATTDEF
  5
94
330
7E
100
AcDbEntity
  8
FORMAT
 62
     2
100
AcDbText
 10
-17.69892196172445
 20
2.075366912832191
 30
0.0
 40
4.233333333333333
  1
SEME70180100E [ 2 FLUTE ]
 41
0.75
  7
SLDTEXTSTYLE0
 11
-17.69892196172445
 21
-0.0412997538344756
 31
0.0
100
AcDbAttributeDefinition
  3

  2
AUTOATTR0
 70
     0
 74
     1
  0
ENDBLK
  5
80
330
7E
100
AcDbEntity
  8
0
100
AcDbBlockEnd
  0
BLOCK
  5
EA
330
E9
100
AcDbEntity
  8
0
100
AcDbBlockBegin
  2
_D
 70
     0
 10
0.0
 20
0.0
 30
0.0
  3
_D
  1

  0
LINE
  5
EC
330
E9
100
AcDbEntity
  8
치수문자_일반주서
 62
     0
370
    -2
100
AcDbLine
 10
106.7945508075685
 20
-8.999999999999988
 30
0.0
 11
118.5717276296247
 21
-8.999999999999943
 31
0.0
  0
LINE
  5
ED
330
E9
100
AcDbEntity
  8
치수문자_일반주서
 62
     0
370
    -2
100
AcDbLine
 10
106.7945508075689
 20
9.000000000000012
 30
0.0
 11
118.5717276296247
 21
9.000000000000057
 31
0.0
  0
LINE
  5
EE
330
E9
100
AcDbEntity
  8
치수문자_일반주서
 62
     0
370
    -2
100
AcDbLine
 10
118.5717276296247
 20
-8.999999999999943
 30
0.0
 11
118.5717276296246
 21
26.38525000000006
 31
0.0
  0
LINE
  5
EF
330
E9
100
AcDbEntity
  8
치수문자_일반주서
 62
     0
370
    -2
100
AcDbLine
 10
118.5717276296247
 20
-8.999999999999943
 30
0.0
 11
118.5717276296247
 21
9.000000000000057
 31
0.0
  0
LINE
  5
F0
330
E9
100
AcDbEntity
  8
치수문자_일반주서
 62
     0
370
    -2
100
AcDbLine
 10
118.5717276296247
 20
-12.30199999999994
 30
0.0
 11
118.5717276296248
 21
-15.60399999999994
 31
0.0
  0
LINE
  5
F1
330
E9
100
AcDbEntity
  8
치수문자_일반주서
 62
     0
370
    -2
100
AcDbLine
 10
118.5717276296247
 20
12.30200000000006
 30
0.0
 11
118.5717276296246
 21
15.60400000000006
 31
0.0
  0
SOLID
  5
F2
330
E9
100
AcDbEntity
  8
치수문자_일반주서
 62
     0
100
AcDbTrace
 10
119.1220609629581
 20
-12.30199999999994
 30
0.0
 11
118.0213942962914
 21
-12.30199999999994
 31
0.0
 12
118.5717276296247
 22
-8.999999999999943
 32
0.0
 13
118.5717276296247
 23
-8.999999999999943
 33
0.0
  0
SOLID
  5
F3
330
E9
100
AcDbEntity
  8
치수문자_일반주서
 62
     0
100
AcDbTrace
 10
118.0213942962913
 20
12.30200000000005
 30
0.0
 11
119.122060962958
 21
12.30200000000006
 31
0.0
 12
118.5717276296247
 22
9.000000000000057
 32
0.0
 13
118.5717276296247
 23
9.000000000000057
 33
0.0
  0
MTEXT
  5
F4
330
E9
100
AcDbEntity
  8
치수문자_일반주서
 62
     0
100
AcDbMText
 10
114.1967276296246
 20
22.44775000000004
 30
0.0
 40
3.5
 41
0.0
 71
     2
 72
     1
  1
\A1;%%c18
  7
SLDTEXTSTYLE0
 11
-3.157967714489334E-15
 21
1.0
 31
0.0
 73
     1
 44
1.0
  0
POINT
  5
14C
330
E9
100
AcDbEntity
  8
Defpoints
 62
     0
100
AcDbPoint
 10
106.7320508075685
 20
-8.999999999999988
 30
0.0
  0
POINT
  5
14D
330
E9
100
AcDbEntity
  8
Defpoints
 62
     0
100
AcDbPoint
 10
106.7320508075689
 20
9.000000000000012
 30
0.0
  0
POINT
  5
14E
330
E9
100
AcDbEntity
  8
Defpoints
 62
     0
100
AcDbPoint
 10
118.5717276296247
 20
9.000000000000057
 30
0.0
  0
ENDBLK
  5
EB
330
E9
100
AcDbEntity
  8
0
100
AcDbBlockEnd
  0
BLOCK
  5
F8
330
F7
100
AcDbEntity
  8
0
100
AcDbBlockBegin
  2
_D_1
 70
     0
 10
0.0
 20
0.0
 30
0.0
  3
_D_1
  1

  0
LINE
  5
FA
330
F7
100
AcDbEntity
  8
치수문자_일반주서
 62
     0
370
    -2
100
AcDbLine
 10
-93.26794919243113
 20
9.062499999999986
 30
0.0
 11
-93.26794919243113
 21
30.78841044024268
 31
0.0
  0
LINE
  5
FB
330
F7
100
AcDbEntity
  8
치수문자_일반주서
 62
     0
370
    -2
100
AcDbLine
 10
106.7320508075689
 20
9.062500000000012
 30
0.0
 11
106.7320508075689
 21
30.78841044024268
 31
0.0
  0
LINE
  5
FC
330
F7
100
AcDbEntity
  8
치수문자_일반주서
 62
     0
370
    -2
100
AcDbLine
 10
-89.96594919243114
 20
30.78841044024268
 30
0.0
 11
103.4300508075689
 21
30.78841044024268
 31
0.0
  0
SOLID
  5
FD
330
F7
100
AcDbEntity
  8
치수문자_일반주서
 62
     0
100
AcDbTrace
 10
-89.96594919243114
 20
31.33874377357602
 30
0.0
 11
-89.96594919243114
 21
30.23807710690935
 31
0.0
 12
-93.26794919243113
 22
30.78841044024268
 32
0.0
 13
-93.26794919243113
 23
30.78841044024268
 33
0.0
  0
SOLID
  5
FE
330
F7
100
AcDbEntity
  8
치수문자_일반주서
 62
     0
100
AcDbTrace
 10
103.4300508075689
 20
30.23807710690935
 30
0.0
 11
103.4300508075689
 21
31.33874377357602
 31
0.0
 12
106.7320508075689
 22
30.78841044024268
 32
0.0
 13
106.7320508075689
 23
30.78841044024268
 33
0.0
  0
MTEXT
  5
FF
330
F7
100
AcDbEntity
  8
치수문자_일반주서
 62
     0
100
AcDbMText
 10
6.732050807568875
 20
35.16341044024269
 30
0.0
 40
3.5
 41
0.0
 71
     2
 72
     1
  1
\A1;200
  7
SLDTEXTSTYLE0
 73
     1
 44
1.0
  0
POINT
  5
143
330
F7
100
AcDbEntity
  8
Defpoints
 62
     0
100
AcDbPoint
 10
-93.26794919243113
 20
8.999999999999986
 30
0.0
  0
POINT
  5
144
330
F7
100
AcDbEntity
  8
Defpoints
 62
     0
100
AcDbPoint
 10
106.7320508075689
 20
9.000000000000012
 30
0.0
  0
POINT
  5
145
330
F7
100
AcDbEntity
  8
Defpoints
 62
     0
100
AcDbPoint
 10
106.7320508075689
 20
30.78841044024268
 30
0.0
  0
ENDBLK
  5
F9
330
F7
100
AcDbEntity
  8
0
100
AcDbBlockEnd
  0
BLOCK
  5
102
330
101
100
AcDbEntity
  8
0
100
AcDbBlockBegin
  2
_D_2
 70
     0
 10
0.0
 20
0.0
 30
0.0
  3
_D_2
  1

  0
LINE
  5
104
330
101
100
AcDbEntity
  8
치수문자_일반주서
 62
     0
370
    -2
100
AcDbLine
 10
6.732050807568873
 20
8.928327306999636
 30
0.0
 11
6.732050807568868
 21
22.212825113167
 31
0.0
  0
LINE
  5
105
330
101
100
AcDbEntity
  8
치수문자_일반주서
 62
     0
370
    -2
100
AcDbLine
 10
106.7320508075689
 20
9.062500000000012
 30
0.0
 11
106.7320508075689
 21
22.212825113167
 31
0.0
  0
LINE
  5
106
330
101
100
AcDbEntity
  8
치수문자_일반주서
 62
     0
370
    -2
100
AcDbLine
 10
10.03405080756887
 20
22.212825113167
 30
0.0
 11
103.4300508075689
 21
22.212825113167
 31
0.0
  0
SOLID
  5
107
330
101
100
AcDbEntity
  8
치수문자_일반주서
 62
     0
100
AcDbTrace
 10
10.03405080756887
 20
22.76315844650033
 30
0.0
 11
10.03405080756887
 21
21.66249177983367
 31
0.0
 12
6.732050807568868
 22
22.212825113167
 32
0.0
 13
6.732050807568868
 23
22.212825113167
 33
0.0
  0
SOLID
  5
108
330
101
100
AcDbEntity
  8
치수문자_일반주서
 62
     0
100
AcDbTrace
 10
103.4300508075689
 20
21.66249177983367
 30
0.0
 11
103.4300508075689
 21
22.76315844650033
 31
0.0
 12
106.7320508075689
 22
22.212825113167
 32
0.0
 13
106.7320508075689
 23
22.212825113167
 33
0.0
  0
MTEXT
  5
109
330
101
100
AcDbEntity
  8
치수문자_일반주서
 62
     0
100
AcDbMText
 10
56.73205080756895
 20
26.587825113167
 30
0.0
 40
3.5
 41
0.0
 71
     2
 72
     1
  1
\A1;100
  7
SLDTEXTSTYLE0
 73
     1
 44
1.0
  0
POINT
  5
146
330
101
100
AcDbEntity
  8
Defpoints
 62
     0
100
AcDbPoint
 10
6.732050807568873
 20
8.865827306999636
 30
0.0
  0
POINT
  5
147
330
101
100
AcDbEntity
  8
Defpoints
 62
     0
100
AcDbPoint
 10
106.7320508075689
 20
9.000000000000012
 30
0.0
  0
POINT
  5
148
330
101
100
AcDbEntity
  8
Defpoints
 62
     0
100
AcDbPoint
 10
106.7320508075689
 20
22.212825113167
 30
0.0
  0
ENDBLK
  5
103
330
101
100
AcDbEntity
  8
0
100
AcDbBlockEnd
  0
BLOCK
  5
10C
330
10B
100
AcDbEntity
  8
0
100
AcDbBlockBegin
  2
_D_3
 70
     0
 10
0.0
 20
0.0
 30
0.0
  3
_D_3
  1

  0
LINE
  5
10E
330
10B
100
AcDbEntity
  8
치수문자_일반주서
 62
     0
370
    -2
100
AcDbLine
 10
-92.33044919243113
 20
9.999999999999986
 30
0.0
 11
-104.7750244777771
 21
9.99999999999994
 31
0.0
  0
LINE
  5
10F
330
10B
100
AcDbEntity
  8
치수문자_일반주서
 62
     0
370
    -2
100
AcDbLine
 10
-92.33044919243113
 20
-9.999999999999996
 30
0.0
 11
-104.775024477777
 21
-10.00000000000004
 31
0.0
  0
LINE
  5
110
330
10B
100
AcDbEntity
  8
치수문자_일반주서
 62
     0
370
    -2
100
AcDbLine
 10
-104.7750244777771
 20
9.99999999999994
 30
0.0
 11
-104.7750244777771
 21
24.91649999999994
 31
0.0
  0
LINE
  5
111
330
10B
100
AcDbEntity
  8
치수문자_일반주서
 62
     0
370
    -2
100
AcDbLine
 10
-104.7750244777771
 20
9.99999999999994
 30
0.0
 11
-104.775024477777
 21
-10.00000000000004
 31
0.0
  0
LINE
  5
112
330
10B
100
AcDbEntity
  8
치수문자_일반주서
 62
     0
370
    -2
100
AcDbLine
 10
-104.7750244777771
 20
13.30199999999994
 30
0.0
 11
-104.7750244777771
 21
16.60399999999994
 31
0.0
  0
LINE
  5
113
330
10B
100
AcDbEntity
  8
치수문자_일반주서
 62
     0
370
    -2
100
AcDbLine
 10
-104.775024477777
 20
-13.30200000000004
 30
0.0
 11
-104.775024477777
 21
-16.60400000000004
 31
0.0
  0
SOLID
  5
114
330
10B
100
AcDbEntity
  8
치수문자_일반주서
 62
     0
100
AcDbTrace
 10
-105.3253578111104
 20
13.30199999999994
 30
0.0
 11
-104.2246911444437
 21
13.30199999999994
 31
0.0
 12
-104.7750244777771
 22
9.99999999999994
 32
0.0
 13
-104.7750244777771
 23
9.99999999999994
 33
0.0
  0
SOLID
  5
115
330
10B
100
AcDbEntity
  8
치수문자_일반주서
 62
     0
100
AcDbTrace
 10
-104.2246911444436
 20
-13.30200000000004
 30
0.0
 11
-105.3253578111103
 21
-13.30200000000004
 31
0.0
 12
-104.775024477777
 22
-10.00000000000004
 32
0.0
 13
-104.775024477777
 23
-10.00000000000004
 33
0.0
  0
MTEXT
  5
116
330
10B
100
AcDbEntity
  8
치수문자_일반주서
 62
     0
100
AcDbMText
 10
-109.1500244777771
 20
20.76024999999992
 30
0.0
 40
3.5
 41
0.0
 71
     2
 72
     1
  1
\A1;%%c20
  7
SLDTEXTSTYLE0
 11
-3.552713678800504E-15
 21
1.0
 31
0.0
 73
     1
 44
1.0
  0
POINT
  5
149
330
10B
100
AcDbEntity
  8
Defpoints
 62
     0
100
AcDbPoint
 10
-92.26794919243113
 20
9.999999999999986
 30
0.0
  0
POINT
  5
14A
330
10B
100
AcDbEntity
  8
Defpoints
 62
     0
100
AcDbPoint
 10
-92.26794919243113
 20
-9.999999999999996
 30
0.0
  0
POINT
  5
14B
330
10B
100
AcDbEntity
  8
Defpoints
 62
     0
100
AcDbPoint
 10
-104.775024477777
 20
-10.00000000000004
 30
0.0
  0
ENDBLK
  5
10D
330
10B
100
AcDbEntity
  8
0
100
AcDbBlockEnd
  0
BLOCK
  5
118
330
117
100
AcDbEntity
  8
0
100
AcDbBlockBegin
  2
SW_DOWELSYMBOL_0
 70
     0
 10
0.0
 20
0.0
 30
0.0
  3
SW_DOWELSYMBOL_0
  1

  0
CIRCLE
  5
11A
330
117
100
AcDbEntity
  8
외형선
 62
     0
100
AcDbCircle
 10
0.0
 20
0.0
 30
0.0
 40
3.000000000000004
  0
HATCH
  5
11B
330
117
100
AcDbEntity
  8
0
  6
Continuous
 62
     0
370
    30
100
AcDbHatch
 10
0.0
 20
0.0
 30
0.0
210
0.0
220
0.0
230
1.0
  2
SOLID
 70
     1
 71
     0
 91
        1
 92
        0
 93
        3
 72
     2
 10
0.0000000000000104
 20
0.0
 40
3.000000000000004
 50
0.0
 51
90.0
 73
     1
 72
     1
 10
0.0000000000000104
 20
3.000000000000004
 11
0.0000000000000104
 21
0.0
 72
     1
 10
0.0000000000000104
 20
0.0
 11
3.000000000000015
 21
0.0
 97
        0
 75
     0
 76
     1
 98
        1
 10
0.0
 20
0.0
  0
HATCH
  5
11C
330
117
100
AcDbEntity
  8
0
  6
Continuous
 62
     0
370
    30
100
AcDbHatch
 10
0.0
 20
0.0
 30
0.0
210
0.0
220
0.0
230
1.0
  2
SOLID
 70
     1
 71
     0
 91
        1
 92
        0
 93
        3
 72
     2
 10
0.0000000000000104
 20
0.0
 40
3.000000000000004
 50
180.0
 51
270.0000000000007
 73
     1
 72
     1
 10
0.0000000000000104
 20
-3.000000000000004
 11
0.0000000000000104
 21
0.0
 72
     1
 10
0.0000000000000104
 20
0.0
 11
-2.999999999999994
 21
0.0
 97
        0
 75
     0
 76
     1
 98
        1
 10
0.0
 20
0.0
  0
ENDBLK
  5
119
330
117
100
AcDbEntity
  8
0
100
AcDbBlockEnd
  0
ENDSEC
  0
SECTION
  2
ENTITIES
  0
SPLINE
  5
95
330
1F
100
AcDbEntity
  8
0
  6
Continuous
 62
     1
370
    15
100
AcDbSpline
210
0.0
220
0.0
230
1.0
 70
     8
 71
     3
 72
     9
 73
     5
 74
     0
 42
0.000000001
 43
0.00000001
 40
0.0
 40
0.0
 40
0.0
 40
0.0
 40
0.4991675388378481
 40
1.0
 40
1.0
 40
1.0
 40
1.0
 10
83.41559452123332
 20
2.306252762179914
 30
0.0
 10
83.00011957718245
 20
2.504207385737589
 30
0.0
 10
82.1677839148552
 20
2.900776890274181
 30
0.0
 10
81.33533354676268
 20
3.336672864457584
 30
0.0
 10
80.91841538011558
 20
3.554983718018533
 30
0.0
  0
LINE
  5
96
330
1F
100
AcDbEntity
  8
0
  6
Continuous
 62
     1
370
    15
100
AcDbLine
 10
32.02923602489626
 20
3.511969683944308
 30
0.0
 11
31.94572378902521
 21
3.555041529988078
 31
0.0
  0
SPLINE
  5
97
330
1F
100
AcDbEntity
  8
0
  6
Continuous
 62
     1
370
    15
100
AcDbSpline
210
0.0
220
0.0
230
1.0
 70
     8
 71
     3
 72
     9
 73
     5
 74
     0
 42
0.000000001
 43
0.00000001
 40
0.0
 40
0.0
 40
0.0
 40
0.0
 40
0.516403326086917
 40
1.0
 40
1.0
 40
1.0
 40
1.0
 10
34.44323494186723
 20
2.30614815178866
 30
0.0
 10
34.02772540474324
 20
2.504004427601571
 30
0.0
 10
33.22310328839755
 20
2.88714734287321
 30
0.0
 10
32.41839181627461
 20
3.308301118732715
 30
0.0
 10
32.02923602489626
 20
3.511969683944308
 30
0.0
  0
LINE
  5
98
330
1F
100
AcDbEntity
  8
0
  6
Continuous
 62
     1
370
    15
100
AcDbLine
 10
9.427393392173665
 20
-9.00000000000001
 30
0.0
 11
13.78890644232676
 21
-9.00000000000001
 31
0.0
  0
LINE
  5
99
330
1F
100
AcDbEntity
  8
0
  6
Continuous
 62
     1
370
    15
100
AcDbLine
 10
62.76218849606084
 20
9.000000000000005
 30
0.0
 11
58.4009821313128
 21
9.000000000000005
 31
0.0
  0
LINE
  5
9A
330
1F
100
AcDbEntity
  8
0
  6
Continuous
 62
     1
370
    15
100
AcDbLine
 10
58.40098213131277
 20
-9.00000000000001
 30
0.0
 11
62.76218849606082
 21
-9.00000000000001
 31
0.0
  0
LINE
  5
9B
330
1F
100
AcDbEntity
  8
0
  6
Continuous
 62
     1
370
    15
100
AcDbLine
 10
13.78890644232676
 20
9.000000000000005
 30
0.0
 11
9.427393392173796
 21
9.000000000000005
 31
0.0
  0
SPLINE
  5
9C
330
1F
100
AcDbEntity
  8
0
  6
Continuous
 62
     1
370
    15
100
AcDbSpline
210
0.0
220
0.0
230
1.0
 70
     8
 71
     3
 72
    20
 73
    16
 74
     0
 42
0.000000001
 43
0.00000001
 40
0.0
 40
0.0
 40
0.0
 40
0.0
 40
0.1185373783102278
 40
0.2050283961008478
 40
0.2608592526872401
 40
0.3082613339509631
 40
0.3562494897215189
 40
0.4514055882498282
 40
0.5460615403633704
 40
0.6129859541796336
 40
0.6742175930185292
 40
0.728049942309605
 40
0.7850321695714396
 40
0.8749879192558351
 40
0.9999999999999999
 40
0.9999999999999999
 40
0.9999999999999999
 40
0.9999999999999999
 10
66.90250664559254
 20
-7.489299101824958
 30
0.0
 10
67.43810800850946
 20
-7.438183314837115
 30
0.0
 10
68.36451189860466
 20
-7.349770799131544
 30
0.0
 10
69.54068761096406
 20
-7.259348774144862
 30
0.0
 10
70.39655753247432
 20
-7.201928993393207
 30
0.0
 10
71.0790122589964
 20
-7.161606260749004
 30
0.0
 10
71.9387941996346
 20
-7.116945202918831
 30
0.0
 10
73.01148915931088
 20
-7.072966810502513
 30
0.0
 10
74.17023420232704
 20
-7.042989737371118
 30
0.0
 10
75.17530015408506
 20
-7.029775811482781
 30
0.0
 10
75.99641460729578
 20
-7.027460093743132
 30
0.0
 10
76.7729220112325
 20
-7.032348493149984
 30
0.0
 10
77.67857295160539
 20
-7.046261523879079
 30
0.0
 10
78.90450883861773
 20
-7.078123257773682
 30
0.0
 10
79.87591928280582
 20
-7.124680007116578
 30
0.0
 10
80.44083190551063
 20
-7.151754551695812
 30
0.0
  0
SPLINE
  5
9D
330
1F
100
AcDbEntity
  8
0
  6
Continuous
 62
     1
370
    15
100
AcDbSpline
210
0.0
220
0.0
230
1.0
 70
     8
 71
     3
 72
    16
 73
    12
 74
     0
 42
0.000000001
 43
0.00000001
 40
0.0
 40
0.0
 40
0.0
 40
0.0
 40
0.189076922769978
 40
0.3312471037551067
 40
0.4299842971760056
 40
0.5230850506783622
 40
0.620512401409333
 40
0.7189938034659029
 40
0.8173340795424476
 40
0.9159849733677913
 40
1.0
 40
1.0
 40
1.0
 40
1.0
 10
31.46809744629208
 20
7.151746449892938
 30
0.0
 10
31.0000482686449
 20
7.128857373482425
 30
0.0
 10
30.18006488707059
 20
7.088757607960878
 30
0.0
 10
29.11891007677852
 20
7.056438832043338
 30
0.0
 10
28.30215612782201
 20
7.039375440105548
 30
0.0
 10
27.59290605624692
 20
7.030532309990922
 30
0.0
 10
26.88110584515312
 20
7.027502376280916
 30
0.0
 10
26.15640260277237
 20
7.030582206037733
 30
0.0
 10
25.42879076464405
 20
7.040121285331605
 30
0.0
 10
24.73655619520558
 20
7.05448822324778
 30
0.0
 10
24.28660192256031
 20
7.068707408954533
 30
0.0
 10
24.0796507840837
 20
7.075247355009323
 30
0.0
  0
SPLINE
  5
9E
330
1F
100
AcDbEntity
  8
0
  6
Continuous
 62
     1
370
    15
100
AcDbSpline
210
0.0
220
0.0
230
1.0
 70
     8
 71
     3
 72
    23
 73
    19
 74
     0
 42
0.000000001
 43
0.00000001
 40
0.0
 40
0.0
 40
0.0
 40
0.0
 40
0.1033080858505791
 40
0.1809132182808821
 40
0.2348608028882241
 40
0.2856455892163053
 40
0.3388051943906559
 40
0.3925250778970866
 40
0.4462478713289826
 40
0.500105787866245
 40
0.5539440191461699
 40
0.6076127323452015
 40
0.6613584643411013
 40
0.714528953104549
 40
0.7653382230972692
 40
0.8192235519492964
 40
0.8968122162602106
 40
1.0
 40
1.0
 40
1.0
 40
1.0
 10
17.93034707765696
 20
-7.489256730649015
 30
0.0
 10
18.39867330803346
 20
-7.444268644252461
 30
0.0
 10
19.21880664847026
 20
-7.365485464530485
 30
0.0
 10
20.280686676336
 20
-7.280881415745607
 30
0.0
 10
21.09817456777617
 20
-7.223060185344626
 30
0.0
 10
21.80768072414529
 20
-7.178549277003484
 30
0.0
 10
22.51919406501325
 20
-7.139438157409657
 30
0.0
 10
23.24390363381878
 20
-7.105442528628649
 30
0.0
 10
23.97180782515873
 20
-7.077435924656627
 30
0.0
 10
24.7004216339785
 20
-7.055630171009818
 30
0.0
 10
25.42878849709864
 20
-7.040016683452365
 30
0.0
 10
26.15640321079338
 20
-7.03061025405032
 30
0.0
 10
26.8811056838648
 20
-7.027494936050402
 30
0.0
 10
27.59290609702296
 20
-7.030534190989703
 30
0.0
 10
28.30215611652276
 20
-7.039374918871444
 30
0.0
 10
29.11891008137649
 20
-7.056439044147263
 30
0.0
 10
30.18006488524373
 20
-7.088757523687621
 30
0.0
 10
31.00004826798106
 20
-7.128857342858953
 30
0.0
 10
31.46809744629208
 20
-7.151746449892938
 30
0.0
  0
SPLINE
  5
9F
330
1F
100
AcDbEntity
  8
0
  6
Continuous
 62
     1
370
    15
100
AcDbSpline
210
0.0
220
0.0
230
1.0
 70
     8
 71
     3
 72
    16
 73
    12
 74
     0
 42
0.000000001
 43
0.00000001
 40
0.0
 40
0.0
 40
0.0
 40
0.0
 40
0.1987847794255073
 40
0.3494002069719179
 40
0.4520047619645713
 40
0.5292472154739887
 40
0.6079897923683728
 40
0.6881291959178287
 40
0.7710335950270844
 40
0.8584054130798431
 40
1.0
 40
1.0
 40
1.0
 40
1.0
 10
80.44083190551063
 20
7.151754551695818
 30
0.0
 10
79.95206490893055
 20
7.1279778963684
 30
0.0
 10
79.09296850195379
 20
7.086186123796528
 30
0.0
 10
77.98376461314454
 20
7.053619512229173
 30
0.0
 10
77.17300843899653
 20
7.037855395014104
 30
0.0
 10
76.5379812545843
 20
7.030624344671863
 30
0.0
 10
75.95827094536958
 20
7.027924286595399
 30
0.0
 10
75.36466560933053
 20
7.029210811438252
 30
0.0
 10
74.75007511040684
 20
7.035122142594633
 30
0.0
 10
73.98436722603098
 20
7.047207079930419
 30
0.0
 10
73.42213095337677
 20
7.064948883229628
 30
0.0
 10
73.0744397154966
 20
7.075920550927636
 30
0.0
  0
SPLINE
  5
A0
330
1F
100
AcDbEntity
  8
0
  6
Continuous
 62
     1
370
    15
100
AcDbSpline
210
0.0
220
0.0
230
1.0
 70
     8
 71
     3
 72
    14
 73
    10
 74
     0
 42
0.000000001
 43
0.00000001
 40
0.0
 40
0.0
 40
0.0
 40
0.0
 40
0.2340684854688522
 40
0.408260940356341
 40
0.5232191556043997
 40
0.6107774881357694
 40
0.7010869848745785
 40
0.9340632838885079
 40
1.0
 40
1.0
 40
1.0
 40
1.0
 10
87.66460239895105
 20
-6.769270504603905
 30
0.0
 10
88.19243978095425
 20
-6.689309435849031
 30
0.0
 10
89.1130907840152
 20
-6.549841787923797
 30
0.0
 10
90.28824057411092
 20
-6.400143751774657
 30
0.0
 10
91.12914868417809
 20
-6.304449399865582
 30
0.0
 10
91.77930262622283
 20
-6.236833868523648
 30
0.0
 10
92.69728190421046
 20
-6.150061998232894
 30
0.0
 10
93.57149048012825
 20
-6.076315947382875
 30
0.0
 10
94.24112416502822
 20
-6.041799835378732
 30
0.0
 10
94.38883752625945
 20
-6.034185984648495
 30
0.0
  0
SPLINE
  5
A1
330
1F
100
AcDbEntity
  8
0
  6
Continuous
 62
     1
370
    15
100
AcDbSpline
210
0.0
220
0.0
230
1.0
 70
     8
 71
     3
 72
    21
 73
    17
 74
     0
 42
0.000000001
 43
0.00000001
 40
0.0
 40
0.0
 40
0.0
 40
0.0
 40
0.0781276301205793
 40
0.1366479599208755
 40
0.1803371130938535
 40
0.2249588202270821
 40
0.2718112058724604
 40
0.3778800070204327
 40
0.5006164997970266
 40
0.6051984048253239
 40
0.6984384231043216
 40
0.7764672265175698
 40
0.819603068201321
 40
0.8628275968326802
 40
0.921476908855607
 40
1.0
 40
1.0
 40
1.0
 40
1.0
 10
54.41638202455395
 20
6.155612844596443
 30
0.0
 10
54.01050472690331
 20
6.122837295637292
 30
0.0
 10
53.30061112566957
 20
6.065511713207075
 30
0.0
 10
52.35795082415652
 20
6.009933092071334
 30
0.0
 10
51.57925581272492
 20
5.973306679857052
 30
0.0
 10
50.86721618212117
 20
5.948092160361999
 30
0.0
 10
49.83133205387978
 20
5.923442168044864
 30
0.0
 10
48.38740475594583
 20
5.917413587434837
 30
0.0
 10
46.63985653877653
 20
5.961499277500119
 30
0.0
 10
44.96056962228497
 20
6.052588356268254
 30
0.0
 10
43.51458885231765
 20
6.166320184228635
 30
0.0
 10
42.39154307092606
 20
6.278130365327971
 30
0.0
 10
41.52604495106227
 20
6.376148610267598
 30
0.0
 10
40.75901036445101
 20
6.47080064399101
 30
0.0
 10
39.81638356324903
 20
6.597619192759135
 30
0.0
 10
39.10155597040193
 20
6.706747551603423
 30
0.0
 10
38.69235943429405
 20
6.769217085344227
 30
0.0
  0
SPLINE
  5
A2
330
1F
100
AcDbEntity
  8
0
  6
Continuous
 62
     1
370
    15
100
AcDbSpline
210
0.0
220
0.0
230
1.0
 70
     8
 71
     3
 72
    14
 73
    10
 74
     0
 42
0.000000001
 43
0.00000001
 40
0.0
 40
0.0
 40
0.0
 40
0.0
 40
0.186570375272032
 40
0.3249618075804344
 40
0.4273599549275487
 40
0.5302841394805526
 40
0.6368834078273546
 40
0.8817863410897934
 40
1.0
 40
1.0
 40
1.0
 40
1.0
 10
38.69235943429406
 20
-6.769217085344224
 30
0.0
 10
39.1080219980348
 20
-6.705788752221956
 30
0.0
 10
39.83200863235314
 20
-6.595311481898769
 30
0.0
 10
40.78701650719969
 20
-6.467131085013496
 30
0.0
 10
41.56444189655286
 20
-6.371615367330881
 30
0.0
 10
42.26639816251029
 20
-6.292391317506387
 30
0.0
 10
43.28504767881724
 20
-6.18893672315419
 30
0.0
 10
44.33729258047184
 20
-6.093782901119587
 30
0.0
 10
45.15079215826641
 20
-6.051359854107949
 30
0.0
 10
45.41562930337624
 20
-6.03754890820939
 30
0.0
  0
SPLINE
  5
A3
330
1F
100
AcDbEntity
  8
0
  6
Continuous
 62
     1
370
    15
100
AcDbSpline
210
0.0
220
0.0
230
1.0
 70
     8
 71
     3
 72
    21
 73
    17
 74
     0
 42
0.000000001
 43
0.00000001
 40
0.0
 40
0.0
 40
0.0
 40
0.0
 40
0.0911071411304455
 40
0.1588940761438696
 40
0.2047795084108644
 40
0.2456077422743785
 40
0.2863198491627759
 40
0.364154603760955
 40
0.4446998911669716
 40
0.5273852941410191
 40
0.6186370318161829
 40
0.7080230065901748
 40
0.7552887409964134
 40
0.8164421184781875
 40
0.897953148077045
 40
1.0
 40
1.0
 40
1.0
 40
1.0
 10
103.4331225271256
 20
6.159389347658554
 30
0.0
 10
102.9507838748933
 20
6.120654339908227
 30
0.0
 10
102.1095682074495
 20
6.053099116524565
 30
0.0
 10
101.0300106098872
 20
5.994164703974393
 30
0.0
 10
100.2225774219912
 20
5.960704752060703
 30
0.0
 10
99.55592787064083
 20
5.940642857117206
 30
0.0
 10
98.71860674362553
 20
5.924083902823897
 30
0.0
 10
97.67283766328795
 20
5.919384351882354
 30
0.0
 10
96.40613934602031
 20
5.93954688721415
 30
0.0
 10
95.06955039659927
 20
5.988909991226186
 30
0.0
 10
93.68639472624396
 20
6.070401029441975
 30
0.0
 10
92.48919515628083
 20
6.167798158122237
 30
0.0
 10
91.45034007289476
 20
6.269527365354314
 30
0.0
 10
90.45324908692915
 20
6.379735153584692
 30
0.0
 10
89.168485117346
 20
6.54169373989231
 30
0.0
 10
88.20194117209576
 20
6.687957102933273
 30
0.0
 10
87.66460239895102
 20
6.769270504603912
 30
0.0
  0
LINE
  5
A6
330
1F
100
AcDbEntity
  8
0
  6
Continuous
 62
   131
370
    15
100
AcDbLine
 10
4.732050807568822
 20
9.999999999999993
 30
0.0
 11
-92.26794919243113
 21
9.99999999999999
 31
0.0
  0
LINE
  5
A7
330
1F
100
AcDbEntity
  8
0
  6
Continuous
 62
   131
370
    15
100
AcDbLine
 10
-92.26794919243113
 20
-10.0
 30
0.0
 11
4.732050807568811
 21
-9.999999999999996
 31
0.0
  0
LINE
  5
A8
330
1F
100
AcDbEntity
  8
0
  6
Continuous
 62
   131
370
    15
100
AcDbLine
 10
-92.26794919243113
 20
9.999999999999986
 30
0.0
 11
-93.26794919243113
 21
8.999999999999986
 31
0.0
  0
LINE
  5
A9
330
1F
100
AcDbEntity
  8
0
  6
Continuous
 62
   131
370
    15
100
AcDbLine
 10
-93.26794919243113
 20
-9.0
 30
0.0
 11
-92.26794919243113
 21
-9.999999999999996
 31
0.0
  0
SPLINE
  5
AB
330
1F
100
AcDbEntity
  8
0
  6
Continuous
 62
     1
370
    15
100
AcDbSpline
210
0.0
220
0.0
230
1.0
 70
     8
 71
     3
 72
    27
 73
    23
 74
     0
 42
0.000000001
 43
0.00000001
 40
0.0
 40
0.0
 40
0.0
 40
0.0
 40
0.0546401790795653
 40
0.1097316187075941
 40
0.1598659174334884
 40
0.2103483330045079
 40
0.2604288740305145
 40
0.3108569168984425
 40
0.3609374142207368
 40
0.4113653135055604
 40
0.4614457503543816
 40
0.5118732083557089
 40
0.5619536326412904
 40
0.6123809341074923
 40
0.6624613744788804
 40
0.7128887864282509
 40
0.7629693154026587
 40
0.8133972861797631
 40
0.8634777910666357
 40
0.913905732556824
 40
0.9639861714294746
 40
1.0
 40
1.0
 40
1.0
 40
1.0
 10
6.732050807568873
 20
8.865827306999646
 30
0.0
 10
7.67314875776024
 20
8.931236200416256
 30
0.0
 10
9.563116967537178
 20
9.06259418410855
 30
0.0
 10
12.31668556702531
 20
8.887562885266398
 30
0.0
 10
14.99834277437857
 20
8.471280169217817
 30
0.0
 10
17.5938741186544
 20
7.828859227520231
 30
0.0
 10
20.19456986269345
 20
6.969636150532188
 30
0.0
 10
22.7882428681322
 20
5.919502758093001
 30
0.0
 10
25.38779279551311
 20
4.702993627060597
 30
0.0
 10
27.98132567753558
 20
3.35903546998349
 30
0.0
 10
30.58075308242244
 20
1.918904820433046
 30
0.0
 10
33.17422827095468
 20
0.4289120758163938
 30
0.0
 10
35.77363718884666
 20
-1.076305561972891
 30
0.0
 10
38.36714461777534
 20
-2.548329008867727
 30
0.0
 10
40.96665056263123
 20
-3.952934028595858
 30
0.0
 10
43.56027489960641
 20
-5.244976660666731
 30
0.0
 10
46.16001828955586
 20
-6.394546722691668
 30
0.0
 10
48.7537080833033
 20
-7.364323374714762
 30
0.0
 10
51.35326763719819
 20
-8.134674986998805
 30
0.0
 10
53.94680773603294
 20
-8.669541409179466
 30
0.0
 10
56.29800878227039
 20
-8.967072133289124
 30
0.0
 10
57.78074380024997
 20
-8.972206883892294
 30
0.0
 10
58.40098213131277
 20
-8.974354785645419
 30
0.0
  0
SPLINE
  5
AC
330
1F
100
AcDbEntity
  8
0
  6
Continuous
 62
     1
370
    15
100
AcDbSpline
210
0.0
220
0.0
230
1.0
 70
     8
 71
     3
 72
    12
 73
     8
 74
     0
 42
0.000000001
 43
0.00000001
 40
0.0
 40
0.0
 40
0.0
 40
0.0
 40
0.0897513727023258
 40
0.3128033800633991
 40
0.5376084753710951
 40
0.7678387917999105
 40
1.0
 40
1.0
 40
1.0
 40
1.0
 10
94.3894687153333
 20
6.034458308317084
 30
0.0
 10
94.75870731821176
 20
6.196927703066438
 30
0.0
 10
96.04558549681452
 20
6.763169469674382
 30
0.0
 10
98.25743356911595
 20
7.538307535877235
 30
0.0
 10
101.0472182691455
 20
8.312261933345939
 30
0.0
 10
103.8745042478208
 20
8.836454856875552
 30
0.0
 10
105.7768872462693
 20
8.940269338045692
 30
0.0
 10
106.7320508075689
 20
9.000000000000012
 30
0.0
  0
SPLINE
  5
AD
330
1F
100
AcDbEntity
  8
0
  6
Continuous
 62
     1
370
    15
100
AcDbSpline
210
0.0
220
0.0
230
1.0
 70
    24
 71
     3
 72
    10
 73
     6
 74
     0
 42
0.000000001
 43
0.00000001
 40
0.0
 40
0.0
 40
0.0
 40
0.0
 40
0.4999999999999996
 40
0.4999999999999996
 40
1.0
 40
1.0
 40
1.0
 40
1.0
 10
106.7320508075689
 20
6.300000000000011
 30
0.0
 10
106.7320508075689
 20
6.681890311265837
 30
0.0
 10
106.7320508075689
 20
7.125682219804067
 30
0.0
 10
106.7320508075689
 20
8.056756448647716
 30
0.0
 10
106.7320508075689
 20
8.541660922213275
 30
0.0
 10
106.7320508075689
 20
9.000000000000012
 30
0.0
  0
LINE
  5
AE
330
1F
100
AcDbEntity
  8
0
  6
Continuous
 62
     1
370
    15
100
AcDbLine
 10
106.7320508075689
 20
6.300000000000011
 30
0.0
 11
103.4202085960712
 21
6.116827278425578
 31
0.0
  0
SPLINE
  5
AF
330
1F
100
AcDbEntity
  8
0
  6
Continuous
 62
     1
370
    15
100
AcDbSpline
210
0.0
220
0.0
230
1.0
 70
     8
 71
     3
 72
    15
 73
    11
 74
     0
 42
0.000000001
 43
0.00000001
 40
0.0
 40
0.0
 40
0.0
 40
0.0
 40
0.0564355392027587
 40
0.2064987407148457
 40
0.3564303546357153
 40
0.5064967897460952
 40
0.6564254768068487
 40
0.7709488672796916
 40
0.8854777770803189
 40
0.9999999999999999
 40
0.9999999999999999
 40
0.9999999999999999
 40
0.9999999999999999
 10
35.35532479765531
 20
-0.8302403385865379
 30
0.0
 10
34.81686928594464
 20
-0.616886067775669
 30
0.0
 10
32.84665004696929
 20
0.1637813781450914
 30
0.0
 10
29.44524549577887
 20
1.553094478530892
 30
0.0
 10
25.15148162145346
 20
3.175749943199434
 30
0.0
 10
20.8579418265525
 20
4.560275125820209
 30
0.0
 10
16.90293396927223
 20
5.521628195532386
 30
0.0
 10
13.28753054291146
 20
6.080593949056954
 30
0.0
 10
10.00975209162758
 20
6.339429724190024
 30
0.0
 10
7.824596637899274
 20
6.276731374201185
 30
0.0
 10
6.732050807568871
 20
6.245383114409406
 30
0.0
  0
SPLINE
  5
B0
330
1F
100
AcDbEntity
  8
0
  6
Continuous
 62
   131
370
    15
100
AcDbSpline
210
0.0
220
0.0
230
1.0
 70
    24
 71
     3
 72
    10
 73
     6
 74
     0
 42
0.000000001
 43
0.00000001
 40
0.0
 40
0.0
 40
0.0
 40
0.0
 40
0.5
 40
0.5
 40
1.0
 40
1.0
 40
1.0
 40
1.0
 10
6.732050807568877
 20
8.865827306999629
 30
0.0
 10
6.73205080756888
 20
8.403849109577767
 30
0.0
 10
6.73205080756888
 20
7.919554091402848
 30
0.0
 10
6.73205080756888
 20
7.014016258122672
 30
0.0
 10
6.732050807568877
 20
6.594993059740585
 30
0.0
 10
6.732050807568871
 20
6.245383114409405
 30
0.0
  0
LINE
  5
B1
330
1F
100
AcDbEntity
  8
0
  6
Continuous
 62
     1
370
    15
100
AcDbLine
 10
6.732050807568877
 20
-8.86582730699965
 30
0.0
 11
9.427393392173665
 21
-8.993627562406118
 31
0.0
  0
SPLINE
  5
B2
330
1F
100
AcDbEntity
  8
0
  6
Continuous
 62
     1
370
    15
100
AcDbSpline
210
0.0
220
0.0
230
1.0
 70
     8
 71
     3
 72
    31
 73
    27
 74
     0
 42
0.000000001
 43
0.00000001
 40
0.0
 40
0.0
 40
0.0
 40
0.0
 40
0.0121229184176719
 40
0.0546130560747976
 40
0.0968104222148547
 40
0.1393005351950979
 40
0.1814978457121875
 40
0.2239875685818548
 40
0.2661848668642578
 40
0.3086744425405851
 40
0.3508717521769454
 40
0.3933614049554821
 40
0.4355587822626213
 40
0.4780488629716396
 40
0.5202462360059933
 40
0.5627363859995743
 40
0.6049336984037686
 40
0.6474234396572579
 40
0.6896207380857885
 40
0.7321103167614667
 40
0.774307624495064
 40
0.8167972644476215
 40
0.8616902054458555
 40
0.9069359846663657
 40
0.9532736802277075
 40
1.0
 40
1.0
 40
1.0
 40
1.0
 10
45.41058452574412
 20
6.035328495308902
 30
0.0
 10
45.65839696713565
 20
6.145986088131761
 30
0.0
 10
46.77477788231356
 20
6.644492232751796
 30
0.0
 10
48.75370852360833
 20
7.357074936879837
 30
0.0
 10
51.35326742333019
 20
8.135250454991823
 30
0.0
 10
53.9468081510472
 20
8.674558655961885
 30
0.0
 10
56.54624086546282
 20
8.97796198889038
 30
0.0
 10
59.13971712936959
 20
9.031515376345821
 30
0.0
 10
61.73912369096165
 20
8.83508545282693
 30
0.0
 10
64.33262600671463
 20
8.394702034395687
 30
0.0
 10
66.93212189814913
 20
7.720735195825514
 30
0.0
 10
69.52573447907416
 20
6.834835160159951
 30
0.0
 10
72.1254605735475
 20
5.757794885895316
 30
0.0
 10
74.71917112621495
 20
4.523921236436437
 30
0.0
 10
77.31873974594792
 20
3.161801577165519
 30
0.0
 10
79.91228871974316
 20
1.715182139967599
 30
0.0
 10
82.51172728950256
 20
0.2177039063368909
 30
0.0
 10
85.1052050654249
 20
-1.282467595198868
 30
0.0
 10
87.70460972713471
 20
-2.750469385541959
 30
0.0
 10
90.29810762775783
 20
-4.139041999358561
 30
0.0
 10
92.89759296937328
 20
-5.416043285646036
 30
0.0
 10
95.54629750742707
 20
-6.563819481624674
 30
0.0
 10
98.2574295154262
 20
-7.545039269075392
 30
0.0
 10
101.0472193826529
 20
-8.310412794627599
 30
0.0
 10
103.8745039639335
 20
-8.836926292423772
 30
0.0
 10
105.7768871513772
 20
-8.940426920099993
 30
0.0
 10
106.7320508075685
 20
-8.999999999999988
 30
0.0
  0
SPLINE
  5
B3
330
1F
100
AcDbEntity
  8
0
  6
Continuous
 62
     1
370
    15
100
AcDbSpline
210
0.0
220
0.0
230
1.0
 70
     8
 71
     3
 72
    15
 73
    11
 74
     0
 42
0.000000001
 43
0.00000001
 40
0.0
 40
0.0
 40
0.0
 40
0.0
 40
0.1133824727758268
 40
0.2566655653333045
 40
0.4000129473172053
 40
0.5432883004493787
 40
0.6866427379737025
 40
0.8299111746536755
 40
0.9732718751785276
 40
1.0
 40
1.0
 40
1.0
 40
1.0
 10
84.36626686542868
 20
-0.8510693095878932
 30
0.0
 10
83.23390374033337
 20
-0.3951152487962854
 30
0.0
 10
80.67055673836943
 20
0.6370346409884804
 30
0.0
 10
76.67596087252488
 20
2.232690436171208
 30
0.0
 10
72.38227372375782
 20
3.772789839202484
 30
0.0
 10
68.0885351104861
 20
5.028573388109069
 30
0.0
 10
63.79485066443304
 20
5.914537873781883
 30
0.0
 10
59.50112525982669
 20
6.314855780631138
 30
0.0
 10
56.37133608495603
 20
6.370008355737393
 30
0.0
 10
54.6727725125339
 20
6.153909057458299
 30
0.0
 10
54.4058565697113
 20
6.119950747695882
 30
0.0
  0
SPLINE
  5
B4
330
1F
100
AcDbEntity
  8
0
  6
Continuous
 62
     1
370
    15
100
AcDbSpline
210
0.0
220
0.0
230
1.0
 70
     8
 71
     3
 72
    19
 73
    15
 74
     0
 42
0.000000001
 43
0.00000001
 40
0.0
 40
0.0
 40
0.0
 40
0.0
 40
0.0836799358467364
 40
0.1674078594452416
 40
0.251123875609619
 40
0.334785180802867
 40
0.4184913252909613
 40
0.5022216983983994
 40
0.5859163734138664
 40
0.6695836009784814
 40
0.7533065404461181
 40
0.8370299001539118
 40
0.9206977852320676
 40
1.0
 40
1.0
 40
1.0
 40
1.0
 10
106.7320508075689
 20
-8.540467823087093
 30
0.0
 10
105.5056789658301
 20
-8.271011734024334
 30
0.0
 10
103.0522319975456
 20
-7.731945031498395
 30
0.0
 10
99.37122713338351
 20
-6.367859821689803
 30
0.0
 10
95.69059538057812
 20
-4.68470590276043
 30
0.0
 10
92.01116716492456
 20
-2.731309135621738
 30
0.0
 10
88.33077491977369
 20
-0.6298461996397118
 30
0.0
 10
84.64966015322214
 20
1.507005879534742
 30
0.0
 10
80.96952660578788
 20
3.560691119485612
 30
0.0
 10
77.2899731531848
 20
5.416681675792236
 30
0.0
 10
73.60915064313862
 20
6.97402154474702
 30
0.0
 10
69.92830561634786
 20
8.133786840040605
 30
0.0
 10
66.31312241174355
 20
8.870252860463589
 30
0.0
 10
63.92450423344432
 20
8.94917514315339
 30
0.0
 10
62.76218849606083
 20
8.987579192839519
 30
0.0
  0
SPLINE
  5
B5
330
1F
100
AcDbEntity
  8
0
  6
Continuous
 62
     1
370
    15
100
AcDbSpline
210
0.0
220
0.0
230
1.0
 70
     8
 71
     3
 72
    13
 73
     9
 74
     0
 42
0.000000001
 43
0.00000001
 40
0.0
 40
0.0
 40
0.0
 40
0.0
 40
0.0647286264966772
 40
0.2517453014826418
 40
0.4387950659727159
 40
0.6258636514082387
 40
0.8129367394878468
 40
1.0
 40
1.0
 40
1.0
 40
1.0
 10
24.0796507840837
 20
-7.075247355009323
 30
0.0
 10
23.70538627995874
 20
-7.217020640669691
 30
0.0
 10
22.24978100104827
 20
-7.768411276814057
 30
0.0
 10
19.71249685518681
 20
-8.4057182535801
 30
0.0
 10
16.46771099269498
 20
-8.936435472493466
 30
0.0
 10
13.2225269907065
 20
-9.054087344206813
 30
0.0
 10
9.977245518561778
 20
-8.811454952094444
 30
0.0
 10
7.813763434923759
 20
-8.332746011406329
 30
0.0
 10
6.73205080756674
 20
-8.09339782826802
 30
0.0
  0
SPLINE
  5
B6
330
1F
100
AcDbEntity
  8
0
  6
Continuous
 62
   131
370
    15
100
AcDbSpline
210
0.0
220
0.0
230
1.0
 70
    24
 71
     3
 72
     8
 73
     4
 74
     0
 42
0.000000001
 43
0.00000001
 40
0.0
 40
0.0
 40
0.0
 40
0.0
 40
1.0
 40
1.0
 40
1.0
 40
1.0
 10
6.732050807568941
 20
-6.665204240303779
 30
0.0
 10
6.732050807568941
 20
-7.133853986237732
 30
0.0
 10
6.732050807568941
 20
-7.61294529514826
 30
0.0
 10
6.732050807568941
 20
-8.09339782825959
 30
0.0
  0
SPLINE
  5
B7
330
1F
100
AcDbEntity
  8
0
  6
Continuous
 62
     1
370
    15
100
AcDbSpline
210
0.0
220
0.0
230
1.0
 70
     8
 71
     3
 72
    15
 73
    11
 74
     0
 42
0.000000001
 43
0.00000001
 40
0.0
 40
0.0
 40
0.0
 40
0.0
 40
0.1377693281490232
 40
0.2755678249189408
 40
0.4133865362917979
 40
0.5512164614143504
 40
0.6890485734119668
 40
0.8268738403320539
 40
0.9646832461127713
 40
1.0
 40
1.0
 40
1.0
 40
1.0
 10
106.7320508075689
 20
-7.100750379313932
 30
0.0
 10
105.6589566076692
 20
-6.875500215438995
 30
0.0
 10
103.5125410115968
 20
-6.424952197562994
 30
0.0
 10
100.2925099771484
 20
-5.395136803677589
 30
0.0
 10
97.07194609666767
 20
-4.157354779466497
 30
0.0
 10
93.8510794621029
 20
-2.73753753780457
 30
0.0
 10
90.6301527477866
 20
-1.200551744160745
 30
0.0
 10
87.40941730251568
 20
0.3793166866861241
 30
0.0
 10
84.98725355679377
 20
1.579365896056308
 30
0.0
 10
83.6387345370489
 20
2.194109642824865
 30
0.0
 10
83.36364431137808
 20
2.319513877805754
 30
0.0
  0
SPLINE
  5
B8
330
1F
100
AcDbEntity
  8
0
  6
Continuous
 62
     1
370
    15
100
AcDbSpline
210
0.0
220
0.0
230
1.0
 70
     8
 71
     3
 72
    11
 73
     7
 74
     0
 42
0.000000001
 43
0.00000001
 40
0.0
 40
0.0
 40
0.0
 40
0.0
 40
0.1229214553564275
 40
0.415277416988744
 40
0.7076469066949052
 40
1.0
 40
1.0
 40
1.0
 40
1.0
 10
17.94321873963606
 20
-7.449118466061359
 30
0.0
 10
17.48387061170059
 20
-7.504476519059105
 30
0.0
 10
15.93201049489241
 20
-7.691497972651322
 30
0.0
 10
13.28745462946438
 20
-7.657951849989663
 30
0.0
 10
10.00972876784052
 20
-7.372235159792233
 30
0.0
 10
7.824589702921545
 20
-6.900876807627643
 30
0.0
 10
6.732050807568895
 20
-6.665204240303768
 30
0.0
  0
LINE
  5
B9
330
1F
100
AcDbEntity
  8
0
  6
Continuous
 62
     1
370
    15
100
AcDbLine
 10
106.7320508075689
 20
-8.540467823087104
 30
0.0
 11
106.7320508075689
 21
-7.100750379313932
 31
0.0
  0
SPLINE
  5
BA
330
1F
100
AcDbEntity
  8
0
  6
Continuous
 62
     1
370
    15
100
AcDbSpline
210
0.0
220
0.0
230
1.0
 70
     8
 71
     3
 72
    24
 73
    20
 74
     0
 42
0.000000001
 43
0.00000001
 40
0.0
 40
0.0
 40
0.0
 40
0.0
 40
0.0531493954036634
 40
0.1151958008681049
 40
0.1772613872734598
 40
0.239354068483577
 40
0.301429404890773
 40
0.3634707758466855
 40
0.4255524347893373
 40
0.4876435471567606
 40
0.5496996935325661
 40
0.611754238296527
 40
0.6738449748183091
 40
0.735927504164273
 40
0.7906470881368817
 40
0.8453584968784387
 40
0.9000816534891213
 40
0.9548144924562872
 40
1.0
 40
1.0
 40
1.0
 40
1.0
 10
73.07916210254359
 20
-7.074435261972099
 30
0.0
 10
72.0286171888775
 20
-7.429326523134691
 30
0.0
 10
69.75167007106818
 20
-8.198516515611981
 30
0.0
 10
66.24874782394379
 20
-8.85116250506115
 30
0.0
 10
62.5686304394161
 20
-9.085075935261743
 30
0.0
 10
58.8875206446011
 20
-8.804384113213917
 30
0.0
 10
55.20711052136645
 20
-8.03824425526563
 30
0.0
 10
51.5276868135007
 20
-6.824648967800969
 30
0.0
 10
47.84707018975816
 20
-5.23336762428718
 30
0.0
 10
44.16605390254099
 20
-3.351859817643994
 30
0.0
 10
40.48621363123789
 20
-1.283673804455922
 30
0.0
 10
36.8064126851599
 20
0.8558622450597061
 30
0.0
 10
33.12543642845506
 20
2.946913133166244
 30
0.0
 10
29.58945411586637
 20
4.799273681390506
 30
0.0
 10
26.2003624654097
 20
6.34017714418636
 30
0.0
 10
22.95664794745365
 20
7.544518627453614
 30
0.0
 10
19.7125011615296
 20
8.41197959934093
 30
0.0
 10
16.65649392209404
 20
8.92599500206894
 30
0.0
 10
14.68187649156152
 20
8.957652344876035
 30
0.0
 10
13.78890644232676
 20
8.971968565591999
 30
0.0
  0
SPLINE
  5
BB
330
1F
100
AcDbEntity
  8
0
  6
Continuous
 62
     1
370
    15
100
AcDbSpline
210
0.0
220
0.0
230
1.0
 70
     8
 71
     3
 72
    18
 73
    14
 74
     0
 42
0.000000001
 43
0.00000001
 40
0.0
 40
0.0
 40
0.0
 40
0.0
 40
0.0629145364471245
 40
0.1619684151256776
 40
0.2610140297980185
 40
0.3600449126703968
 40
0.4590546574644971
 40
0.5580659040698956
 40
0.6570979103048303
 40
0.7561442399054193
 40
0.8551984234198443
 40
0.9542539731707362
 40
1.0
 40
1.0
 40
1.0
 40
1.0
 10
66.91396904017724
 20
-7.4511074747554
 30
0.0
 10
66.23203845071312
 20
-7.521729765683607
 30
0.0
 10
64.47646298217177
 20
-7.703541174940346
 30
0.0
 10
61.64733380210106
 20
-7.629560358730449
 30
0.0
 10
58.42678402421787
 20
-7.269905081571722
 30
0.0
 10
55.20677289804064
 20
-6.588017194362324
 30
0.0
 10
51.98727557184384
 20
-5.629492897577064
 30
0.0
 10
48.76775278856703
 20
-4.430539946676703
 30
0.0
 10
45.54770181223407
 20
-3.043910190999759
 30
0.0
 10
42.32712414313236
 20
-1.52618501771551
 30
0.0
 10
39.10625331489242
 20
0.0508782444708043
 30
0.0
 10
36.46309204497357
 20
1.360410125499146
 30
0.0
 10
34.89360243031394
 20
2.08534560929276
 30
0.0
 10
34.39776588131942
 20
2.314368793116664
 30
0.0
  0
LINE
  5
BC
330
1F
100
AcDbEntity
  8
0
  6
Continuous
 62
   131
370
    15
100
AcDbLine
 10
6.732050807568884
 20
-8.86582730699964
 30
0.0
 11
6.732050807568873
 21
-8.093397828253341
 31
0.0
  0
LINE
  5
BD
330
1F
100
AcDbEntity
  8
0
  6
Continuous
 62
     1
370
    15
100
AcDbLine
 10
106.7320508075685
 20
-8.999999999999988
 30
0.0
 11
106.7320508075689
 21
-8.540467823087114
 31
0.0
  0
SPLINE
  5
BE
330
1F
100
AcDbEntity
  8
0
  6
Continuous
 62
     1
370
    15
100
AcDbSpline
210
0.0
220
0.0
230
1.0
 70
     8
 71
     3
 72
    12
 73
     8
 74
     0
 42
0.000000001
 43
0.00000001
 40
0.0
 40
0.0
 40
0.0
 40
0.0
 40
0.5
 40
0.5
 40
0.75
 40
0.75
 40
1.0
 40
1.0
 40
1.0
 40
1.0
 10
106.7320508075689
 20
-2.405186514266792
 30
0.0
 10
105.8717646205521
 20
-1.728859581839166
 30
0.0
 10
105.0243694992334
 20
-1.027668077686355
 30
0.0
 10
103.7727989026475
 20
0.0617738072465259
 30
0.0
 10
103.3589048708807
 20
0.4312788219872515
 30
0.0
 10
102.5382960261153
 20
1.184136286907579
 30
0.0
 10
102.1300274622207
 20
1.569041250122952
 30
0.0
 10
101.7320508075688
 20
1.955973187525295
 30
0.0
  0
LINE
  5
BF
330
1F
100
AcDbEntity
  8
0
  6
Continuous
 62
     1
370
    15
100
AcDbLine
 10
101.7320508075689
 20
2.937719435296601
 30
0.0
 11
106.7320508075689
 21
0.0000000000000112
 31
0.0
  0
LINE
  5
C0
330
1F
100
AcDbEntity
  8
0
  6
Continuous
 62
     1
370
    15
100
AcDbLine
 10
106.7320508075689
 20
0.0000000000000112
 30
0.0
 11
106.7320508075689
 21
-2.405186514266791
 31
0.0
  0
SPLINE
  5
C1
330
1F
100
AcDbEntity
  8
0
  6
Continuous
 62
     1
370
    15
100
AcDbSpline
210
0.0
220
0.0
230
1.0
 70
     8
 71
     3
 72
    26
 73
    22
 74
     0
 42
0.000000001
 43
0.00000001
 40
0.0
 40
0.0
 40
0.0
 40
0.0
 40
0.0046370136772813
 40
0.0619303613746734
 40
0.1192132377738423
 40
0.1764861499818972
 40
0.233769414064204
 40
0.2910630304385353
 40
0.3483632133201514
 40
0.4056661616579263
 40
0.4629680679643715
 40
0.5202651271777236
 40
0.5775535455119446
 40
0.6348295651978976
 40
0.6921064626689136
 40
0.7493955375535201
 40
0.8066930146117631
 40
0.8639950990860796
 40
0.9212979854999941
 40
0.9785978665101862
 40
0.9999999999999999
 40
0.9999999999999999
 40
0.9999999999999999
 40
0.9999999999999999
 10
87.66995587419228
 20
-6.757905001054273
 30
0.0
 10
87.5830744784275
 20
-6.775028615524759
 30
0.0
 10
86.42271640943775
 20
-7.003725726640357
 30
0.0
 10
84.18911991561967
 20
-7.176185136570645
 30
0.0
 10
80.96938615822862
 20
-7.232172016403315
 30
0.0
 10
77.7499712562096
 20
-6.950472832329227
 30
0.0
 10
74.53022449818012
 20
-6.381337724389821
 30
0.0
 10
71.30989640812903
 20
-5.538671084872955
 30
0.0
 10
68.089148656869
 20
-4.461009681697464
 30
0.0
 10
64.86822562293116
 20
-3.193455339733135
 30
0.0
 10
61.64736807866009
 20
-1.790142412354218
 30
0.0
 10
58.42682150022331
 20
-0.3107294860182805
 30
0.0
 10
55.2068149159003
 20
1.181781541615703
 30
0.0
 10
51.98731394798829
 20
2.624168532841936
 30
0.0
 10
48.76778877631088
 20
3.954843195521961
 30
0.0
 10
45.54774206722624
 20
5.117674258160372
 30
0.0
 10
42.32716875270695
 20
6.061546852156789
 30
0.0
 10
39.10629912819693
 20
6.752943962141009
 30
0.0
 10
35.88538316210822
 20
7.137448593748881
 30
0.0
 10
33.33711637430181
 20
7.259693385827397
 30
0.0
 10
31.86254380289555
 20
7.1466208069641
 30
0.0
 10
31.46155026779801
 20
7.115871982524928
 30
0.0
  0
SPLINE
  5
C2
330
1F
100
AcDbEntity
  8
0
  6
Continuous
 62
     1
370
    15
100
AcDbSpline
210
0.0
220
0.0
230
1.0
 70
     8
 71
     3
 72
    14
 73
    10
 74
     0
 42
0.000000001
 43
0.00000001
 40
0.0
 40
0.0
 40
0.0
 40
0.0
 40
0.1849706716532155
 40
0.370055799794965
 40
0.5213163820411909
 40
0.6725693477065626
 40
0.8238046642000623
 40
0.9750123399610071
 40
0.9999999999999999
 40
0.9999999999999999
 40
0.9999999999999999
 40
0.9999999999999999
 10
101.7320508075689
 20
2.269675982330468
 30
0.0
 10
100.4190644181203
 20
2.831396635758205
 30
0.0
 10
97.79227918711769
 20
3.95518552514097
 30
0.0
 10
94.09103905640464
 20
5.265390068187345
 30
0.0
 10
90.63020513403869
 20
6.226543952045345
 30
0.0
 10
87.40941777105776
 20
6.861673790455452
 30
0.0
 10
84.18912181556394
 20
7.177577431998412
 30
0.0
 10
81.86507903320705
 20
7.260484280475119
 30
0.0
 10
80.61451571209255
 20
7.146834707440243
 30
0.0
 10
80.4371633946582
 20
7.130717158802084
 30
0.0
  0
SPLINE
  5
C3
330
1F
100
AcDbEntity
  8
0
  6
Continuous
 62
     1
370
    15
100
AcDbSpline
210
0.0
220
0.0
230
1.0
 70
     8
 71
     3
 72
    17
 73
    13
 74
     0
 42
0.000000001
 43
0.00000001
 40
0.0
 40
0.0
 40
0.0
 40
0.0
 40
0.08805149274469
 40
0.1888004075857217
 40
0.2895373560462139
 40
0.3902556838878516
 40
0.4909572297195201
 40
0.5916776025196172
 40
0.692415968202383
 40
0.7949427141970998
 40
0.8974742723504708
 40
1.0
 40
1.0
 40
1.0
 40
1.0
 10
38.70022427375313
 20
-6.751884319365616
 30
0.0
 10
37.76192457903912
 20
-6.884967189745279
 30
0.0
 10
35.75001814477545
 20
-7.170324080209501
 30
0.0
 10
32.66465225553293
 20
-7.241218060665664
 30
0.0
 10
29.44435803609809
 20
-7.035096226214429
 30
0.0
 10
26.22464335634789
 20
-6.52241929488619
 30
0.0
 10
23.00522795243154
 20
-5.734286296225307
 30
0.0
 10
19.78546053761404
 20
-4.701944697147334
 30
0.0
 10
16.54619623978738
 20
-3.462301104807225
 30
0.0
 10
13.28750040949205
 20
-2.065521304459335
 30
0.0
 10
10.00975077185701
 20
-0.5666950595963848
 30
0.0
 10
7.824596751779298
 20
0.4417869343019723
 30
0.0
 10
6.73205080756885
 20
0.9460135938963068
 30
0.0
  0
SPLINE
  5
C4
330
1F
100
AcDbEntity
  8
0
  6
Continuous
 62
     1
370
    15
100
AcDbSpline
210
0.0
220
0.0
230
1.0
 70
    24
 71
     3
 72
     8
 73
     4
 74
     0
 42
0.000000001
 43
0.00000001
 40
0.0
 40
0.0
 40
0.0
 40
0.0
 40
1.0
 40
1.0
 40
1.0
 40
1.0
 10
101.7320508075689
 20
1.955973187525309
 30
0.0
 10
101.7320508075689
 20
2.061208827775578
 30
0.0
 10
101.7320508075689
 20
2.165800204981209
 30
0.0
 10
101.7320508075689
 20
2.269675982330467
 30
0.0
  0
SPLINE
  5
C5
330
1F
100
AcDbEntity
  8
0
  6
Continuous
 62
     1
370
    15
100
AcDbSpline
210
0.0
220
0.0
230
1.0
 70
    24
 71
     3
 72
    10
 73
     6
 74
     0
 42
0.000000001
 43
0.00000001
 40
0.0
 40
0.0
 40
0.0
 40
0.0
 40
0.5
 40
0.5
 40
1.0
 40
1.0
 40
1.0
 40
1.0
 10
106.7320508075689
 20
-7.10075037931393
 30
0.0
 10
106.7320508075689
 20
-6.556422501034231
 30
0.0
 10
106.7320508075689
 20
-5.868643355158206
 30
0.0
 10
106.7320508075689
 20
-4.26962303235611
 30
0.0
 10
106.7320508075689
 20
-3.359766987461777
 30
0.0
 10
106.7320508075689
 20
-2.40518651426708
 30
0.0
  0
SPLINE
  5
C6
330
1F
100
AcDbEntity
  8
0
  6
Continuous
 62
   131
370
    15
100
AcDbSpline
210
0.0
220
0.0
230
1.0
 70
    24
 71
     3
 72
    14
 73
    10
 74
     0
 42
0.000000001
 43
0.00000001
 40
0.0
 40
0.0
 40
0.0
 40
0.0
 40
0.2500000000000001
 40
0.2500000000000001
 40
0.5000000000000002
 40
0.5000000000000002
 40
0.7500000000000001
 40
0.7500000000000001
 40
1.0
 40
1.0
 40
1.0
 40
1.0
 10
6.732050807568873
 20
0.9460135938962968
 30
0.0
 10
6.732050807568873
 20
0.2520060176185304
 30
0.0
 10
6.732050807568873
 20
-0.4596558039809167
 30
0.0
 10
6.732050807568873
 20
-1.869628899162813
 30
0.0
 10
6.732050807568873
 20
-2.567545639926652
 30
0.0
 10
6.732050807568873
 20
-3.897794534034775
 30
0.0
 10
6.732050807568873
 20
-4.529742551879612
 30
0.0
 10
6.732050807568873
 20
-5.685129703680343
 30
0.0
 10
6.732050807568873
 20
-6.208374776426711
 30
0.0
 10
6.732050807568873
 20
-6.665204240303761
 30
0.0
  0
SPLINE
  5
C7
330
1F
100
AcDbEntity
  8
0
  6
Continuous
 62
     1
370
    15
100
AcDbSpline
210
0.0
220
0.0
230
1.0
 70
    24
 71
     3
 72
    10
 73
     6
 74
     0
 42
0.000000001
 43
0.00000001
 40
0.0
 40
0.0
 40
0.0
 40
0.0
 40
0.4999999999999999
 40
0.4999999999999999
 40
1.0
 40
1.0
 40
1.0
 40
1.0
 10
101.7320508075689
 20
2.269675982330471
 30
0.0
 10
101.7320508075689
 20
2.716702351941907
 30
0.0
 10
101.7320508075689
 20
3.143168731149028
 30
0.0
 10
101.7320508075689
 20
3.928424395620579
 30
0.0
 10
101.7320508075689
 20
4.287058423038033
 30
0.0
 10
101.7320508075689
 20
4.600248776142761
 30
0.0
  0
SPLINE
  5
C8
330
1F
100
AcDbEntity
  8
0
  6
Continuous
 62
     1
370
    15
100
AcDbSpline
210
0.0
220
0.0
230
1.0
 70
     8
 71
     3
 72
    10
 73
     6
 74
     0
 42
0.000000001
 43
0.00000001
 40
0.0
 40
0.0
 40
0.0
 40
0.0
 40
0.5
 40
0.5
 40
1.0
 40
1.0
 40
1.0
 40
1.0
 10
106.7320508075689
 20
6.300000000000011
 30
0.0
 10
105.8883640711141
 20
6.071240674213191
 30
0.0
 10
105.0492759438423
 20
5.816690976438029
 30
0.0
 10
103.3809403944745
 20
5.252507842484852
 30
0.0
 10
102.5526718382096
 20
4.943697147379766
 30
0.0
 10
101.7320508075689
 20
4.600248776142757
 30
0.0
  0
SPLINE
  5
C9
330
1F
100
AcDbEntity
  8
0
  6
Continuous
 62
   131
370
    15
100
AcDbSpline
210
0.0
220
0.0
230
1.0
 70
    24
 71
     3
 72
    14
 73
    10
 74
     0
 42
0.000000001
 43
0.00000001
 40
0.0
 40
0.0
 40
0.0
 40
0.0
 40
0.2500000000000002
 40
0.2500000000000002
 40
0.5000000000000002
 40
0.5000000000000002
 40
0.7500000000000001
 40
0.7500000000000001
 40
1.0
 40
1.0
 40
1.0
 40
1.0
 10
6.73205080756885
 20
6.245383114409404
 30
0.0
 10
6.73205080756885
 20
6.179472840313917
 30
0.0
 10
6.73205080756885
 20
6.014055751003142
 30
0.0
 10
6.73205080756885
 20
5.470732642033858
 30
0.0
 10
6.73205080756885
 20
5.092677556391742
 30
0.0
 10
6.73205080756885
 20
4.150826805890532
 30
0.0
 10
6.73205080756885
 20
3.587532998488411
 30
0.0
 10
6.73205080756885
 20
2.338390507785518
 30
0.0
 10
6.73205080756885
 20
1.653384119907027
 30
0.0
 10
6.73205080756885
 20
0.946013593896306
 30
0.0
  0
LINE
  5
CA
330
1F
100
AcDbEntity
  8
0
  6
Continuous
 62
     1
370
    15
100
AcDbLine
 10
106.7320508075689
 20
0.0000000000000112
 30
0.0
 11
106.7320508075689
 21
6.300000000000011
 31
0.0
  0
LINE
  5
CC
330
1F
100
AcDbEntity
  8
0
  6
Continuous
 62
   131
370
    15
100
AcDbLine
 10
5.732050807568877
 20
-7.824068684213597
 30
0.0
 11
5.732050807568881
 21
-9.000000000000107
 31
0.0
  0
LINE
  5
D0
330
1F
100
AcDbEntity
  8
0
  6
Continuous
 62
   131
370
    15
100
AcDbLine
 10
5.732050807568813
 20
-8.312977217550223
 30
0.0
 11
5.732050807568802
 21
9.000000000000012
 31
0.0
1001
PE_URL
1000

  0
LINE
  5
D1
330
1F
100
AcDbEntity
  8
0
  6
Continuous
 62
   131
370
    15
100
AcDbLine
 10
4.732050807568822
 20
9.999999999999993
 30
0.0
 11
4.732050807568822
 21
-10.00000000000001
 31
0.0
  0
LINE
  5
D2
330
1F
100
AcDbEntity
  8
0
  6
Continuous
 62
   131
370
    15
100
AcDbLine
 10
-92.26794919243113
 20
9.999999999999986
 30
0.0
 11
-92.26794919243113
 21
-10.0
 31
0.0
  0
LINE
  5
D3
330
1F
100
AcDbEntity
  8
0
  6
Continuous
 62
   131
370
    15
100
AcDbLine
 10
-93.26794919243113
 20
8.999999999999986
 30
0.0
 11
-93.26794919243113
 21
-8.999999999999993
 31
0.0
  0
SPLINE
  5
D5
330
1F
100
AcDbEntity
  8
0
  6
Continuous
 62
   131
370
    15
100
AcDbSpline
210
0.0
220
0.0
230
1.0
 70
     8
 71
     3
 72
     8
 73
     4
 74
     0
 42
0.000000001
 43
0.00000001
 40
0.0
 40
0.0
 40
0.0
 40
0.0
 40
0.32839182168933
 40
0.32839182168933
 40
0.32839182168933
 40
0.32839182168933
 10
6.73205080756885
 20
0.9460135938962974
 30
0.0
 10
6.397855833196891
 20
1.098934320065622
 30
0.0
 10
6.065147471055143
 20
1.250978335938804
 30
0.0
 10
5.732050807568955
 20
1.402116946395856
 30
0.0
  0
SPLINE
  5
D6
330
1F
100
AcDbEntity
  8
0
  6
Continuous
 62
   131
370
    15
100
AcDbSpline
210
0.0
220
0.0
230
1.0
 70
    24
 71
     3
 72
    14
 73
    10
 74
     0
 42
0.000000001
 43
0.00000001
 40
0.0
 40
0.0
 40
0.0
 40
0.0
 40
0.2500000000000001
 40
0.2500000000000001
 40
0.5000000000000002
 40
0.5000000000000002
 40
0.7500000000000001
 40
0.7500000000000001
 40
1.0
 40
1.0
 40
1.0
 40
1.0
 10
6.732050807568873
 20
0.9460135938962968
 30
0.0
 10
6.732050807568873
 20
0.2520060176185304
 30
0.0
 10
6.732050807568873
 20
-0.4596558039809167
 30
0.0
 10
6.732050807568873
 20
-1.869628899162813
 30
0.0
 10
6.732050807568873
 20
-2.567545639926652
 30
0.0
 10
6.732050807568873
 20
-3.897794534034775
 30
0.0
 10
6.732050807568873
 20
-4.529742551879612
 30
0.0
 10
6.732050807568873
 20
-5.685129703680343
 30
0.0
 10
6.732050807568873
 20
-6.208374776426711
 30
0.0
 10
6.732050807568873
 20
-6.665204240303761
 30
0.0
  0
LINE
  5
D7
330
1F
100
AcDbEntity
  8
0
  6
Continuous
 62
   131
370
    15
100
AcDbLine
 10
6.732050807568871
 20
6.245383114409406
 30
0.0
 11
5.732050807568804
 21
6.153552180605714
 31
0.0
  0
SPLINE
  5
D8
330
1F
100
AcDbEntity
  8
0
  6
Continuous
 62
   131
370
    15
100
AcDbSpline
210
0.0
220
0.0
230
1.0
 70
    24
 71
     3
 72
    14
 73
    10
 74
     0
 42
0.000000001
 43
0.00000001
 40
0.0
 40
0.0
 40
0.0
 40
0.0
 40
0.2500000000000002
 40
0.2500000000000002
 40
0.5000000000000002
 40
0.5000000000000002
 40
0.7500000000000001
 40
0.7500000000000001
 40
1.0
 40
1.0
 40
1.0
 40
1.0
 10
6.73205080756885
 20
6.245383114409404
 30
0.0
 10
6.73205080756885
 20
6.179472840313917
 30
0.0
 10
6.73205080756885
 20
6.014055751003142
 30
0.0
 10
6.73205080756885
 20
5.470732642033858
 30
0.0
 10
6.73205080756885
 20
5.092677556391742
 30
0.0
 10
6.73205080756885
 20
4.150826805890532
 30
0.0
 10
6.73205080756885
 20
3.587532998488411
 30
0.0
 10
6.73205080756885
 20
2.338390507785518
 30
0.0
 10
6.73205080756885
 20
1.653384119907027
 30
0.0
 10
6.73205080756885
 20
0.946013593896306
 30
0.0
  0
SPLINE
  5
D9
330
1F
100
AcDbEntity
  8
0
  6
Continuous
 62
   131
370
    15
100
AcDbSpline
210
0.0
220
0.0
230
1.0
 70
     8
 71
     3
 72
     8
 73
     4
 74
     0
 42
0.000000001
 43
0.00000001
 40
0.0
 40
0.0
 40
0.0
 40
0.0
 40
1.0
 40
1.0
 40
1.0
 40
1.0
 10
6.732050807569331
 20
-8.093397828268666
 30
0.0
 10
6.397829859739646
 20
-8.009050438078111
 30
0.0
 10
6.065008464374277
 20
-7.919251318174106
 30
0.0
 10
5.732050807568877
 20
-7.824068684213597
 30
0.0
  0
SPLINE
  5
DA
330
1F
100
AcDbEntity
  8
0
  6
Continuous
 62
   131
370
    15
100
AcDbSpline
210
0.0
220
0.0
230
1.0
 70
    24
 71
     3
 72
     8
 73
     4
 74
     0
 42
0.000000001
 43
0.00000001
 40
0.0
 40
0.0
 40
0.0
 40
0.0
 40
1.0
 40
1.0
 40
1.0
 40
1.0
 10
6.732050807568941
 20
-6.665204240303779
 30
0.0
 10
6.732050807568941
 20
-7.133853986237725
 30
0.0
 10
6.732050807568941
 20
-7.612945295148247
 30
0.0
 10
6.732050807568941
 20
-8.093397828259569
 30
0.0
  0
SPLINE
  5
DB
330
1F
100
AcDbEntity
  8
0
  6
Continuous
 62
   131
370
    15
100
AcDbSpline
210
0.0
220
0.0
230
1.0
 70
     8
 71
     3
 72
     8
 73
     4
 74
     0
 42
0.000000001
 43
0.00000001
 40
0.0
 40
0.0
 40
0.0
 40
0.0
 40
1.0
 40
1.0
 40
1.0
 40
1.0
 10
5.732050807568884
 20
-8.748185717034453
 30
0.0
 10
6.065008464374134
 20
-8.793425278510956
 30
0.0
 10
6.397829859739348
 20
-8.832653699188084
 30
0.0
 10
6.73205080756888
 20
-8.865827306999636
 30
0.0
  0
SPLINE
  5
DC
330
1F
100
AcDbEntity
  8
0
  6
Continuous
 62
   131
370
    15
100
AcDbSpline
210
0.0
220
0.0
230
1.0
 70
     8
 71
     3
 72
     8
 73
     4
 74
     0
 42
0.000000001
 43
0.00000001
 40
0.0
 40
0.0
 40
0.0
 40
0.0
 40
1.0
 40
1.0
 40
1.0
 40
1.0
 10
5.73205080756888
 20
8.748185717034453
 30
0.0
 10
6.065008464374131
 20
8.793425278510952
 30
0.0
 10
6.397829859739348
 20
8.832653699188084
 30
0.0
 10
6.732050807568877
 20
8.865827306999636
 30
0.0
  0
SPLINE
  5
DD
330
1F
100
AcDbEntity
  8
0
  6
Continuous
 62
   131
370
    15
100
AcDbSpline
210
0.0
220
0.0
230
1.0
 70
    24
 71
     3
 72
    10
 73
     6
 74
     0
 42
0.000000001
 43
0.00000001
 40
0.0
 40
0.0
 40
0.0
 40
0.0
 40
0.5
 40
0.5
 40
1.0
 40
1.0
 40
1.0
 40
1.0
 10
6.73205080756888
 20
8.865827306999629
 30
0.0
 10
6.73205080756888
 20
8.40384910957777
 30
0.0
 10
6.73205080756888
 20
7.919554091402851
 30
0.0
 10
6.73205080756888
 20
7.014016258122675
 30
0.0
 10
6.732050807568877
 20
6.594993059740588
 30
0.0
 10
6.732050807568871
 20
6.245383114409405
 30
0.0
  0
LINE
  5
DE
330
1F
100
AcDbEntity
  8
중심선
100
AcDbLine
 10
-96.26794919243113
 20
-0.0000000000000055
 30
0.0
 11
113.7320508075689
 21
0.0000000000000118
 31
0.0
  0
CIRCLE
  5
DF
330
1F
100
AcDbEntity
  8
외형선
100
AcDbCircle
 10
0.0000000000000104
 20
0.0
 30
0.0
 40
3.000000000000005
  0
INSERT
  5
E0
330
1F
100
AcDbEntity
  8
0
  6
Continuous
 62
     7
100
AcDbBlockReference
 66
     1
  2
블럭10
 10
-22.93944368806589
 20
-52.04609937292004
 30
0.0
  0
ATTRIB
  5
E1
330
E0
100
AcDbEntity
  8
FORMAT
 62
     2
100
AcDbText
 10
-40.63836564979034
 20
-49.97073246008785
 30
0.0
 40
4.233333333333333
  1
SEME70180100E [ 2 FLUTE ]
 41
0.75
  7
SLDTEXTSTYLE0
 11
-40.63836564979034
 21
-52.08739912675452
 31
0.0
100
AcDbAttribute
  2
AUTOATTR0
 70
     0
 74
     1
  0
SEQEND
  5
E2
330
E0
100
AcDbEntity
  8
0
  6
Continuous
 62
     7
  0
HATCH
  5
E3
330
1F
100
AcDbEntity
  8
중심선
100
AcDbHatch
 10
0.0
 20
0.0
 30
0.0
210
0.0
220
0.0
230
1.0
  2
SOLID
 70
     1
 71
     0
 91
        1
 92
        0
 93
        4
 72
     1
 10
-17.22453438368504
 20
-35.7989250712761
 11
-20.67080962752232
 21
-35.7989250712761
 72
     1
 10
-20.67080962752232
 20
-35.7989250712761
 11
-22.79903948672635
 21
-38.3352506518487
 72
     1
 10
-22.79903948672635
 20
-38.3352506518487
 11
-19.35273115777591
 21
-38.33521122254621
 72
     1
 10
-19.35273115777591
 20
-38.33521122254621
 11
-17.22453438368504
 21
-35.7989250712761
 97
        0
 75
     0
 76
     1
 98
        1
 10
0.0
 20
0.0
  0
HATCH
  5
E4
330
1F
100
AcDbEntity
  8
중심선
100
AcDbHatch
 10
0.0
 20
0.0
 30
0.0
210
0.0
220
0.0
230
1.0
  2
SOLID
 70
     1
 71
     0
 91
        1
 92
        0
 93
        4
 72
     1
 10
-12.21177039264909
 20
-35.7989250712761
 11
-15.65804563648637
 21
-35.7989250712761
 72
     1
 10
-15.65804563648637
 20
-35.7989250712761
 11
-20.18918364484376
 21
-41.19892507127612
 72
     1
 10
-20.18918364484376
 20
-41.19892507127612
 11
-16.74290840100648
 21
-41.19892507127612
 72
     1
 10
-16.74290840100648
 20
-41.19892507127612
 11
-12.21177039264909
 21
-35.7989250712761
 97
        0
 75
     0
 76
     1
 98
        1
 10
0.0
 20
0.0
  0
HATCH
  5
E5
330
1F
100
AcDbEntity
  8
중심선
100
AcDbHatch
 10
0.0
 20
0.0
 30
0.0
210
0.0
220
0.0
230
1.0
  2
SOLID
 70
     1
 71
     0
 91
        1
 92
        0
 93
        4
 72
     1
 10
-7.199006401613195
 20
-35.79892507127613
 11
-10.64528164545031
 21
-35.7989250712761
 72
     1
 10
-10.64528164545031
 20
-35.7989250712761
 11
-17.69371854733956
 21
-44.19892507127612
 72
     1
 10
-17.69371854733956
 20
-44.19892507127612
 11
-14.24744330350228
 21
-44.19892507127612
 72
     1
 10
-14.24744330350228
 20
-44.19892507127612
 11
-7.199006401613195
 21
-35.79892507127613
 97
        0
 75
     0
 76
     1
 98
        1
 10
0.0
 20
0.0
  0
HATCH
  5
E6
330
1F
100
AcDbEntity
  8
중심선
100
AcDbHatch
 10
0.0
 20
0.0
 30
0.0
210
0.0
220
0.0
230
1.0
  2
SOLID
 70
     1
 71
     0
 91
        1
 92
        0
 93
        6
 72
     3
 10
-2.399115970600996
 20
-39.99892507132738
 11
3.960054785062284
 21
1.540850780301639E-10
 40
0.3939339440162633
 50
17.09539180608433
 51
320.0019657685079
 73
     0
 72
     1
 10
-0.7161163149004002
 20
-38.58681907591441
 11
1.589185558800638
 21
-36.65249236586649
 72
     3
 10
-2.399115970653842
 20
-39.99892507127625
 11
6.600054785286829
 21
-1.249000902703301E-13
 40
0.6363583540795982
 50
39.99873849337408
 51
368.4976242363724
 73
     1
 72
     1
 10
4.026216521246767
 20
-39.03892507120613
 11
-3.71904866381792
 21
-39.0389250712061
 72
     1
 10
-3.71904866381792
 20
-39.0389250712061
 11
-3.719073708263854
 21
-40.95892507120602
 72
     1
 10
-3.719073708263854
 20
-40.95892507120602
 11
0.7223060612081835
 21
-40.95892507120599
 97
        0
 75
     0
 76
     1
 98
        1
 10
0.0
 20
0.0
  0
DIMENSION
  5
E7
330
1F
100
AcDbEntity
  8
치수문자_일반주서
100
AcDbDimension
  2
_D
 10
118.5717276296247
 20
9.000000000000057
 30
0.0
 11
118.5717276296246
 21
22.44775000000006
 31
0.0
 70
   160
  1
%%c<>
 71
     2
 42
18.0
 52
-270.0
  3
SLDDIMSTYLE0
100
AcDbAlignedDimension
 13
106.7320508075685
 23
-8.999999999999988
 33
0.0
 14
106.7320508075689
 24
9.000000000000012
 34
0.0
 50
90.0000000000002
100
AcDbRotatedDimension
  0
DIMENSION
  5
F5
330
1F
100
AcDbEntity
  8
치수문자_일반주서
100
AcDbDimension
  2
_D_1
 10
106.7320508075689
 20
30.78841044024268
 30
0.0
 11
6.732050807568875
 21
30.78841044024268
 31
0.0
 70
   160
  1
<>
 71
     2
 42
200.0
  3
SLDDIMSTYLE1
100
AcDbAlignedDimension
 13
-93.26794919243113
 23
8.999999999999986
 33
0.0
 14
106.7320508075689
 24
9.000000000000012
 34
0.0
 50
-0.0000000000000041
100
AcDbRotatedDimension
  0
DIMENSION
  5
100
330
1F
100
AcDbEntity
  8
치수문자_일반주서
100
AcDbDimension
  2
_D_2
 10
106.7320508075689
 20
22.212825113167
 30
0.0
 11
56.73205080756895
 21
22.212825113167
 31
0.0
 70
   160
  1
<>
 71
     2
 42
100.0
  3
SLDDIMSTYLE1
100
AcDbAlignedDimension
 13
6.732050807568873
 23
8.865827306999636
 33
0.0
 14
106.7320508075689
 24
9.000000000000012
 34
0.0
 50
-0.0000000000001791
100
AcDbRotatedDimension
  0
DIMENSION
  5
10A
330
1F
100
AcDbEntity
  8
치수문자_일반주서
100
AcDbDimension
  2
_D_3
 10
-104.775024477777
 20
-10.00000000000004
 30
0.0
 11
-104.7750244777771
 21
20.76024999999994
 31
0.0
 70
   160
  1
%%c<>
 71
     2
 42
19.99999999999998
 52
-270.0
  3
SLDDIMSTYLE0
100
AcDbAlignedDimension
 13
-92.26794919243113
 23
9.999999999999986
 33
0.0
 14
-92.26794919243113
 24
-9.999999999999996
 34
0.0
 50
90.0000000000002
100
AcDbRotatedDimension
  0
INSERT
  5
11D
330
1F
100
AcDbEntity
  8
외형선
100
AcDbBlockReference
  2
SW_DOWELSYMBOL_0
 10
0.0000000000000104
 20
0.0
 30
0.0
  0
LINE
  5
175
330
1F
100
AcDbEntity
  8
0
  6
Continuous
 62
   131
370
    15
100
AcDbLine
 10
5.732050807568802
 20
9.000000000000012
 30
0.0
 11
4.732050807568822
 21
9.999999999999993
 31
0.0
1001
PE_URL
1000

  0
LINE
  5
179
330
1F
100
AcDbEntity
  8
0
  6
Continuous
 62
   131
370
    15
100
AcDbLine
 10
5.732050807568982
 20
-9.000000000000005
 30
0.0
 11
4.732050807569022
 21
-10.00000000000001
 31
0.0
1001
PE_URL
1000

  0
ENDSEC
  0
SECTION
  2
OBJECTS
  0
DICTIONARY
  5
C
330
0
100
AcDbDictionary
281
     1
  3
ACAD_GROUP
350
D
  3
ACAD_IMAGE_VARS
350
141
  3
ACAD_LAYOUT
350
1A
  3
ACAD_MLINESTYLE
350
17
  3
ACAD_PLOTSETTINGS
350
19
  3
ACAD_PLOTSTYLENAME
350
E
  3
ACAD_SCALELIST
350
47
  3
APPDATA
350
13F
  3
DWGPROPS
350
17C
  0
DICTIONARY
  5
177
330
1F
100
AcDbDictionary
280
     1
281
     1
  3
ACAD_SORTENTS
360
178
  3
DIM_BOUNDING_BOXES_V1
360
17B
  0
DICTIONARY
  5
D
102
{ACAD_REACTORS
330
C
102
}
330
C
100
AcDbDictionary
281
     1
  0
RASTERVARIABLES
  5
141
102
{ACAD_REACTORS
330
C
102
}
330
C
100
AcDbRasterVariables
 90
        0
 70
     1
 71
     1
 72
     1
  0
DICTIONARY
  5
1A
102
{ACAD_REACTORS
330
C
102
}
330
C
100
AcDbDictionary
281
     1
  3
Layout1
350
1E
  3
Layout2
350
26
  3
Model
350
22
  0
DICTIONARY
  5
17
102
{ACAD_REACTORS
330
C
102
}
330
C
100
AcDbDictionary
281
     1
  3
Standard
350
18
  0
DICTIONARY
  5
19
102
{ACAD_REACTORS
330
C
102
}
330
C
100
AcDbDictionary
281
     1
  0
ACDBDICTIONARYWDFLT
  5
E
102
{ACAD_REACTORS
330
C
102
}
330
C
100
AcDbDictionary
281
     1
  3
Normal
350
F
100
AcDbDictionaryWithDefault
340
F
  0
DICTIONARY
  5
47
102
{ACAD_REACTORS
330
C
102
}
330
C
100
AcDbDictionary
281
     1
  3
A0
350
48
  3
A1
350
49
  3
A2
350
4A
  3
A3
350
4B
  3
A4
350
4C
  3
A5
350
4D
  3
A6
350
4E
  3
A7
350
4F
  3
A8
350
50
  3
A9
350
51
  3
B0
350
52
  3
B1
350
53
  3
B2
350
54
  3
B3
350
55
  3
B4
350
56
  3
B5
350
57
  3
B6
350
58
  3
B7
350
59
  3
B8
350
5A
  3
B9
350
5B
  3
C0
350
5C
  3
C1
350
5D
  3
C2
350
5E
  3
C3
350
5F
  3
C4
350
60
  3
C5
350
61
  3
C6
350
62
  3
C7
350
63
  3
C8
350
64
  3
C9
350
65
  3
D0
350
66
  3
D1
350
67
  3
D2
350
68
  0
DICTIONARY
  5
13F
102
{ACAD_REACTORS
330
C
102
}
330
C
100
AcDbDictionary
281
     1
  0
XRECORD
  5
17C
102
{ACAD_REACTORS
330
C
102
}
330
C
100
AcDbXrecord
280
     1
  1
DWGPROPS COOKIE
  2

  3

  4

  6

  7

  8
12014102
  9

300
=
301
=
302
=
303
=
304
=
305
=
306
=
307
=
308
=
309
=
 40
0.0
 41
2458262.177054907
 42
2459702.2727475
  1

 90
        0
  0
SORTENTSTABLE
  5
178
102
{ACAD_REACTORS
330
177
102
}
330
177
100
AcDbSortentsTable
330
1F
331
175
  5
176
331
0
  5
175
  0
DICTIONARY
  5
17B
102
{ACAD_REACTORS
330
177
102
}
330
177
100
AcDbDictionary
281
     1
  0
LAYOUT
  5
1E
102
{ACAD_REACTORS
330
1A
102
}
330
1A
100
AcDbPlotSettings
  1

  2
none_device
  4

  6

 40
0.0
 41
0.0
 42
0.0
 43
0.0
 44
0.0
 45
0.0
 46
0.0
 47
0.0
 48
0.0
 49
0.0
140
0.0
141
0.0
142
1.0
143
1.0
 70
   688
 72
     1
 73
     0
 74
     5
  7

 75
    16
147
1.0
148
0.0
149
0.0
100
AcDbLayout
  1
Layout1
 70
     1
 71
     1
 10
0.0
 20
0.0
 11
420.0
 21
297.0
 12
0.0
 22
0.0
 32
0.0
 14
1.000000000000000E+20
 24
1.000000000000000E+20
 34
1.000000000000000E+20
 15
-1.000000000000000E+20
 25
-1.000000000000000E+20
 35
-1.000000000000000E+20
146
0.0
 13
0.0
 23
0.0
 33
0.0
 16
1.0
 26
0.0
 36
0.0
 17
0.0
 27
1.0
 37
0.0
 76
     0
330
1B
  0
LAYOUT
  5
26
102
{ACAD_REACTORS
330
1A
102
}
330
1A
100
AcDbPlotSettings
  1

  2
none_device
  4

  6

 40
0.0
 41
0.0
 42
0.0
 43
0.0
 44
0.0
 45
0.0
 46
0.0
 47
0.0
 48
0.0
 49
0.0
140
0.0
141
0.0
142
1.0
143
1.0
 70
   688
 72
     1
 73
     0
 74
     5
  7

 75
    16
147
1.0
148
0.0
149
0.0
100
AcDbLayout
  1
Layout2
 70
     1
 71
     2
 10
0.0
 20
0.0
 11
0.0
 21
0.0
 12
0.0
 22
0.0
 32
0.0
 14
0.0
 24
0.0
 34
0.0
 15
0.0
 25
0.0
 35
0.0
146
0.0
 13
0.0
 23
0.0
 33
0.0
 16
1.0
 26
0.0
 36
0.0
 17
0.0
 27
1.0
 37
0.0
 76
     0
330
23
  0
LAYOUT
  5
22
102
{ACAD_REACTORS
330
1A
102
}
330
1A
100
AcDbPlotSettings
  1

  2
none_device
  4
ANSI_A_(11.00_x_8.50_Inches)
  6

 40
6.35
 41
19.05
 42
6.35000508
 43
19.05000254
 44
279.4
 45
215.9
 46
124.4295468744107
 47
98.76630211529802
 48
0.0
 49
0.0
140
0.0
141
0.0
142
0.0504022769828517
143
1.0
 70
  1696
 72
     0
 73
     0
 74
     0
  7

 75
     0
147
0.0235690232323232
148
0.0
149
0.0
100
AcDbLayout
  1
Model
 70
     1
 71
     0
 10
0.0
 20
0.0
 11
420.0
 21
297.0
 12
0.0
 22
0.0
 32
0.0
 14
-109.1500244777771
 24
-49.97073246008785
 34
0.0
 15
119.1220609629581
 25
35.16341044024269
 35
0.0
146
0.0
 13
0.0
 23
0.0
 33
0.0
 16
1.0
 26
0.0
 36
0.0
 17
0.0
 27
1.0
 37
0.0
 76
     0
330
1F
331
29
  0
MLINESTYLE
  5
18
102
{ACAD_REACTORS
330
17
102
}
330
17
100
AcDbMlineStyle
  2
Standard
 70
     0
  3

 62
   256
 51
90.0
 52
90.0
 71
     2
 49
0.5
 62
   256
  6
BYLAYER
 49
-0.5
 62
   256
  6
BYLAYER
  0
ACDBPLACEHOLDER
  5
F
102
{ACAD_REACTORS
330
E
102
}
330
E
  0
SCALE
  5
48
102
{ACAD_REACTORS
330
47
102
}
330
47
100
AcDbScale
 70
     0
300
1:1
140
1.0
141
1.0
290
     1
  0
SCALE
  5
49
102
{ACAD_REACTORS
330
47
102
}
330
47
100
AcDbScale
 70
     0
300
1:2
140
1.0
141
2.0
290
     0
  0
SCALE
  5
4A
102
{ACAD_REACTORS
330
47
102
}
330
47
100
AcDbScale
 70
     0
300
1:4
140
1.0
141
4.0
290
     0
  0
SCALE
  5
4B
102
{ACAD_REACTORS
330
47
102
}
330
47
100
AcDbScale
 70
     0
300
1:5
140
1.0
141
5.0
290
     0
  0
SCALE
  5
4C
102
{ACAD_REACTORS
330
47
102
}
330
47
100
AcDbScale
 70
     0
300
1:8
140
1.0
141
8.0
290
     0
  0
SCALE
  5
4D
102
{ACAD_REACTORS
330
47
102
}
330
47
100
AcDbScale
 70
     0
300
1:10
140
1.0
141
10.0
290
     0
  0
SCALE
  5
4E
102
{ACAD_REACTORS
330
47
102
}
330
47
100
AcDbScale
 70
     0
300
1:16
140
1.0
141
16.0
290
     0
  0
SCALE
  5
4F
102
{ACAD_REACTORS
330
47
102
}
330
47
100
AcDbScale
 70
     0
300
1:20
140
1.0
141
20.0
290
     0
  0
SCALE
  5
50
102
{ACAD_REACTORS
330
47
102
}
330
47
100
AcDbScale
 70
     0
300
1:30
140
1.0
141
30.0
290
     0
  0
SCALE
  5
51
102
{ACAD_REACTORS
330
47
102
}
330
47
100
AcDbScale
 70
     0
300
1:40
140
1.0
141
40.0
290
     0
  0
SCALE
  5
52
102
{ACAD_REACTORS
330
47
102
}
330
47
100
AcDbScale
 70
     0
300
1:50
140
1.0
141
50.0
290
     0
  0
SCALE
  5
53
102
{ACAD_REACTORS
330
47
102
}
330
47
100
AcDbScale
 70
     0
300
1:100
140
1.0
141
100.0
290
     0
  0
SCALE
  5
54
102
{ACAD_REACTORS
330
47
102
}
330
47
100
AcDbScale
 70
     0
300
2:1
140
2.0
141
1.0
290
     0
  0
SCALE
  5
55
102
{ACAD_REACTORS
330
47
102
}
330
47
100
AcDbScale
 70
     0
300
4:1
140
4.0
141
1.0
290
     0
  0
SCALE
  5
56
102
{ACAD_REACTORS
330
47
102
}
330
47
100
AcDbScale
 70
     0
300
8:1
140
8.0
141
1.0
290
     0
  0
SCALE
  5
57
102
{ACAD_REACTORS
330
47
102
}
330
47
100
AcDbScale
 70
     0
300
10:1
140
10.0
141
1.0
290
     0
  0
SCALE
  5
58
102
{ACAD_REACTORS
330
47
102
}
330
47
100
AcDbScale
 70
     0
300
100:1
140
100.0
141
1.0
290
     0
  0
SCALE
  5
59
102
{ACAD_REACTORS
330
47
102
}
330
47
100
AcDbScale
 70
     0
300
1/128" = 1'-0"
140
0.0078125
141
12.0
290
     0
  0
SCALE
  5
5A
102
{ACAD_REACTORS
330
47
102
}
330
47
100
AcDbScale
 70
     0
300
1/64" = 1'-0"
140
0.015625
141
12.0
290
     0
  0
SCALE
  5
5B
102
{ACAD_REACTORS
330
47
102
}
330
47
100
AcDbScale
 70
     0
300
1/32" = 1'-0"
140
0.03125
141
12.0
290
     0
  0
SCALE
  5
5C
102
{ACAD_REACTORS
330
47
102
}
330
47
100
AcDbScale
 70
     0
300
1/16" = 1'-0"
140
0.0625
141
12.0
290
     0
  0
SCALE
  5
5D
102
{ACAD_REACTORS
330
47
102
}
330
47
100
AcDbScale
 70
     0
300
3/32" = 1'-0"
140
0.09375
141
12.0
290
     0
  0
SCALE
  5
5E
102
{ACAD_REACTORS
330
47
102
}
330
47
100
AcDbScale
 70
     0
300
1/8" = 1'-0"
140
0.125
141
12.0
290
     0
  0
SCALE
  5
5F
102
{ACAD_REACTORS
330
47
102
}
330
47
100
AcDbScale
 70
     0
300
3/16" = 1'-0"
140
0.1875
141
12.0
290
     0
  0
SCALE
  5
60
102
{ACAD_REACTORS
330
47
102
}
330
47
100
AcDbScale
 70
     0
300
1/4" = 1'-0"
140
0.25
141
12.0
290
     0
  0
SCALE
  5
61
102
{ACAD_REACTORS
330
47
102
}
330
47
100
AcDbScale
 70
     0
300
3/8" = 1'-0"
140
0.375
141
12.0
290
     0
  0
SCALE
  5
62
102
{ACAD_REACTORS
330
47
102
}
330
47
100
AcDbScale
 70
     0
300
1/2" = 1'-0"
140
0.5
141
12.0
290
     0
  0
SCALE
  5
63
102
{ACAD_REACTORS
330
47
102
}
330
47
100
AcDbScale
 70
     0
300
3/4" = 1'-0"
140
0.75
141
12.0
290
     0
  0
SCALE
  5
64
102
{ACAD_REACTORS
330
47
102
}
330
47
100
AcDbScale
 70
     0
300
1" = 1'-0"
140
1.0
141
12.0
290
     0
  0
SCALE
  5
65
102
{ACAD_REACTORS
330
47
102
}
330
47
100
AcDbScale
 70
     0
300
1-1/2" = 1'-0"
140
1.5
141
12.0
290
     0
  0
SCALE
  5
66
102
{ACAD_REACTORS
330
47
102
}
330
47
100
AcDbScale
 70
     0
300
3" = 1'-0"
140
3.0
141
12.0
290
     0
  0
SCALE
  5
67
102
{ACAD_REACTORS
330
47
102
}
330
47
100
AcDbScale
 70
     0
300
6" = 1'-0"
140
6.0
141
12.0
290
     0
  0
SCALE
  5
68
102
{ACAD_REACTORS
330
47
102
}
330
47
100
AcDbScale
 70
     0
300
1'-0" = 1'-0"
140
12.0
141
12.0
290
     0
  0
ENDSEC
  0
EOF
