  0
SECTION
  2
HEADER
  9
$ACADVER
  1
AC1015
  9
$ACADMAINTVER
 70
     6
  9
$DWGCODEPAGE
  3
ANSI_949
  9
$INSBASE
 10
0.0
 20
0.0
 30
0.0
  9
$EXTMIN
 10
-79.01901708523374
 20
-49.97073246008785
 30
0.0
  9
$EXTMAX
 10
74.68463567398334
 20
35.16341044024267
 30
0.0
  9
$LIMMIN
 10
0.0
 20
0.0
  9
$LIMMAX
 10
420.0
 20
297.0
  9
$ORTHOMODE
 70
     0
  9
$REGENMODE
 70
     1
  9
$FILLMODE
 70
     1
  9
$QTEXTMODE
 70
     0
  9
$MIRRTEXT
 70
     1
  9
$LTSCALE
 40
1.0
  9
$ATTMODE
 70
     1
  9
$TEXTSIZE
 40
3.5
  9
$TRACEWID
 40
1.0
  9
$TEXTSTYLE
  7
Standard
  9
$CLAYER
  8
0
  9
$CELTYPE
  6
ByLayer
  9
$CECOLOR
 62
   256
  9
$CELTSCALE
 40
1.0
  9
$DISPSILH
 70
     0
  9
$DIMSCALE
 40
1.0
  9
$DIMASZ
 40
3.302
  9
$DIMEXO
 40
1.0
  9
$DIMDLI
 40
3.75
  9
$DIMRND
 40
0.0
  9
$DIMDLE
 40
0.0
  9
$DIMEXE
 40
1.0
  9
$DIMTP
 40
0.0
  9
$DIMTM
 40
0.0
  9
$DIMTXT
 40
3.5
  9
$DIMCEN
 40
2.5
  9
$DIMTSZ
 40
0.0
  9
$DIMTOL
 70
     0
  9
$DIMLIM
 70
     0
  9
$DIMTIH
 70
     1
  9
$DIMTOH
 70
     1
  9
$DIMSE1
 70
     0
  9
$DIMSE2
 70
     0
  9
$DIMTAD
 70
     1
  9
$DIMZIN
 70
     0
  9
$DIMBLK
  1

  9
$DIMASO
 70
     1
  9
$DIMSHO
 70
     1
  9
$DIMPOST
  1

  9
$DIMAPOST
  1

  9
$DIMALT
 70
     0
  9
$DIMALTD
 70
     3
  9
$DIMALTF
 40
0.0393700787401575
  9
$DIMLFAC
 40
1.0
  9
$DIMTOFL
 70
     1
  9
$DIMTVP
 40
0.0
  9
$DIMTIX
 70
     0
  9
$DIMSOXD
 70
     0
  9
$DIMSAH
 70
     0
  9
$DIMBLK1
  1

  9
$DIMBLK2
  1

  9
$DIMSTYLE
  2
ISO-25
  9
$DIMCLRD
 70
     0
  9
$DIMCLRE
 70
     0
  9
$DIMCLRT
 70
     0
  9
$DIMTFAC
 40
1.0
  9
$DIMGAP
 40
1.524
  9
$DIMJUST
 70
     0
  9
$DIMSD1
 70
     0
  9
$DIMSD2
 70
     0
  9
$DIMTOLJ
 70
     0
  9
$DIMTZIN
 70
     0
  9
$DIMALTZ
 70
     0
  9
$DIMALTTZ
 70
     0
  9
$DIMUPT
 70
     0
  9
$DIMDEC
 70
     2
  9
$DIMTDEC
 70
     2
  9
$DIMALTU
 70
     2
  9
$DIMALTTD
 70
     3
  9
$DIMTXSTY
  7
Standard
  9
$DIMAUNIT
 70
     0
  9
$DIMADEC
 70
     2
  9
$DIMALTRND
 40
0.0
  9
$DIMAZIN
 70
     0
  9
$DIMDSEP
 70
    44
  9
$DIMATFIT
 70
     3
  9
$DIMFRAC
 70
     0
  9
$DIMLDRBLK
  1

  9
$DIMLUNIT
 70
     2
  9
$DIMLWD
 70
    -2
  9
$DIMLWE
 70
    -2
  9
$DIMTMOVE
 70
     0
  9
$LUNITS
 70
     2
  9
$LUPREC
 70
     2
  9
$SKETCHINC
 40
1.0
  9
$FILLETRAD
 40
10.0
  9
$AUNITS
 70
     0
  9
$AUPREC
 70
     2
  9
$MENU
  1
.
  9
$ELEVATION
 40
0.0
  9
$PELEVATION
 40
0.0
  9
$THICKNESS
 40
0.0
  9
$LIMCHECK
 70
     0
  9
$CHAMFERA
 40
0.0
  9
$CHAMFERB
 40
0.0
  9
$CHAMFERC
 40
0.0
  9
$CHAMFERD
 40
0.0
  9
$SKPOLY
 70
     0
  9
$TDCREATE
 40
2458262.552242292
  9
$TDUCREATE
 40
2458262.177242292
  9
$TDUPDATE
 40
2459702.653875717
  9
$TDUUPDATE
 40
2459702.278875717
  9
$TDINDWG
 40
0.0041506944
  9
$TDUSRTIMER
 40
0.0025552662
  9
$USRTIMER
 70
     1
  9
$ANGBASE
 50
0.0
  9
$ANGDIR
 70
     0
  9
$PDMODE
 70
     0
  9
$PDSIZE
 40
-1.0
  9
$PLINEWID
 40
0.0
  9
$SPLFRAME
 70
     0
  9
$SPLINETYPE
 70
     6
  9
$SPLINESEGS
 70
     8
  9
$HANDSEED
  5
16F
  9
$SURFTAB1
 70
     6
  9
$SURFTAB2
 70
     6
  9
$SURFTYPE
 70
     6
  9
$SURFU
 70
     6
  9
$SURFV
 70
     6
  9
$UCSBASE
  2

  9
$UCSNAME
  2

  9
$UCSORG
 10
0.0
 20
0.0
 30
0.0
  9
$UCSXDIR
 10
1.0
 20
0.0
 30
0.0
  9
$UCSYDIR
 10
0.0
 20
1.0
 30
0.0
  9
$UCSORTHOREF
  2

  9
$UCSORTHOVIEW
 70
     0
  9
$UCSORGTOP
 10
0.0
 20
0.0
 30
0.0
  9
$UCSORGBOTTOM
 10
0.0
 20
0.0
 30
0.0
  9
$UCSORGLEFT
 10
0.0
 20
0.0
 30
0.0
  9
$UCSORGRIGHT
 10
0.0
 20
0.0
 30
0.0
  9
$UCSORGFRONT
 10
0.0
 20
0.0
 30
0.0
  9
$UCSORGBACK
 10
0.0
 20
0.0
 30
0.0
  9
$PUCSBASE
  2

  9
$PUCSNAME
  2

  9
$PUCSORG
 10
0.0
 20
0.0
 30
0.0
  9
$PUCSXDIR
 10
1.0
 20
0.0
 30
0.0
  9
$PUCSYDIR
 10
0.0
 20
1.0
 30
0.0
  9
$PUCSORTHOREF
  2

  9
$PUCSORTHOVIEW
 70
     0
  9
$PUCSORGTOP
 10
0.0
 20
0.0
 30
0.0
  9
$PUCSORGBOTTOM
 10
0.0
 20
0.0
 30
0.0
  9
$PUCSORGLEFT
 10
0.0
 20
0.0
 30
0.0
  9
$PUCSORGRIGHT
 10
0.0
 20
0.0
 30
0.0
  9
$PUCSORGFRONT
 10
0.0
 20
0.0
 30
0.0
  9
$PUCSORGBACK
 10
0.0
 20
0.0
 30
0.0
  9
$USERI1
 70
     0
  9
$USERI2
 70
     0
  9
$USERI3
 70
     0
  9
$USERI4
 70
     0
  9
$USERI5
 70
     0
  9
$USERR1
 40
0.0
  9
$USERR2
 40
0.0
  9
$USERR3
 40
0.0
  9
$USERR4
 40
0.0
  9
$USERR5
 40
0.0
  9
$WORLDVIEW
 70
     1
  9
$SHADEDGE
 70
     3
  9
$SHADEDIF
 70
    70
  9
$TILEMODE
 70
     1
  9
$MAXACTVP
 70
    64
  9
$PINSBASE
 10
0.0
 20
0.0
 30
0.0
  9
$PLIMCHECK
 70
     0
  9
$PEXTMIN
 10
1.000000000000000E+20
 20
1.000000000000000E+20
 30
1.000000000000000E+20
  9
$PEXTMAX
 10
-1.000000000000000E+20
 20
-1.000000000000000E+20
 30
-1.000000000000000E+20
  9
$PLIMMIN
 10
0.0
 20
0.0
  9
$PLIMMAX
 10
0.0
 20
0.0
  9
$UNITMODE
 70
     0
  9
$VISRETAIN
 70
     1
  9
$PLINEGEN
 70
     0
  9
$PSLTSCALE
 70
     1
  9
$TREEDEPTH
 70
  3020
  9
$CMLSTYLE
  2
Standard
  9
$CMLJUST
 70
     0
  9
$CMLSCALE
 40
20.0
  9
$PROXYGRAPHICS
 70
     1
  9
$MEASUREMENT
 70
     1
  9
$CELWEIGHT
370
    -1
  9
$ENDCAPS
280
     0
  9
$JOINSTYLE
280
     0
  9
$LWDISPLAY
290
     1
  9
$INSUNITS
 70
     4
  9
$HYPERLINKBASE
  1

  9
$STYLESHEET
  1

  9
$XEDIT
290
     1
  9
$CEPSNTYPE
380
     0
  9
$PSTYLEMODE
290
     1
  9
$FINGERPRINTGUID
  2
{9AB091CA-A925-41B2-B661-4D4C5FF6894E}
  9
$VERSIONGUID
  2
{FAEB1C32-E019-11D5-929B-00C0DF256EC4}
  9
$EXTNAMES
290
     1
  9
$PSVPSCALE
 40
0.0
  9
$OLESTARTUP
290
     0
  0
ENDSEC
  0
SECTION
  2
CLASSES
  0
CLASS
  1
ACDBDICTIONARYWDFLT
  2
AcDbDictionaryWithDefault
  3
ObjectDBX Classes
 90
        0
280
     0
281
     0
  0
CLASS
  1
VISUALSTYLE
  2
AcDbVisualStyle
  3
ObjectDBX Classes
 90
     4095
280
     0
281
     0
  0
CLASS
  1
MATERIAL
  2
AcDbMaterial
  3
ObjectDBX Classes
 90
     1153
280
     0
281
     0
  0
CLASS
  1
SCALE
  2
AcDbScale
  3
ObjectDBX Classes
 90
     1153
280
     0
281
     0
  0
CLASS
  1
SUN
  2
AcDbSun
  3
SCENEOE
 90
     1153
280
     0
281
     0
  0
CLASS
  1
ACDBPLACEHOLDER
  2
AcDbPlaceHolder
  3
ObjectDBX Classes
 90
        0
280
     0
281
     0
  0
CLASS
  1
LAYOUT
  2
AcDbLayout
  3
ObjectDBX Classes
 90
        0
280
     0
281
     0
  0
CLASS
  1
TABLESTYLE
  2
AcDbTableStyle
  3
ObjectDBX Classes
 90
     4095
280
     0
281
     0
  0
CLASS
  1
MLEADERSTYLE
  2
AcDbMLeaderStyle
  3
ACDB_MLEADERSTYLE_CLASS
 90
     4095
280
     0
281
     0
  0
CLASS
  1
RASTERVARIABLES
  2
AcDbRasterVariables
  3
ISM
 90
        0
280
     0
281
     0
  0
CLASS
  1
SORTENTSTABLE
  2
AcDbSortentsTable
  3
ObjectDBX Classes
 90
        0
280
     0
281
     0
  0
ENDSEC
  0
SECTION
  2
TABLES
  0
TABLE
  2
VPORT
  5
8
330
0
100
AcDbSymbolTable
 70
     1
  0
VPORT
  5
29
330
8
100
AcDbSymbolTableRecord
100
AcDbViewportTableRecord
  2
*Active
 70
     0
 10
0.0
 20
0.0
 11
1.0
 21
1.0
 12
-2.167190705625202
 22
-7.403661009922587
 13
0.0
 23
0.0
 14
10.0
 24
10.0
 15
10.0
 25
10.0
 16
0.0
 26
0.0
 36
1.0
 17
0.0
 27
0.0
 37
0.0
 40
86.83682575833714
 41
2.085714285714286
 42
50.0
 43
0.0
 44
0.0
 50
0.0
 51
0.0
 71
    16
 72
  2000
 73
     1
 74
     3
 75
     0
 76
     0
 77
     0
 78
     0
281
     0
 65
     1
110
0.0
120
0.0
130
0.0
111
1.0
121
0.0
131
0.0
112
0.0
122
1.0
132
0.0
 79
     0
146
0.0
  0
ENDTAB
  0
TABLE
  2
LTYPE
  5
5
330
0
100
AcDbSymbolTable
 70
     6
  0
LTYPE
  5
14
330
5
100
AcDbSymbolTableRecord
100
AcDbLinetypeTableRecord
  2
ByBlock
 70
     0
  3

 72
    65
 73
     0
 40
0.0
  0
LTYPE
  5
15
330
5
100
AcDbSymbolTableRecord
100
AcDbLinetypeTableRecord
  2
ByLayer
 70
     0
  3

 72
    65
 73
     0
 40
0.0
  0
LTYPE
  5
16
330
5
100
AcDbSymbolTableRecord
100
AcDbLinetypeTableRecord
  2
Continuous
 70
     0
  3
Solid line
 72
    65
 73
     0
 40
0.0
  0
LTYPE
  5
6A
330
5
100
AcDbSymbolTableRecord
100
AcDbLinetypeTableRecord
  2
HIDDEN
 70
     0
  3
Hidden __ __ __ __ __ __ __ __ __ __ __ __ __ __
 72
    65
 73
     2
 40
1.905
 49
1.27
 74
     0
 49
-0.635
 74
     0
  0
LTYPE
  5
6B
330
5
100
AcDbSymbolTableRecord
100
AcDbLinetypeTableRecord
  2
PHANTOM
 70
     0
  3
Phantom ______  __  __  ______  __  __  ______
 72
    65
 73
     6
 40
12.7
 49
6.35
 74
     0
 49
-1.27
 74
     0
 49
1.27
 74
     0
 49
-1.27
 74
     0
 49
1.27
 74
     0
 49
-1.27
 74
     0
  0
LTYPE
  5
6C
330
5
100
AcDbSymbolTableRecord
100
AcDbLinetypeTableRecord
  2
CENTER
 70
     0
  3
Center ____ _ ____ _ ____ _ ____ _ ____ _ ____
 72
    65
 73
     4
 40
10.16
 49
6.35
 74
     0
 49
-1.27
 74
     0
 49
1.27
 74
     0
 49
-1.27
 74
     0
  0
LTYPE
  5
6D
330
5
100
AcDbSymbolTableRecord
100
AcDbLinetypeTableRecord
  2
CENTERX2
 70
     0
  3
Center (2x) ________  __  ________  __  _____
 72
    65
 73
     4
 40
20.32
 49
12.7
 74
     0
 49
-2.54
 74
     0
 49
2.54
 74
     0
 49
-2.54
 74
     0
  0
LTYPE
  5
6E
330
5
100
AcDbSymbolTableRecord
100
AcDbLinetypeTableRecord
  2
DOT2
 70
     0
  3
Dot (.5x) ........................................
 72
    65
 73
     2
 40
0.635
 49
0.0
 74
     0
 49
-0.635
 74
     0
  0
ENDTAB
  0
TABLE
  2
LAYER
  5
2
330
0
100
AcDbSymbolTable
 70
    17
  0
LAYER
  5
10
330
2
100
AcDbSymbolTableRecord
100
AcDbLayerTableRecord
  2
0
 70
     0
 62
     7
  6
Continuous
370
    -3
390
F
  0
LAYER
  5
6F
330
2
100
AcDbSymbolTableRecord
100
AcDbLayerTableRecord
  2
FORMAT
 70
     0
 62
     2
  6
Continuous
370
    -3
390
F
  0
LAYER
  5
70
330
2
100
AcDbSymbolTableRecord
100
AcDbLayerTableRecord
  2
외형선
 70
     0
 62
   100
  6
Continuous
370
    30
390
F
  0
LAYER
  5
71
330
2
100
AcDbSymbolTableRecord
100
AcDbLayerTableRecord
  2
숨은선
 70
     0
 62
     2
  6
HIDDEN
370
    15
390
F
  0
LAYER
  5
72
330
2
100
AcDbSymbolTableRecord
100
AcDbLayerTableRecord
  2
중심선
 70
     0
 62
     1
  6
CENTERX2
370
    -3
390
F
  0
LAYER
  5
73
330
2
100
AcDbSymbolTableRecord
100
AcDbLayerTableRecord
  2
파단선
 70
     0
 62
     4
  6
Continuous
370
    -3
390
F
  0
LAYER
  5
74
330
2
100
AcDbSymbolTableRecord
100
AcDbLayerTableRecord
  2
해칭선
 70
     0
 62
     4
  6
Continuous
370
    -3
390
F
  0
LAYER
  5
75
330
2
100
AcDbSymbolTableRecord
100
AcDbLayerTableRecord
  2
가는실선
 70
     0
 62
     4
  6
Continuous
370
    -3
390
F
  0
LAYER
  5
76
330
2
100
AcDbSymbolTableRecord
100
AcDbLayerTableRecord
  2
치수_보조선
 70
     0
 62
     4
  6
Continuous
370
    -3
390
F
  0
LAYER
  5
77
330
2
100
AcDbSymbolTableRecord
100
AcDbLayerTableRecord
  2
치수문자_일반주서
 70
     0
 62
     7
  6
Continuous
370
    15
390
F
  0
LAYER
  5
78
330
2
100
AcDbSymbolTableRecord
100
AcDbLayerTableRecord
  2
개별주서
 70
     0
 62
   100
  6
Continuous
370
    30
390
F
  0
LAYER
  5
79
330
2
100
AcDbSymbolTableRecord
100
AcDbLayerTableRecord
  2
중간선
 70
     0
 62
     2
  6
Continuous
370
    15
390
F
  0
LAYER
  5
7A
330
2
100
AcDbSymbolTableRecord
100
AcDbLayerTableRecord
  2
윤곽선
 70
     0
 62
     3
  6
Continuous
370
    40
390
F
  0
LAYER
  5
7B
330
2
100
AcDbSymbolTableRecord
100
AcDbLayerTableRecord
  2
중심마크
 70
     0
 62
   100
  6
Continuous
370
    30
390
F
  0
LAYER
  5
7C
330
2
100
AcDbSymbolTableRecord
100
AcDbLayerTableRecord
  2
가상선
 70
     0
 62
     4
  6
PHANTOM
370
    -3
390
F
  0
LAYER
  5
7D
330
2
100
AcDbSymbolTableRecord
100
AcDbLayerTableRecord
  2
특수지정선
 70
     0
 62
     5
  6
CENTERX2
370
    60
390
F
  0
LAYER
  5
136
330
2
100
AcDbSymbolTableRecord
100
AcDbLayerTableRecord
  2
Defpoints
 70
     0
 62
     7
  6
Continuous
290
     0
370
    -3
390
F
  0
ENDTAB
  0
TABLE
  2
STYLE
  5
3
330
0
100
AcDbSymbolTable
 70
     2
  0
STYLE
  5
11
330
3
100
AcDbSymbolTableRecord
100
AcDbTextStyleTableRecord
  2
Standard
 70
     0
 40
0.0
 41
1.0
 50
0.0
 71
     0
 42
3.5
  3
txt
  4

  0
STYLE
  5
93
330
3
100
AcDbSymbolTableRecord
100
AcDbTextStyleTableRecord
  2
SLDTEXTSTYLE0
 70
     0
 40
0.0
 41
0.75
 50
0.0
 71
     0
 42
3.5
  3
TXT
  4

  0
ENDTAB
  0
TABLE
  2
VIEW
  5
6
330
0
100
AcDbSymbolTable
 70
     0
  0
ENDTAB
  0
TABLE
  2
UCS
  5
7
330
0
100
AcDbSymbolTable
 70
     0
  0
ENDTAB
  0
TABLE
  2
APPID
  5
9
330
0
100
AcDbSymbolTable
 70
     2
  0
APPID
  5
12
330
9
100
AcDbSymbolTableRecord
100
AcDbRegAppTableRecord
  2
ACAD
 70
     0
  0
APPID
  5
16B
330
9
100
AcDbSymbolTableRecord
100
AcDbRegAppTableRecord
  2
PE_URL
 70
     0
  0
ENDTAB
  0
TABLE
  2
DIMSTYLE
  5
A
330
0
100
AcDbSymbolTable
 70
     3
100
AcDbDimStyleTable
  0
DIMSTYLE
105
27
330
A
100
AcDbSymbolTableRecord
100
AcDbDimStyleTableRecord
  2
ISO-25
 70
     0
 41
2.5
 42
0.625
 43
3.75
 44
1.25
 73
     0
 74
     0
 77
     1
 78
     8
140
2.5
141
2.5
143
0.03937007874016
147
0.625
171
     3
172
     1
178
     0
271
     2
272
     2
274
     3
278
    44
283
     0
284
     8
340
11
  0
DIMSTYLE
105
DC
102
{ACAD_REACTORS
330
DB
330
FE
102
}
330
A
100
AcDbSymbolTableRecord
100
AcDbDimStyleTableRecord
  2
SLDDIMSTYLE0
 70
     0
 41
3.302
 44
0.0
 45
0.000000001
 73
     0
 74
     0
 77
     1
 78
    12
 79
     3
140
3.5
147
0.875
172
     1
173
     1
178
     0
271
     2
272
     2
276
     2
284
    12
289
     0
340
93
  0
DIMSTYLE
105
EA
102
{ACAD_REACTORS
330
E9
330
F4
102
}
330
A
100
AcDbSymbolTableRecord
100
AcDbDimStyleTableRecord
  2
SLDDIMSTYLE1
 70
     0
 41
3.302
 44
0.0
 45
0.000000001
 73
     0
 74
     0
 77
     1
 78
    12
 79
     3
140
3.5
147
0.875
173
     1
178
     0
271
     2
272
     2
276
     2
284
    12
340
93
  0
ENDTAB
  0
TABLE
  2
BLOCK_RECORD
  5
1
330
0
100
AcDbSymbolTable
 70
     7
  0
BLOCK_RECORD
  5
1F
102
{ACAD_XDICTIONARY
360
169
102
}
330
1
100
AcDbSymbolTableRecord
100
AcDbBlockTableRecord
  2
*Model_Space
340
22
  0
BLOCK_RECORD
  5
1B
330
1
100
AcDbSymbolTableRecord
100
AcDbBlockTableRecord
  2
*Paper_Space
340
1E
  0
BLOCK_RECORD
  5
23
330
1
100
AcDbSymbolTableRecord
100
AcDbBlockTableRecord
  2
*Paper_Space0
340
26
  0
BLOCK_RECORD
  5
7E
330
1
100
AcDbSymbolTableRecord
100
AcDbBlockTableRecord
  2
블럭10
340
0
102
{BLKREFS
331
D4
102
}
  0
BLOCK_RECORD
  5
DD
330
1
100
AcDbSymbolTableRecord
100
AcDbBlockTableRecord
  2
_D
340
0
  0
BLOCK_RECORD
  5
EB
330
1
100
AcDbSymbolTableRecord
100
AcDbBlockTableRecord
  2
_D_1
340
0
  0
BLOCK_RECORD
  5
F5
330
1
100
AcDbSymbolTableRecord
100
AcDbBlockTableRecord
  2
_D_2
340
0
  0
BLOCK_RECORD
  5
FF
330
1
100
AcDbSymbolTableRecord
100
AcDbBlockTableRecord
  2
_D_3
340
0
  0
BLOCK_RECORD
  5
10B
330
1
100
AcDbSymbolTableRecord
100
AcDbBlockTableRecord
  2
SW_DOWELSYMBOL_0
340
0
102
{BLKREFS
331
111
102
}
  0
ENDTAB
  0
ENDSEC
  0
SECTION
  2
BLOCKS
  0
BLOCK
  5
20
330
1F
100
AcDbEntity
  8
0
100
AcDbBlockBegin
  2
*Model_Space
 70
     0
 10
0.0
 20
0.0
 30
0.0
  3
*Model_Space
  1

  0
ENDBLK
  5
21
330
1F
100
AcDbEntity
  8
0
100
AcDbBlockEnd
  0
BLOCK
  5
1C
330
1B
100
AcDbEntity
 67
     1
  8
0
100
AcDbBlockBegin
  2
*Paper_Space
 70
     0
 10
0.0
 20
0.0
 30
0.0
  3
*Paper_Space
  1

  0
ENDBLK
  5
1D
330
1B
100
AcDbEntity
 67
     1
  8
0
100
AcDbBlockEnd
  0
BLOCK
  5
24
330
23
100
AcDbEntity
  8
0
100
AcDbBlockBegin
  2
*Paper_Space0
 70
     0
 10
0.0
 20
0.0
 30
0.0
  3
*Paper_Space0
  1

  0
ENDBLK
  5
25
330
23
100
AcDbEntity
  8
0
100
AcDbBlockEnd
  0
BLOCK
  5
7F
330
7E
100
AcDbEntity
  8
0
100
AcDbBlockBegin
  2
블럭10
 70
     2
 10
0.0
 20
0.0
 30
0.0
  3
블럭10
  1

  0
ELLIPSE
  5
81
330
7E
100
AcDbEntity
  8
중심선
100
AcDbEllipse
 10
20.54032771741204
 20
12.0471743016438
 30
0.0
 11
6.600054785286829
 21
-1.261213355974178E-13
 31
0.0
210
0.0
220
0.0
230
1.0
 40
0.636358354079598
 41
0.9219305317359503
 42
6.513795318482858
  0
ELLIPSE
  5
82
330
7E
100
AcDbEntity
  8
중심선
100
AcDbEllipse
 10
20.54032771746488
 20
12.04717430159265
 30
0.0
 11
3.960054785062283
 21
1.540847449632565E-10
 31
0.0
210
0.0
220
0.0
230
1.0
 40
0.3939339440162632
 41
1.131841032648279
 42
5.62031148352944
  0
LINE
  5
83
330
7E
100
AcDbEntity
  8
중심선
100
AcDbLine
 10
2.268634060543552
 20
16.24717430164393
 30
0.0
 11
5.714909304380834
 21
16.24717430164393
 31
0.0
  0
LINE
  5
84
330
7E
100
AcDbEntity
  8
중심선
100
AcDbLine
 10
5.245725140726316
 20
7.84717430164391
 30
0.0
 11
8.692000384563599
 21
7.84717430164391
 31
0.0
  0
LINE
  5
85
330
7E
100
AcDbEntity
  8
중심선
100
AcDbLine
 10
15.74043728645272
 20
16.24717430164393
 30
0.0
 11
8.692000384563599
 21
7.84717430164391
 31
0.0
  0
LINE
  5
86
330
7E
100
AcDbEntity
  8
중심선
100
AcDbLine
 10
0.1404042013395286
 20
13.71084872107135
 30
0.0
 11
3.58671253028996
 21
13.71088815037384
 31
0.0
  0
LINE
  5
87
330
7E
100
AcDbEntity
  8
중심선
100
AcDbLine
 10
2.750260043222114
 20
10.84717430164391
 30
0.0
 11
6.196535287059397
 21
10.84717430164391
 31
0.0
  0
LINE
  5
88
330
7E
100
AcDbEntity
  8
중심선
100
AcDbLine
 10
12.29416204261559
 20
16.24717430164393
 30
0.0
 11
5.245725140726316
 21
7.84717430164391
 31
0.0
  0
LINE
  5
89
330
7E
100
AcDbEntity
  8
중심선
100
AcDbLine
 10
10.72767329541681
 20
16.24717430164393
 30
0.0
 11
6.196535287059397
 21
10.84717430164391
 31
0.0
  0
LINE
  5
8A
330
7E
100
AcDbEntity
  8
중심선
100
AcDbLine
 10
7.28139805157953
 20
16.24717430164393
 30
0.0
 11
2.750260043222114
 21
10.84717430164391
 31
0.0
  0
LINE
  5
8B
330
7E
100
AcDbEntity
  8
중심선
100
AcDbLine
 10
5.714909304380834
 20
16.24717430164393
 30
0.0
 11
3.58671253028996
 21
13.71088815037384
 31
0.0
  0
LINE
  5
8C
330
7E
100
AcDbEntity
  8
중심선
100
AcDbLine
 10
2.268634060543552
 20
16.24717430164393
 30
0.0
 11
0.1404042013395286
 21
13.71084872107135
 31
0.0
  0
LINE
  5
8D
330
7E
100
AcDbEntity
  8
중심선
100
AcDbLine
 10
7.28139805157953
 20
16.24717430164393
 30
0.0
 11
10.72767329541681
 21
16.24717430164393
 31
0.0
  0
LINE
  5
8E
330
7E
100
AcDbEntity
  8
중심선
100
AcDbLine
 10
12.29416204261559
 20
16.24717430164393
 30
0.0
 11
15.74043728645272
 21
16.24717430164393
 31
0.0
  0
LINE
  5
8F
330
7E
100
AcDbEntity
  8
중심선
100
AcDbLine
 10
19.22036997980202
 20
11.08717430171403
 30
0.0
 11
23.66174974927406
 21
11.08717430171406
 31
0.0
  0
LINE
  5
90
330
7E
100
AcDbEntity
  8
중심선
100
AcDbLine
 10
19.22039502424796
 20
13.00717430171391
 30
0.0
 11
19.22036997980202
 21
11.08717430171403
 31
0.0
  0
LINE
  5
91
330
7E
100
AcDbEntity
  8
중심선
100
AcDbLine
 10
19.22039502424796
 20
13.00717430171391
 30
0.0
 11
26.96566020931264
 21
13.00717430171391
 31
0.0
  0
LINE
  5
92
330
7E
100
AcDbEntity
  8
중심선
100
AcDbLine
 10
22.22332737316547
 20
13.45928029700563
 30
0.0
 11
24.52862924686651
 21
15.39360700705356
 31
0.0
  0
ATTDEF
  5
94
330
7E
100
AcDbEntity
  8
FORMAT
 62
     2
100
AcDbText
 10
-16.11926103943555
 20
2.075366912832191
 30
0.0
 40
4.233333333333333
  1
SEME7018050E [ 2 FLUTE ]
 41
0.75
  7
SLDTEXTSTYLE0
 11
-16.11926103943555
 21
-0.0412997538344756
 31
0.0
100
AcDbAttributeDefinition
  3

  2
AUTOATTR0
 70
     0
 74
     1
  0
ENDBLK
  5
80
330
7E
100
AcDbEntity
  8
0
100
AcDbBlockEnd
  0
BLOCK
  5
DE
330
DD
100
AcDbEntity
  8
0
100
AcDbBlockBegin
  2
_D
 70
     0
 10
0.0
 20
0.0
 30
0.0
  3
_D
  1

  0
LINE
  5
E0
330
DD
100
AcDbEntity
  8
치수문자_일반주서
 62
     0
370
    -2
100
AcDbLine
 10
56.7945508075689
 20
-8.99999999999982
 30
0.0
 11
74.13430234065
 21
-8.999999999999758
 31
0.0
  0
LINE
  5
E1
330
DD
100
AcDbEntity
  8
치수문자_일반주서
 62
     0
370
    -2
100
AcDbLine
 10
56.79455080756859
 20
9.000000000000178
 30
0.0
 11
74.13430234064994
 21
9.000000000000242
 31
0.0
  0
LINE
  5
E2
330
DD
100
AcDbEntity
  8
치수문자_일반주서
 62
     0
370
    -2
100
AcDbLine
 10
74.13430234065
 20
-8.999999999999758
 30
0.0
 11
74.1343023406499
 21
23.47900000000024
 31
0.0
  0
LINE
  5
E3
330
DD
100
AcDbEntity
  8
치수문자_일반주서
 62
     0
370
    -2
100
AcDbLine
 10
74.13430234065
 20
-8.999999999999758
 30
0.0
 11
74.13430234064994
 21
9.000000000000242
 31
0.0
  0
LINE
  5
E4
330
DD
100
AcDbEntity
  8
치수문자_일반주서
 62
     0
370
    -2
100
AcDbLine
 10
74.13430234065001
 20
-12.30199999999976
 30
0.0
 11
74.13430234065002
 21
-15.60399999999976
 31
0.0
  0
LINE
  5
E5
330
DD
100
AcDbEntity
  8
치수문자_일반주서
 62
     0
370
    -2
100
AcDbLine
 10
74.13430234064992
 20
12.30200000000024
 30
0.0
 11
74.13430234064991
 21
15.60400000000024
 31
0.0
  0
SOLID
  5
E6
330
DD
100
AcDbEntity
  8
치수문자_일반주서
 62
     0
100
AcDbTrace
 10
74.68463567398334
 20
-12.30199999999976
 30
0.0
 11
73.58396900731668
 21
-12.30199999999976
 31
0.0
 12
74.13430234065
 22
-8.999999999999758
 32
0.0
 13
74.13430234065
 23
-8.999999999999758
 33
0.0
  0
SOLID
  5
E7
330
DD
100
AcDbEntity
  8
치수문자_일반주서
 62
     0
100
AcDbTrace
 10
73.5839690073166
 20
12.30200000000024
 30
0.0
 11
74.68463567398325
 21
12.30200000000024
 31
0.0
 12
74.13430234064994
 22
9.000000000000242
 32
0.0
 13
74.13430234064994
 23
9.000000000000242
 33
0.0
  0
MTEXT
  5
E8
330
DD
100
AcDbEntity
  8
치수문자_일반주서
 62
     0
100
AcDbMText
 10
69.75930234064991
 20
19.54150000000023
 30
0.0
 40
3.5
 41
0.0
 71
     2
 72
     1
  1
\A1;%%c18
  7
SLDTEXTSTYLE0
 11
-3.157967714489334E-15
 21
1.0
 31
0.0
 73
     1
 44
1.0
  0
POINT
  5
140
330
DD
100
AcDbEntity
  8
Defpoints
 62
     0
100
AcDbPoint
 10
56.7320508075689
 20
-8.99999999999982
 30
0.0
  0
POINT
  5
141
330
DD
100
AcDbEntity
  8
Defpoints
 62
     0
100
AcDbPoint
 10
56.73205080756859
 20
9.000000000000178
 30
0.0
  0
POINT
  5
142
330
DD
100
AcDbEntity
  8
Defpoints
 62
     0
100
AcDbPoint
 10
74.13430234064994
 20
9.000000000000243
 30
0.0
  0
ENDBLK
  5
DF
330
DD
100
AcDbEntity
  8
0
100
AcDbBlockEnd
  0
BLOCK
  5
EC
330
EB
100
AcDbEntity
  8
0
100
AcDbBlockBegin
  2
_D_1
 70
     0
 10
0.0
 20
0.0
 30
0.0
  3
_D_1
  1

  0
LINE
  5
EE
330
EB
100
AcDbEntity
  8
치수문자_일반주서
 62
     0
370
    -2
100
AcDbLine
 10
-63.26794919243112
 20
9.062499999999984
 30
0.0
 11
-63.26794919243113
 21
30.78841044024268
 31
0.0
  0
LINE
  5
EF
330
EB
100
AcDbEntity
  8
치수문자_일반주서
 62
     0
370
    -2
100
AcDbLine
 10
56.73205080756859
 20
9.062500000000178
 30
0.0
 11
56.73205080756858
 21
30.78841044024268
 31
0.0
  0
LINE
  5
F0
330
EB
100
AcDbEntity
  8
치수문자_일반주서
 62
     0
370
    -2
100
AcDbLine
 10
-59.96594919243113
 20
30.78841044024268
 30
0.0
 11
53.43005080756858
 21
30.78841044024268
 31
0.0
  0
SOLID
  5
F1
330
EB
100
AcDbEntity
  8
치수문자_일반주서
 62
     0
100
AcDbTrace
 10
-59.96594919243113
 20
31.33874377357601
 30
0.0
 11
-59.96594919243113
 21
30.23807710690934
 31
0.0
 12
-63.26794919243113
 22
30.78841044024268
 32
0.0
 13
-63.26794919243113
 23
30.78841044024268
 33
0.0
  0
SOLID
  5
F2
330
EB
100
AcDbEntity
  8
치수문자_일반주서
 62
     0
100
AcDbTrace
 10
53.43005080756858
 20
30.23807710690934
 30
0.0
 11
53.43005080756858
 21
31.33874377357601
 31
0.0
 12
56.73205080756858
 22
30.78841044024268
 32
0.0
 13
56.73205080756858
 23
30.78841044024268
 33
0.0
  0
MTEXT
  5
F3
330
EB
100
AcDbEntity
  8
치수문자_일반주서
 62
     0
100
AcDbMText
 10
-3.26794919243126
 20
35.16341044024268
 30
0.0
 40
3.5
 41
0.0
 71
     2
 72
     1
  1
\A1;120
  7
SLDTEXTSTYLE0
 73
     1
 44
1.0
  0
POINT
  5
137
330
EB
100
AcDbEntity
  8
Defpoints
 62
     0
100
AcDbPoint
 10
-63.26794919243112
 20
8.999999999999984
 30
0.0
  0
POINT
  5
138
330
EB
100
AcDbEntity
  8
Defpoints
 62
     0
100
AcDbPoint
 10
56.73205080756859
 20
9.000000000000178
 30
0.0
  0
POINT
  5
139
330
EB
100
AcDbEntity
  8
Defpoints
 62
     0
100
AcDbPoint
 10
56.73205080756859
 20
30.78841044024268
 30
0.0
  0
ENDBLK
  5
ED
330
EB
100
AcDbEntity
  8
0
100
AcDbBlockEnd
  0
BLOCK
  5
F6
330
F5
100
AcDbEntity
  8
0
100
AcDbBlockBegin
  2
_D_2
 70
     0
 10
0.0
 20
0.0
 30
0.0
  3
_D_2
  1

  0
LINE
  5
F8
330
F5
100
AcDbEntity
  8
치수문자_일반주서
 62
     0
370
    -2
100
AcDbLine
 10
6.732050807568875
 20
6.348807072743649
 30
0.0
 11
6.732050807568875
 21
19.63330487891115
 31
0.0
  0
LINE
  5
F9
330
F5
100
AcDbEntity
  8
치수문자_일반주서
 62
     0
370
    -2
100
AcDbLine
 10
56.73205080756859
 20
9.062500000000178
 30
0.0
 11
56.73205080756859
 21
19.63330487891115
 31
0.0
  0
LINE
  5
FA
330
F5
100
AcDbEntity
  8
치수문자_일반주서
 62
     0
370
    -2
100
AcDbLine
 10
10.03405080756887
 20
19.63330487891115
 30
0.0
 11
53.43005080756859
 21
19.63330487891115
 31
0.0
  0
SOLID
  5
FB
330
F5
100
AcDbEntity
  8
치수문자_일반주서
 62
     0
100
AcDbTrace
 10
10.03405080756887
 20
20.18363821224449
 30
0.0
 11
10.03405080756887
 21
19.08297154557782
 31
0.0
 12
6.732050807568875
 22
19.63330487891115
 32
0.0
 13
6.732050807568875
 23
19.63330487891115
 33
0.0
  0
SOLID
  5
FC
330
F5
100
AcDbEntity
  8
치수문자_일반주서
 62
     0
100
AcDbTrace
 10
53.43005080756859
 20
19.08297154557782
 30
0.0
 11
53.43005080756859
 21
20.18363821224449
 31
0.0
 12
56.73205080756859
 22
19.63330487891115
 32
0.0
 13
56.73205080756859
 23
19.63330487891115
 33
0.0
  0
MTEXT
  5
FD
330
F5
100
AcDbEntity
  8
치수문자_일반주서
 62
     0
100
AcDbMText
 10
31.73205080756889
 20
24.00830487891115
 30
0.0
 40
3.5
 41
0.0
 71
     2
 72
     1
  1
\A1;50
  7
SLDTEXTSTYLE0
 73
     1
 44
1.0
  0
POINT
  5
13A
330
F5
100
AcDbEntity
  8
Defpoints
 62
     0
100
AcDbPoint
 10
6.732050807568875
 20
6.286307072743649
 30
0.0
  0
POINT
  5
13B
330
F5
100
AcDbEntity
  8
Defpoints
 62
     0
100
AcDbPoint
 10
56.73205080756859
 20
9.000000000000178
 30
0.0
  0
POINT
  5
13C
330
F5
100
AcDbEntity
  8
Defpoints
 62
     0
100
AcDbPoint
 10
56.73205080756859
 20
19.63330487891115
 30
0.0
  0
ENDBLK
  5
F7
330
F5
100
AcDbEntity
  8
0
100
AcDbBlockEnd
  0
BLOCK
  5
100
330
FF
100
AcDbEntity
  8
0
100
AcDbBlockBegin
  2
_D_3
 70
     0
 10
0.0
 20
0.0
 30
0.0
  3
_D_3
  1

  0
LINE
  5
102
330
FF
100
AcDbEntity
  8
치수문자_일반주서
 62
     0
370
    -2
100
AcDbLine
 10
-62.33044919243112
 20
9.999999999999988
 30
0.0
 11
-74.64401708523368
 21
9.999999999999941
 31
0.0
  0
LINE
  5
103
330
FF
100
AcDbEntity
  8
치수문자_일반주서
 62
     0
370
    -2
100
AcDbLine
 10
-62.33044919243112
 20
-10.00000000000001
 30
0.0
 11
-74.64401708523361
 21
-10.00000000000005
 31
0.0
  0
LINE
  5
104
330
FF
100
AcDbEntity
  8
치수문자_일반주서
 62
     0
370
    -2
100
AcDbLine
 10
-74.64401708523368
 20
9.999999999999941
 30
0.0
 11
-74.64401708523374
 21
24.91649999999994
 31
0.0
  0
LINE
  5
105
330
FF
100
AcDbEntity
  8
치수문자_일반주서
 62
     0
370
    -2
100
AcDbLine
 10
-74.64401708523368
 20
9.999999999999941
 30
0.0
 11
-74.64401708523361
 21
-10.00000000000005
 31
0.0
  0
LINE
  5
106
330
FF
100
AcDbEntity
  8
치수문자_일반주서
 62
     0
370
    -2
100
AcDbLine
 10
-74.6440170852337
 20
13.30199999999994
 30
0.0
 11
-74.64401708523371
 21
16.60399999999994
 31
0.0
  0
LINE
  5
107
330
FF
100
AcDbEntity
  8
치수문자_일반주서
 62
     0
370
    -2
100
AcDbLine
 10
-74.6440170852336
 20
-13.30200000000005
 30
0.0
 11
-74.64401708523359
 21
-16.60400000000005
 31
0.0
  0
SOLID
  5
108
330
FF
100
AcDbEntity
  8
치수문자_일반주서
 62
     0
100
AcDbTrace
 10
-75.19435041856703
 20
13.30199999999994
 30
0.0
 11
-74.09368375190037
 21
13.30199999999994
 31
0.0
 12
-74.64401708523368
 22
9.999999999999941
 32
0.0
 13
-74.64401708523368
 23
9.999999999999941
 33
0.0
  0
SOLID
  5
109
330
FF
100
AcDbEntity
  8
치수문자_일반주서
 62
     0
100
AcDbTrace
 10
-74.09368375190027
 20
-13.30200000000005
 30
0.0
 11
-75.19435041856693
 21
-13.30200000000005
 31
0.0
 12
-74.64401708523361
 22
-10.00000000000005
 32
0.0
 13
-74.64401708523361
 23
-10.00000000000005
 33
0.0
  0
MTEXT
  5
10A
330
FF
100
AcDbEntity
  8
치수문자_일반주서
 62
     0
100
AcDbMText
 10
-79.01901708523373
 20
20.76024999999992
 30
0.0
 40
3.5
 41
0.0
 71
     2
 72
     1
  1
\A1;%%c20
  7
SLDTEXTSTYLE0
 11
-3.552713678800503E-15
 21
1.0
 31
0.0
 73
     1
 44
1.0
  0
POINT
  5
13D
330
FF
100
AcDbEntity
  8
Defpoints
 62
     0
100
AcDbPoint
 10
-62.26794919243112
 20
9.999999999999988
 30
0.0
  0
POINT
  5
13E
330
FF
100
AcDbEntity
  8
Defpoints
 62
     0
100
AcDbPoint
 10
-62.26794919243112
 20
-10.00000000000001
 30
0.0
  0
POINT
  5
13F
330
FF
100
AcDbEntity
  8
Defpoints
 62
     0
100
AcDbPoint
 10
-74.64401708523361
 20
-10.00000000000005
 30
0.0
  0
ENDBLK
  5
101
330
FF
100
AcDbEntity
  8
0
100
AcDbBlockEnd
  0
BLOCK
  5
10C
330
10B
100
AcDbEntity
  8
0
100
AcDbBlockBegin
  2
SW_DOWELSYMBOL_0
 70
     0
 10
0.0
 20
0.0
 30
0.0
  3
SW_DOWELSYMBOL_0
  1

  0
CIRCLE
  5
10E
330
10B
100
AcDbEntity
  8
외형선
 62
     0
100
AcDbCircle
 10
0.0
 20
0.0
 30
0.0
 40
3.000000000000004
  0
HATCH
  5
10F
330
10B
100
AcDbEntity
  8
0
  6
Continuous
 62
     0
370
    30
100
AcDbHatch
 10
0.0
 20
0.0
 30
0.0
210
0.0
220
0.0
230
1.0
  2
SOLID
 70
     1
 71
     0
 91
        1
 92
        0
 93
        3
 72
     2
 10
0.0000000000000104
 20
0.0
 40
3.000000000000004
 50
0.0
 51
90.0
 73
     1
 72
     1
 10
0.0000000000000104
 20
3.000000000000004
 11
0.0000000000000104
 21
0.0
 72
     1
 10
0.0000000000000104
 20
0.0
 11
3.000000000000015
 21
0.0
 97
        0
 75
     0
 76
     1
 98
        1
 10
0.0
 20
0.0
  0
HATCH
  5
110
330
10B
100
AcDbEntity
  8
0
  6
Continuous
 62
     0
370
    30
100
AcDbHatch
 10
0.0
 20
0.0
 30
0.0
210
0.0
220
0.0
230
1.0
  2
SOLID
 70
     1
 71
     0
 91
        1
 92
        0
 93
        3
 72
     2
 10
0.0000000000000104
 20
0.0
 40
3.000000000000004
 50
180.0
 51
270.0000000000007
 73
     1
 72
     1
 10
0.0000000000000104
 20
-3.000000000000004
 11
0.0000000000000104
 21
0.0
 72
     1
 10
0.0000000000000104
 20
0.0
 11
-2.999999999999994
 21
0.0
 97
        0
 75
     0
 76
     1
 98
        1
 10
0.0
 20
0.0
  0
ENDBLK
  5
10D
330
10B
100
AcDbEntity
  8
0
100
AcDbBlockEnd
  0
ENDSEC
  0
SECTION
  2
ENTITIES
  0
LINE
  5
95
330
1F
100
AcDbEntity
  8
0
  6
Continuous
 62
     1
370
    15
100
AcDbLine
 10
28.43969084048793
 20
2.532786445535712
 30
0.0
 11
28.3399042479272
 21
2.587636768934127
 31
0.0
  0
LINE
  5
96
330
1F
100
AcDbEntity
  8
0
  6
Continuous
 62
     1
370
    15
100
AcDbLine
 10
12.76184471223634
 20
8.999999999999996
 30
0.0
 11
8.401135770101483
 21
8.999999999999996
 31
0.0
  0
SPLINE
  5
97
330
1F
100
AcDbEntity
  8
0
  6
Continuous
 62
     1
370
    15
100
AcDbSpline
210
0.0
220
0.0
230
1.0
 70
     8
 71
     3
 72
     9
 73
     5
 74
     0
 42
0.000000001
 43
0.00000001
 40
0.0
 40
0.0
 40
0.0
 40
0.0
 40
0.4991672538434541
 40
0.9999999999999999
 40
0.9999999999999999
 40
0.9999999999999999
 40
0.9999999999999999
 10
33.41559473839338
 20
2.306252660425673
 30
0.0
 10
33.00011993369957
 20
2.504207213655767
 30
0.0
 10
32.16778407533793
 20
2.900776803719812
 30
0.0
 10
31.33533336960016
 20
3.336672959471732
 30
0.0
 10
30.91841479660555
 20
3.554984028196047
 30
0.0
  0
SPLINE
  5
98
330
1F
100
AcDbEntity
  8
0
  6
Continuous
 62
     1
370
    15
100
AcDbSpline
210
0.0
220
0.0
230
1.0
 70
     8
 71
     3
 72
    19
 73
    15
 74
     0
 42
0.000000001
 43
0.00000001
 40
0.0
 40
0.0
 40
0.0
 40
0.0
 40
0.1378574146630304
 40
0.2341755406686278
 40
0.2948337677664978
 40
0.3580088291147204
 40
0.4756956438900707
 40
0.5906027711589054
 40
0.6621995112755336
 40
0.7255532531949563
 40
0.781295035326778
 40
0.8410101917869315
 40
0.9234917983993953
 40
1.0
 40
1.0
 40
1.0
 40
1.0
 10
30.44085602540163
 20
7.151755840436699
 30
0.0
 10
30.10717248823821
 20
7.13500236168932
 30
0.0
 10
29.54035116115572
 20
7.106543573648522
 30
0.0
 10
28.82562452238239
 20
7.079802252714199
 30
0.0
 10
28.28619367366818
 20
7.062937053727019
 30
0.0
 10
27.69618935442157
 20
7.047599563172212
 30
0.0
 10
26.97648045623741
 20
7.034507406018503
 30
0.0
 10
26.23684897623695
 20
7.028459817409412
 30
0.0
 10
25.62921142662209
 20
7.028352191688031
 30
0.0
 10
25.16567970641303
 20
7.030979886155086
 30
0.0
 10
24.73197659367095
 20
7.035644822517585
 30
0.0
 10
24.25151521251174
 20
7.043302256834317
 30
0.0
 10
23.71889696976273
 20
7.054406305606684
 30
0.0
 10
23.33166150080198
 20
7.066751294729853
 30
0.0
 10
23.14531817691766
 20
7.072691882539901
 30
0.0
  0
SPLINE
  5
99
330
1F
100
AcDbEntity
  8
0
  6
Continuous
 62
     1
370
    15
100
AcDbSpline
210
0.0
220
0.0
230
1.0
 70
     8
 71
     3
 72
    28
 73
    24
 74
     0
 42
0.000000001
 43
0.00000001
 40
0.0
 40
0.0
 40
0.0
 40
0.0
 40
0.0776234352665398
 40
0.1367896626458426
 40
0.1839129657969384
 40
0.225512741119841
 40
0.2613487119667716
 40
0.2915405099811328
 40
0.3344007733272897
 40
0.3897477989319508
 40
0.4386081082336907
 40
0.4753492342023525
 40
0.5227120363889995
 40
0.584379218916042
 40
0.6581481871520497
 40
0.7188069522060738
 40
0.7649149881670037
 40
0.802601743286076
 40
0.8147520108238622
 40
0.8343967135817286
 40
0.8627189294225129
 40
0.9215912377968732
 40
1.0
 40
1.0
 40
1.0
 40
1.0
 10
16.90299846674471
 20
-7.48924986744569
 30
0.0
 10
17.24727577384999
 20
-7.455667203227416
 30
0.0
 10
17.85396854045896
 20
-7.396487120648073
 30
0.0
 10
18.68886519486633
 20
-7.325789564814909
 30
0.0
 10
19.36498545356284
 20
-7.273279932404339
 30
0.0
 10
19.92918663784452
 20
-7.233065210978872
 30
0.0
 10
20.41476148025772
 20
-7.201343455251089
 30
0.0
 10
20.9066918399802
 20
-7.17164571533658
 30
0.0
 10
21.48768988405095
 20
-7.139790082354391
 30
0.0
 10
22.15370884827207
 20
-7.108185596620218
 30
0.0
 10
22.79126924469668
 20
-7.083162849451442
 30
0.0
 10
23.3882365792698
 20
-7.063825899211949
 30
0.0
 10
24.04573757099616
 20
-7.046830556326003
 30
0.0
 10
24.87151670239203
 20
-7.032607238280487
 30
0.0
 10
25.75680731686435
 20
-7.026948393377031
 30
0.0
 10
26.57224221284453
 20
-7.030513954924018
 30
0.0
 10
27.22531348694584
 20
-7.038945856806233
 30
0.0
 10
27.65001103349205
 20
-7.047241488628929
 30
0.0
 10
27.94988900780539
 20
-7.05382206485831
 30
0.0
 10
28.22117877989077
 20
-7.060753937318278
 30
0.0
 10
28.7037271935656
 20
-7.075141234564679
 30
0.0
 10
29.45729310775845
 20
-7.102468840841
 30
0.0
 10
30.08330578797463
 20
-7.133838757460727
 30
0.0
 10
30.44085602540164
 20
-7.151755840436708
 30
0.0
  0
SPLINE
  5
9A
330
1F
100
AcDbEntity
  8
0
  6
Continuous
 62
     1
370
    15
100
AcDbSpline
210
0.0
220
0.0
230
1.0
 70
     8
 71
     3
 72
    21
 73
    17
 74
     0
 42
0.000000001
 43
0.00000001
 40
0.0
 40
0.0
 40
0.0
 40
0.0
 40
0.1731539531257039
 40
0.2992157765259028
 40
0.3620512451655468
 40
0.4000636831624953
 40
0.4307443764167114
 40
0.4679902515395484
 40
0.5118417118461803
 40
0.562301951341189
 40
0.6422921384926308
 40
0.7078381698050006
 40
0.7598371270342337
 40
0.8284387374806975
 40
0.9232253428887118
 40
0.9999999999999999
 40
0.9999999999999999
 40
0.9999999999999999
 40
0.9999999999999999
 10
37.66489570139645
 20
-6.769224404769094
 30
0.0
 10
38.05540016586481
 20
-6.709525072347009
 30
0.0
 10
38.73020483802787
 20
-6.606362645002458
 30
0.0
 10
39.54244580396428
 20
-6.496143876539738
 30
0.0
 10
40.0501570890287
 20
-6.43152159157015
 30
0.0
 10
40.33977941134263
 20
-6.39617718758198
 30
0.0
 10
40.57136786346285
 20
-6.368619060315905
 30
0.0
 10
40.82032923624404
 20
-6.33980168508349
 30
0.0
 10
41.11466975223716
 20
-6.306922049873148
 30
0.0
 10
41.50682144215835
 20
-6.264956620555552
 30
0.0
 10
41.94851132470561
 20
-6.220553275889117
 30
0.0
 10
42.39259038586017
 20
-6.179086184353134
 30
0.0
 10
42.81005306848822
 20
-6.142673146088867
 30
0.0
 10
43.29289034942964
 20
-6.103774540330766
 30
0.0
 10
43.8314481898046
 20
-6.064474476117988
 30
0.0
 10
44.21600013694027
 20
-6.041273862987029
 30
0.0
 10
44.38808935713645
 20
-6.030891454442441
 30
0.0
  0
SPLINE
  5
9B
330
1F
100
AcDbEntity
  8
0
  6
Continuous
 62
     1
370
    15
100
AcDbSpline
210
0.0
220
0.0
230
1.0
 70
     8
 71
     3
 72
    33
 73
    29
 74
     0
 42
0.000000001
 43
0.00000001
 40
0.0
 40
0.0
 40
0.0
 40
0.0
 40
0.0592242722564141
 40
0.1102379031719739
 40
0.1527980059058227
 40
0.1843248057795468
 40
0.2153920413201635
 40
0.2587904239703976
 40
0.3007077555051552
 40
0.3308112136842037
 40
0.3550724160767423
 40
0.3840667857405587
 40
0.4189641333980374
 40
0.4552575730066737
 40
0.4991386344488584
 40
0.5432766588565965
 40
0.5757648978691237
 40
0.6010109370062712
 40
0.6327815658025024
 40
0.670370419101641
 40
0.7290415719984706
 40
0.7755922371004803
 40
0.7905490044550645
 40
0.8141013966083153
 40
0.8468573258840076
 40
0.8886942405480284
 40
0.9397079865489103
 40
1.0
 40
1.0
 40
1.0
 40
1.0
 10
53.40779207954486
 20
6.157228973666747
 30
0.0
 10
53.11578629621279
 20
6.132494759133706
 30
0.0
 10
52.57225736724176
 20
6.086455393129794
 30
0.0
 10
51.74971573036403
 20
6.033547627302384
 30
0.0
 10
51.07036427579172
 20
5.997369025050355
 30
0.0
 10
50.51055689876451
 20
5.972183180336839
 30
0.0
 10
49.9678876490172
 20
5.952551172140935
 30
0.0
 10
49.3546579328913
 20
5.935797237404653
 30
0.0
 10
48.74866405149963
 20
5.926012021200553
 30
0.0
 10
48.24310633964225
 20
5.922488348173846
 30
0.0
 10
47.80546069521877
 20
5.922524167177141
 30
0.0
 10
47.3423350022432
 20
5.925748087180891
 30
0.0
 10
46.81587742197202
 20
5.933735528152712
 30
0.0
 10
46.2112374096197
 20
5.948426806368238
 30
0.0
 10
45.55816157531132
 20
5.970998552737578
 30
0.0
 10
44.92540117551725
 20
6.000085707661562
 30
0.0
 10
44.39008498205652
 20
6.029801632611965
 30
0.0
 10
43.91959258483273
 20
6.059293107762365
 30
0.0
 10
43.42268709271362
 20
6.093954036965791
 30
0.0
 10
42.75032390889439
 20
6.146604801923417
 30
0.0
 10
41.99997757729071
 20
6.214468802355994
 30
0.0
 10
41.3681646938452
 20
6.279331882805939
 30
0.0
 10
40.92180855040885
 20
6.328320107505037
 30
0.0
 10
40.54798403327014
 20
6.371011778514322
 30
0.0
 10
40.03294935002464
 20
6.433126178485341
 30
0.0
 10
39.37357647312835
 20
6.51858396291581
 30
0.0
 10
38.56870177850809
 20
6.63038407617699
 30
0.0
 10
37.98245394959805
 20
6.720441936224128
 30
0.0
 10
37.66489570139645
 20
6.769224404769083
 30
0.0
  0
LINE
  5
9C
330
1F
100
AcDbEntity
  8
0
  6
Continuous
 62
     1
370
    15
100
AcDbLine
 10
8.401135770101465
 20
-9.000000000000012
 30
0.0
 11
12.76184471223631
 21
-9.000000000000012
 31
0.0
  0
LINE
  5
9F
330
1F
100
AcDbEntity
  8
0
  6
Continuous
 62
   131
370
    15
100
AcDbLine
 10
4.732050807568357
 20
9.999999999999991
 30
0.0
 11
-62.26794919243113
 21
9.999999999999988
 31
0.0
  0
LINE
  5
A0
330
1F
100
AcDbEntity
  8
0
  6
Continuous
 62
   131
370
    15
100
AcDbLine
 10
-62.26794919243112
 20
-10.00000000000001
 30
0.0
 11
4.732050807568342
 21
-10.00000000000001
 31
0.0
  0
LINE
  5
A1
330
1F
100
AcDbEntity
  8
0
  6
Continuous
 62
   131
370
    15
100
AcDbLine
 10
-62.26794919243112
 20
9.999999999999988
 30
0.0
 11
-63.26794919243112
 21
8.999999999999984
 31
0.0
  0
LINE
  5
A2
330
1F
100
AcDbEntity
  8
0
  6
Continuous
 62
   131
370
    15
100
AcDbLine
 10
-63.26794919243112
 20
-9.000000000000005
 30
0.0
 11
-62.26794919243112
 21
-10.00000000000001
 31
0.0
  0
SPLINE
  5
A4
330
1F
100
AcDbEntity
  8
0
  6
Continuous
 62
     1
370
    15
100
AcDbSpline
210
0.0
220
0.0
230
1.0
 70
     8
 71
     3
 72
    70
 73
    66
 74
     0
 42
0.000000001
 43
0.00000001
 40
0.0
 40
0.0
 40
0.0
 40
0.0
 40
0.03125
 40
0.03125
 40
0.0625
 40
0.0625
 40
0.0937500000000001
 40
0.0937500000000001
 40
0.1250000000000001
 40
0.1250000000000001
 40
0.1562500000000001
 40
0.1562500000000001
 40
0.1875000000000001
 40
0.1875000000000001
 40
0.2187500000000001
 40
0.2187500000000001
 40
0.2500000000000002
 40
0.2500000000000002
 40
0.2812500000000002
 40
0.2812500000000002
 40
0.3125000000000002
 40
0.3125000000000002
 40
0.3437500000000002
 40
0.3437500000000002
 40
0.3750000000000002
 40
0.3750000000000002
 40
0.4062500000000003
 40
0.4062500000000003
 40
0.4375000000000003
 40
0.4375000000000003
 40
0.4687500000000003
 40
0.4687500000000003
 40
0.5000000000000003
 40
0.5000000000000003
 40
0.5312500000000003
 40
0.5312500000000003
 40
0.5625000000000003
 40
0.5625000000000003
 40
0.5937500000000004
 40
0.5937500000000004
 40
0.6250000000000004
 40
0.6250000000000004
 40
0.6562500000000004
 40
0.6562500000000004
 40
0.6875000000000004
 40
0.6875000000000004
 40
0.7187500000000004
 40
0.7187500000000004
 40
0.7500000000000004
 40
0.7500000000000004
 40
0.7812500000000006
 40
0.7812500000000006
 40
0.8125000000000006
 40
0.8125000000000006
 40
0.8437500000000004
 40
0.8437500000000004
 40
0.8750000000000003
 40
0.8750000000000003
 40
0.9062500000000002
 40
0.9062500000000002
 40
0.9375000000000002
 40
0.9375000000000002
 40
0.9687500000000001
 40
0.9687500000000001
 40
1.0
 40
1.0
 40
1.0
 40
1.0
 10
56.7320508075689
 20
-8.99999999999982
 30
0.0
 10
56.21343086962553
 20
-8.98005018566062
 30
0.0
 10
55.69119728395908
 20
-8.952625280141538
 30
0.0
 10
54.64733534642272
 20
-8.867833747298842
 30
0.0
 10
54.12744563385961
 20
-8.810551166349386
 30
0.0
 10
53.08813998460461
 20
-8.666784151066219
 30
0.0
 10
52.56548092512705
 20
-8.580114503655395
 30
0.0
 10
51.52200405691136
 20
-8.378390931810683
 30
0.0
 10
51.00359074264327
 20
-8.263549404955217
 30
0.0
 10
49.962598802074
 20
-8.006331635065498
 30
0.0
 10
49.43970769454469
 20
-7.863875477149448
 30
0.0
 10
48.3970004916132
 20
-7.553368075334638
 30
0.0
 10
47.87919429229291
 20
-7.385576660967772
 30
0.0
 10
46.836897606839
 20
-7.025133779542132
 30
0.0
 10
46.31396816418551
 20
-6.832607174565856
 30
0.0
 10
45.27241427700893
 20
-6.425856652850036
 30
0.0
 10
44.75434516519398
 20
-6.211753485864016
 30
0.0
 10
43.71112688137593
 20
-5.762495730928067
 30
0.0
 10
43.18835286398205
 20
-5.527640264794438
 30
0.0
 10
42.14833452784015
 20
-5.041066350775835
 30
0.0
 10
41.62913279834882
 20
-4.789070699724531
 30
0.0
 10
40.5853771943779
 20
-4.26900974326358
 30
0.0
 10
40.06295217024812
 20
-4.001277120924635
 30
0.0
 10
39.0248497391744
 20
-3.454506634287944
 30
0.0
 10
38.50364707461331
 20
-3.174506612425952
 30
0.0
 10
37.45973908907538
 20
-2.604524257920846
 30
0.0
 10
36.93902558365943
 20
-2.314910744297121
 30
0.0
 10
35.900492032043
 20
-1.729462833307302
 30
0.0
 10
35.37797821278525
 20
-1.432741934942263
 30
0.0
 10
34.33430297162106
 20
-0.8357407974337089
 30
0.0
 10
33.81540936195141
 20
-0.5359028344906924
 30
0.0
 10
32.77503910196543
 20
0.0650551897163756
 30
0.0
 10
32.25221665682653
 20
0.3664356770626795
 30
0.0
 10
31.20915899982839
 20
0.9664644513140586
 30
0.0
 10
30.69121659105489
 20
1.264676104839477
 30
0.0
 10
29.64939040758475
 20
1.857006146506079
 30
0.0
 10
29.1264529645036
 20
2.150932924689911
 30
0.0
 10
28.08439697255066
 20
2.729886380611991
 30
0.0
 10
27.56653590419284
 20
3.014698064656349
 30
0.0
 10
26.5236363664703
 20
3.574585862602674
 30
0.0
 10
26.00077769573525
 20
3.84924514233641
 30
0.0
 10
24.96010621998611
 20
4.383889319853717
 30
0.0
 10
24.44145653185994
 20
4.644043204654436
 30
0.0
 10
23.39786752654887
 20
5.148968336173607
 30
0.0
 10
22.87528130093625
 20
5.393326906560278
 30
0.0
 10
21.8363754951891
 20
5.862241219461306
 30
0.0
 10
21.31606819359011
 20
6.087415379997438
 30
0.0
 10
20.27217445447965
 20
6.517069068772561
 30
0.0
 10
19.7505015043363
 20
6.721268187655914
 30
0.0
 10
18.71279931333035
 20
7.105830316557951
 30
0.0
 10
18.19046098846592
 20
7.286964790414983
 30
0.0
 10
17.14664762397926
 20
7.624077546790665
 30
0.0
 10
16.62713771810212
 20
7.779877575918546
 30
0.0
 10
15.58744875343858
 20
8.065047351473783
 30
0.0
 10
15.06472528464934
 20
8.194611966415323
 30
0.0
 10
14.02137730438561
 20
8.42565681993949
 30
0.0
 10
13.50316250284737
 20
8.527016502707363
 30
0.0
 10
12.46186671547963
 20
8.701212634169668
 30
0.0
 10
11.93895160821815
 20
8.77397932952364
 30
0.0
 10
10.89645344974946
 20
8.889721586577835
 30
0.0
 10
10.3786642259264
 20
8.93269903537619
 30
0.0
 10
9.336143534691661
 20
8.988815563101326
 30
0.0
 10
8.813230531595025
 20
9.001852393075618
 30
0.0
 10
7.771965588739345
 20
8.997723247615028
 30
0.0
 10
7.253731894380048
 20
8.980620263847257
 30
0.0
 10
6.732050807568866
 20
8.948470531629605
 30
0.0
  0
SPLINE
  5
A5
330
1F
100
AcDbEntity
  8
0
  6
Continuous
 62
     1
370
    15
100
AcDbSpline
210
0.0
220
0.0
230
1.0
 70
     8
 71
     3
 72
    16
 73
    12
 74
     0
 42
0.000000001
 43
0.00000001
 40
0.0
 40
0.0
 40
0.0
 40
0.0
 40
0.0299939763049526
 40
0.1500226816300891
 40
0.2700836726854908
 40
0.3901602980618161
 40
0.5102358463375093
 40
0.6302936102280714
 40
0.7535148665580417
 40
0.8767314972781011
 40
0.9999999999999999
 40
0.9999999999999999
 40
0.9999999999999999
 40
0.9999999999999999
 10
34.35144375047118
 20
-0.8438288481959692
 30
0.0
 10
34.07531789946682
 20
-0.7346436968842603
 30
0.0
 10
32.69420256437793
 20
-0.1885257354832938
 30
0.0
 10
30.20772925681335
 20
0.8302625355596024
 30
0.0
 10
26.89183878057706
 20
2.137102875411709
 30
0.0
 10
23.57547170082345
 20
3.351559214073695
 30
0.0
 10
20.25913710155541
 20
4.413542652979825
 30
0.0
 10
16.91390405126217
 20
5.285959968969447
 30
0.0
 10
13.53984585867322
 20
5.91505818073891
 30
0.0
 10
10.13628347289804
 20
6.290099712878512
 30
0.0
 10
7.866954220354096
 20
6.287571463475917
 30
0.0
 10
6.732050807568875
 20
6.286307072743649
 30
0.0
  0
SPLINE
  5
A6
330
1F
100
AcDbEntity
  8
0
  6
Continuous
 62
   131
370
    15
100
AcDbSpline
210
0.0
220
0.0
230
1.0
 70
    24
 71
     3
 72
    10
 73
     6
 74
     0
 42
0.000000001
 43
0.00000001
 40
0.0
 40
0.0
 40
0.0
 40
0.0
 40
0.5000000000000004
 40
0.5000000000000004
 40
1.0
 40
1.0
 40
1.0
 40
1.0
 10
6.732050807568875
 20
8.948470531629594
 30
0.0
 10
6.732050807568875
 20
8.491118009267765
 30
0.0
 10
6.732050807568875
 20
8.005464812812896
 30
0.0
 10
6.732050807568875
 20
7.085173169986891
 30
0.0
 10
6.732050807568875
 20
6.652838384581004
 30
0.0
 10
6.732050807568875
 20
6.286307072743649
 30
0.0
  0
SPLINE
  5
A7
330
1F
100
AcDbEntity
  8
0
  6
Continuous
 62
     1
370
    15
100
AcDbSpline
210
0.0
220
0.0
230
1.0
 70
     8
 71
     3
 72
    24
 73
    20
 74
     0
 42
0.000000001
 43
0.00000001
 40
0.0
 40
0.0
 40
0.0
 40
0.0
 40
0.0594512054486942
 40
0.1188926119801155
 40
0.1783264393446613
 40
0.2377549178732865
 40
0.2971802853752804
 40
0.356604784013842
 40
0.4126323863707835
 40
0.4686718065881132
 40
0.5247314843964904
 40
0.5807942171720307
 40
0.6368357426776635
 40
0.6993744126865433
 40
0.7619120754175158
 40
0.8244489924570966
 40
0.8869854256425462
 40
0.9495216369738746
 40
1.0
 40
1.0
 40
1.0
 40
1.0
 10
56.73205080756888
 20
-8.540467823087099
 30
0.0
 10
55.8606381986212
 20
-8.3586450226164
 30
0.0
 10
54.11795660943784
 20
-7.995029390227646
 30
0.0
 10
51.50423112636874
 20
-7.161191901188357
 30
0.0
 10
48.89089907136983
 20
-6.14378381797587
 30
0.0
 10
46.2778464757655
 20
-4.949542735967289
 30
0.0
 10
43.66497495590629
 20
-3.61778364902994
 30
0.0
 10
41.10189064626763
 20
-2.211612455764734
 30
0.0
 10
38.58864900176867
 20
-0.7754834761473889
 30
0.0
 10
36.12456389395133
 20
0.6516446774356749
 30
0.0
 10
33.65975623392931
 20
2.062420831549261
 30
0.0
 10
31.19483610761167
 20
3.421714958694413
 30
0.0
 10
28.6353355052538
 20
4.745197708003954
 30
0.0
 10
25.9806065374546
 20
5.98446848098047
 30
0.0
 10
23.23078128368179
 20
7.081810890563482
 30
0.0
 10
20.4809683685425
 20
7.961553659535287
 30
0.0
 10
17.73118816406678
 20
8.585887569954112
 30
0.0
 10
15.15814955698954
 20
8.94962694973923
 30
0.0
 10
13.50170264011074
 20
8.969401888933879
 30
0.0
 10
12.76184471223633
 20
8.978234436108991
 30
0.0
  0
LINE
  5
A8
330
1F
100
AcDbEntity
  8
0
  6
Continuous
 62
     1
370
    15
100
AcDbLine
 10
56.7320508075689
 20
-8.99999999999982
 30
0.0
 11
56.73205080756826
 21
-8.540467823087088
 31
0.0
  0
SPLINE
  5
A9
330
1F
100
AcDbEntity
  8
0
  6
Continuous
 62
     1
370
    15
100
AcDbSpline
210
0.0
220
0.0
230
1.0
 70
     8
 71
     3
 72
    16
 73
    12
 74
     0
 42
0.000000001
 43
0.00000001
 40
0.0
 40
0.0
 40
0.0
 40
0.0
 40
0.1135010907504729
 40
0.2269876872492066
 40
0.3404624989078052
 40
0.4539282472861969
 40
0.5673876633009143
 40
0.6808434844129005
 40
0.7942984518009858
 40
0.9077553075272065
 40
1.0
 40
1.0
 40
1.0
 40
1.0
 10
56.73205080756888
 20
-7.100750379313943
 30
0.0
 10
55.84762203403268
 20
-6.919459834044509
 30
0.0
 10
54.07887742978052
 20
-6.556901894567749
 30
0.0
 10
51.42597508050774
 20
-5.768661608312698
 30
0.0
 10
48.7733847537676
 20
-4.82855700082011
 30
0.0
 10
46.12103885493798
 20
-3.745031895890929
 30
0.0
 10
43.46886257462752
 20
-2.554556516078093
 30
0.0
 10
40.81678305460827
 20
-1.289526885092233
 30
0.0
 10
38.16472575353873
 20
0.0107799133102063
 30
0.0
 10
35.6779363365129
 20
1.236370891490305
 30
0.0
 10
34.07514627607114
 20
1.991015459694629
 30
0.0
 10
33.35639195692106
 20
2.329427867037928
 30
0.0
  0
LINE
  5
AA
330
1F
100
AcDbEntity
  8
0
  6
Continuous
 62
     1
370
    15
100
AcDbLine
 10
56.73205080756858
 20
-8.540467823087102
 30
0.0
 11
56.73205080756888
 21
-7.100750379313943
 31
0.0
  0
SPLINE
  5
AB
330
1F
100
AcDbEntity
  8
0
  6
Continuous
 62
     1
370
    15
100
AcDbSpline
210
0.0
220
0.0
230
1.0
 70
     8
 71
     3
 72
    12
 73
     8
 74
     0
 42
0.000000001
 43
0.00000001
 40
0.0
 40
0.0
 40
0.0
 40
0.0
 40
0.4999999999999989
 40
0.4999999999999989
 40
0.7499999999999994
 40
0.7499999999999994
 40
1.0
 40
1.0
 40
1.0
 40
1.0
 10
56.7320508075689
 20
-2.405186514266807
 30
0.0
 10
55.87176462055213
 20
-1.728859581839183
 30
0.0
 10
55.02436949923346
 20
-1.027668077686369
 30
0.0
 10
53.77279890264749
 20
0.0617738072465108
 30
0.0
 10
53.35890487088075
 20
0.4312788219872383
 30
0.0
 10
52.53829602611533
 20
1.184136286907565
 30
0.0
 10
52.13002746222072
 20
1.569041250122935
 30
0.0
 10
51.73205080756884
 20
1.955973187525278
 30
0.0
  0
LINE
  5
AC
330
1F
100
AcDbEntity
  8
0
  6
Continuous
 62
     1
370
    15
100
AcDbLine
 10
51.73205080756888
 20
2.937719435296586
 30
0.0
 11
56.73205080756888
 21
-0.0000000000000002
 31
0.0
  0
LINE
  5
AD
330
1F
100
AcDbEntity
  8
0
  6
Continuous
 62
     1
370
    15
100
AcDbLine
 10
56.73205080756888
 20
-0.0000000000000002
 30
0.0
 11
56.73205080756888
 21
-2.405186514266803
 31
0.0
  0
SPLINE
  5
AE
330
1F
100
AcDbEntity
  8
0
  6
Continuous
 62
     1
370
    15
100
AcDbSpline
210
0.0
220
0.0
230
1.0
 70
     8
 71
     3
 72
    14
 73
    10
 74
     0
 42
0.000000001
 43
0.00000001
 40
0.0
 40
0.0
 40
0.0
 40
0.0
 40
0.1293683370563627
 40
0.258734421412601
 40
0.3880987675875542
 40
0.5438306911824247
 40
0.6995270226229889
 40
0.8551766739316685
 40
1.0
 40
1.0
 40
1.0
 40
1.0
 10
51.73205080756888
 20
2.269675982330451
 30
0.0
 10
50.8139000277546
 20
2.665297021888907
 30
0.0
 10
48.97761445595134
 20
3.456532212028305
 30
0.0
 10
46.22317535724619
 20
4.516902849171727
 30
0.0
 10
43.28180046646625
 20
5.504100394026141
 30
0.0
 10
40.15282628059667
 20
6.342024081556891
 30
0.0
 10
36.8375881578602
 20
6.937352418033877
 30
0.0
 10
33.59993931685096
 20
7.240106819828608
 30
0.0
 10
31.46721974785283
 20
7.173318461403783
 30
0.0
 10
30.43928191381
 20
7.141127506016835
 30
0.0
  0
SPLINE
  5
AF
330
1F
100
AcDbEntity
  8
0
  6
Continuous
 62
     1
370
    15
100
AcDbSpline
210
0.0
220
0.0
230
1.0
 70
    24
 71
     3
 72
     8
 73
     4
 74
     0
 42
0.000000001
 43
0.00000001
 40
0.0
 40
0.0
 40
0.0
 40
0.0
 40
1.0
 40
1.0
 40
1.0
 40
1.0
 10
51.73205080756888
 20
1.95597318752529
 30
0.0
 10
51.73205080756888
 20
2.061208827775561
 30
0.0
 10
51.73205080756887
 20
2.165800204981195
 30
0.0
 10
51.73205080756887
 20
2.269675982330456
 30
0.0
  0
SPLINE
  5
B0
330
1F
100
AcDbEntity
  8
0
  6
Continuous
 62
     1
370
    15
100
AcDbSpline
210
0.0
220
0.0
230
1.0
 70
    24
 71
     3
 72
    10
 73
     6
 74
     0
 42
0.000000001
 43
0.00000001
 40
0.0
 40
0.0
 40
0.0
 40
0.0
 40
0.5
 40
0.5
 40
1.0
 40
1.0
 40
1.0
 40
1.0
 10
56.73205080756888
 20
-7.100750379313941
 30
0.0
 10
56.7320508075689
 20
-6.55642250103424
 30
0.0
 10
56.7320508075689
 20
-5.868643355158217
 30
0.0
 10
56.7320508075689
 20
-4.269623032356121
 30
0.0
 10
56.73205080756888
 20
-3.359766987461792
 30
0.0
 10
56.7320508075689
 20
-2.405186514267097
 30
0.0
  0
SPLINE
  5
B1
330
1F
100
AcDbEntity
  8
0
  6
Continuous
 62
     1
370
    15
100
AcDbSpline
210
0.0
220
0.0
230
1.0
 70
     8
 71
     3
 72
    11
 73
     7
 74
     0
 42
0.000000001
 43
0.00000001
 40
0.0
 40
0.0
 40
0.0
 40
0.0
 40
0.2471036012024674
 40
0.4980766656538773
 40
0.7490359263529366
 40
1.0
 40
1.0
 40
1.0
 40
1.0
 10
16.90338425360281
 20
-7.487659226083511
 30
0.0
 10
16.06557453061445
 20
-7.553551700651045
 30
0.0
 10
14.37683559177346
 20
-7.686368478166921
 30
0.0
 10
11.83728288147932
 20
-7.62465787837354
 30
0.0
 10
9.284659283098105
 20
-7.38662978425807
 30
0.0
 10
7.582925738725418
 20
-7.060713219927233
 30
0.0
 10
6.732050807568866
 20
-6.897753375153173
 30
0.0
  0
SPLINE
  5
B2
330
1F
100
AcDbEntity
  8
0
  6
Continuous
 62
     1
370
    15
100
AcDbSpline
210
0.0
220
0.0
230
1.0
 70
     8
 71
     3
 72
    18
 73
    14
 74
     0
 42
0.000000001
 43
0.00000001
 40
0.0
 40
0.0
 40
0.0
 40
0.0
 40
0.0272287389138001
 40
0.1343187770174452
 40
0.2414326453854151
 40
0.3485745753605567
 40
0.4557300940893959
 40
0.5628846767818958
 40
0.6700238022278462
 40
0.7525278485675359
 40
0.8350210984233
 40
0.9175097471728286
 40
1.0
 40
1.0
 40
1.0
 40
1.0
 10
37.67999164300431
 20
-6.73821845109646
 30
0.0
 10
37.39908780070225
 20
-6.791089900396096
 30
0.0
 10
36.0133952544201
 20
-7.051903610188127
 30
0.0
 10
33.52285866193752
 20
-7.215190921167393
 30
0.0
 10
30.2077416779404
 20
-7.19654076675381
 30
0.0
 10
26.89185087353266
 20
-6.829648922432269
 30
0.0
 10
23.57546536091668
 20
-6.161308551865254
 30
0.0
 10
20.25917109151349
 20
-5.21357461329989
 30
0.0
 10
17.19705871608434
 20
-4.121762777357834
 30
0.0
 10
14.39007407682073
 20
-2.984602179833024
 30
0.0
 10
11.83726548872256
 20
-1.870703926123066
 30
0.0
 10
9.284654558212399
 20
-0.7058492498507143
 30
0.0
 10
7.582924239715991
 20
0.0810134984336373
 30
0.0
 10
6.732050807568855
 20
0.4744486978799288
 30
0.0
  0
SPLINE
  5
B3
330
1F
100
AcDbEntity
  8
0
  6
Continuous
 62
   131
370
    15
100
AcDbSpline
210
0.0
220
0.0
230
1.0
 70
    24
 71
     3
 72
    14
 73
    10
 74
     0
 42
0.000000001
 43
0.00000001
 40
0.0
 40
0.0
 40
0.0
 40
0.0
 40
0.2500000000000001
 40
0.2500000000000001
 40
0.5000000000000002
 40
0.5000000000000002
 40
0.7500000000000001
 40
0.7500000000000001
 40
1.0
 40
1.0
 40
1.0
 40
1.0
 10
6.732050807568855
 20
0.4744486978799287
 30
0.0
 10
6.732050807568855
 20
-0.2187833386314093
 30
0.0
 10
6.732050807568855
 20
-0.9247940484356653
 30
0.0
 10
6.732050807568855
 20
-2.313050735310079
 30
0.0
 10
6.732050807568855
 20
-2.994896803555286
 30
0.0
 10
6.732050807568855
 20
-4.283371771480653
 30
0.0
 10
6.732050807568855
 20
-4.889628598703149
 30
0.0
 10
6.732050807568855
 20
-5.98617191924696
 30
0.0
 10
6.732050807568855
 20
-6.47628821103652
 30
0.0
 10
6.732050807568855
 20
-6.897753375153167
 30
0.0
  0
SPLINE
  5
B4
330
1F
100
AcDbEntity
  8
0
  6
Continuous
 62
   131
370
    15
100
AcDbSpline
210
0.0
220
0.0
230
1.0
 70
    24
 71
     3
 72
    14
 73
    10
 74
     0
 42
0.000000001
 43
0.00000001
 40
0.0
 40
0.0
 40
0.0
 40
0.0
 40
0.2499999999999999
 40
0.2499999999999999
 40
0.4999999999999998
 40
0.4999999999999998
 40
0.7499999999999999
 40
0.7499999999999999
 40
1.0
 40
1.0
 40
1.0
 40
1.0
 10
6.732050807568855
 20
6.286307072743649
 30
0.0
 10
6.732050807568855
 20
6.168274597250914
 30
0.0
 10
6.732050807568855
 20
5.949803941290579
 30
0.0
 10
6.732050807568855
 20
5.303599205678525
 30
0.0
 10
6.732050807568855
 20
4.875772346959397
 30
0.0
 10
6.732050807568855
 20
3.842837551417506
 30
0.0
 10
6.732050807568855
 20
3.238280005438974
 30
0.0
 10
6.732050807568855
 20
1.918674248541494
 30
0.0
 10
6.732050807568855
 20
1.204479086624572
 30
0.0
 10
6.732050807568855
 20
0.4744486978799282
 30
0.0
  0
SPLINE
  5
B5
330
1F
100
AcDbEntity
  8
0
  6
Continuous
 62
     1
370
    15
100
AcDbSpline
210
0.0
220
0.0
230
1.0
 70
    24
 71
     3
 72
    10
 73
     6
 74
     0
 42
0.000000001
 43
0.00000001
 40
0.0
 40
0.0
 40
0.0
 40
0.0
 40
0.5
 40
0.5
 40
1.0
 40
1.0
 40
1.0
 40
1.0
 10
51.73205080756888
 20
2.26967598233045
 30
0.0
 10
51.73205080756888
 20
2.716702351941888
 30
0.0
 10
51.7320508075689
 20
3.14316873114901
 30
0.0
 10
51.73205080756888
 20
3.928424395620565
 30
0.0
 10
51.73205080756888
 20
4.287058423038018
 30
0.0
 10
51.73205080756888
 20
4.600248776142749
 30
0.0
  0
SPLINE
  5
B6
330
1F
100
AcDbEntity
  8
0
  6
Continuous
 62
     1
370
    15
100
AcDbSpline
210
0.0
220
0.0
230
1.0
 70
     8
 71
     3
 72
     9
 73
     5
 74
     0
 42
0.000000001
 43
0.00000001
 40
0.0
 40
0.0
 40
0.0
 40
0.0
 40
0.997050193596901
 40
1.0
 40
1.0
 40
1.0
 40
1.0
 10
56.73205080756888
 20
6.3
 30
0.0
 10
55.62721833451096
 20
6.298786056434513
 30
0.0
 10
54.51911717756502
 20
6.297568521376316
 30
0.0
 10
53.41096100285382
 20
6.157232004679361
 30
0.0
 10
53.40769215667402
 20
6.15681803912382
 30
0.0
  0
SPLINE
  5
B7
330
1F
100
AcDbEntity
  8
0
  6
Continuous
 62
     1
370
    15
100
AcDbSpline
210
0.0
220
0.0
230
1.0
 70
     8
 71
     3
 72
    10
 73
     6
 74
     0
 42
0.000000001
 43
0.00000001
 40
0.0
 40
0.0
 40
0.0
 40
0.0
 40
0.5
 40
0.5
 40
1.0
 40
1.0
 40
1.0
 40
1.0
 10
56.73205080756888
 20
6.3
 30
0.0
 10
55.88836407111405
 20
6.071240674213178
 30
0.0
 10
55.04927594384239
 20
5.816690976438018
 30
0.0
 10
53.38094039447456
 20
5.252507842484846
 30
0.0
 10
52.55267183820953
 20
4.943697147379753
 30
0.0
 10
51.73205080756887
 20
4.600248776142746
 30
0.0
  0
LINE
  5
B8
330
1F
100
AcDbEntity
  8
0
  6
Continuous
 62
     1
370
    15
100
AcDbLine
 10
56.73205080756888
 20
-0.0000000000000002
 30
0.0
 11
56.73205080756888
 21
6.3
 31
0.0
  0
SPLINE
  5
B9
330
1F
100
AcDbEntity
  8
0
  6
Continuous
 62
     1
370
    15
100
AcDbSpline
210
0.0
220
0.0
230
1.0
 70
     8
 71
     3
 72
    13
 73
     9
 74
     0
 42
0.000000001
 43
0.00000001
 40
0.0
 40
0.0
 40
0.0
 40
0.0
 40
0.16242178403292
 40
0.3299372118335539
 40
0.4974520453568017
 40
0.6649669866181783
 40
0.8324827375969521
 40
1.0
 40
1.0
 40
1.0
 40
1.0
 10
23.14713299943664
 20
-7.072115428525534
 30
0.0
 10
22.25840940849811
 20
-7.370669668040374
 30
0.0
 10
20.45309132613097
 20
-7.977140985623296
 30
0.0
 10
17.73118795394317
 20
-8.58798420173245
 30
0.0
 10
14.98141789568963
 20
-8.956893309847118
 30
0.0
 10
12.23164570885372
 20
-9.038239558214165
 30
0.0
 10
9.48185805892155
 20
-8.858831679978088
 30
0.0
 10
7.648655981373993
 20
-8.509492323774944
 30
0.0
 10
6.73205080756574
 20
-8.334821857691349
 30
0.0
  0
SPLINE
  5
BA
330
1F
100
AcDbEntity
  8
0
  6
Continuous
 62
   131
370
    15
100
AcDbSpline
210
0.0
220
0.0
230
1.0
 70
    24
 71
     3
 72
     8
 73
     4
 74
     0
 42
0.000000001
 43
0.00000001
 40
0.0
 40
0.0
 40
0.0
 40
0.0
 40
1.0
 40
1.0
 40
1.0
 40
1.0
 10
6.732050807568875
 20
-6.897753375153173
 30
0.0
 10
6.732050807568875
 20
-7.371855178423181
 30
0.0
 10
6.732050807568875
 20
-7.853934864206012
 30
0.0
 10
6.732050807568875
 20
-8.334821857681062
 30
0.0
  0
LINE
  5
BB
330
1F
100
AcDbEntity
  8
0
  6
Continuous
 62
     1
370
    15
100
AcDbLine
 10
6.73205080756887
 20
-8.948470531629619
 30
0.0
 11
8.401135770101465
 21
-8.970841996573556
 31
0.0
  0
SPLINE
  5
BC
330
1F
100
AcDbEntity
  8
0
  6
Continuous
 62
     1
370
    15
100
AcDbSpline
210
0.0
220
0.0
230
1.0
 70
     8
 71
     3
 72
    12
 73
     8
 74
     0
 42
0.000000001
 43
0.00000001
 40
0.0
 40
0.0
 40
0.0
 40
0.0
 40
0.1088122348637412
 40
0.3315970632325391
 40
0.5543893525490243
 40
0.7771900250083692
 40
0.9999999999999999
 40
0.9999999999999999
 40
0.9999999999999999
 40
0.9999999999999999
 10
44.38748924743278
 20
6.030634946034277
 30
0.0
 10
44.83522865756284
 20
6.226582758266244
 30
0.0
 10
46.19968067601934
 20
6.823718909033905
 30
0.0
 10
48.48089277169325
 20
7.609293725283437
 30
0.0
 10
51.23116260680328
 20
8.352088370259484
 30
0.0
 10
53.98155557972105
 20
8.845703892471537
 30
0.0
 10
55.81520630523758
 20
8.943496175033745
 30
0.0
 10
56.73205080756859
 20
9.000000000000178
 30
0.0
  0
LINE
  5
BD
330
1F
100
AcDbEntity
  8
0
  6
Continuous
 62
   131
370
    15
100
AcDbLine
 10
6.732050807568866
 20
-8.948470531629612
 30
0.0
 11
6.732050807568863
 21
-8.334821857673779
 31
0.0
  0
SPLINE
  5
BE
330
1F
100
AcDbEntity
  8
0
  6
Continuous
 62
     1
370
    15
100
AcDbSpline
210
0.0
220
0.0
230
1.0
 70
    24
 71
     3
 72
    10
 73
     6
 74
     0
 42
0.000000001
 43
0.00000001
 40
0.0
 40
0.0
 40
0.0
 40
0.0
 40
0.5000000000000004
 40
0.5000000000000004
 40
1.0
 40
1.0
 40
1.0
 40
1.0
 10
56.73205080756888
 20
6.3
 30
0.0
 10
56.7320508075689
 20
6.681890311265825
 30
0.0
 10
56.73205080756888
 20
7.125682219804053
 30
0.0
 10
56.7320508075689
 20
8.056756448647697
 30
0.0
 10
56.73205080756887
 20
8.541660922213246
 30
0.0
 10
56.73205080756859
 20
9.000000000000178
 30
0.0
  0
LINE
  5
C0
330
1F
100
AcDbEntity
  8
0
  6
Continuous
 62
   131
370
    15
100
AcDbLine
 10
5.732050807568171
 20
-8.86853485105508
 30
0.0
 11
5.732050807568171
 21
9.000000000000174
 31
0.0
  0
LINE
  5
C2
330
1F
100
AcDbEntity
  8
0
  6
Continuous
 62
   131
370
    15
100
AcDbLine
 10
5.732050807568875
 20
-8.100304361846014
 30
0.0
 11
5.732050807568875
 21
-8.999999999999467
 31
0.0
  0
LINE
  5
C5
330
1F
100
AcDbEntity
  8
0
  6
Continuous
 62
   131
370
    15
100
AcDbLine
 10
4.732050807568357
 20
9.999999999999991
 30
0.0
 11
4.732050807568362
 21
-9.999999999999998
 31
0.0
  0
LINE
  5
C6
330
1F
100
AcDbEntity
  8
0
  6
Continuous
 62
   131
370
    15
100
AcDbLine
 10
-62.26794919243112
 20
9.999999999999988
 30
0.0
 11
-62.26794919243112
 21
-9.999999999999995
 31
0.0
  0
LINE
  5
C7
330
1F
100
AcDbEntity
  8
0
  6
Continuous
 62
   131
370
    15
100
AcDbLine
 10
-63.26794919243112
 20
8.999999999999984
 30
0.0
 11
-63.26794919243112
 21
-9.000000000000005
 31
0.0
  0
SPLINE
  5
C8
330
1F
100
AcDbEntity
  8
0
  6
Continuous
 62
   131
370
    15
100
AcDbSpline
210
0.0
220
0.0
230
1.0
 70
     8
 71
     3
 72
     8
 73
     4
 74
     0
 42
0.000000001
 43
0.00000001
 40
0.0
 40
0.0
 40
0.0
 40
0.0
 40
0.3273042757884125
 40
0.3273042757884125
 40
0.3273042757884125
 40
0.3273042757884125
 10
6.732050807568866
 20
-6.897753375153174
 30
0.0
 10
6.39879896207611
 20
-6.827108385491428
 30
0.0
 10
6.065124221022811
 20
-6.751703987392645
 30
0.0
 10
5.732050807568182
 20
-6.671789209633169
 30
0.0
  0
SPLINE
  5
C9
330
1F
100
AcDbEntity
  8
0
  6
Continuous
 62
   131
370
    15
100
AcDbSpline
210
0.0
220
0.0
230
1.0
 70
     8
 71
     3
 72
     8
 73
     4
 74
     0
 42
0.000000001
 43
0.00000001
 40
0.0
 40
0.0
 40
0.0
 40
0.0
 40
0.3273009098952131
 40
0.3273009098952131
 40
0.3273009098952131
 40
0.3273009098952131
 10
6.732050807568855
 20
0.4744486978799287
 30
0.0
 10
6.398798962061479
 20
0.6278718197518782
 30
0.0
 10
6.065124221035828
 20
0.7810339432680177
 30
0.0
 10
5.73205080756817
 20
0.9334666482914934
 30
0.0
  0
SPLINE
  5
CA
330
1F
100
AcDbEntity
  8
0
  6
Continuous
 62
   131
370
    15
100
AcDbSpline
210
0.0
220
0.0
230
1.0
 70
    24
 71
     3
 72
    14
 73
    10
 74
     0
 42
0.000000001
 43
0.00000001
 40
0.0
 40
0.0
 40
0.0
 40
0.0
 40
0.2500000000000001
 40
0.2500000000000001
 40
0.5000000000000002
 40
0.5000000000000002
 40
0.7500000000000001
 40
0.7500000000000001
 40
1.0
 40
1.0
 40
1.0
 40
1.0
 10
6.732050807568855
 20
0.4744486978799287
 30
0.0
 10
6.732050807568855
 20
-0.2187833386314093
 30
0.0
 10
6.732050807568855
 20
-0.9247940484356653
 30
0.0
 10
6.732050807568855
 20
-2.313050735310079
 30
0.0
 10
6.732050807568855
 20
-2.994896803555286
 30
0.0
 10
6.732050807568855
 20
-4.283371771480653
 30
0.0
 10
6.732050807568855
 20
-4.889628598703149
 30
0.0
 10
6.732050807568855
 20
-5.98617191924696
 30
0.0
 10
6.732050807568855
 20
-6.47628821103652
 30
0.0
 10
6.732050807568855
 20
-6.897753375153167
 30
0.0
  0
LINE
  5
CB
330
1F
100
AcDbEntity
  8
0
  6
Continuous
 62
   131
370
    15
100
AcDbLine
 10
6.732050807568866
 20
6.286307072743649
 30
0.0
 11
5.732050807568171
 21
6.220527533327937
 31
0.0
  0
SPLINE
  5
CC
330
1F
100
AcDbEntity
  8
0
  6
Continuous
 62
   131
370
    15
100
AcDbSpline
210
0.0
220
0.0
230
1.0
 70
    24
 71
     3
 72
    14
 73
    10
 74
     0
 42
0.000000001
 43
0.00000001
 40
0.0
 40
0.0
 40
0.0
 40
0.0
 40
0.2499999999999999
 40
0.2499999999999999
 40
0.4999999999999998
 40
0.4999999999999998
 40
0.7499999999999999
 40
0.7499999999999999
 40
1.0
 40
1.0
 40
1.0
 40
1.0
 10
6.732050807568866
 20
6.286307072743649
 30
0.0
 10
6.732050807568866
 20
6.168274597250914
 30
0.0
 10
6.732050807568866
 20
5.949803941290578
 30
0.0
 10
6.732050807568866
 20
5.303599205678521
 30
0.0
 10
6.732050807568866
 20
4.875772346959397
 30
0.0
 10
6.732050807568866
 20
3.842837551417503
 30
0.0
 10
6.732050807568866
 20
3.238280005438968
 30
0.0
 10
6.732050807568866
 20
1.918674248541488
 30
0.0
 10
6.732050807568866
 20
1.204479086624566
 30
0.0
 10
6.732050807568866
 20
0.4744486978799231
 30
0.0
  0
SPLINE
  5
CD
330
1F
100
AcDbEntity
  8
0
  6
Continuous
 62
   131
370
    15
100
AcDbSpline
210
0.0
220
0.0
230
1.0
 70
     8
 71
     3
 72
     8
 73
     4
 74
     0
 42
0.000000001
 43
0.00000001
 40
0.0
 40
0.0
 40
0.0
 40
0.0
 40
1.0
 40
1.0
 40
1.0
 40
1.0
 10
6.732050807568866
 20
-8.33482185769202
 30
0.0
 10
6.398799156331478
 20
-8.262306215015958
 30
0.0
 10
6.065123777232913
 20
-8.18405249308177
 30
0.0
 10
5.732050807568875
 20
-8.100304361846014
 30
0.0
  0
SPLINE
  5
CE
330
1F
100
AcDbEntity
  8
0
  6
Continuous
 62
   131
370
    15
100
AcDbSpline
210
0.0
220
0.0
230
1.0
 70
    24
 71
     3
 72
     8
 73
     4
 74
     0
 42
0.000000001
 43
0.00000001
 40
0.0
 40
0.0
 40
0.0
 40
0.0
 40
1.0
 40
1.0
 40
1.0
 40
1.0
 10
6.732050807568875
 20
-6.897753375153173
 30
0.0
 10
6.732050807568875
 20
-7.371855178423204
 30
0.0
 10
6.732050807568875
 20
-7.853934864206061
 30
0.0
 10
6.732050807568875
 20
-8.334821857681131
 30
0.0
  0
SPLINE
  5
CF
330
1F
100
AcDbEntity
  8
0
  6
Continuous
 62
   131
370
    15
100
AcDbSpline
210
0.0
220
0.0
230
1.0
 70
     8
 71
     3
 72
     8
 73
     4
 74
     0
 42
0.000000001
 43
0.00000001
 40
0.0
 40
0.0
 40
0.0
 40
0.0
 40
1.0
 40
1.0
 40
1.0
 40
1.0
 10
6.732050807568866
 20
-8.948470531629608
 30
0.0
 10
6.398799156331478
 20
-8.927933173425073
 30
0.0
 10
6.065123777232913
 20
-8.901259514439031
 30
0.0
 10
5.732050807568875
 20
-8.86853485105508
 30
0.0
  0
SPLINE
  5
D0
330
1F
100
AcDbEntity
  8
0
  6
Continuous
 62
   131
370
    15
100
AcDbSpline
210
0.0
220
0.0
230
1.0
 70
     8
 71
     3
 72
     8
 73
     4
 74
     0
 42
0.000000001
 43
0.00000001
 40
0.0
 40
0.0
 40
0.0
 40
0.0
 40
1.0
 40
1.0
 40
1.0
 40
1.0
 10
6.732050807568866
 20
8.948470531629598
 30
0.0
 10
6.398799156331478
 20
8.92793317342506
 30
0.0
 10
6.065123777232913
 20
8.90125951443902
 30
0.0
 10
5.732050807568875
 20
8.868534851055067
 30
0.0
  0
SPLINE
  5
D1
330
1F
100
AcDbEntity
  8
0
  6
Continuous
 62
   131
370
    15
100
AcDbSpline
210
0.0
220
0.0
230
1.0
 70
    24
 71
     3
 72
    10
 73
     6
 74
     0
 42
0.000000001
 43
0.00000001
 40
0.0
 40
0.0
 40
0.0
 40
0.0
 40
0.5000000000000004
 40
0.5000000000000004
 40
1.0
 40
1.0
 40
1.0
 40
1.0
 10
6.732050807568866
 20
8.948470531629594
 30
0.0
 10
6.732050807568866
 20
8.491118009267762
 30
0.0
 10
6.732050807568866
 20
8.005464812812896
 30
0.0
 10
6.732050807568866
 20
7.085173169986896
 30
0.0
 10
6.732050807568866
 20
6.652838384581004
 30
0.0
 10
6.732050807568866
 20
6.286307072743649
 30
0.0
  0
LINE
  5
D2
330
1F
100
AcDbEntity
  8
중심선
100
AcDbLine
 10
-66.26794919243112
 20
-0.0000000000000108
 30
0.0
 11
63.73205080756888
 21
0.0000000000000004
 31
0.0
  0
CIRCLE
  5
D3
330
1F
100
AcDbEntity
  8
외형선
100
AcDbCircle
 10
0.0000000000000104
 20
0.0
 30
0.0
 40
3.000000000000005
  0
INSERT
  5
D4
330
1F
100
AcDbEntity
  8
0
  6
Continuous
 62
     7
100
AcDbBlockReference
 66
     1
  2
블럭10
 10
-22.93944368806589
 20
-52.04609937292004
 30
0.0
  0
ATTRIB
  5
D5
330
D4
100
AcDbEntity
  8
FORMAT
 62
     2
100
AcDbText
 10
-39.05870472750145
 20
-49.97073246008785
 30
0.0
 40
4.233333333333333
  1
SEME7018050E [ 2 FLUTE ]
 41
0.75
  7
SLDTEXTSTYLE0
 11
-39.05870472750145
 21
-52.08739912675452
 31
0.0
100
AcDbAttribute
  2
AUTOATTR0
 70
     0
 74
     1
  0
SEQEND
  5
D6
330
D4
100
AcDbEntity
  8
0
  6
Continuous
 62
     7
  0
HATCH
  5
D7
330
1F
100
AcDbEntity
  8
중심선
100
AcDbHatch
 10
0.0
 20
0.0
 30
0.0
210
0.0
220
0.0
230
1.0
  2
SOLID
 70
     1
 71
     0
 91
        1
 92
        0
 93
        4
 72
     1
 10
-17.22453438368504
 20
-35.7989250712761
 11
-20.67080962752232
 21
-35.7989250712761
 72
     1
 10
-20.67080962752232
 20
-35.7989250712761
 11
-22.79903948672635
 21
-38.3352506518487
 72
     1
 10
-22.79903948672635
 20
-38.3352506518487
 11
-19.35273115777591
 21
-38.33521122254621
 72
     1
 10
-19.35273115777591
 20
-38.33521122254621
 11
-17.22453438368504
 21
-35.7989250712761
 97
        0
 75
     0
 76
     1
 98
        1
 10
0.0
 20
0.0
  0
HATCH
  5
D8
330
1F
100
AcDbEntity
  8
중심선
100
AcDbHatch
 10
0.0
 20
0.0
 30
0.0
210
0.0
220
0.0
230
1.0
  2
SOLID
 70
     1
 71
     0
 91
        1
 92
        0
 93
        4
 72
     1
 10
-12.21177039264909
 20
-35.7989250712761
 11
-15.65804563648637
 21
-35.7989250712761
 72
     1
 10
-15.65804563648637
 20
-35.7989250712761
 11
-20.18918364484376
 21
-41.19892507127612
 72
     1
 10
-20.18918364484376
 20
-41.19892507127612
 11
-16.74290840100648
 21
-41.19892507127612
 72
     1
 10
-16.74290840100648
 20
-41.19892507127612
 11
-12.21177039264909
 21
-35.7989250712761
 97
        0
 75
     0
 76
     1
 98
        1
 10
0.0
 20
0.0
  0
HATCH
  5
D9
330
1F
100
AcDbEntity
  8
중심선
100
AcDbHatch
 10
0.0
 20
0.0
 30
0.0
210
0.0
220
0.0
230
1.0
  2
SOLID
 70
     1
 71
     0
 91
        1
 92
        0
 93
        4
 72
     1
 10
-7.199006401613195
 20
-35.79892507127613
 11
-10.64528164545031
 21
-35.7989250712761
 72
     1
 10
-10.64528164545031
 20
-35.7989250712761
 11
-17.69371854733956
 21
-44.19892507127612
 72
     1
 10
-17.69371854733956
 20
-44.19892507127612
 11
-14.24744330350228
 21
-44.19892507127612
 72
     1
 10
-14.24744330350228
 20
-44.19892507127612
 11
-7.199006401613195
 21
-35.79892507127613
 97
        0
 75
     0
 76
     1
 98
        1
 10
0.0
 20
0.0
  0
HATCH
  5
DA
330
1F
100
AcDbEntity
  8
중심선
100
AcDbHatch
 10
0.0
 20
0.0
 30
0.0
210
0.0
220
0.0
230
1.0
  2
SOLID
 70
     1
 71
     0
 91
        1
 92
        0
 93
        6
 72
     3
 10
-2.399115970600996
 20
-39.99892507132738
 11
3.960054785062284
 21
1.540850780301639E-10
 40
0.3939339440162633
 50
17.09539180608433
 51
320.0019657685079
 73
     0
 72
     1
 10
-0.7161163149004002
 20
-38.58681907591441
 11
1.589185558800638
 21
-36.65249236586649
 72
     3
 10
-2.399115970653842
 20
-39.99892507127625
 11
6.600054785286829
 21
-1.249000902703301E-13
 40
0.6363583540795982
 50
39.99873849337408
 51
368.4976242363724
 73
     1
 72
     1
 10
4.026216521246767
 20
-39.03892507120613
 11
-3.71904866381792
 21
-39.0389250712061
 72
     1
 10
-3.71904866381792
 20
-39.0389250712061
 11
-3.719073708263854
 21
-40.95892507120602
 72
     1
 10
-3.719073708263854
 20
-40.95892507120602
 11
0.7223060612081835
 21
-40.95892507120599
 97
        0
 75
     0
 76
     1
 98
        1
 10
0.0
 20
0.0
  0
DIMENSION
  5
DB
330
1F
100
AcDbEntity
  8
치수문자_일반주서
100
AcDbDimension
  2
_D
 10
74.13430234064994
 20
9.000000000000242
 30
0.0
 11
74.13430234064991
 21
19.54150000000024
 31
0.0
 70
   160
  1
%%c<>
 71
     2
 42
18.0
 52
-270.0
  3
SLDDIMSTYLE0
100
AcDbAlignedDimension
 13
56.7320508075689
 23
-8.99999999999982
 33
0.0
 14
56.73205080756859
 24
9.000000000000178
 34
0.0
 50
90.0000000000002
100
AcDbRotatedDimension
  0
DIMENSION
  5
E9
330
1F
100
AcDbEntity
  8
치수문자_일반주서
100
AcDbDimension
  2
_D_1
 10
56.73205080756858
 20
30.78841044024268
 30
0.0
 11
-3.26794919243126
 21
30.78841044024268
 31
0.0
 70
   160
  1
<>
 71
     2
 42
119.9999999999997
  3
SLDDIMSTYLE1
100
AcDbAlignedDimension
 13
-63.26794919243112
 23
8.999999999999984
 33
0.0
 14
56.73205080756859
 24
9.000000000000178
 34
0.0
 50
-0.0000000000000034
100
AcDbRotatedDimension
  0
DIMENSION
  5
F4
330
1F
100
AcDbEntity
  8
치수문자_일반주서
100
AcDbDimension
  2
_D_2
 10
56.73205080756859
 20
19.63330487891115
 30
0.0
 11
31.73205080756889
 21
19.63330487891115
 31
0.0
 70
   160
  1
<>
 71
     2
 42
49.99999999999972
  3
SLDDIMSTYLE1
100
AcDbAlignedDimension
 13
6.732050807568875
 23
6.286307072743649
 33
0.0
 14
56.73205080756859
 24
9.000000000000178
 34
0.0
 50
-0.0000000000000407
100
AcDbRotatedDimension
  0
DIMENSION
  5
FE
330
1F
100
AcDbEntity
  8
치수문자_일반주서
100
AcDbDimension
  2
_D_3
 10
-74.64401708523361
 20
-10.00000000000005
 30
0.0
 11
-74.64401708523373
 21
20.76024999999994
 31
0.0
 70
   160
  1
%%c<>
 71
     2
 42
19.99999999999999
 52
-270.0
  3
SLDDIMSTYLE0
100
AcDbAlignedDimension
 13
-62.26794919243112
 23
9.999999999999988
 33
0.0
 14
-62.26794919243112
 24
-10.00000000000001
 34
0.0
 50
90.0000000000002
100
AcDbRotatedDimension
  0
INSERT
  5
111
330
1F
100
AcDbEntity
  8
외형선
100
AcDbBlockReference
  2
SW_DOWELSYMBOL_0
 10
0.0000000000000104
 20
0.0
 30
0.0
  0
LINE
  5
167
330
1F
100
AcDbEntity
  8
0
  6
Continuous
 62
   131
370
    15
100
AcDbLine
 10
5.732050807568171
 20
9.000000000000174
 30
0.0
 11
4.732050807568357
 21
9.999999999999991
 31
0.0
1001
PE_URL
1000

  0
LINE
  5
16C
330
1F
100
AcDbEntity
  8
0
  6
Continuous
 62
   131
370
    15
100
AcDbLine
 10
5.732050807568162
 20
-9.000000000000181
 30
0.0
 11
4.732050807568347
 21
-9.999999999999998
 31
0.0
1001
PE_URL
1000

  0
ENDSEC
  0
SECTION
  2
OBJECTS
  0
DICTIONARY
  5
C
330
0
100
AcDbDictionary
281
     1
  3
ACAD_GROUP
350
D
  3
ACAD_IMAGE_VARS
350
135
  3
ACAD_LAYOUT
350
1A
  3
ACAD_MLINESTYLE
350
17
  3
ACAD_PLOTSETTINGS
350
19
  3
ACAD_PLOTSTYLENAME
350
E
  3
ACAD_SCALELIST
350
47
  3
APPDATA
350
133
  3
DWGPROPS
350
16E
  0
DICTIONARY
  5
169
330
1F
100
AcDbDictionary
280
     1
281
     1
  3
ACAD_SORTENTS
360
16A
  3
DIM_BOUNDING_BOXES_V1
360
16D
  0
DICTIONARY
  5
D
102
{ACAD_REACTORS
330
C
102
}
330
C
100
AcDbDictionary
281
     1
  0
RASTERVARIABLES
  5
135
102
{ACAD_REACTORS
330
C
102
}
330
C
100
AcDbRasterVariables
 90
        0
 70
     1
 71
     1
 72
     1
  0
DICTIONARY
  5
1A
102
{ACAD_REACTORS
330
C
102
}
330
C
100
AcDbDictionary
281
     1
  3
Layout1
350
1E
  3
Layout2
350
26
  3
Model
350
22
  0
DICTIONARY
  5
17
102
{ACAD_REACTORS
330
C
102
}
330
C
100
AcDbDictionary
281
     1
  3
Standard
350
18
  0
DICTIONARY
  5
19
102
{ACAD_REACTORS
330
C
102
}
330
C
100
AcDbDictionary
281
     1
  0
ACDBDICTIONARYWDFLT
  5
E
102
{ACAD_REACTORS
330
C
102
}
330
C
100
AcDbDictionary
281
     1
  3
Normal
350
F
100
AcDbDictionaryWithDefault
340
F
  0
DICTIONARY
  5
47
102
{ACAD_REACTORS
330
C
102
}
330
C
100
AcDbDictionary
281
     1
  3
A0
350
48
  3
A1
350
49
  3
A2
350
4A
  3
A3
350
4B
  3
A4
350
4C
  3
A5
350
4D
  3
A6
350
4E
  3
A7
350
4F
  3
A8
350
50
  3
A9
350
51
  3
B0
350
52
  3
B1
350
53
  3
B2
350
54
  3
B3
350
55
  3
B4
350
56
  3
B5
350
57
  3
B6
350
58
  3
B7
350
59
  3
B8
350
5A
  3
B9
350
5B
  3
C0
350
5C
  3
C1
350
5D
  3
C2
350
5E
  3
C3
350
5F
  3
C4
350
60
  3
C5
350
61
  3
C6
350
62
  3
C7
350
63
  3
C8
350
64
  3
C9
350
65
  3
D0
350
66
  3
D1
350
67
  3
D2
350
68
  0
DICTIONARY
  5
133
102
{ACAD_REACTORS
330
C
102
}
330
C
100
AcDbDictionary
281
     1
  0
XRECORD
  5
16E
102
{ACAD_REACTORS
330
C
102
}
330
C
100
AcDbXrecord
280
     1
  1
DWGPROPS COOKIE
  2

  3

  4

  6

  7

  8
12014102
  9

300
=
301
=
302
=
303
=
304
=
305
=
306
=
307
=
308
=
309
=
 40
0.0
 41
2458262.177242292
 42
2459702.278875717
  1

 90
        0
  0
SORTENTSTABLE
  5
16A
102
{ACAD_REACTORS
330
169
102
}
330
169
100
AcDbSortentsTable
330
1F
331
CC
  5
CD
331
CD
  5
CE
331
CE
  5
CF
331
CF
  5
D0
331
D0
  5
D1
331
D1
  5
D2
331
D2
  5
D3
331
D3
  5
D4
331
D4
  5
D7
331
D7
  5
D8
331
D8
  5
D9
331
D9
  5
DA
331
DA
  5
DB
331
DB
  5
E9
331
E9
  5
F4
331
F4
  5
FE
331
FE
  5
111
331
111
  5
165
331
0
  5
166
331
0
  5
167
331
167
  5
168
331
0
  5
CC
  0
DICTIONARY
  5
16D
102
{ACAD_REACTORS
330
169
102
}
330
169
100
AcDbDictionary
281
     1
  0
LAYOUT
  5
1E
102
{ACAD_REACTORS
330
1A
102
}
330
1A
100
AcDbPlotSettings
  1

  2
none_device
  4

  6

 40
0.0
 41
0.0
 42
0.0
 43
0.0
 44
0.0
 45
0.0
 46
0.0
 47
0.0
 48
0.0
 49
0.0
140
0.0
141
0.0
142
1.0
143
1.0
 70
   688
 72
     1
 73
     0
 74
     5
  7

 75
    16
147
1.0
148
0.0
149
0.0
100
AcDbLayout
  1
Layout1
 70
     1
 71
     1
 10
0.0
 20
0.0
 11
420.0
 21
297.0
 12
0.0
 22
0.0
 32
0.0
 14
1.000000000000000E+20
 24
1.000000000000000E+20
 34
1.000000000000000E+20
 15
-1.000000000000000E+20
 25
-1.000000000000000E+20
 35
-1.000000000000000E+20
146
0.0
 13
0.0
 23
0.0
 33
0.0
 16
1.0
 26
0.0
 36
0.0
 17
0.0
 27
1.0
 37
0.0
 76
     0
330
1B
  0
LAYOUT
  5
26
102
{ACAD_REACTORS
330
1A
102
}
330
1A
100
AcDbPlotSettings
  1

  2
none_device
  4

  6

 40
0.0
 41
0.0
 42
0.0
 43
0.0
 44
0.0
 45
0.0
 46
0.0
 47
0.0
 48
0.0
 49
0.0
140
0.0
141
0.0
142
1.0
143
1.0
 70
   688
 72
     1
 73
     0
 74
     5
  7

 75
    16
147
1.0
148
0.0
149
0.0
100
AcDbLayout
  1
Layout2
 70
     1
 71
     2
 10
0.0
 20
0.0
 11
0.0
 21
0.0
 12
0.0
 22
0.0
 32
0.0
 14
0.0
 24
0.0
 34
0.0
 15
0.0
 25
0.0
 35
0.0
146
0.0
 13
0.0
 23
0.0
 33
0.0
 16
1.0
 26
0.0
 36
0.0
 17
0.0
 27
1.0
 37
0.0
 76
     0
330
23
  0
LAYOUT
  5
22
102
{ACAD_REACTORS
330
1A
102
}
330
1A
100
AcDbPlotSettings
  1

  2
none_device
  4
ANSI_A_(11.00_x_8.50_Inches)
  6

 40
6.35
 41
19.05
 42
6.35000508
 43
19.05000254
 44
279.4
 45
215.9
 46
139.5140596109514
 47
104.5673795720087
 48
0.0
 49
0.0
140
0.0
141
0.0
142
0.0800372376518905
143
1.0
 70
  1696
 72
     0
 73
     0
 74
     0
  7

 75
     0
147
0.0235690232323232
148
0.0
149
0.0
100
AcDbLayout
  1
Model
 70
     1
 71
     0
 10
0.0
 20
0.0
 11
420.0
 21
297.0
 12
0.0
 22
0.0
 32
0.0
 14
-79.01901708523374
 24
-49.97073246008785
 34
0.0
 15
74.68463567398334
 25
35.16341044024267
 35
0.0
146
0.0
 13
0.0
 23
0.0
 33
0.0
 16
1.0
 26
0.0
 36
0.0
 17
0.0
 27
1.0
 37
0.0
 76
     0
330
1F
331
29
  0
MLINESTYLE
  5
18
102
{ACAD_REACTORS
330
17
102
}
330
17
100
AcDbMlineStyle
  2
Standard
 70
     0
  3

 62
   256
 51
90.0
 52
90.0
 71
     2
 49
0.5
 62
   256
  6
BYLAYER
 49
-0.5
 62
   256
  6
BYLAYER
  0
ACDBPLACEHOLDER
  5
F
102
{ACAD_REACTORS
330
E
102
}
330
E
  0
SCALE
  5
48
102
{ACAD_REACTORS
330
47
102
}
330
47
100
AcDbScale
 70
     0
300
1:1
140
1.0
141
1.0
290
     1
  0
SCALE
  5
49
102
{ACAD_REACTORS
330
47
102
}
330
47
100
AcDbScale
 70
     0
300
1:2
140
1.0
141
2.0
290
     0
  0
SCALE
  5
4A
102
{ACAD_REACTORS
330
47
102
}
330
47
100
AcDbScale
 70
     0
300
1:4
140
1.0
141
4.0
290
     0
  0
SCALE
  5
4B
102
{ACAD_REACTORS
330
47
102
}
330
47
100
AcDbScale
 70
     0
300
1:5
140
1.0
141
5.0
290
     0
  0
SCALE
  5
4C
102
{ACAD_REACTORS
330
47
102
}
330
47
100
AcDbScale
 70
     0
300
1:8
140
1.0
141
8.0
290
     0
  0
SCALE
  5
4D
102
{ACAD_REACTORS
330
47
102
}
330
47
100
AcDbScale
 70
     0
300
1:10
140
1.0
141
10.0
290
     0
  0
SCALE
  5
4E
102
{ACAD_REACTORS
330
47
102
}
330
47
100
AcDbScale
 70
     0
300
1:16
140
1.0
141
16.0
290
     0
  0
SCALE
  5
4F
102
{ACAD_REACTORS
330
47
102
}
330
47
100
AcDbScale
 70
     0
300
1:20
140
1.0
141
20.0
290
     0
  0
SCALE
  5
50
102
{ACAD_REACTORS
330
47
102
}
330
47
100
AcDbScale
 70
     0
300
1:30
140
1.0
141
30.0
290
     0
  0
SCALE
  5
51
102
{ACAD_REACTORS
330
47
102
}
330
47
100
AcDbScale
 70
     0
300
1:40
140
1.0
141
40.0
290
     0
  0
SCALE
  5
52
102
{ACAD_REACTORS
330
47
102
}
330
47
100
AcDbScale
 70
     0
300
1:50
140
1.0
141
50.0
290
     0
  0
SCALE
  5
53
102
{ACAD_REACTORS
330
47
102
}
330
47
100
AcDbScale
 70
     0
300
1:100
140
1.0
141
100.0
290
     0
  0
SCALE
  5
54
102
{ACAD_REACTORS
330
47
102
}
330
47
100
AcDbScale
 70
     0
300
2:1
140
2.0
141
1.0
290
     0
  0
SCALE
  5
55
102
{ACAD_REACTORS
330
47
102
}
330
47
100
AcDbScale
 70
     0
300
4:1
140
4.0
141
1.0
290
     0
  0
SCALE
  5
56
102
{ACAD_REACTORS
330
47
102
}
330
47
100
AcDbScale
 70
     0
300
8:1
140
8.0
141
1.0
290
     0
  0
SCALE
  5
57
102
{ACAD_REACTORS
330
47
102
}
330
47
100
AcDbScale
 70
     0
300
10:1
140
10.0
141
1.0
290
     0
  0
SCALE
  5
58
102
{ACAD_REACTORS
330
47
102
}
330
47
100
AcDbScale
 70
     0
300
100:1
140
100.0
141
1.0
290
     0
  0
SCALE
  5
59
102
{ACAD_REACTORS
330
47
102
}
330
47
100
AcDbScale
 70
     0
300
1/128" = 1'-0"
140
0.0078125
141
12.0
290
     0
  0
SCALE
  5
5A
102
{ACAD_REACTORS
330
47
102
}
330
47
100
AcDbScale
 70
     0
300
1/64" = 1'-0"
140
0.015625
141
12.0
290
     0
  0
SCALE
  5
5B
102
{ACAD_REACTORS
330
47
102
}
330
47
100
AcDbScale
 70
     0
300
1/32" = 1'-0"
140
0.03125
141
12.0
290
     0
  0
SCALE
  5
5C
102
{ACAD_REACTORS
330
47
102
}
330
47
100
AcDbScale
 70
     0
300
1/16" = 1'-0"
140
0.0625
141
12.0
290
     0
  0
SCALE
  5
5D
102
{ACAD_REACTORS
330
47
102
}
330
47
100
AcDbScale
 70
     0
300
3/32" = 1'-0"
140
0.09375
141
12.0
290
     0
  0
SCALE
  5
5E
102
{ACAD_REACTORS
330
47
102
}
330
47
100
AcDbScale
 70
     0
300
1/8" = 1'-0"
140
0.125
141
12.0
290
     0
  0
SCALE
  5
5F
102
{ACAD_REACTORS
330
47
102
}
330
47
100
AcDbScale
 70
     0
300
3/16" = 1'-0"
140
0.1875
141
12.0
290
     0
  0
SCALE
  5
60
102
{ACAD_REACTORS
330
47
102
}
330
47
100
AcDbScale
 70
     0
300
1/4" = 1'-0"
140
0.25
141
12.0
290
     0
  0
SCALE
  5
61
102
{ACAD_REACTORS
330
47
102
}
330
47
100
AcDbScale
 70
     0
300
3/8" = 1'-0"
140
0.375
141
12.0
290
     0
  0
SCALE
  5
62
102
{ACAD_REACTORS
330
47
102
}
330
47
100
AcDbScale
 70
     0
300
1/2" = 1'-0"
140
0.5
141
12.0
290
     0
  0
SCALE
  5
63
102
{ACAD_REACTORS
330
47
102
}
330
47
100
AcDbScale
 70
     0
300
3/4" = 1'-0"
140
0.75
141
12.0
290
     0
  0
SCALE
  5
64
102
{ACAD_REACTORS
330
47
102
}
330
47
100
AcDbScale
 70
     0
300
1" = 1'-0"
140
1.0
141
12.0
290
     0
  0
SCALE
  5
65
102
{ACAD_REACTORS
330
47
102
}
330
47
100
AcDbScale
 70
     0
300
1-1/2" = 1'-0"
140
1.5
141
12.0
290
     0
  0
SCALE
  5
66
102
{ACAD_REACTORS
330
47
102
}
330
47
100
AcDbScale
 70
     0
300
3" = 1'-0"
140
3.0
141
12.0
290
     0
  0
SCALE
  5
67
102
{ACAD_REACTORS
330
47
102
}
330
47
100
AcDbScale
 70
     0
300
6" = 1'-0"
140
6.0
141
12.0
290
     0
  0
SCALE
  5
68
102
{ACAD_REACTORS
330
47
102
}
330
47
100
AcDbScale
 70
     0
300
1'-0" = 1'-0"
140
12.0
141
12.0
290
     0
  0
ENDSEC
  0
EOF
